osu file format v14

[General]
AudioFilename: audio.mp3
AudioLeadIn: 0
PreviewTime: 80030
Countdown: 0
SampleSet: Soft
StackLeniency: 0.4
Mode: 0
LetterboxInBreaks: 0
WidescreenStoryboard: 1

[Editor]
Bookmarks: 240,8668,19830,32230,43430,54630,70630,80430,97730,100530,103330,114530,122930,125730
DistanceSpacing: 0.2
BeatDivisor: 4
GridSize: 32
TimelineZoom: 1.6

[Metadata]
Title:7thSense
TitleUnicode:7thSense
Artist:Sakuzyo
ArtistUnicode:削除
Creator:Shyotamaze
Version:Ellyu's ADVANCED
Source:maimai PiNK
Tags:artcore Ellyu handsome muscle Deppyforce reAdvent
BeatmapID:2136328
BeatmapSetID:704758

[Difficulty]
HPDrainRate:5
CircleSize:3.7
OverallDifficulty:5.5
ApproachRate:7.5
SliderMultiplier:1.4
SliderTickRate:1

[Events]
//Background and Video events
0,0,"Sense.jpg",0,0
//Break Periods
2,103530,108105
2,109330,113705
//Storyboard Layer 0 (Background)
//Storyboard Layer 1 (Fail)
//Storyboard Layer 2 (Pass)
//Storyboard Layer 3 (Foreground)
//Storyboard Layer 4 (Overlay)
//Storyboard Sound Samples

[TimingPoints]
240,400,7,2,2,60,1,0
8668,400,7,2,1,60,1,0
19430,400,7,2,1,60,1,0
19830,400,7,2,1,70,1,0
19830,-100,7,2,1,70,0,0
32230,400,7,2,2,70,1,0
32230,-90.9090909090909,7,2,4,70,0,0
32430,-90.9090909090909,7,2,1,70,0,0
33030,-90.9090909090909,7,2,1,70,0,0
43430,-90.9090909090909,7,2,4,70,0,0
43630,-90.9090909090909,7,2,1,70,0,0
44230,-90.9090909090909,7,2,1,70,0,0
54630,400,5,2,4,70,1,0
54630,-83.3333333333333,5,2,4,70,0,0
54830,-83.3333333333333,5,2,1,70,0,0
56230,-83.3333333333333,5,2,1,70,0,0
56630,-83.3333333333333,5,2,4,70,0,0
56830,-83.3333333333333,5,2,1,70,0,0
58230,-83.3333333333333,5,2,1,70,0,0
58630,-83.3333333333333,5,2,4,70,0,0
58830,-83.3333333333333,5,2,1,70,0,0
60230,-83.3333333333333,5,2,1,70,0,0
62630,-83.3333333333333,5,2,4,70,0,0
62830,-83.3333333333333,5,2,1,70,0,0
64230,-83.3333333333333,5,2,1,70,0,0
64630,-83.3333333333333,5,2,4,70,0,0
64830,-83.3333333333333,5,2,1,70,0,0
66230,-83.3333333333333,5,2,1,70,0,0
66630,-83.3333333333333,5,2,4,70,0,0
66830,-83.3333333333333,5,2,1,70,0,0
68230,-83.3333333333333,5,2,1,70,0,0
70630,400,6,2,1,60,1,0
70630,-100,3,2,1,60,0,0
79030,400,7,2,3,60,1,0
79730,-100,7,2,1,60,0,0
80430,400,7,2,1,80,1,1
80430,-83.3333333333333,7,2,1,80,0,1
97730,400,7,2,1,70,1,0
97730,-83.3333333333333,7,2,1,70,0,0
98930,-133.333333333333,7,2,1,70,0,0
100530,-83.3333333333333,7,2,1,70,0,0
108930,-100,7,2,1,70,0,0
122930,-83.3333333333333,7,2,1,70,0,0

[Colours]
Combo1 : 234,72,72
Combo2 : 187,205,150
Combo3 : 131,171,190
Combo4 : 255,232,182
Combo5 : 244,136,136

[HitObjects]
130,104,8668,5,6,0:0:0:0:
169,178,8868,2,0,L|156:258,1,70,2|0,0:0|0:0,0:0:0:0:
116,320,9268,2,0,B|155:336|188:323|188:323|222:308|281:336,1,140,2|2,0:0|0:0,0:0:0:0:
366,201,10068,6,0,P|391:188|449:193,1,70,2|0,0:0|0:0,0:0:0:0:
487,252,10468,2,0,P|461:264|404:260,1,70,2|0,0:0|0:0,0:0:0:0:
341,295,10868,1,2,0:0:0:0:
341,295,11068,1,2,0:0:0:0:
274,140,11468,5,2,0:0:0:0:
274,140,11668,2,0,L|266:58,1,70,2|0,0:0|0:0,0:0:0:0:
191,32,12068,2,0,P|134:19|57:58,1,140,2|2,0:0|0:0,0:0:0:0:
53,207,12868,38,0,P|86:203|117:181,1,70,2|0,0:0|0:0,0:0:0:0:
57,121,13268,2,0,L|62:51,1,70,2|0,0:0|0:0,0:0:0:0:
140,20,13668,1,2,0:0:0:0:
140,20,13868,1,2,0:0:0:0:
323,85,14268,5,6,0:0:0:0:
323,85,14468,2,0,P|349:134|343:170,1,70,2|0,0:0|0:0,0:0:0:0:
415,197,14868,2,0,P|380:224|349:328,1,140,2|2,0:0|0:0,0:0:0:0:
184,352,15668,6,0,L|111:350,1,70,2|0,0:0|0:0,0:0:0:0:
59,286,16068,2,0,B|54:253|54:253|68:202,1,70,2|0,0:0|0:0,0:0:0:0:
138,265,16468,1,2,0:0:0:0:
138,265,16668,1,2,0:0:0:0:
310,176,17068,37,2,0:0:0:0:
310,176,17268,2,0,P|298:128|270:103,1,70,2|0,0:0|0:0,0:0:0:0:
208,77,17668,2,0,L|367:59,1,140,2|2,0:0|0:0,0:0:0:0:
467,216,18468,6,0,P|479:269|468:289,1,70,2|0,0:0|0:0,0:0:0:0:
414,346,18868,2,0,L|332:342,1,70,2|0,0:0|0:0,0:0:0:0:
269,303,19268,1,2,0:0:0:0:
196,259,19430,2,0,L|201:207,3,35,2|2|2|2,0:0|0:0|0:0|0:0,0:0:0:0:
144,213,19830,6,0,P|134:177|144:133,1,70,6|0,0:0|0:0,0:0:0:0:
68,85,20230,1,0,0:0:0:0:
142,32,20430,2,0,B|185:27|185:27|229:45|229:45|284:38,1,140,0|2,0:0|0:0,0:0:0:0:
283,34,20930,1,2,0:0:0:0:
288,29,21030,37,0,0:0:0:0:
401,89,21230,2,0,P|403:130|388:173,1,70,2|0,0:0|0:0,0:0:0:0:
303,222,21630,2,0,L|206:237,2,70,2|2|2,0:0|0:0|0:0,0:0:0:0:
397,282,22230,1,2,0:0:0:0:
311,353,22430,1,2,0:0:0:0:
311,353,22530,1,2,0:0:0:0:
311,353,22630,6,0,P|248:312|163:316,1,140,2|0,0:0|0:0,0:0:0:0:
80,268,23230,2,0,P|147:233|186:158,1,140,2|2,0:0|0:0,0:0:0:0:
361,48,24030,2,0,P|399:54|445:66,1,70,2|0,0:0|0:0,0:0:0:0:
476,163,24430,2,0,B|423:163|385:175,1,70,2|0,0:0|0:0,0:0:0:0:
301,207,24830,1,2,0:0:0:0:
259,120,25030,1,2,0:0:0:0:
172,87,25230,1,2,0:0:0:0:
172,87,25330,1,2,0:0:0:0:
172,87,25430,6,0,P|162:143|160:245,1,140,2|0,0:0|0:0,0:0:0:0:
119,331,26030,2,0,P|165:316|213:314,1,70,0|0,0:0|0:0,0:0:0:0:
285,355,26430,1,2,0:0:0:0:
366,309,26630,1,2,0:0:0:0:
440,241,26830,38,0,P|361:210|297:242,1,140,2|0,0:0|0:0,0:0:0:0:
162,162,27630,1,2,0:0:0:0:
162,162,27830,2,0,P|128:187|98:202,1,70,2|0,0:0|0:0,0:0:0:0:
130,58,28230,6,0,B|176:50|200:62|200:62|225:78|277:73,1,140,2|0,0:0|0:0,0:0:0:0:
371,30,28830,2,0,P|446:38|461:33,1,70,2|0,0:0|0:0,0:0:0:0:
490,142,29230,2,0,P|433:144|413:153,1,70,2|0,0:0|0:0,0:0:0:0:
320,199,29630,6,0,L|324:351,2,140,2|2|2,0:0|0:0|0:0,0:0:0:0:
219,177,30630,2,0,P|185:185|143:174,1,70,2|0,0:0|0:0,0:0:0:0:
100,209,32230,38,0,L|97:128,1,77.0000023498536,6|2,1:2|0:0,0:0:0:0:
62,47,32630,1,0,3:2:0:0:
62,47,32730,2,0,P|110:42|161:67,1,77.0000023498536,2|0,0:0|0:0,0:0:0:0:
171,74,33030,2,0,B|207:88|207:88|248:84,1,77.0000023498536,2|0,3:2|0:0,0:0:0:0:
347,34,33430,1,0,3:2:0:0:
347,34,33530,2,0,L|346:125,1,77.0000023498536,2|2,0:0|0:0,0:0:0:0:
365,149,33830,6,0,B|410:171|466:144,1,77.0000023498536,0|2,3:2|0:0,0:0:0:0:
511,72,34230,1,0,3:2:0:0:
511,72,34330,1,2,0:0:0:0:
503,233,34630,2,0,B|512:267|512:267|506:317|506:317|513:346,2,115.50000352478,2|2|2,3:2|0:0|0:0,0:0:0:0:
404,230,35430,5,0,3:2:0:0:
404,230,35530,2,0,P|357:241|293:236,1,77.0000023498536,2|0,0:0|0:0,0:0:0:0:
288,278,35830,2,0,P|229:260|196:260,1,77.0000023498536,2|0,3:2|0:0,0:0:0:0:
160,263,36130,2,0,L|163:216,1,38.5000011749268,2|0,0:0|3:2,0:0:0:0:
80,243,36330,2,0,L|83:196,1,38.5000011749268,2|0,0:0|0:0,0:0:0:0:
0,225,36530,1,2,0:0:0:0:
0,225,36630,2,0,L|2:132,1,77.0000023498536,0|2,3:2|0:0,0:0:0:0:
112,38,37030,37,0,3:2:0:0:
112,38,37130,2,0,L|108:145,1,77.0000023498536,2|0,0:0|0:0,0:0:0:0:
145,137,37430,2,0,P|196:154|276:132,2,115.50000352478,2|2|2,3:2|0:0|0:0,0:0:0:0:
207,43,38230,1,0,3:2:0:0:
207,43,38330,1,2,0:0:0:0:
376,66,38630,6,0,B|413:50|413:50|464:59,1,77.0000023498536,2|0,3:2|0:0,0:0:0:0:
491,60,38930,2,0,L|497:110,1,38.5000011749268,2|0,0:0|3:2,0:0:0:0:
426,140,39130,2,0,L|432:190,1,38.5000011749268,2|0,0:0|0:0,0:0:0:0:
456,257,39330,1,2,0:0:0:0:
456,257,39430,2,0,B|418:263|418:263|383:246,1,77.0000023498536,0|2,3:2|0:0,0:0:0:0:
281,302,39830,1,0,3:2:0:0:
281,302,39930,2,0,P|226:296|193:312,1,77.0000023498536,2|0,0:0|0:0,0:0:0:0:
163,278,40230,6,0,P|122:293|27:301,2,115.50000352478,2|2|2,3:2|0:0|0:0,0:0:0:0:
208,176,41030,1,0,3:2:0:0:
208,176,41130,2,0,L|341:183,2,115.50000352478,2|2|2,0:0|3:2|0:0,0:0:0:0:
171,149,41830,1,0,3:2:0:0:
162,139,41930,2,0,L|156:88,1,38.5000011749268,2|0,0:0|0:0,0:0:0:0:
178,63,42130,2,0,L|179:6,1,38.5000011749268,2|0,0:0|3:2,0:0:0:0:
355,49,43430,38,0,L|340:153,1,77.0000023498536,6|2,1:2|0:0,0:0:0:0:
306,225,43830,1,2,3:2:0:0:
306,225,43930,2,0,P|350:233|396:211,1,77.0000023498536,2|2,0:0|0:0,0:0:0:0:
418,240,44230,2,0,P|464:219|504:224,1,77.0000023498536,2|0,3:2|0:0,0:0:0:0:
492,325,44630,1,0,3:2:0:0:
492,325,44730,2,0,L|390:338,1,77.0000023498536,2|2,0:0|0:0,0:0:0:0:
385,364,45030,6,0,L|289:349,1,77.0000023498536,0|2,3:2|0:0,0:0:0:0:
211,302,45430,2,0,L|223:252,3,38.5000011749268,2|2|0|0,3:2|0:0|0:0|0:0,0:0:0:0:
196,229,45830,2,0,L|186:141,1,77.0000023498536,2|0,3:2|3:2,0:0:0:0:
229,143,46130,2,0,L|244:47,1,77.0000023498536,2|0,0:0|0:0,0:0:0:0:
217,30,46430,1,2,0:0:0:0:
104,28,46630,5,2,3:2:0:0:
104,28,46730,1,2,0:0:0:0:
41,182,47030,2,0,B|30:222|30:222|35:279,1,77.0000023498536,2|0,3:2|0:0,0:0:0:0:
66,282,47330,2,0,L|130:277,1,38.5000011749268,2|0,0:0|3:2,0:0:0:0:
90,357,47530,2,0,L|156:370,1,38.5000011749268,2|0,0:0|0:0,0:0:0:0:
206,339,47730,1,2,0:0:0:0:
206,339,47830,2,0,P|247:331|291:341,1,77.0000023498536,0|2,3:2|0:0,0:0:0:0:
393,359,48230,38,0,L|436:351,3,38.5000011749268,2|2|0|0,3:2|0:0|0:0|0:0,0:0:0:0:
456,338,48630,2,0,L|449:298,1,38.5000011749268,2|0,3:2|0:0,0:0:0:0:
380,270,48830,2,0,L|388:231,1,38.5000011749268,2|0,3:2|0:0,0:0:0:0:
435,172,49030,2,0,L|530:182,1,77.0000023498536,0|2,3:2|0:0,0:0:0:0:
492,43,49430,1,2,3:2:0:0:
492,43,49530,2,0,P|435:13|403:16,1,77.0000023498536,2|2,0:0|0:0,0:0:0:0:
385,33,49830,6,0,L|296:42,1,77.0000023498536,2|0,3:2|0:0,0:0:0:0:
268,25,50130,2,0,P|231:38|215:38,1,38.5000011749268,2|0,0:0|3:2,0:0:0:0:
210,114,50330,2,0,P|164:96|160:92,1,38.5000011749268,2|0,0:0|0:0,0:0:0:0:
100,65,50530,1,2,0:0:0:0:
100,65,50630,2,0,L|90:167,1,77.0000023498536,0|2,3:2|0:0,0:0:0:0:
12,240,51030,1,2,3:2:0:0:
12,240,51130,2,0,L|2:342,1,77.0000023498536,2|2,0:0|0:0,0:0:0:0:
39,336,51430,6,0,L|43:381,3,38.5000011749268,2|0|2|2,3:2|0:0|3:2|0:0,0:0:0:0:
91,317,51830,2,0,P|181:315|193:322,1,77.0000023498536,0|2,3:2|0:0,0:0:0:0:
271,340,52230,1,2,3:2:0:0:
271,340,52330,1,2,0:0:0:0:
351,278,52530,2,0,L|344:183,1,77.0000023498536,2|0,0:0|0:0,0:0:0:0:
353,183,52830,1,0,0:0:0:0:
361,165,52930,1,2,0:0:0:0:
369,147,53030,38,0,L|417:147,3,38.5000011749268,0|2|0|2,3:2|0:0|0:0|0:0,0:0:0:0:
455,130,53430,1,0,3:2:0:0:
274,44,54630,38,0,L|175:50,1,83.9999974365235,6|0,1:2|0:0,0:0:0:0:
170,41,54930,1,4,3:2:0:0:
51,158,55230,2,0,L|150:164,1,83.9999974365235,4|0,3:2|0:0,0:0:0:0:
155,155,55530,1,4,3:2:0:0:
310,250,55830,2,0,L|211:256,1,83.9999974365235,4|4,3:2|3:2,0:0:0:0:
105,330,56230,38,0,L|43:324,3,41.9999987182618,2|2|2|2,0:0|0:0|0:0|0:0,0:0:0:0:
34,292,56630,38,0,P|30:245|48:207,1,83.9999974365235,6|0,1:2|0:0,0:0:0:0:
62,201,56930,1,4,3:2:0:0:
114,78,57230,2,0,P|156:98|180:132,1,83.9999974365235,4|0,3:2|0:0,0:0:0:0:
178,147,57530,1,4,3:2:0:0:
267,243,57830,2,0,P|228:269|186:273,1,83.9999974365235,4|4,3:2|3:2,0:0:0:0:
68,185,58230,38,0,L|62:132,1,41.9999987182618,2|0,0:0|0:0,0:0:0:0:
114,78,58430,2,0,L|123:25,1,41.9999987182618,2|0,0:0|0:0,0:0:0:0:
213,38,58630,6,0,B|239:46|239:46|307:29,1,83.9999974365235,6|0,1:2|0:0,0:0:0:0:
310,45,58930,2,0,P|357:39|409:50,1,83.9999974365235,4|0,3:2|0:0,0:0:0:0:
409,57,59230,1,4,3:2:0:0:
459,134,59430,1,4,3:2:0:0:
402,206,59630,1,4,3:2:0:0:
457,279,59830,2,0,P|456:331|440:365,1,83.9999974365235,4|4,3:2|3:2,0:0:0:0:
339,341,60230,22,0,L|240:350,1,83.9999974365235,2|2,3:2|3:2,0:0:0:0:
154,270,60630,54,0,L|19:255,2,125.999996154785,6|6|4,3:2|3:2|3:2,0:0:0:0:
196,139,61530,2,0,L|96:127,1,83.9999974365235,4|0,3:2|0:0,0:0:0:0:
107,99,61830,2,0,L|-15:83,1,83.9999974365235,4|4,3:2|3:2,0:0:0:0:
26,214,62230,22,0,L|29:275,3,41.9999987182618,2|2|2|2,0:0|0:0|0:0|0:0,0:0:0:0:
26,296,62630,22,0,P|83:333|110:330,1,83.9999974365235,6|0,1:2|0:0,0:0:0:0:
116,327,62930,1,4,3:2:0:0:
245,234,63230,2,0,L|254:345,1,83.9999974365235,4|0,3:2|0:0,0:0:0:0:
254,338,63530,1,4,3:2:0:0:
370,200,63830,2,0,P|427:163|454:166,1,83.9999974365235,4|4,3:2|3:2,0:0:0:0:
448,308,64230,54,0,L|451:357,3,41.9999987182618,2|2|2|0,0:0|0:0|0:0|0:0,0:0:0:0:
467,288,64630,22,0,L|473:192,1,83.9999974365235,6|0,1:2|0:0,0:0:0:0:
456,183,64930,1,0,0:0:0:0:
440,163,65030,2,0,L|429:60,1,83.9999974365235,4|4,3:2|3:2,0:0:0:0:
323,19,65430,2,0,P|271:19|234:47,1,83.9999974365235,4|0,3:2|0:0,0:0:0:0:
182,112,65830,1,4,3:2:0:0:
245,191,66030,1,4,3:2:0:0:
144,212,66230,6,0,L|95:213,1,41.9999987182618,2|0,0:0|0:0,0:0:0:0:
110,291,66430,2,0,L|152:291,1,41.9999987182618,2|0,0:0|0:0,0:0:0:0:
232,293,66630,37,6,1:2:0:0:
326,236,66830,2,0,L|358:233,4,20.9999993591309,4|0|4|0|4,3:2|0:0|3:2|0:0|3:2,0:0:0:0:
322,348,67230,1,4,3:2:0:0:
413,298,67430,2,0,L|475:300,2,55.9999982910157,4|4|4,3:2|3:2|3:2,0:0:0:0:
389,269,67830,2,0,P|378:216|396:178,1,83.9999974365235,4|4,3:2|3:2,0:0:0:0:
479,139,68230,38,0,P|489:89|475:55,1,83.9999974365235,2|2,0:0|0:0,0:0:0:0:
347,27,68630,5,2,3:2:0:0:
244,150,68930,1,2,3:2:0:0:
403,97,69230,1,0,3:2:0:0:
254,50,69530,1,0,3:2:0:0:
340,191,69830,1,0,3:2:0:0:
340,191,70630,38,0,P|283:219|329:282,1,140,6|0,0:0|0:0,0:0:0:0:
357,356,71230,2,0,B|315:372|285:363|285:363|251:351|219:364,1,140,2|0,0:0|0:0,0:0:0:0:
180,271,71830,2,0,B|138:254|108:264|108:264|74:275|42:262,1,140,2|2,0:0|0:0,0:0:0:0:
38,245,72330,1,0,0:0:0:0:
30,229,72430,2,0,P|21:156|65:98,1,140,2|0,0:0|0:0,0:0:0:0:
177,129,73030,6,0,P|187:172|173:223,2,70,6|2|2,0:0|0:0|0:0,0:0:0:0:
131,33,73630,2,0,B|181:22|181:22|218:36|218:36|265:23,1,140,2|0,0:0|0:0,0:0:0:0:
330,106,74230,2,0,P|396:90|457:123,1,140,2|0,0:0|0:0,0:0:0:0:
489,223,74830,2,0,B|444:228|444:228|406:211|406:211|322:214,1,140,2|0,0:0|0:0,0:0:0:0:
330,317,75430,6,0,P|331:273|245:191,1,140,6|0,0:0|0:0,0:0:0:0:
227,294,76030,2,0,B|192:308|192:308|88:296,1,140,2|0,0:0|0:0,0:0:0:0:
57,196,76630,2,0,B|92:210|92:210|196:198,1,140,2|2,0:0|0:0,0:0:0:0:
202,183,77130,1,2,0:0:0:0:
211,168,77230,1,2,0:0:0:0:
213,63,77430,2,0,P|238:41|288:45,1,70,2|2,0:0|0:0,0:0:0:0:
369,75,77830,38,0,B|379:122|362:165|305:205|313:302|387:299|424:294|443:263|435:233|415:210,1,315,4|0,0:0|0:0,0:0:0:0:
436,205,78830,2,0,L|489:211,1,35,0|0,0:0|0:0,0:0:0:0:
506,288,79030,54,0,P|484:321|293:317,1,245,4|0,0:0|0:0,0:0:0:0:
289,311,79830,21,0,0:0:0:0:
279,296,79930,1,0,0:0:0:0:
275,278,80030,1,2,0:0:0:0:
315,79,80430,6,0,L|190:93,1,125.999996154785,6|0,0:0|0:0,0:0:0:0:
187,76,80830,2,0,P|148:58|101:63,1,83.9999974365235,10|0,0:0|0:0,0:0:0:0:
44,118,81230,1,2,0:0:0:0:
42,222,81430,1,10,0:0:0:0:
136,175,81630,1,2,0:0:0:0:
121,59,81830,38,0,P|162:64|249:39,1,125.999996154785,6|0,0:0|0:0,0:0:0:0:
261,28,82230,2,0,L|366:39,1,83.9999974365235,10|0,0:0|0:0,0:0:0:0:
444,21,82630,1,2,0:0:0:0:
476,122,82830,1,10,0:0:0:0:
436,210,83030,1,2,0:0:0:0:
506,301,83230,6,0,P|430:258|341:284,1,167.999994873047,6|10,0:0|0:0,0:0:0:0:
294,352,83830,1,2,0:0:0:0:
294,352,83930,1,2,0:0:0:0:
294,352,84030,2,0,L|187:363,1,83.9999974365235,2|10,0:0|0:0,0:0:0:0:
121,342,84430,1,0,0:0:0:0:
24,310,84630,6,0,P|54:265|175:255,1,167.999994873047,6|10,0:0|0:0,0:0:0:0:
259,248,85230,2,0,P|232:195|234:151,1,83.9999974365235,2|2,0:0|0:0,0:0:0:0:
257,82,85630,1,10,0:0:0:0:
342,33,85830,1,2,0:0:0:0:
446,92,86030,38,0,L|501:89,2,41.9999987182618,6|2|2,0:0|0:0|0:0,0:0:0:0:
368,162,86430,1,10,0:0:0:0:
368,162,86530,2,0,P|344:209|359:256,1,83.9999974365235,2|2,0:0|0:0,0:0:0:0:
362,257,86830,2,0,L|370:298,3,41.9999987182618,0|2|10|2,0:0|0:0|0:0|0:0,0:0:0:0:
360,324,87230,1,2,0:0:0:0:
236,359,87430,5,6,0:0:0:0:
215,357,87530,1,2,0:0:0:0:
194,355,87630,1,2,0:0:0:0:
173,353,87730,1,2,0:0:0:0:
152,352,87830,2,0,L|161:308,3,41.9999987182618,10|2|2|2,0:0|0:0|0:0|0:0,0:0:0:0:
109,245,88230,2,0,L|101:189,1,41.9999987182618,2|2,0:0|0:0,0:0:0:0:
160,146,88430,2,0,L|171:81,2,41.9999987182618,10|2|2,0:0|0:0|0:0,0:0:0:0:
278,101,88830,6,0,P|328:86|377:95,1,83.9999974365235,6|0,0:0|0:0,0:0:0:0:
368,79,89130,2,0,P|387:86|407:108,1,41.9999987182618,2|8,0:0|0:0,0:0:0:0:
497,202,89430,38,0,P|447:187|398:196,1,83.9999974365235,6|0,0:0|0:0,0:0:0:0:
407,180,89730,2,0,P|388:187|368:209,1,41.9999987182618,2|8,0:0|0:0,0:0:0:0:
205,272,90030,6,0,P|255:257|304:266,1,83.9999974365235,6|0,0:0|0:0,0:0:0:0:
295,250,90330,2,0,P|314:257|334:279,1,41.9999987182618,2|12,0:0|0:0,0:0:0:0:
466,357,90630,6,0,P|416:342|367:351,1,83.9999974365235,6|0,0:0|0:0,0:0:0:0:
376,335,90930,2,0,P|357:342|337:364,1,41.9999987182618,6|2,0:0|0:0,0:0:0:0:
229,360,91230,1,2,0:0:0:0:
208,355,91330,1,2,0:0:0:0:
187,350,91430,1,2,0:0:0:0:
166,345,91530,1,2,0:0:0:0:
145,341,91630,38,0,L|135:212,1,125.999996154785,6|0,0:0|0:0,0:0:0:0:
150,200,92030,2,0,P|84:176|57:181,1,83.9999974365235,10|0,0:0|0:0,0:0:0:0:
17,87,92430,1,2,0:0:0:0:
114,72,92630,1,10,0:0:0:0:
195,14,92830,1,2,0:0:0:0:
281,87,93030,6,0,L|419:80,1,125.999996154785,6|0,0:0|0:0,0:0:0:0:
427,76,93430,2,0,B|442:116|442:116|436:167,1,83.9999974365235,10|0,0:0|0:0,0:0:0:0:
343,205,93830,1,2,0:0:0:0:
318,301,94030,1,2,0:0:0:0:
419,283,94230,1,2,0:0:0:0:
437,156,94430,6,0,L|322:166,1,83.9999974365235,4|0,0:0|0:0,0:0:0:0:
332,167,94730,1,4,0:0:0:0:
171,281,95030,1,4,0:0:0:0:
340,265,95330,37,4,0:0:0:0:
162,187,95630,1,4,0:0:0:0:
259,322,95930,5,4,0:0:0:0:
243,127,96230,1,4,0:0:0:0:
86,269,96530,6,0,L|78:306,3,27.9999991455078,0|0|0|0,3:0|3:0|3:0|3:0,0:0:0:0:
64,243,96830,2,0,L|49:142,1,83.9999974365235,2|0,0:0|0:0,0:0:0:0:
40,138,97130,2,0,P|60:87|106:66,1,83.9999974365235,2|2,0:0|0:0,0:0:0:0:
108,68,97430,2,0,L|118:14,2,41.9999987182618,2|2|10,0:0|0:0|0:0,0:0:0:0:
157,89,97730,38,0,P|214:102|311:42,1,167.999994873047,6|10,0:0|0:0,0:0:0:0:
322,170,98330,2,0,L|494:154,1,167.999994873047,2|10,0:0|0:0,0:0:0:0:
468,259,98930,1,2,0:0:0:0:
476,366,99130,6,0,B|414:367|377:316|377:316|345:272|295:251|256:253|216:282|208:317,1,315.000012016297,2|0,0:0|0:0,0:0:0:0:
283,355,100530,22,0,L|377:346,1,83.9999974365235,4|0,3:2|0:0,0:0:0:0:
460,270,100930,2,0,L|366:261,1,83.9999974365235,4|0,3:2|0:0,0:0:0:0:
286,190,101330,2,0,L|380:181,1,83.9999974365235,4|0,3:2|0:0,0:0:0:0:
463,105,101730,2,0,L|369:96,1,83.9999974365235,4|0,3:2|0:0,0:0:0:0:
320,0,102130,6,0,P|275:24|246:65,1,83.9999974365235,4|0,3:2|0:0,0:0:0:0:
146,32,102530,2,0,P|147:88|160:116,1,83.9999974365235,4|0,3:2|0:0,0:0:0:0:
67,170,102930,2,0,P|105:211|137:221,1,83.9999974365235,4|0,3:2|0:0,0:0:0:0:
243,228,103330,5,6,0:0:0:0:
198,129,108930,6,0,P|255:109|262:110,1,70,2|0,0:0|0:0,0:0:0:0:
137,146,114530,6,0,P|164:197|162:231,1,70,2|0,3:2|0:0,0:0:0:0:
174,333,114930,1,8,0:0:0:0:
98,254,115130,2,0,L|243:238,1,140,0|10,3:0|0:0,0:0:0:0:
243,222,115630,1,2,0:0:0:0:
249,205,115730,37,0,0:0:0:0:
331,124,115930,2,0,P|370:146|409:148,1,70,2|0,3:2|0:0,0:0:0:0:
480,89,116330,2,0,P|485:50|470:6,2,70,8|2|2,0:0|3:2|0:0,0:0:0:0:
488,201,116930,1,10,0:0:0:0:
396,152,117130,1,2,0:0:0:0:
392,158,117230,1,2,0:0:0:0:
388,164,117330,6,0,P|350:178|305:182,1,70,2|0,3:2|0:0,0:0:0:0:
236,132,117730,1,8,0:0:0:0:
266,33,117930,2,0,P|186:14|116:29,1,140,2|10,3:2|0:0,0:0:0:0:
36,84,118530,1,0,3:0:0:0:
104,169,118730,2,0,P|108:205|138:243,1,70,2|0,3:2|0:0,0:0:0:0:
47,296,119130,2,0,P|85:325|128:330,1,70,10|0,0:0|3:0,0:0:0:0:
199,369,119530,1,0,0:0:0:0:
281,303,119730,1,10,0:0:0:0:
373,364,119930,1,2,0:0:0:0:
373,364,120030,1,2,0:0:0:0:
373,364,120130,6,0,B|401:335|401:335|391:210,1,140,2|8,3:2|0:0,0:0:0:0:
336,159,120730,2,0,P|372:142|427:144,1,70,0|0,3:0|0:0,0:0:0:0:
485,203,121130,1,10,0:0:0:0:
393,235,121330,1,2,0:0:0:0:
372,340,121530,38,0,P|304:305|224:302,1,140,2|8,3:2|0:0,0:0:0:0:
149,263,122130,1,0,3:0:0:0:
93,341,122330,2,0,P|26:347|3:340,1,70,2|10,0:0|0:0,0:0:0:0:
24,346,122930,6,0,B|12:305|12:305|20:235,1,83.9999974365235,2|0,3:2|0:0,0:0:0:0:
21,249,123230,1,0,3:0:0:0:
185,180,123530,2,0,B|197:139|197:139|189:69,1,83.9999974365235,0|0,3:0|0:0,0:0:0:0:
188,83,123830,1,0,0:0:0:0:
184,67,123930,2,0,L|73:74,1,83.9999974365235,0|0,3:0|3:0,0:0:0:0:
0,146,124330,6,0,P|63:174|95:165,1,83.9999974365235,0|0,3:0|0:0,0:0:0:0:
146,274,124730,2,0,P|202:265|253:240,1,83.9999974365235,0|0,3:0|0:0,0:0:0:0:
297,170,125130,1,0,3:0:0:0:
384,217,125330,1,2,3:2:0:0:
387,237,125430,1,2,0:0:0:0:
390,257,125530,1,2,3:2:0:0:
393,277,125630,1,2,0:0:0:0:
