osu file format v14

[General]
AudioFilename: audio.mp3
AudioLeadIn: 0
PreviewTime: 80030
Countdown: 0
SampleSet: Soft
StackLeniency: 0.4
Mode: 0
LetterboxInBreaks: 0
WidescreenStoryboard: 1

[Editor]
Bookmarks: 240,8668,19830,32230,43430,54630,70630,80430,97730,100530,103330,114530,122930,125730
DistanceSpacing: 1.2
BeatDivisor: 4
GridSize: 32
TimelineZoom: 1.6

[Metadata]
Title:7thSense
TitleUnicode:7thSense
Artist:Sakuzyo
ArtistUnicode:削除
Creator:Shyotamaze
Version:EASY
Source:maimai PiNK
Tags:artcore Ellyu handsome muscle Deppyforce reAdvent
BeatmapID:2188284
BeatmapSetID:704758

[Difficulty]
HPDrainRate:2
CircleSize:2
OverallDifficulty:2
ApproachRate:3
SliderMultiplier:0.8
SliderTickRate:1

[Events]
//Background and Video events
0,0,"Sense.jpg",0,0
//Break Periods
2,103530,113090
//Storyboard Layer 0 (Background)
//Storyboard Layer 1 (Fail)
//Storyboard Layer 2 (Pass)
//Storyboard Layer 3 (Foreground)
//Storyboard Layer 4 (Overlay)
//Storyboard Sound Samples

[TimingPoints]
240,400,7,2,2,60,1,0
8668,400,7,2,1,60,1,0
19430,400,7,2,1,60,1,0
19830,400,7,2,1,70,1,0
19830,-100,7,2,1,70,0,0
32230,400,7,2,4,70,1,0
32630,-100,7,2,1,70,0,0
43430,-100,7,2,4,70,0,0
43830,-100,7,2,1,70,0,0
54630,400,5,2,4,70,1,0
54930,-100,5,2,1,70,0,0
56630,-100,5,2,4,70,0,0
56930,-100,5,2,1,70,0,0
58630,-100,5,2,4,70,0,0
58930,-100,5,2,1,70,0,0
62630,-100,5,2,4,70,0,0
62930,-100,5,2,1,70,0,0
64630,-100,5,2,4,70,0,0
65030,-100,5,2,1,70,0,0
66630,-100,5,2,4,70,0,0
67030,-100,5,2,1,70,0,0
70630,400,6,2,1,60,1,0
79030,400,7,2,3,60,1,0
80430,400,7,2,1,80,1,1
80430,-100,7,2,1,80,0,1
97730,400,7,2,1,70,1,0

[Colours]
Combo1 : 234,72,72
Combo2 : 187,205,150
Combo3 : 131,171,190
Combo4 : 255,232,182
Combo5 : 244,136,136

[HitObjects]
192,96,8668,6,0,B|271:108|271:108|309:84,1,120,6|2,0:0|0:0,0:0:0:0:
381,28,9668,2,0,L|464:40,1,80,2|2,0:0|0:0,0:0:0:0:
473,134,10468,2,0,L|393:122,1,80,2|2,0:0|0:0,0:0:0:0:
320,246,11468,6,0,B|241:258|241:258|203:234,1,120,2|2,0:0|0:0,0:0:0:0:
131,178,12468,2,0,L|48:190,1,80,2|2,0:0|0:0,0:0:0:0:
39,284,13268,2,0,L|119:272,1,80,2|2,0:0|0:0,0:0:0:0:
237,352,14268,6,0,L|355:334,1,120,6|2,0:0|0:0,0:0:0:0:
415,258,15268,2,0,L|403:178,1,80,2|2,0:0|0:0,0:0:0:0:
308,166,16068,2,0,L|320:246,1,80,2|2,0:0|0:0,0:0:0:0:
223,352,17068,38,0,L|105:334,1,120,2|2,0:0|0:0,0:0:0:0:
45,258,18068,2,0,L|57:178,1,80,2|2,0:0|0:0,0:0:0:0:
152,166,18868,2,0,L|140:246,1,80,2|2,0:0|0:0,0:0:0:0:
246,153,19830,6,0,P|221:100|170:71,1,120,6|0,0:0|0:0,0:0:0:0:
86,24,20830,2,0,P|73:62|78:102,1,80,2|2,0:0|0:0,0:0:0:0:
42,191,21630,2,0,P|101:196|152:166,1,120,2|2,0:0|0:0,0:0:0:0:
170,71,22630,6,0,P|221:100|246:153,1,120,2|2,0:0|0:0,0:0:0:0:
287,238,23630,2,0,P|249:247|210:240,1,80,2|2,0:0|0:0,0:0:0:0:
118,273,24430,2,0,P|118:214|152:166,1,120,2|2,0:0|0:0,0:0:0:0:
246,153,25430,38,0,P|221:100|170:71,1,120,2|0,0:0|0:0,0:0:0:0:
152,166,26430,1,2,0:0:0:0:
210,240,26830,2,0,P|269:245|320:215,1,120,2|0,0:0|0:0,0:0:0:0:
336,120,27830,1,2,0:0:0:0:
417,69,28230,6,0,P|430:126|408:181,1,120,2|2,0:0|0:0,0:0:0:0:
320,215,29230,2,0,P|284:201|256:172,1,80,2|2,0:0|0:0,0:0:0:0:
336,120,30030,1,2,0:0:0:0:
408,181,30430,2,0,P|413:200|414:220,1,40,2|2,0:0|0:0,0:0:0:0:
415,133,32230,6,0,L|337:120,1,80,6|0,1:2|3:2,0:0:0:0:
256,170,33030,2,0,L|242:248,1,80,2|0,3:2|3:2,0:0:0:0:
295,329,33830,2,0,L|373:342,1,80,0|0,3:2|3:2,0:0:0:0:
455,291,34630,2,0,L|468:212,1,80,2|0,3:2|3:2,0:0:0:0:
415,133,35430,37,0,3:2:0:0:
350,202,35830,2,0,L|271:188,1,80,2|0,3:2|3:2,0:0:0:0:
243,96,36630,2,0,L|294:34,1,80,0|0,3:2|3:2,0:0:0:0:
388,58,37430,2,0,L|415:133,1,80,2|0,3:2|3:2,0:0:0:0:
443,224,38230,1,0,3:2:0:0:
350,202,38630,6,0,L|271:188,1,80,2|0,3:2|3:2,0:0:0:0:
205,256,39430,2,0,L|232:331,1,80,0|0,3:2|3:2,0:0:0:0:
326,355,40230,2,0,L|377:293,2,80,2|0|0,3:2|3:2|3:2,0:0:0:0:
232,331,41430,5,2,3:2:0:0:
139,355,41830,1,0,3:2:0:0:
45,331,42230,2,0,B|59:295|55:253|55:253|94:264|134:257,1,160,0|0,3:2|3:2,0:0:0:0:
228,234,43430,38,0,L|241:156,1,80,6|2,1:2|3:2,0:0:0:0:
181,79,44230,2,0,L|103:66,1,80,2|0,3:2|3:2,0:0:0:0:
8,90,45030,2,0,L|-5:169,1,80,0|2,3:2|3:2,0:0:0:0:
56,244,45830,2,0,L|134:257,1,80,2|0,3:2|3:2,0:0:0:0:
228,233,46630,5,2,3:2:0:0:
159,168,47030,2,0,L|172:89,1,80,2|0,3:2|3:2,0:0:0:0:
265,61,47830,2,0,L|326:112,1,80,0|2,3:2|3:2,0:0:0:0:
303,206,48630,2,0,L|227:233,1,80,2|0,3:2|3:2,0:0:0:0:
135,257,49430,1,2,3:2:0:0:
159,168,49830,6,0,L|172:89,1,80,2|0,3:2|3:2,0:0:0:0:
105,23,50630,2,0,L|29:50,1,80,0|2,3:2|3:2,0:0:0:0:
6,144,51430,2,0,L|67:195,2,80,2|0|2,3:2|3:2|3:2,0:0:0:0:
30,50,52630,37,2,3:2:0:0:
107,105,53030,1,0,3:2:0:0:
184,160,53430,2,0,B|197:196|227:225|227:225|190:242|164:274,1,160,0|2,3:2|3:2,0:0:0:0:
71,293,54630,38,0,L|11:282,2,60,6|4|4,1:2|3:2|3:2,0:0:0:0:
34,148,55830,1,4,3:2:0:0:
188,260,56630,6,0,L|247:249,2,60,6|4|4,1:2|3:2|3:2,0:0:0:0:
225,115,57830,1,4,3:2:0:0:
398,197,58630,54,0,L|338:186,2,60,6|4|4,1:2|3:2|3:2,0:0:0:0:
361,52,59830,2,0,L|282:38,1,80,4|2,3:2|3:2,0:0:0:0:
225,115,60630,6,0,B|165:124,2,60,6|6|4,3:2|3:2|3:2,0:0:0:0:
188,260,61830,2,0,L|109:273,1,80,4|2,3:2|0:0,0:0:0:0:
45,202,62630,54,0,B|34:143,2,60,6|4|4,1:2|3:2|3:2,0:0:0:0:
166,124,63830,1,4,3:2:0:0:
205,311,64630,6,0,B|283:324,1,80,6|4,1:2|3:2,0:0:0:0:
377,301,65430,2,0,L|455:314,1,80,4|4,3:2|3:2,0:0:0:0:
318,179,66630,54,0,L|278:171,2,40,6|4|4,1:2|3:2|3:2,0:0:0:0:
410,153,67430,2,0,B|488:168,1,80,4|4,3:2|3:2,0:0:0:0:
338,42,68630,38,0,B|413:15|413:15|450:29,2,120,2|0|0,3:2|3:2|3:2,0:0:0:0:
305,231,70630,6,0,P|353:265|411:277,2,120,6|2|2,0:0|0:0|0:0,0:0:0:0:
412,127,72430,1,2,0:0:0:0:
268,86,73030,38,0,P|213:110|174:155,2,120,6|2|2,0:0|0:0|0:0,0:0:0:0:
305,231,74830,1,2,0:0:0:0:
412,127,75430,6,0,P|417:67|398:11,2,120,6|2|2,0:0|0:0|0:0,0:0:0:0:
383,220,77030,2,0,P|343:220|305:230,1,80,2|2,0:0|0:0,0:0:0:0:
275,322,77830,6,0,P|217:271|216:193,1,160,4|0,0:0|0:0,0:0:0:0:
292,134,79030,22,0,B|259:86|204:95|202:98|201:100|146:109|113:62,1,200,4|2,0:0|0:0,0:0:0:0:
31,20,80430,6,0,L|16:98,1,80,6|10,0:0|0:0,0:0:0:0:
0,195,81230,1,2,0:0:0:0:
96,301,81830,2,0,L|110:222,1,80,6|10,0:0|0:0,0:0:0:0:
127,126,82630,1,2,0:0:0:0:
251,76,83230,6,0,L|237:154,1,80,6|10,0:0|0:0,0:0:0:0:
328,274,84230,1,10,0:0:0:0:
347,182,84630,2,0,L|361:103,1,80,6|10,0:0|0:0,0:0:0:0:
381,9,85430,1,2,0:0:0:0:
471,131,86030,6,0,L|457:210,1,80,6|10,0:0|0:0,0:0:0:0:
328,274,87030,1,10,0:0:0:0:
347,182,87430,2,0,L|361:103,1,80,6|10,0:0|0:0,0:0:0:0:
223,59,88430,1,10,0:0:0:0:
237,154,88830,38,0,B|158:140|158:140|124:160,1,120,6|6,0:0|0:0,0:0:0:0:
22,263,90030,2,0,B|100:276|100:276|134:256,1,120,6|6,0:0|0:0,0:0:0:0:
237,154,91230,1,2,0:0:0:0:
231,249,91630,6,0,L|309:264,1,80,6|10,0:0|0:0,0:0:0:0:
406,280,92430,1,2,0:0:0:0:
512,184,93030,2,0,L|433:170,1,80,6|10,0:0|0:0,0:0:0:0:
337,153,93830,1,2,0:0:0:0:
287,30,94430,6,0,B|365:43|365:43|399:23,1,120,4|4,0:0|0:0,0:0:0:0:
337,153,95630,2,0,B|259:140|259:140|225:160,1,120,4|4,0:0|0:0,0:0:0:0:
287,30,96830,1,2,0:0:0:0:
494,90,97730,37,6,0:0:0:0:
512,184,98130,1,10,0:0:0:0:
406,280,98730,1,10,0:0:0:0:
310,284,99130,2,0,L|152:253,1,160,2|2,0:0|0:0,0:0:0:0:
257,155,100530,38,0,L|272:76,1,80,4|4,3:2|3:2,0:0:0:0:
202,10,101330,2,0,L|126:35,1,80,4|4,3:2|3:2,0:0:0:0:
105,130,102130,2,0,L|165:182,1,80,4|4,3:2|3:2,0:0:0:0:
257,155,102930,1,4,3:2:0:0:
235,248,103330,37,6,0:0:0:0:
254,342,114530,6,0,L|372:321,1,120,2|0,3:2|3:0,0:0:0:0:
444,258,115530,1,10,0:0:0:0:
354,227,115930,2,0,L|235:247,1,120,2|2,3:2|3:2,0:0:0:0:
164,311,116930,1,10,0:0:0:0:
146,216,117330,38,0,L|125:97,1,120,2|2,3:2|3:2,0:0:0:0:
179,18,118330,1,10,0:0:0:0:
225,102,118730,2,0,L|238:180,1,80,2|10,3:2|0:0,0:0:0:0:
222,275,119530,1,0,0:0:0:0:
136,158,120130,6,0,L|17:178,1,120,2|0,3:2|3:0,0:0:0:0:
0,273,121130,2,0,L|6:312,2,40,10|2|2,0:0|0:0|3:2,0:0:0:0:
95,263,121930,2,0,L|173:249,1,80,8|2,0:0|0:0,0:0:0:0:
308,300,122930,6,0,L|318:359,2,60,2|0|0,3:2|3:0|3:0,0:0:0:0:
263,214,123930,2,0,L|256:174,2,40,0|0|0,3:0|3:0|3:0,0:0:0:0:
359,220,124730,1,0,3:0:0:0:
445,334,125330,2,0,L|485:328,1,40,2|2,3:2|3:2,0:0:0:0:
