osu file format v14

[General]
AudioFilename: audio.mp3
AudioLeadIn: 0
PreviewTime: 80030
Countdown: 0
SampleSet: Soft
StackLeniency: 0.4
Mode: 0
LetterboxInBreaks: 0
WidescreenStoryboard: 1

[Editor]
DistanceSpacing: 1.5
BeatDivisor: 4
GridSize: 32
TimelineZoom: 3.699998

[Metadata]
Title:7thSense
TitleUnicode:7thSense
Artist:Sakuzyo
ArtistUnicode:削除
Creator:Shyotamaze
Version:Deppy's EXPERT
Source:maimai PiNK
Tags:artcore Ellyu handsome muscle Deppyforce reAdvent
BeatmapID:2188283
BeatmapSetID:704758

[Difficulty]
HPDrainRate:6
CircleSize:5
OverallDifficulty:6.2
ApproachRate:8
SliderMultiplier:1.67
SliderTickRate:1

[Events]
//Background and Video events
0,0,"Sense.jpg",0,0
//Break Periods
2,103530,113780
//Storyboard Layer 0 (Background)
//Storyboard Layer 1 (Fail)
//Storyboard Layer 2 (Pass)
//Storyboard Layer 3 (Foreground)
//Storyboard Layer 4 (Overlay)
//Storyboard Sound Samples

[TimingPoints]
240,400,7,2,2,60,1,0
8668,400,7,2,1,60,1,0
8668,-129.87012987013,4,2,1,60,0,0
19430,400,7,2,1,60,1,0
19830,400,7,2,1,70,1,0
19830,-129.87012987013,4,2,1,70,0,0
32230,400,7,2,2,70,1,0
32230,-103.092783505155,7,2,2,70,0,0
33030,-103.092783505155,7,2,1,70,0,0
43430,-93.4579439252336,7,2,4,70,0,0
43630,-93.4579439252336,7,2,1,70,0,0
44230,-93.4579439252336,7,2,1,70,0,0
54630,400,5,2,4,70,1,0
54630,-103.092783505155,4,2,4,70,0,0
54930,-103.092783505155,5,2,1,70,0,0
56230,-103.092783505155,5,2,1,70,0,0
56630,-103.092783505155,5,2,4,70,0,0
56930,-103.092783505155,5,2,1,70,0,0
58230,-103.092783505155,5,2,1,70,0,0
58630,-103.092783505155,5,2,4,70,0,0
58930,-103.092783505155,5,2,1,70,0,0
60230,-103.092783505155,5,2,1,70,0,0
62630,-103.092783505155,5,2,4,70,0,0
62930,-103.092783505155,5,2,1,70,0,0
64230,-103.092783505155,5,2,1,70,0,0
64630,-103.092783505155,5,2,4,70,0,0
64930,-103.092783505155,5,2,1,70,0,0
66230,-103.092783505155,5,2,1,70,0,0
66630,-103.092783505155,5,2,4,70,0,0
66830,-103.092783505155,5,2,1,70,0,0
70630,400,6,2,1,60,1,0
70630,-114.942528735632,4,2,1,60,0,0
79030,400,7,2,3,60,1,0
79730,-100,7,2,1,60,0,0
80430,400,7,2,1,80,1,1
80430,-85.4700854700855,7,2,1,80,0,1
97730,400,7,2,1,70,1,1
97730,-85.4700854700855,7,2,1,70,0,1
100530,-93.4579439252336,7,2,1,70,0,0
103330,-114.942528735632,7,2,1,70,0,0
114530,-93.4579439252336,7,2,1,70,0,0

[Colours]
Combo1 : 234,72,72
Combo2 : 187,205,150
Combo3 : 131,171,190
Combo4 : 255,232,182
Combo5 : 244,136,136

[HitObjects]
279,303,3040,5,4,3:2:0:0:
201,286,3840,1,0,0:0:0:0:
165,215,4640,1,0,0:0:0:0:
199,142,5440,1,0,0:0:0:0:
277,123,6240,1,0,0:0:0:0:
340,172,7040,1,0,0:0:0:0:
341,252,7840,1,0,0:0:0:0:
279,303,8668,6,0,P|248:298|214:300,1,64.294998724617,6|2,0:0|0:0,0:0:0:0:
147,366,9068,1,0,0:0:0:0:
56,340,9268,2,0,P|19:287|10:224,1,128.589997449234,2|2,0:0|0:0,0:0:0:0:
170,184,10068,2,0,P|206:236|215:299,2,128.589997449234,2|2|2,0:0|0:0|0:0,0:0:0:0:
196,90,11068,1,2,0:0:0:0:
388,241,11468,5,2,0:0:0:0:
411,334,11668,2,0,P|445:359|485:300,1,128.589997449234,2|2,0:0|0:0,0:0:0:0:
295,270,12468,2,0,P|256:286|287:351,1,128.589997449234,2|2,0:0|0:0,0:0:0:0:
409,202,13268,2,0,P|413:160|342:154,1,128.589997449234,2|2,0:0|0:0,0:0:0:0:
253,185,13868,1,2,0:0:0:0:
253,185,13968,1,0,0:0:0:0:
253,185,14068,1,0,0:0:0:0:
171,86,14268,37,6,0:0:0:0:
87,133,14468,2,0,P|67:233|73:289,1,128.589997449234,2|2,0:0|0:0,0:0:0:0:
252,319,15268,2,0,P|272:219|266:163,1,128.589997449234,2|2,0:0|0:0,0:0:0:0:
87,133,16068,2,0,P|67:233|73:289,1,128.589997449234,2|2,0:0|0:0,0:0:0:0:
103,349,16668,1,2,0:0:0:0:
349,273,17068,5,2,0:0:0:0:
296,192,17268,2,0,P|220:202|203:243,1,128.589997449234,2|2,0:0|0:0,0:0:0:0:
24,317,18068,2,0,P|53:246|26:210,1,128.589997449234,2|2,0:0|0:0,0:0:0:0:
52,19,18868,2,0,P|98:79|142:74,1,128.589997449234,2|2,0:0|0:0,0:0:0:0:
236,96,19430,1,2,0:0:0:0:
276,69,19530,1,2,0:0:0:0:
321,84,19630,1,2,0:0:0:0:
360,56,19730,1,2,0:0:0:0:
406,69,19830,6,0,B|425:145|425:145|417:170|417:170|438:255,1,192.884996173851,6|0,0:0|0:0,0:0:0:0:
355,304,20630,1,0,0:0:0:0:
262,275,20830,1,2,0:0:0:0:
229,240,20930,1,2,0:0:0:0:
247,195,21030,1,0,0:0:0:0:
209,357,21230,2,0,L|81:376,1,128.589997449234,2|2,0:0|0:0,0:0:0:0:
17,303,21830,1,2,0:0:0:0:
70,222,22030,1,2,0:0:0:0:
163,245,22230,1,2,0:0:0:0:
247,195,22430,1,2,0:0:0:0:
293,207,22530,1,2,0:0:0:0:
324,170,22630,38,0,P|318:107|271:48,1,128.589997449234,2|0,0:0|0:0,0:0:0:0:
190,90,23230,2,0,P|196:153|233:204,1,128.589997449234,2|2,0:0|0:0,0:0:0:0:
309,265,23830,1,0,0:0:0:0:
449,208,24030,2,0,L|458:65,1,128.589997449234,2|2,0:0|0:0,0:0:0:0:
373,29,24630,1,0,0:0:0:0:
373,29,24830,1,2,0:0:0:0:
280,55,25030,1,2,0:0:0:0:
259,149,25230,1,2,0:0:0:0:
218,175,25330,1,2,0:0:0:0:
188,137,25430,5,2,0:0:0:0:
188,137,25630,2,0,B|115:136|144:177|66:180,2,128.589997449234,0|0|2,0:0|0:0|0:0,0:0:0:0:
314,197,26630,1,2,0:0:0:0:
200,279,26830,2,0,P|187:321|254:365,1,128.589997449234,2|0,0:0|0:0,0:0:0:0:
288,342,27330,1,0,0:0:0:0:
288,342,27430,1,0,0:0:0:0:
378,375,27630,1,2,0:0:0:0:
427,292,27830,2,0,L|462:285,3,32.1474993623085,2|0|0|0,0:0|0:0|0:0|0:0,0:0:0:0:
505,276,28230,5,2,0:0:0:0:
505,179,28430,2,0,L|417:173,1,64.294998724617,0|0,0:0|0:0,0:0:0:0:
318,118,28830,2,0,P|306:66|368:52,2,128.589997449234,2|2|2,0:0|0:0|0:0,0:0:0:0:
114,275,30030,1,2,0:0:0:0:
28,230,30230,1,0,0:0:0:0:
15,358,30430,1,2,0:0:0:0:
114,275,30630,2,0,P|142:315|231:334,1,128.589997449234,2|0,0:0|0:0,0:0:0:0:
215,337,32230,37,6,3:2:0:0:
319,274,32430,2,0,L|327:192,1,80.9950019156228,2|0,0:0|0:0,0:0:0:0:
334,133,32730,1,2,0:0:0:0:
111,57,33030,2,0,P|51:73|81:142,1,121.492502873434,2|2,0:0|0:0,0:0:0:0:
58,244,33530,1,2,0:0:0:0:
169,196,33730,2,0,P|229:180|199:111,1,121.492502873434,2|2,0:0|0:0,0:0:0:0:
459,80,34330,6,0,L|474:210,1,121.492502873434,2|2,0:0|0:0,0:0:0:0:
433,315,34830,1,0,0:0:0:0:
319,274,35030,1,0,0:0:0:0:
319,274,35230,2,0,L|305:153,1,121.492502873434,2|2,0:0|0:0,0:0:0:0:
130,330,35830,6,0,P|86:345|19:311,1,121.492502873434,2|2,0:0|0:0,0:0:0:0:
2,193,36330,1,2,0:0:0:0:
115,235,36530,2,0,P|159:250|226:216,1,121.492502873434,2|2,0:0|0:0,0:0:0:0:
314,1,37130,38,0,B|330:59|330:59|386:83,1,121.492502873434,2|2,0:0|0:0,0:0:0:0:
501,122,37630,1,0,0:0:0:0:
511,243,37830,1,0,0:0:0:0:
511,243,38030,2,0,B|441:251|470:293|381:305,1,121.492502873434,2|2,0:0|0:0,0:0:0:0:
193,197,38630,6,0,P|154:250|171:302,1,121.492502873434,2|2,0:0|0:0,0:0:0:0:
274,357,39130,1,2,0:0:0:0:
318,244,39330,2,0,P|319:186|286:107,1,121.492502873434,2|2,0:0|0:0,0:0:0:0:
74,57,39930,2,0,L|83:186,1,121.492502873434,2|2,0:0|0:0,0:0:0:0:
14,279,40430,5,0,0:0:0:0:
126,324,40630,1,0,0:0:0:0:
126,324,40830,2,0,P|193:317|196:360,1,121.492502873434,2|2,0:0|0:0,0:0:0:0:
242,120,41430,2,0,P|287:132|362:107,1,121.492502873434,2|2,0:0|0:0,0:0:0:0:
446,28,41930,1,2,0:0:0:0:
435,149,42130,1,2,0:0:0:0:
435,149,42430,38,0,B|470:167|470:167|486:213,1,80.9950019156228
496,265,42730,1,0,0:0:0:0:
426,326,42930,1,0,0:0:0:0:
337,300,43130,1,0,0:0:0:0:
324,257,43230,1,0,0:0:0:0:
312,214,43330,1,0,0:0:0:0:
256,250,43430,6,0,B|227:244|227:244|199:258|199:258|170:252,1,89.3449972734071,6|2,1:2|0:0,0:0:0:0:
62,332,43830,1,2,3:2:0:0:
62,332,43930,2,0,P|69:247|57:204,1,89.3449972734071,2|2,0:0|0:0,0:0:0:0:
6,218,44230,2,0,P|3:173|12:129,1,89.3449972734071,2|0,3:2|0:0,0:0:0:0:
77,109,44530,1,2,0:0:0:0:
203,152,44730,1,2,0:0:0:0:
312,75,44930,2,0,P|358:88|371:93,2,44.6724986367035,2|0|0,0:0|3:2|0:0,0:0:0:0:
274,18,45230,5,2,0:0:0:0:
203,152,45430,1,2,3:2:0:0:
203,152,45530,1,2,0:0:0:0:
203,152,45630,1,0,0:0:0:0:
203,152,45730,1,0,0:0:0:0:
203,152,45830,2,0,L|224:242,2,89.3449972734071,2|0|0,3:2|3:2|3:2,0:0:0:0:
331,191,46430,1,2,0:0:0:0:
457,145,46630,37,2,3:2:0:0:
457,145,46730,2,0,P|479:211|468:269,1,89.3449972734071,2|2,0:0|0:0,0:0:0:0:
504,291,47030,2,0,P|451:273|387:316,1,134.017495910111,2|2,3:2|0:0,0:0:0:0:
331,191,47530,1,2,0:0:0:0:
354,59,47730,2,0,B|294:77|294:77|240:56,1,89.3449972734071,2|0,0:0|0:0,0:0:0:0:
206,43,48030,1,2,0:0:0:0:
129,152,48230,5,2,3:2:0:0:
129,152,48330,1,2,0:0:0:0:
129,152,48430,1,0,0:0:0:0:
129,152,48530,1,0,0:0:0:0:
129,152,48630,2,0,P|111:202|111:232,1,44.6724986367035,2|0,3:2|0:0,0:0:0:0:
47,208,48830,2,0,P|29:158|29:128,2,44.6724986367035,2|0|0,3:2|0:0|3:2,0:0:0:0:
126,315,49230,1,2,0:0:0:0:
243,250,49430,1,2,3:2:0:0:
243,250,49530,2,0,L|248:157,1,89.3449972734071,2|2,0:0|0:0,0:0:0:0:
251,93,49830,6,0,P|187:45|110:40,1,134.017495910111,2|2,3:2|0:0,0:0:0:0:
12,92,50330,1,2,0:0:0:0:
52,219,50530,2,0,P|92:235|134:222,1,89.3449972734071,2|0,0:0|0:0,0:0:0:0:
179,172,50830,1,2,0:0:0:0:
256,281,51030,2,0,L|297:305,1,44.6724986367035,2|2,3:2|0:0,0:0:0:0:
357,280,51230,2,0,L|366:236,1,44.6724986367035,0|2,0:0|0:0,0:0:0:0:
385,171,51430,37,2,3:2:0:0:
385,171,51530,1,0,0:0:0:0:
385,171,51630,1,2,3:2:0:0:
385,171,51730,1,2,0:0:0:0:
385,171,51830,1,0,3:2:0:0:
492,90,52030,1,2,0:0:0:0:
377,20,52230,1,2,3:2:0:0:
377,20,52330,2,0,L|276:31,1,89.3449972734071,2|2,0:0|0:0,0:0:0:0:
192,124,52630,2,0,P|183:150|183:204,2,44.6724986367035,2|0|0,3:2|0:0|0:0,0:0:0:0:
158,65,53030,5,0,3:2:0:0:
158,65,53130,1,2,0:0:0:0:
158,65,53230,1,0,0:0:0:0:
158,65,53330,1,2,0:0:0:0:
158,65,53430,1,0,3:2:0:0:
283,111,53630,1,2,0:0:0:0:
240,238,53830,1,0,0:0:0:0:
240,238,53930,1,0,0:0:0:0:
240,238,54030,1,0,0:0:0:0:
240,238,54130,1,0,0:0:0:0:
240,238,54230,2,0,B|253:254|253:254|255:278,3,44.6724986367035,2|2|2|2,3:2|0:0|3:2|0:0,0:0:0:0:
255,338,54630,22,0,P|190:298|128:327,1,121.492502873434,6|4,1:2|3:2,0:0:0:0:
107,130,55230,2,0,P|174:93|180:25,2,121.492502873434,4|4|4,3:2|3:2|3:2,0:0:0:0:
51,238,56030,1,4,3:2:0:0:
150,308,56230,54,0,L|192:302,3,40.4975009578114,2|2|2|2,0:0|0:0|0:0|0:0,0:0:0:0:
249,291,56630,22,0,P|261:226|256:160,1,121.492502873434,6|4,1:2|3:2,0:0:0:0:
428,234,57230,2,0,P|416:299|421:365,2,121.492502873434,4|4|4,3:2|3:2|3:2,0:0:0:0:
511,145,58030,1,4,3:2:0:0:
511,145,58230,6,0,B|524:105|524:105|481:97,1,80.9950019156228,2|2,0:0|0:0,0:0:0:0:
365,78,58630,38,0,P|312:105|297:162,1,121.492502873434,6|4,1:2|3:2,0:0:0:0:
327,343,59230,1,4,3:2:0:0:
225,275,59430,2,0,P|184:277|145:286,1,80.9950019156228,4|4,3:2|3:2,0:0:0:0:
39,224,59830,2,0,P|36:183|27:144,1,80.9950019156228,4|4,3:2|3:2,0:0:0:0:
90,38,60230,38,0,P|130:35|169:26,1,80.9950019156228,2|2,3:2|3:2,0:0:0:0:
276,89,60630,38,0,B|271:131|271:131|287:168,1,80.9950019156228,6|0,3:2|3:0,0:0:0:0:
339,196,60930,2,0,B|377:179|377:179|402:146,1,80.9950019156228,6|0,3:2|0:0,0:0:0:0:
427,93,61230,2,0,L|446:213,2,121.492502873434,4|4|4,3:2|3:2|3:2,0:0:0:0:
324,27,62030,1,4,3:2:0:0:
239,114,62230,38,0,L|250:186,3,40.4975009578114,2|2|2|2,0:0|0:0|0:0|0:0,0:0:0:0:
257,214,62630,6,0,P|203:189|151:217,1,121.492502873434,6|4,1:2|3:2,0:0:0:0:
267,358,63230,2,0,P|318:385|372:361,2,121.492502873434,4|4|4,3:2|3:2|3:2,0:0:0:0:
147,335,64030,1,4,3:2:0:0:
147,335,64230,22,0,B|126:351|120:369,2,40.4975009578114,2|2|2,0:0|0:0|0:0,0:0:0:0:
54,192,64630,54,0,B|121:187|98:225|170:214,1,121.492502873434,6|0,1:2|0:0,0:0:0:0:
223,184,65030,2,0,L|231:87,1,80.9950019156228,4|4,3:2|3:2,0:0:0:0:
342,148,65430,2,0,L|354:301,1,121.492502873434,4|0,3:2|0:0,0:0:0:0:
407,293,65830,2,0,P|443:278|463:243,1,80.9950019156228,4|4,3:2|3:2,0:0:0:0:
455,122,66230,21,2,0:0:0:0:
455,122,66430,1,2,0:0:0:0:
378,27,66630,21,6,1:2:0:0:
342,148,66830,1,4,3:2:0:0:
342,148,66930,1,4,3:2:0:0:
342,148,67030,2,0,B|302:157|302:157|264:142,1,80.9950019156228,4|4,3:2|3:2,0:0:0:0:
154,91,67430,2,0,L|141:34,2,53.9966679437485,4|4|4,3:2|3:2|3:2,0:0:0:0:
104,155,67829,2,0,B|64:146|64:146|26:160,1,80.9950019156228,4|4,3:2|3:2,0:0:0:0:
26,282,68230,53,2,0:0:0:0:
26,282,68430,1,2,0:0:0:0:
145,305,68630,37,2,3:2:0:0:
256,192,68730,12,0,70030,0:0:0:0:
433,209,70630,6,0,B|484:89|360:65|342:147,2,217.935001828983,6|2|2,0:0|0:0|0:0,0:0:0:0:
386,308,72030,1,0,0:0:0:0:
386,308,72230,2,0,P|346:283|289:287,1,72.6450006096611,2|2,0:0|0:0,0:0:0:0:
212,298,72630,2,0,P|205:314|202:332,2,36.3225003048306,0|0|0,0:0|0:0|0:0,0:0:0:0:
132,214,73030,6,0,L|34:203,2,72.6450006096611,6|2|2,0:0|0:0|0:0,0:0:0:0:
209,136,73630,2,0,L|248:226,2,72.6450006096611,2|0|0,0:0|0:0|0:0,0:0:0:0:
102,108,74230,2,0,L|160:28,2,72.6450006096611,2|0|0,0:0|0:0|0:0,0:0:0:0:
132,214,74830,1,2,0:0:0:0:
132,214,74930,1,0,0:0:0:0:
132,214,75030,2,0,L|34:203,1,72.6450006096611,0|0,0:0|0:0,0:0:0:0:
159,323,75430,38,0,P|267:290|347:352,2,217.935001828983,6|2|2,0:0|0:0|0:0,0:0:0:0:
102,108,77030,1,2,0:0:0:0:
200,153,77230,1,2,0:0:0:0:
292,95,77430,2,0,P|299:40|277:22,1,72.6450006096611,2|2,0:0|0:0,0:0:0:0:
200,153,77830,6,0,B|231:169|249:211|249:211|297:200|335:180|335:180|333:209|353:241|353:241|400:231|446:244|446:244|456:266|481:286,1,363.225003048306,4|0,0:0|0:0,0:0:0:0:
360,341,79030,38,0,B|337:288|337:288|354:272|354:272|360:244|360:244|383:205|383:205|372:155|372:155|341:127|341:127|335:103|335:103|306:84|306:84|292:57,1,334,4|0,0:0|0:0,0:0:0:0:
184,39,80030,38,0,L|190:83,3,41.75,2|2|2|2,0:0|0:0|0:0|0:0,0:0:0:0:
200,153,80430,37,6,0:0:0:0:
58,192,80630,1,0,0:0:0:0:
58,192,80730,1,0,0:0:0:0:
58,192,80830,2,0,P|38:239|47:283,1,97.6950003726768,10|0,0:0|0:0,0:0:0:0:
170,363,81230,1,2,0:0:0:0:
286,273,81430,1,10,0:0:0:0:
200,153,81630,1,2,0:0:0:0:
286,273,81830,2,0,P|364:265|427:304,1,146.542500559015,6|0,0:0|0:0,0:0:0:0:
471,352,82230,2,0,B|504:316|504:316|509:267,1,97.6950003726768,10|0,0:0|0:0,0:0:0:0:
459,128,82630,1,2,0:0:0:0:
323,184,82830,1,10,0:0:0:0:
342,38,83030,1,2,0:0:0:0:
459,128,83230,6,0,L|313:107,1,146.542500559015,6|0,0:0|0:0,0:0:0:0:
241,98,83630,1,10,0:0:0:0:
196,237,83830,1,2,0:0:0:0:
196,237,83930,1,2,0:0:0:0:
196,237,84030,2,0,P|136:237|103:261,1,97.6950003726768,2|10,0:0|0:0,0:0:0:0:
11,145,84430,1,0,0:0:0:0:
11,145,84630,2,0,B|3:96|3:96|41:65,1,97.6950003726768,6|0,0:0|0:0,0:0:0:0:
28,291,85030,2,0,B|36:340|36:340|-2:371,2,97.6950003726768,10|2|2,0:0|0:0|0:0,0:0:0:0:
145,202,85630,1,10,0:0:0:0:
145,202,85830,1,2,0:0:0:0:
177,344,86030,5,6,0:0:0:0:
177,344,86130,1,2,0:0:0:0:
177,344,86230,2,0,L|226:338,1,48.8475001863384,2|2,0:0|0:0,0:0:0:0:
267,277,86430,1,10,0:0:0:0:
267,277,86530,1,2,0:0:0:0:
267,277,86630,2,0,L|316:283,2,48.8475001863384,2|2|0,0:0|0:0|0:0,0:0:0:0:
223,217,86930,1,2,0:0:0:0:
223,217,87030,1,10,0:0:0:0:
223,217,87130,1,2,0:0:0:0:
223,217,87230,1,2,0:0:0:0:
323,110,87430,38,0,L|328:58,3,48.8475001863384,6|2|2|2,0:0|0:0|0:0|0:0,0:0:0:0:
398,40,87830,2,0,L|429:82,3,48.8475001863384,10|2|2|2,0:0|0:0|0:0|0:0,0:0:0:0:
495,154,88230,1,2,0:0:0:0:
495,154,88330,1,2,0:0:0:0:
495,154,88430,1,10,0:0:0:0:
495,154,88530,1,2,0:0:0:0:
495,154,88630,1,2,0:0:0:0:
495,154,88730,1,2,0:0:0:0:
495,153,88830,6,0,P|489:225|466:295,1,146.542500559015,6|2,0:0|0:0,0:0:0:0:
417,349,89230,1,8,0:0:0:0:
273,376,89430,1,6,0:0:0:0:
273,376,89530,2,0,P|214:335|166:281,1,97.6950003726768,0|2,0:0|0:0,0:0:0:0:
158,253,89830,1,8,0:0:0:0:
162,106,90030,2,0,P|228:74|299:60,1,146.542500559015,6|2,0:0|0:0,0:0:0:0:
372,71,90430,1,12,0:0:0:0:
495,153,90630,2,0,P|489:225|466:295,2,146.542500559015,6|6|2,0:0|0:0|0:0,0:0:0:0:
459,87,91330,1,2,0:0:0:0:
459,87,91430,1,2,0:0:0:0:
459,87,91530,1,2,0:0:0:0:
459,87,91630,6,0,B|399:84|399:84|375:98|375:98|316:93,1,146.542500559015,6|0,0:0|0:0,0:0:0:0:
242,85,92030,2,0,L|226:186,1,97.6950003726768,10|0,0:0|0:0,0:0:0:0:
83,216,92430,1,2,0:0:0:0:
22,82,92630,1,10,0:0:0:0:
83,216,92830,1,2,0:0:0:0:
22,349,93030,2,0,B|80:341|60:363|118:354,1,97.6950003726768,6|0,0:0|0:0,0:0:0:0:
184,321,93330,1,0,0:0:0:0:
184,321,93430,2,0,P|195:279|184:244,2,48.8475001863384,10|0|0,0:0|0:0|0:0,0:0:0:0:
83,216,93830,1,2,0:0:0:0:
226,181,94030,1,2,0:0:0:0:
335,277,94230,1,2,0:0:0:0:
472,226,94430,38,0,L|486:68,7,146.542500559015,4|4|4|4|4|4|4|0,0:0|0:0|0:0|0:0|0:0|0:0|0:0|3:0,0:0:0:0:
466,61,96596,2,0,L|434:65,2,32.5650001242256,0|0|0,3:0|3:0|3:0,0:0:0:0:
512,14,96830,1,2,0:0:0:0:
373,17,97130,1,2,0:0:0:0:
373,17,97230,1,2,0:0:0:0:
373,17,97330,1,2,0:0:0:0:
373,17,97430,2,0,L|328:36,1,48.8475001863384,2|2,0:0|0:0,0:0:0:0:
353,111,97630,1,10,0:0:0:0:
353,111,97730,6,0,L|201:86,1,146.542500559015,6|0,0:0|0:0,0:0:0:0:
135,75,98130,1,10,0:0:0:0:
25,171,98330,1,2,0:0:0:0:
25,171,98430,1,0,0:0:0:0:
24,171,98530,2,0,P|4:213|9:260,1,48.8475001863384
15,288,98730,1,10,0:0:0:0:
155,331,98930,1,2,0:0:0:0:
201,192,99130,1,2,0:0:0:0:
256,192,99330,12,4,100530,3:2:0:0:
132,288,100930,22,0,L|175:158,1,134.017495910111,4|0,3:2|0:0,0:0:0:0:
114,130,101330,2,0,L|248:102,1,134.017495910111,4|0,3:2|0:0,0:0:0:0:
241,35,101730,2,0,L|332:137,1,134.017495910111,4|0,3:2|0:0,0:0:0:0:
386,98,102130,2,0,L|343:228,1,134.017495910111,4|0,3:2|0:0,0:0:0:0:
405,255,102530,2,0,L|270:282,1,134.017495910111,4|0,3:2|0:0,0:0:0:0:
278,349,102930,2,0,L|186:246,1,134.017495910111,4|0,3:2|0:0,0:0:0:0:
132,288,103330,53,6,0:0:0:0:
132,288,114530,37,2,3:2:0:0:
221,188,114730,2,0,L|269:182,2,44.6724986367035,0|0|8,0:0|0:0|0:0,0:0:0:0:
132,288,115130,1,0,3:0:0:0:
66,171,115330,2,0,L|18:165,1,44.6724986367035,0|0,0:0|0:0,0:0:0:0:
10,99,115530,1,10,0:0:0:0:
23,48,115630,1,2,0:0:0:0:
75,58,115730,2,0,P|129:29|159:27,1,89.3449972734071,0|2,0:0|3:2,0:0:0:0:
143,192,116130,1,0,0:0:0:0:
251,112,116330,1,8,0:0:0:0:
262,245,116530,1,2,3:2:0:0:
262,245,116630,1,0,0:0:0:0:
262,245,116730,2,0,L|350:253,1,89.3449972734071,2|10,0:0|0:0,0:0:0:0:
419,137,117130,1,2,0:0:0:0:
471,120,117230,1,2,0:0:0:0:
507,161,117330,6,0,P|519:209|509:257,2,89.3449972734071,2|0|8,3:2|0:0|0:0,0:0:0:0:
436,47,117930,1,2,3:2:0:0:
436,47,118030,2,0,B|367:60|367:60|306:40,1,134.017495910111,0|10,0:0|0:0,0:0:0:0:
290,174,118530,1,0,3:0:0:0:
166,118,118730,2,0,P|106:141|86:202,1,134.017495910111,2|0,3:2|0:0,0:0:0:0:
102,267,119130,2,0,L|196:255,1,89.3449972734071,10|0,0:0|3:0,0:0:0:0:
283,353,119530,1,0,0:0:0:0:
386,268,119730,1,10,0:0:0:0:
290,174,119930,1,2,0:0:0:0:
269,125,120030,1,2,0:0:0:0:
301,81,120130,6,0,B|400:72|334:47|463:36,1,134.017495910111,2|0,3:2|0:0,0:0:0:0:
493,43,120530,1,8,0:0:0:0:
486,178,120730,1,0,3:0:0:0:
486,178,120830,1,0,0:0:0:0:
486,178,120930,1,0,0:0:0:0:
386,268,121130,1,10,0:0:0:0:
256,235,121330,1,2,0:0:0:0:
236,102,121530,2,0,B|172:121|172:121|105:112,1,134.017495910111,2|0,3:2|0:0,0:0:0:0:
38,101,121930,1,8,0:0:0:0:
3,230,122130,1,0,3:0:0:0:
3,230,122230,1,0,0:0:0:0:
3,230,122330,2,0,L|12:280,2,44.6724986367035,2|0|10,0:0|0:0|0:0,0:0:0:0:
356,192,122930,38,0,L|326:353,2,134.017495910111,2|0|0,3:2|3:0|3:0,0:0:0:0:
111,79,123930,1,0,3:0:0:0:
125,212,124130,1,0,3:0:0:0:
111,79,124330,1,0,3:0:0:0:
356,192,124730,2,0,L|320:388,1,178.689994546814,0|0,3:0|3:0,0:0:0:0:
447,314,125330,2,0,P|482:297|489:286,1,44.6724986367035,2|0,3:2|2:0,3:2:0:0:
511,230,125530,2,0,P|513:191|507:179,1,44.6724986367035,2|0,3:2|2:0,3:2:0:0:
