osu file format v14

[General]
AudioFilename: audio.mp3
AudioLeadIn: 0
PreviewTime: 80030
Countdown: 0
SampleSet: Soft
StackLeniency: 0.4
Mode: 0
LetterboxInBreaks: 0
WidescreenStoryboard: 1

[Editor]
Bookmarks: 240,8668,19830,32230,43430,54630,70630,80430,97730,100530,103330,114530,122930,125730
DistanceSpacing: 0.9
BeatDivisor: 4
GridSize: 32
TimelineZoom: 1.6

[Metadata]
Title:7thSense
TitleUnicode:7thSense
Artist:Sakuzyo
ArtistUnicode:削除
Creator:Shyotamaze
Version:BASIC
Source:maimai PiNK
Tags:artcore Ellyu handsome muscle Deppyforce reAdvent
BeatmapID:2133181
BeatmapSetID:704758

[Difficulty]
HPDrainRate:3
CircleSize:3
OverallDifficulty:4
ApproachRate:5
SliderMultiplier:1.3
SliderTickRate:1

[Events]
//Background and Video events
0,0,"Sense.jpg",0,0
//Break Periods
2,103530,113210
//Storyboard Layer 0 (Background)
//Storyboard Layer 1 (Fail)
//Storyboard Layer 2 (Pass)
//Storyboard Layer 3 (Foreground)
//Storyboard Layer 4 (Overlay)
//Storyboard Sound Samples

[TimingPoints]
240,400,7,2,2,60,1,0
8668,400,7,2,1,60,1,0
19430,400,7,2,1,60,1,0
19830,400,7,2,1,70,1,0
19830,-100,7,2,1,70,0,0
32230,400,7,2,4,70,1,0
32430,-100,7,2,1,70,0,0
43430,-100,7,2,4,70,0,0
43630,-100,7,2,1,70,0,0
54630,400,5,2,4,70,1,0
54930,-100,5,2,1,70,0,0
56630,-100,5,2,4,70,0,0
56930,-100,5,2,1,70,0,0
58630,-100,5,2,4,70,0,0
58930,-100,5,2,1,70,0,0
62630,-100,5,2,4,70,0,0
62930,-100,5,2,1,70,0,0
64630,-100,5,2,4,70,0,0
65030,-100,5,2,1,70,0,0
66630,-100,5,2,4,70,0,0
66830,-100,5,2,1,70,0,0
68230,-100,5,2,1,70,0,0
70630,400,6,2,1,60,1,0
79030,400,7,2,3,60,1,0
80430,400,7,2,1,80,1,1
80430,-100,7,2,1,80,0,1
97730,400,7,2,1,70,1,0

[Colours]
Combo1 : 234,72,72
Combo2 : 187,205,150
Combo3 : 131,171,190
Combo4 : 255,232,182
Combo5 : 244,136,136

[HitObjects]
190,30,8668,5,6,0:0:0:0:
190,30,8868,1,2,0:0:0:0:
300,53,9268,2,0,P|334:106|331:171,1,130,2|2,0:0|0:0,0:0:0:0:
225,137,10068,2,0,P|193:193|136:223,1,130,2|2,0:0|0:0,0:0:0:0:
113,112,10867,1,2,0:0:0:0:
113,112,11067,1,2,0:0:0:0:
30,191,11468,5,2,0:0:0:0:
30,191,11668,1,2,0:0:0:0:
52,303,12068,2,0,P|106:334|171:334,1,130,2|2,0:0|0:0,0:0:0:0:
139,226,12868,2,0,P|194:194|225:136,1,130,2|2,0:0|0:0,0:0:0:0:
113,112,13668,1,2,0:0:0:0:
113,112,13868,1,2,0:0:0:0:
190,30,14269,5,6,0:0:0:0:
190,30,14468,1,2,0:0:0:0:
301,53,14868,2,0,P|335:106|334:170,1,130,2|2,0:0|0:0,0:0:0:0:
369,278,15668,2,0,P|304:280|250:247,1,130,2|2,0:0|0:0,0:0:0:0:
225,137,16468,1,2,0:0:0:0:
225,137,16668,1,2,0:0:0:0:
334,171,17068,37,2,0:0:0:0:
334,171,17268,1,2,0:0:0:0:
250,247,17668,2,0,P|304:280|368:278,1,130,2|2,0:0|0:0,0:0:0:0:
478,311,18468,2,0,P|479:247|444:193,1,130,2|2,0:0|0:0,0:0:0:0:
334,171,19268,1,2,0:0:0:0:
334,171,19430,1,2,0:0:0:0:
369,278,19830,6,0,B|319:296|273:270|274:266|274:262|229:237|182:254,1,195,6|0,0:0|0:0,0:0:0:0:
214,362,20830,2,0,P|183:367|150:363,1,65,2|0,0:0|0:0,0:0:0:0:
100,334,21230,2,0,P|69:277|74:213,1,130,2|2,0:0|0:0,0:0:0:0:
108,166,21830,2,0,P|135:148|166:140,2,65,2|2|2,0:0|0:0|0:0,0:0:0:0:
181,254,22630,6,0,P|240:228|275:175,1,130,2|0,0:0|0:0,0:0:0:0:
279,115,23230,2,0,P|250:58|195:26,2,130,2|2|2,0:0|0:0|0:0,0:0:0:0:
166,139,24430,1,2,0:0:0:0:
82,57,24830,1,2,0:0:0:0:
82,57,25030,1,2,0:0:0:0:
53,171,25430,38,0,P|112:245|206:250,1,195,2|0,0:0|0:0,0:0:0:0:
282,159,26430,2,0,P|303:182|318:211,1,65,2|2,0:0|0:0,0:0:0:0:
322,270,26830,2,0,P|295:328|242:363,1,130,2|0,0:0|0:0,0:0:0:0:
206,250,27630,1,2,0:0:0:0:
206,250,27830,1,2,0:0:0:0:
282,159,28230,6,0,P|224:133|160:141,1,130,2|0,0:0|0:0,0:0:0:0:
113,177,28830,2,0,P|88:236|98:299,2,130,2|2|2,0:0|0:0|0:0,0:0:0:0:
206,250,30030,1,2,0:0:0:0:
195,369,30430,1,2,0:0:0:0:
195,369,30630,1,2,0:0:0:0:
315,71,32230,5,6,1:2:0:0:
315,71,32430,2,0,L|410:88,1,97.5,2|2,0:0|0:0,0:0:0:0:
480,142,33030,2,0,L|512:232,1,97.5,2|2,3:2|0:0,0:0:0:0:
505,293,33530,1,2,0:0:0:0:
505,293,33730,1,2,0:0:0:0:
417,290,34030,38,0,L|321:272,1,97.5,2|2,0:0|0:0,0:0:0:0:
239,306,34631,2,0,L|176:379,2,97.5,2|2|2,3:2|0:0|0:0,0:0:0:0:
169,251,35530,1,2,0:0:0:0:
251,218,35830,6,0,L|314:145,1,97.5,2|2,3:2|0:0,0:0:0:0:
370,123,36330,1,2,0:0:0:0:
370,123,36530,1,2,0:0:0:0:
307,60,36830,2,0,L|211:41,1,97.5,2|2,0:0|0:0,0:0:0:0:
139,91,37430,6,0,L|75:164,2,97.5,2|2|2,3:2|0:0|0:0,0:0:0:0:
132,3,38330,1,2,0:0:0:0:
211,41,38630,38,0,L|306:59,1,97.5,2|2,3:2|0:0,0:0:0:0:
351,96,39130,1,2,0:0:0:0:
351,96,39330,1,2,0:0:0:0:
395,170,39630,2,0,L|375:265,1,97.5,2|2,0:0|0:0,0:0:0:0:
310,323,40230,6,0,L|216:353,2,97.5,2|2|2,3:2|0:0|0:0,0:0:0:0:
392,352,41130,1,2,0:0:0:0:
376,266,41430,2,0,L|395:170,1,97.5,2|2,3:2|0:0,0:0:0:0:
437,130,41930,1,2,0:0:0:0:
437,130,42130,1,2,0:0:0:0:
97,172,43430,5,6,1:2:0:0:
97,172,43630,2,0,L|115:266,1,97.5,2|2,0:0|0:0,0:0:0:0:
171,335,44230,2,0,L|261:365,1,97.5,2|2,3:2|0:0,0:0:0:0:
321,356,44730,1,2,0:0:0:0:
321,356,44930,1,2,0:0:0:0:
277,279,45230,38,0,L|257:183,1,97.5,2|2,0:0|0:0,0:0:0:0:
288,101,45830,2,0,L|361:37,1,97.5,2|2,3:2|0:0,0:0:0:0:
416,104,46430,2,0,L|343:168,1,97.5,2|2,0:0|0:0,0:0:0:0:
257,183,47030,6,0,L|184:247,1,97.5,2|2,3:2|0:0,0:0:0:0:
127,258,47530,1,2,0:0:0:0:
127,258,47730,1,2,0:0:0:0:
171,333,48030,2,0,L|262:364,1,97.5,2|2,0:0|0:0,0:0:0:0:
345,333,48630,6,0,L|326:237,1,97.5,2|0,3:2|0:0,0:0:0:0:
257,183,49230,2,0,L|184:247,1,97.5,2|2,0:0|0:0,0:0:0:0:
103,280,49830,38,0,L|84:184,1,97.5,2|2,3:2|0:0,0:0:0:0:
32,157,50330,1,2,0:0:0:0:
32,157,50530,1,2,0:0:0:0:
96,97,50830,2,0,L|187:128,1,97.5,2|2,0:0|0:0,0:0:0:0:
257,183,51430,6,0,L|184:247,1,97.5,2|2,3:2|0:0,0:0:0:0:
171,333,52030,2,0,L|262:364,1,97.5,2|2,0:0|0:0,0:0:0:0:
345,333,52630,2,0,L|326:237,1,97.5,2|2,3:2|0:0,0:0:0:0:
281,199,53130,1,2,0:0:0:0:
281,199,53330,1,2,0:0:0:0:
356,153,53630,5,2,0:0:0:0:
356,153,53830,2,0,L|404:110,2,65,0|0|2,0:0|0:0|3:2,0:0:0:0:
293,70,54630,6,0,B|315:27|315:27|356:1,2,97.5,6|4|4,1:2|3:2|3:2,0:0:0:0:
252,148,55530,2,0,B|203:149|203:149|160:127,1,97.5,4|4,3:2|3:2,0:0:0:0:
131,75,56030,1,4,3:2:0:0:
139,250,56630,6,0,B|97:226|97:226|47:227,2,97.5,6|4|4,1:2|3:2|3:2,0:0:0:0:
215,293,57530,2,0,B|256:268|256:268|280:225,1,97.5,4|4,3:2|3:2,0:0:0:0:
276,165,58030,1,4,3:2:0:0:
383,303,58630,54,0,B|407:346|407:346|448:371,2,97.5,6|4|4,1:2|3:2|3:2,0:0:0:0:
387,243,59430,1,4,3:2:0:0:
387,243,59630,2,0,L|435:194,2,65,4|4|4,3:2|3:2|3:2,0:0:0:0:
262,119,60630,6,0,B|308:106|308:106|342:71,2,97.5,6|6|4,3:2|3:2|3:2,0:0:0:0:
177,142,61530,2,0,B|165:189|165:189|178:236,1,97.5,4|4,3:2|3:2,0:0:0:0:
223,276,62030,1,4,3:2:0:0:
53,231,62630,54,0,B|67:277|67:277|56:325,2,97.5,6|4|4,1:2|3:2|3:2,0:0:0:0:
26,147,63530,2,0,B|58:112|58:112|106:97,1,97.5,4|4,3:2|3:2,0:0:0:0:
164,114,64030,1,4,3:2:0:0:
292,234,64630,6,0,B|230:211|230:211|169:233,1,130,6|4,1:2|3:2,0:0:0:0:
132,278,65230,1,4,3:2:0:0:
168,324,65430,2,0,B|230:347|230:347|291:325,1,130,4|4,3:2|3:2,0:0:0:0:
344,301,66030,1,4,3:2:0:0:
450,161,66630,54,0,B|511:141,2,65,6|4|4,1:2|3:2|3:2,0:0:0:0:
395,181,67230,1,4,3:2:0:0:
340,202,67430,2,0,B|279:224|279:224|217:201,1,130,4|4,3:2|3:2,0:0:0:0:
201,145,68030,1,4,3:2:0:0:
370,90,68630,54,0,L|461:124,2,97.5,2|2|0,3:2|3:2|3:2,0:0:0:0:
295,136,69530,2,0,L|203:101,1,97.5,0|0,3:2|3:2,0:0:0:0:
169,53,70030,2,0,L|146:114,1,65,0|0,0:0|0:0,0:0:0:0:
187,222,70630,38,0,P|92:217|33:143,2,195,6|2|2,0:0|0:0|0:0,0:0:0:0:
298,252,72230,1,2,0:0:0:0:
298,252,72430,2,0,P|295:187|261:133,1,130,2|0,0:0|0:0,0:0:0:0:
207,108,73030,6,0,P|115:133|74:217,2,195,6|2|2,0:0|0:0|0:0,0:0:0:0:
346,1,74830,2,0,P|347:65|318:122,1,130,2|0,0:0|0:0,0:0:0:0:
261,133,75430,6,0,P|303:216|269:305,2,195,6|2|2,0:0|0:0|0:0,0:0:0:0:
187,223,77030,2,0,P|155:234|119:235,1,65,2|2,0:0|0:0,0:0:0:0:
69,214,77430,2,0,P|45:189|29:157,1,65,2|2,0:0|0:0,0:0:0:0:
29,103,77830,38,0,B|122:127|180:66|179:62|178:58|244:-4|330:22,1,325,4|0,0:0|0:0,0:0:0:0:
379,54,79030,54,0,B|400:182|400:182|343:210|343:210|291:167,1,260,4|0,0:0|0:0,0:0:0:0:
189,310,80430,22,0,L|178:245,1,65,6|0,0:0|0:0,0:0:0:0:
180,187,80830,1,10,0:0:0:0:
290,225,81230,2,0,L|300:289,2,65,2|10|2,0:0|0:0|0:0,0:0:0:0:
292,167,81830,2,0,L|281:102,1,65,6|0,0:0|0:0,0:0:0:0:
283,44,82230,1,10,0:0:0:0:
171,64,82630,2,0,L|160:0,2,65,2|10|2,0:0|0:0|0:0,0:0:0:0:
169,122,83230,6,0,L|179:186,1,65,6|0,0:0|0:0,0:0:0:0:
178,245,83630,1,10,0:0:0:0:
178,245,83830,2,0,L|188:309,1,65,2|2,0:0|0:0,0:0:0:0:
185,368,84230,1,10,0:0:0:0:
300,347,84630,1,6,0:0:0:0:
413,304,85030,1,10,0:0:0:0:
413,304,85230,2,0,L|436:243,1,65,2|2,0:0|0:0,0:0:0:0:
432,185,85630,2,0,L|391:134,1,65,10|2,0:0|0:0,0:0:0:0:
335,115,86030,38,0,L|206:134,1,130,6|10,0:0|0:0,0:0:0:0:
150,115,86630,2,0,L|86:125,2,65,2|0|10,0:0|0:0|0:0,0:0:0:0:
217,19,87430,2,0,L|345:0,1,130,6|10,0:0|0:0,0:0:0:0:
402,19,88030,2,0,L|466:9,2,65,2|2|10,0:0|0:0|0:0,0:0:0:0:
335,115,88830,6,0,L|206:134,1,130,6|8,0:0|0:0,0:0:0:0:
161,170,89430,2,0,L|180:299,1,130,6|8,0:0|0:0,0:0:0:0:
216,344,90030,2,0,L|345:325,1,130,6|12,0:0|0:0,0:0:0:0:
390,289,90630,2,0,L|371:160,1,130,6|2,0:0|0:0,0:0:0:0:
335,115,91230,1,2,0:0:0:0:
225,74,91630,6,0,L|234:139,1,65,6|0,0:0|0:0,0:0:0:0:
231,197,92030,1,10,0:0:0:0:
122,157,92430,2,0,L|113:92,2,65,2|10|2,0:0|0:0|0:0,0:0:0:0:
119,215,93030,2,0,L|128:280,1,65,6|0,0:0|0:0,0:0:0:0:
126,338,93430,1,10,0:0:0:0:
238,320,93830,2,0,L|247:384,2,65,2|2|2,0:0|0:0|0:0,0:0:0:0:
241,262,94430,38,0,L|227:165,2,97.5,4|4|4,0:0|0:0|0:0,0:0:0:0:
325,237,95330,2,0,L|416:273,2,97.5,4|4|4,0:0|0:0|0:0,0:0:0:0:
305,322,96230,2,0,L|227:382,1,97.5,4|0,0:0|3:0,0:0:0:0:
171,315,96830,1,2,0:0:0:0:
241,262,97130,2,0,L|227:165,1,97.5,2|2,0:0|0:0,0:0:0:0:
147,128,97730,5,6,0:0:0:0:
53,198,98130,1,10,0:0:0:0:
53,198,98330,1,2,0:0:0:0:
49,315,98730,2,0,L|114:306,1,65,10|2,0:0|0:0,0:0:0:0:
171,315,99130,2,0,B|299:298|299:298|354:337,1,195,2|0,0:0|0:0,0:0:0:0:
399,371,99930,2,0,L|464:362,1,65,2|2,0:0|0:0,0:0:0:0:
511,254,100530,22,0,L|405:178,1,130,4|4,3:2|3:2,0:0:0:0:
380,64,101330,2,0,L|304:169,1,130,4|4,3:2|3:2,0:0:0:0:
190,195,102129,2,0,L|295:270,1,130,0|4,0:0|3:2,0:0:0:0:
329,382,102930,2,0,L|367:329,1,65,4|0,3:2|0:0,0:0:0:0:
397,279,103330,53,6,0:0:0:0:
112,359,114530,54,0,L|93:230,1,130,2|8,3:2|0:0,0:0:0:0:
106,174,115130,1,0,3:0:0:0:
38,78,115530,2,0,L|102:68,1,65,10|0,0:0|0:0,0:0:0:0:
158,81,115930,2,0,L|287:62,1,130,2|8,3:2|0:0,0:0:0:0:
343,75,116530,2,0,L|407:66,1,65,2|2,3:2|0:0,0:0:0:0:
463,79,116930,1,10,0:0:0:0:
511,187,117330,6,0,L|382:206,1,130,2|8,3:2|0:0,0:0:0:0:
332,235,117930,1,2,3:2:0:0:
302,121,118330,2,0,L|237:130,1,65,10|0,0:0|3:0,0:0:0:0:
188,158,118730,2,0,L|59:177,1,130,2|10,3:2|0:0,0:0:0:0:
12,208,119330,1,0,3:0:0:0:
93,289,119730,2,0,L|157:279,1,65,10|2,0:0|0:0,0:0:0:0:
213,292,120130,38,0,L|342:273,1,130,2|8,3:2|0:0,0:0:0:0:
398,286,120730,1,0,3:0:0:0:
394,169,121130,2,0,L|459:160,2,65,10|2|2,0:0|0:0|3:2,0:0:0:0:
285,124,121930,2,0,L|220:133,1,65,8|0,0:0|3:0,0:0:0:0:
171,161,122330,1,2,0:0:0:0:
171,161,122530,2,0,L|106:170,1,65,10|0,0:0|0:0,0:0:0:0:
57,198,122930,6,0,L|71:294,2,97.5,2|0|0,3:2|3:0|3:0,0:0:0:0:
28,84,123930,2,0,L|19:19,2,65,0|0|0,3:0|3:0|3:0,0:0:0:0:
140,116,124730,2,0,L|269:97,1,130,0|0,3:0|3:0,0:0:0:0:
325,110,125330,2,0,L|334:175,1,65,2|2,3:2|3:2,0:0:0:0:
