osu file format v14

[General]
AudioFilename: audio.mp3
AudioLeadIn: 0
PreviewTime: 4864
Countdown: 0
SampleSet: Normal
StackLeniency: 0.7
Mode: 1
LetterboxInBreaks: 0
WidescreenStoryboard: 0

[Editor]
Bookmarks: 136156,186979,277332,327450
DistanceSpacing: 0.8
BeatDivisor: 4
GridSize: 32
TimelineZoom: 2.799999

[Metadata]
Title:skyshifter vip
TitleUnicode:skyshifter vip
Artist:sakuraburst
ArtistUnicode:【sakuraburst】
Creator:strickluke
Version:parallel
Source:
Tags:deconstructing nature experimental Kingdom Hearts II
BeatmapID:1461647
BeatmapSetID:690657

[Difficulty]
HPDrainRate:4
CircleSize:2
OverallDifficulty:6
ApproachRate:9
SliderMultiplier:1.4
SliderTickRate:1

[Events]
//Background and Video events
0,0,"graveyard_sky_by_nanomortis-d8ypao5.png",0,0
//Break Periods
2,236593,241440
2,242240,247087
//Storyboard Layer 0 (Background)
//Storyboard Layer 1 (Fail)
//Storyboard Layer 2 (Pass)
//Storyboard Layer 3 (Foreground)
//Storyboard Sound Samples

[TimingPoints]
629,352.941176470588,4,1,0,20,1,0
629,-166.666666666667,4,1,0,20,0,0
27452,-142.857142857143,4,1,0,40,0,0
48628,-140.845070422535,4,1,0,38,0,0
48805,-136.986301369863,4,1,0,36,0,0
48981,-133.333333333333,4,1,0,34,0,0
49158,-129.87012987013,4,1,0,32,0,0
49334,-126.582278481013,4,1,0,30,0,0
49511,-123.456790123457,4,1,0,28,0,0
49687,-120.481927710843,4,1,0,26,0,0
49864,-117.647058823529,4,1,0,24,0,0
50040,-111.111111111111,4,1,0,50,0,0
61334,-100,4,1,0,50,0,0
72628,-100,4,1,0,40,0,0
72805,-102.040816326531,4,1,0,40,0,0
72981,-104.166666666667,4,1,0,40,0,0
73158,-106.382978723404,4,1,0,40,0,0
73334,-108.695652173913,4,1,0,40,0,0
73511,-111.111111111111,4,1,0,40,0,0
74746,-125,4,1,0,40,0,0
93099,-125,4,1,0,10,0,0
93805,-125,4,1,0,20,0,0
94334,-125,4,1,0,40,0,0
94687,-125,4,1,0,60,0,0
94864,-125,4,1,0,70,0,0
95217,-111.111111111111,4,1,0,50,0,0
97687,-111.111111111111,4,1,0,20,0,0
100864,-111.111111111111,4,1,0,40,0,0
101923,-111.111111111111,4,1,0,30,0,0
106511,-105.263157894737,4,1,0,50,0,0
117805,-100,4,1,0,60,0,0
129099,-100,4,1,0,70,0,0
134746,-100,4,1,0,60,0,0
135452,-100,4,1,0,55,0,0
136158,-100,4,1,0,50,0,0
136864,-100,4,1,0,45,0,0
137570,-100,4,1,0,40,0,0
138276,-100,4,1,0,35,0,0
138981,-100,4,1,0,30,0,0
139864,-100,4,1,0,70,0,0
140393,-83.3333333333333,4,1,0,80,0,1
145158,-81.9672131147541,4,1,0,80,0,1
145246,-80,4,1,0,80,0,1
145334,-78.7401574803149,4,1,0,80,0,1
145423,-76.9230769230769,4,1,0,80,0,1
145511,-75.7575757575758,4,1,0,80,0,1
145599,-74.0740740740741,4,1,0,80,0,1
145687,-72.992700729927,4,1,0,80,0,1
146040,-83.3333333333333,4,1,0,80,0,1
151158,-81.3008130081301,4,1,0,80,0,1
151246,-78.7401574803149,4,1,0,80,0,1
151334,-76.9230769230769,4,1,0,80,0,1
151423,-75.187969924812,4,1,0,80,0,1
151511,-72.992700729927,4,1,0,80,0,1
151687,-83.3333333333333,4,1,0,80,0,1
162628,-66.6666666666667,4,1,0,80,0,1
162981,-83.3333333333333,4,1,0,80,0,1
167746,-81.9672131147541,4,1,0,80,0,1
167834,-80,4,1,0,80,0,1
167923,-78.7401574803149,4,1,0,80,0,1
168011,-76.9230769230769,4,1,0,80,0,1
168099,-75.7575757575758,4,1,0,80,0,1
168187,-74.0740740740741,4,1,0,80,0,1
168276,-72.992700729927,4,1,0,80,0,1
168628,-83.3333333333333,4,1,0,80,0,1
173923,-66.6666666666667,4,1,0,80,0,1
174276,-83.3333333333333,4,1,0,80,0,1
179040,-81.9672131147541,4,1,0,80,0,1
179128,-80,4,1,0,80,0,1
179217,-78.7401574803149,4,1,0,80,0,1
179305,-76.9230769230769,4,1,0,80,0,1
179393,-75.7575757575758,4,1,0,80,0,1
179481,-74.0740740740741,4,1,0,80,0,1
179570,-72.992700729927,4,1,0,80,0,1
179923,-83.3333333333333,4,1,0,80,0,1
184334,-83.3333333333333,4,1,0,40,0,1
185570,-100,4,1,0,60,0,0
190511,-66.6666666666667,4,1,0,60,0,0
191217,-142.857142857143,4,1,0,60,0,0
191923,-142.857142857143,4,1,0,40,0,0
202511,-142.857142857143,4,1,0,50,0,0
210981,-149.253731343284,4,1,0,40,0,0
211687,-158.730158730159,4,1,0,40,0,0
212040,-158.730158730159,4,1,0,35,0,0
212393,-166.666666666667,4,1,0,30,0,0
213805,-125,4,1,0,40,0,0
234981,-125,4,1,0,40,0,0
235423,-125,4,1,0,50,0,0
235864,-125,4,1,0,60,0,0
236040,-125,4,1,0,70,0,0
236393,-125,4,1,0,50,0,0
237805,-142.857142857143,4,1,0,50,0,0
239217,-166.666666666667,4,1,0,50,0,0
240628,-200,4,1,0,50,0,0
242040,-250,4,1,0,50,0,0
243452,-238.095238095238,4,1,0,50,0,0
244864,-222.222222222222,4,1,0,50,0,0
246276,-212.765957446809,4,1,0,50,0,0
247687,-200,4,1,0,50,0,0
249099,-208.333333333333,4,1,0,50,0,0
250511,-217.391304347826,4,1,0,50,0,0
251923,-227.272727272727,4,1,0,50,0,0
253334,-238.095238095238,4,1,0,50,0,0
254746,-250,4,1,0,50,0,0
256158,-263.157894736842,4,1,0,50,0,0
257570,-285.714285714286,4,1,0,50,0,0
258981,-100,4,1,0,60,0,0
270276,-100,4,1,0,70,0,0
275923,-100,4,1,0,60,0,0
276628,-100,4,1,0,55,0,0
277334,-100,4,1,0,50,0,0
278040,-100,4,1,0,45,0,0
278746,-100,4,1,0,40,0,0
279452,-100,4,1,0,35,0,0
280158,-100,4,1,0,30,0,0
281040,-100,4,1,0,70,0,0
281570,-83.3333333333333,4,1,0,80,0,1
286334,-81.3008130081301,4,1,0,80,0,1
286423,-78.7401574803149,4,1,0,80,0,1
286511,-76.9230769230769,4,1,0,80,0,1
286599,-75.187969924812,4,1,0,80,0,1
286687,-72.992700729927,4,1,0,80,0,1
286776,-71.4285714285714,4,1,0,80,0,1
286864,-69.9300699300699,4,1,0,80,0,1
287217,-83.3333333333333,4,1,0,80,0,1
292511,-57.1428571428571,4,1,0,80,0,1
292864,-83.3333333333333,4,1,0,80,0,1
303805,-57.1428571428571,4,1,0,80,0,1
304158,-83.3333333333333,4,1,0,80,0,1
308923,-81.3008130081301,4,1,0,80,0,1
309011,-78.7401574803149,4,1,0,80,0,1
309099,-76.9230769230769,4,1,0,80,0,1
309187,-75.187969924812,4,1,0,80,0,1
309276,-72.992700729927,4,1,0,80,0,1
309364,-71.4285714285714,4,1,0,80,0,1
309452,-69.9300699300699,4,1,0,80,0,1
309628,-83.3333333333333,4,1,0,80,0,1
315099,-57.1428571428571,4,1,0,80,0,1
315452,-80,4,1,0,80,0,1
325511,-83.3333333333333,4,1,0,40,0,1
326746,-100,4,1,0,60,0,0
331687,-50,4,1,0,60,0,0

[HitObjects]
256,192,4864,5,0,0:0:0:0:
256,192,6276,1,0,0:0:0:0:
256,192,7687,1,0,0:0:0:0:
256,192,9805,1,8,0:0:0:0:
256,192,10511,1,8,0:0:0:0:
256,192,12628,1,8,0:0:0:0:
256,192,13334,1,8,0:0:0:0:
256,192,16158,1,0,0:0:0:0:
256,192,17570,1,0,0:0:0:0:
256,192,18981,1,0,0:0:0:0:
256,192,21099,1,8,0:0:0:0:
256,192,21805,1,8,0:0:0:0:
256,192,23923,1,8,0:0:0:0:
256,192,24628,1,8,0:0:0:0:
256,192,27452,1,4,0:0:0:0:
256,192,28511,1,0,0:0:0:0:
256,192,29570,1,8,0:0:0:0:
256,192,29923,1,8,0:0:0:0:
256,192,30628,1,0,0:0:0:0:
256,192,31334,1,8,0:0:0:0:
256,192,31687,1,0,0:0:0:0:
256,192,32040,1,0,0:0:0:0:
256,192,32393,1,0,0:0:0:0:
256,192,32746,1,0,0:0:0:0:
256,192,33099,1,8,0:0:0:0:
256,192,34158,1,8,0:0:0:0:
256,192,34511,1,8,0:0:0:0:
256,192,34864,1,0,0:0:0:0:
256,192,35570,1,8,0:0:0:0:
256,192,35923,1,0,0:0:0:0:
256,192,36276,1,8,0:0:0:0:
256,192,36981,1,0,0:0:0:0:
256,192,37334,1,0,0:0:0:0:
256,192,37687,1,0,0:0:0:0:
256,192,38040,1,8,0:0:0:0:
256,192,38393,1,8,0:0:0:0:
256,192,38746,1,8,0:0:0:0:
256,192,39452,1,0,0:0:0:0:
256,192,40158,1,8,0:0:0:0:
256,192,40864,1,0,0:0:0:0:
256,192,41217,1,0,0:0:0:0:
256,192,41923,1,0,0:0:0:0:
256,192,42276,1,8,0:0:0:0:
256,192,42628,1,8,0:0:0:0:
256,192,42981,1,0,0:0:0:0:
256,192,43334,1,0,0:0:0:0:
256,192,43687,1,8,0:0:0:0:
256,192,44040,1,8,0:0:0:0:
256,192,44393,1,0,0:0:0:0:
256,192,45099,1,8,0:0:0:0:
256,192,45452,1,8,0:0:0:0:
256,192,45805,1,0,0:0:0:0:
256,192,46158,1,0,0:0:0:0:
256,192,46511,1,8,0:0:0:0:
256,192,46864,1,8,0:0:0:0:
256,192,47217,1,0,0:0:0:0:
256,192,47570,1,8,0:0:0:0:
256,192,47923,1,0,0:0:0:0:
256,192,48276,1,0,0:0:0:0:
256,192,48628,1,8,0:0:0:0:
256,192,48805,1,0,0:0:0:0:
256,192,48981,1,8,0:0:0:0:
256,192,49158,1,0,0:0:0:0:
256,192,49334,1,8,0:0:0:0:
256,192,49511,1,0,0:0:0:0:
256,192,49687,1,8,0:0:0:0:
256,192,49864,1,8,0:0:0:0:
256,192,50040,1,4,0:0:0:0:
256,192,50393,1,0,0:0:0:0:
256,192,50746,1,0,0:0:0:0:
256,192,51099,1,0,0:0:0:0:
256,192,51276,1,0,0:0:0:0:
256,192,51452,1,0,0:0:0:0:
256,192,51805,1,0,0:0:0:0:
256,192,51981,1,0,0:0:0:0:
256,192,52158,1,0,0:0:0:0:
256,192,52334,1,0,0:0:0:0:
256,192,52511,1,8,0:0:0:0:
256,192,52687,1,0,0:0:0:0:
256,192,52864,1,0,0:0:0:0:
256,192,53217,1,0,0:0:0:0:
256,192,53570,1,0,0:0:0:0:
256,192,53923,1,0,0:0:0:0:
256,192,54011,1,0,0:0:0:0:
256,192,54099,1,0,0:0:0:0:
256,192,54276,1,0,0:0:0:0:
256,192,54628,1,0,0:0:0:0:
256,192,54805,1,0,0:0:0:0:
256,192,54893,1,8,0:0:0:0:
256,192,54981,1,0,0:0:0:0:
256,192,55158,1,0,0:0:0:0:
256,192,55246,1,0,0:0:0:0:
256,192,55334,1,8,0:0:0:0:
256,192,55687,1,0,0:0:0:0:
256,192,56040,1,0,0:0:0:0:
256,192,56393,1,0,0:0:0:0:
256,192,56570,1,8,0:0:0:0:
256,192,56746,1,0,0:0:0:0:
256,192,56805,1,0,0:0:0:0:
256,192,56864,1,0,0:0:0:0:
256,192,56923,1,8,0:0:0:0:
256,192,57099,1,0,0:0:0:0:
256,192,57276,1,8,0:0:0:0:
256,192,57452,1,0,0:0:0:0:
256,192,57628,1,0,0:0:0:0:
256,192,57805,1,0,0:0:0:0:
256,192,57981,1,8,0:0:0:0:
256,192,58070,1,0,0:0:0:0:
256,192,58158,1,8,0:0:0:0:
256,192,58246,1,8,0:0:0:0:
256,192,58334,1,8,0:0:0:0:
256,192,58423,1,8,0:0:0:0:
256,192,58511,1,0,0:0:0:0:
256,192,58864,1,0,0:0:0:0:
256,192,59217,1,0,0:0:0:0:
256,192,59393,1,0,0:0:0:0:
256,192,59570,1,8,0:0:0:0:
256,192,59923,1,0,0:0:0:0:
256,192,60276,1,0,0:0:0:0:
256,192,60452,1,8,0:0:0:0:
256,192,60628,1,0,0:0:0:0:
256,192,60805,1,0,0:0:0:0:
256,192,60981,1,8,0:0:0:0:
256,192,61334,1,4,0:0:0:0:
256,192,61511,1,8,0:0:0:0:
256,192,61687,1,8,0:0:0:0:
256,192,62040,1,8,0:0:0:0:
256,192,62217,1,0,0:0:0:0:
256,192,62305,1,0,0:0:0:0:
256,192,62393,1,8,0:0:0:0:
256,192,62570,1,0,0:0:0:0:
256,192,62658,1,8,0:0:0:0:
256,192,62746,1,0,0:0:0:0:
256,192,62923,1,0,0:0:0:0:
256,192,63099,1,8,0:0:0:0:
256,192,63452,1,8,0:0:0:0:
256,192,63628,1,0,0:0:0:0:
256,192,63717,1,0,0:0:0:0:
256,192,63805,1,8,0:0:0:0:
256,192,63893,1,8,0:0:0:0:
256,192,63981,1,8,0:0:0:0:
256,192,64158,1,0,0:0:0:0:
256,192,64334,1,8,0:0:0:0:
256,192,64511,1,0,0:0:0:0:
256,192,64864,1,8,0:0:0:0:
256,192,65040,1,0,0:0:0:0:
256,192,65128,1,0,0:0:0:0:
256,192,65217,1,8,0:0:0:0:
256,192,65393,1,8,0:0:0:0:
256,192,65481,1,8,0:0:0:0:
256,192,65570,1,0,0:0:0:0:
256,192,65746,1,0,0:0:0:0:
256,192,65923,1,8,0:0:0:0:
256,192,66099,1,0,0:0:0:0:
256,192,66187,1,8,0:0:0:0:
256,192,66276,1,0,0:0:0:0:
256,192,66452,1,8,0:0:0:0:
256,192,66540,1,0,0:0:0:0:
256,192,66628,1,8,0:0:0:0:
256,192,66805,1,8,0:0:0:0:
256,192,66981,1,0,0:0:0:0:
256,192,67158,1,0,0:0:0:0:
256,192,67334,1,8,0:0:0:0:
256,192,67687,1,0,0:0:0:0:
256,192,67864,1,0,0:0:0:0:
256,192,67952,1,0,0:0:0:0:
256,192,68040,1,8,0:0:0:0:
256,192,68217,1,8,0:0:0:0:
256,192,68305,1,8,0:0:0:0:
256,192,68393,1,0,0:0:0:0:
256,192,68570,1,0,0:0:0:0:
256,192,68746,1,8,0:0:0:0:
256,192,68923,1,0,0:0:0:0:
256,192,69011,1,0,0:0:0:0:
256,192,69099,1,8,0:0:0:0:
256,192,69187,1,8,0:0:0:0:
256,192,69276,1,0,0:0:0:0:
256,192,69452,1,8,0:0:0:0:
256,192,69540,1,0,0:0:0:0:
256,192,69628,1,8,0:0:0:0:
256,192,69717,1,8,0:0:0:0:
256,192,69805,1,0,0:0:0:0:
256,192,69981,1,0,0:0:0:0:
256,192,70158,1,8,0:0:0:0:
256,192,70511,1,8,0:0:0:0:
256,192,70687,1,0,0:0:0:0:
256,192,70776,1,0,0:0:0:0:
256,192,70864,1,8,0:0:0:0:
256,192,70952,1,8,0:0:0:0:
256,192,71040,1,8,0:0:0:0:
256,192,71128,1,8,0:0:0:0:
256,192,71217,1,0,0:0:0:0:
256,192,71393,1,8,0:0:0:0:
256,192,71481,1,8,0:0:0:0:
256,192,71570,1,0,0:0:0:0:
256,192,71746,1,0,0:0:0:0:
256,192,71834,1,0,0:0:0:0:
256,192,71923,1,8,0:0:0:0:
256,192,72011,1,0,0:0:0:0:
256,192,72099,1,8,0:0:0:0:
256,192,72276,1,0,0:0:0:0:
256,192,72364,1,8,0:0:0:0:
256,192,72452,1,8,0:0:0:0:
256,192,72628,1,4,0:0:0:0:
256,192,72805,1,8,0:0:0:0:
256,192,72981,1,0,0:0:0:0:
256,192,73158,1,0,0:0:0:0:
256,192,73334,1,8,0:0:0:0:
256,192,73511,1,0,0:0:0:0:
256,192,74746,1,8,0:0:0:0:
256,192,74923,1,8,0:0:0:0:
256,192,75099,1,0,0:0:0:0:
256,192,75276,1,0,0:0:0:0:
256,192,75452,1,0,0:0:0:0:
256,192,75628,1,8,0:0:0:0:
256,192,76864,1,0,0:0:0:0:
256,192,77570,1,0,0:0:0:0:
256,192,78276,1,8,0:0:0:0:
256,192,78452,1,0,0:0:0:0:
256,192,78628,1,8,0:0:0:0:
256,192,78805,1,8,0:0:0:0:
256,192,78981,1,0,0:0:0:0:
256,192,79158,1,0,0:0:0:0:
256,192,80393,1,8,0:0:0:0:
256,192,80570,1,8,0:0:0:0:
256,192,80746,1,8,0:0:0:0:
256,192,80923,1,0,0:0:0:0:
256,192,81099,1,0,0:0:0:0:
256,192,81276,1,8,0:0:0:0:
256,192,82070,1,0,0:0:0:0:
256,192,83150,1,0,0:0:0:0:
256,192,83217,1,0,0:0:0:0:
256,192,83283,1,8,0:0:0:0:
256,192,83923,1,0,0:0:0:0:
256,192,84099,1,0,0:0:0:0:
256,192,84276,1,8,0:0:0:0:
256,192,84452,1,0,0:0:0:0:
256,192,84628,1,8,0:0:0:0:
256,192,84805,1,0,0:0:0:0:
256,192,86040,1,8,0:0:0:0:
256,192,86217,1,8,0:0:0:0:
256,192,86393,1,8,0:0:0:0:
256,192,86570,1,8,0:0:0:0:
256,192,86746,1,0,0:0:0:0:
256,192,86923,1,8,0:0:0:0:
256,192,87452,1,0,0:0:0:0:
256,192,88158,1,8,0:0:0:0:
256,192,88864,1,8,0:0:0:0:
256,192,89570,1,0,0:0:0:0:
256,192,89746,1,8,0:0:0:0:
256,192,89923,1,0,0:0:0:0:
256,192,90099,1,8,0:0:0:0:
256,192,90276,1,8,0:0:0:0:
256,192,90452,1,0,0:0:0:0:
256,192,91599,1,0,0:0:0:0:
256,192,91643,1,0,0:0:0:0:
256,192,91687,1,8,0:0:0:0:
256,192,91864,1,0,0:0:0:0:
256,192,92040,1,0,0:0:0:0:
256,192,92217,1,8,0:0:0:0:
256,192,92393,1,0,0:0:0:0:
256,192,92570,1,8,0:0:0:0:
256,192,93099,8,0,95040,0:0:0:0:
256,192,95217,5,4,0:0:0:0:
256,192,97158,1,0,0:0:0:0:
256,192,97687,1,8,0:0:0:0:
256,192,100070,1,8,0:0:0:0:
256,192,100511,1,8,0:0:0:0:
256,192,100864,1,0,0:0:0:0:
256,192,101923,1,0,0:0:0:0:
256,192,102099,1,8,0:0:0:0:
256,192,102276,1,0,0:0:0:0:
256,192,102805,1,0,0:0:0:0:
256,192,103158,1,0,0:0:0:0:
256,192,103334,1,8,0:0:0:0:
256,192,103511,1,8,0:0:0:0:
256,192,104570,1,0,0:0:0:0:
256,192,104746,1,8,0:0:0:0:
256,192,105452,1,0,0:0:0:0:
256,192,105628,1,0,0:0:0:0:
256,192,105981,1,0,0:0:0:0:
256,192,106158,1,8,0:0:0:0:
256,192,106246,1,8,0:0:0:0:
256,192,106334,1,8,0:0:0:0:
256,192,106511,1,0,0:0:0:0:
256,192,106864,1,8,0:0:0:0:
256,192,107570,1,8,0:0:0:0:
256,192,107746,1,0,0:0:0:0:
256,192,108276,1,8,0:0:0:0:
256,192,108452,1,0,0:0:0:0:
256,192,108628,1,0,0:0:0:0:
256,192,108805,1,0,0:0:0:0:
256,192,108981,1,8,0:0:0:0:
256,192,109158,1,0,0:0:0:0:
256,192,109687,1,8,0:0:0:0:
256,192,110393,1,8,0:0:0:0:
256,192,111099,1,8,0:0:0:0:
256,192,111276,1,0,0:0:0:0:
256,192,111364,1,8,0:0:0:0:
256,192,111452,1,0,0:0:0:0:
256,192,111628,1,0,0:0:0:0:
256,192,111805,1,8,0:0:0:0:
256,192,111893,1,8,0:0:0:0:
256,192,111981,1,8,0:0:0:0:
256,192,112158,1,0,0:0:0:0:
256,192,112511,1,8,0:0:0:0:
256,192,113040,1,0,0:0:0:0:
256,192,113217,1,8,0:0:0:0:
256,192,113305,1,0,0:0:0:0:
256,192,113393,1,0,0:0:0:0:
256,192,113570,1,0,0:0:0:0:
256,192,113746,1,0,0:0:0:0:
256,192,113923,1,8,0:0:0:0:
256,192,114452,1,0,0:0:0:0:
256,192,114628,1,8,0:0:0:0:
256,192,114717,1,8,0:0:0:0:
256,192,114805,1,0,0:0:0:0:
256,192,114981,1,0,0:0:0:0:
256,192,115334,1,8,0:0:0:0:
256,192,115864,1,0,0:0:0:0:
224,192,116040,1,8,0:0:0:0:
224,192,116746,1,8,0:0:0:0:
256,192,116923,1,0,0:0:0:0:
256,192,117099,1,8,0:0:0:0:
256,192,117452,1,0,0:0:0:0:
256,192,117805,1,4,0:0:0:0:
256,192,118158,1,8,0:0:0:0:
256,192,118511,1,8,0:0:0:0:
256,192,118864,1,8,0:0:0:0:
256,192,119217,1,0,0:0:0:0:
256,192,119570,1,8,0:0:0:0:
256,192,119923,1,8,0:0:0:0:
256,192,120276,1,8,0:0:0:0:
256,192,120628,1,0,0:0:0:0:
256,192,120981,1,8,0:0:0:0:
256,192,121334,1,8,0:0:0:0:
256,192,121687,1,8,0:0:0:0:
256,192,122040,1,0,0:0:0:0:
256,192,122393,1,8,0:0:0:0:
256,192,122746,1,8,0:0:0:0:
256,192,123099,1,8,0:0:0:0:
256,192,123452,1,0,0:0:0:0:
256,192,123805,1,8,0:0:0:0:
256,192,124158,1,8,0:0:0:0:
256,192,124511,1,8,0:0:0:0:
256,192,124864,1,0,0:0:0:0:
256,192,125217,1,8,0:0:0:0:
256,192,125570,1,8,0:0:0:0:
256,192,125923,1,8,0:0:0:0:
256,192,126276,1,0,0:0:0:0:
256,192,126628,1,8,0:0:0:0:
256,192,126981,1,8,0:0:0:0:
256,192,127334,1,8,0:0:0:0:
256,192,127687,1,0,0:0:0:0:
256,192,128040,1,8,0:0:0:0:
256,192,128393,1,8,0:0:0:0:
256,192,128746,1,8,0:0:0:0:
256,192,129099,1,0,0:0:0:0:
256,192,129276,1,8,0:0:0:0:
256,192,129452,1,8,0:0:0:0:
256,192,129628,1,8,0:0:0:0:
256,192,129805,1,8,0:0:0:0:
256,192,129981,1,8,0:0:0:0:
256,192,130158,1,8,0:0:0:0:
256,192,130334,1,8,0:0:0:0:
256,192,130511,1,0,0:0:0:0:
256,192,130687,1,8,0:0:0:0:
256,192,130864,1,8,0:0:0:0:
256,192,131040,1,8,0:0:0:0:
256,192,131217,1,8,0:0:0:0:
256,192,131393,1,8,0:0:0:0:
256,192,131570,1,8,0:0:0:0:
256,192,131746,1,8,0:0:0:0:
256,192,131923,1,0,0:0:0:0:
256,192,132099,1,8,0:0:0:0:
256,192,132276,1,8,0:0:0:0:
256,192,132452,1,8,0:0:0:0:
256,192,132628,1,8,0:0:0:0:
256,192,132805,1,8,0:0:0:0:
256,192,132981,1,8,0:0:0:0:
256,192,133158,1,8,0:0:0:0:
256,192,133334,1,0,0:0:0:0:
256,192,133511,1,8,0:0:0:0:
256,192,133687,1,8,0:0:0:0:
256,192,133864,1,8,0:0:0:0:
256,192,134040,1,8,0:0:0:0:
256,192,134217,1,8,0:0:0:0:
256,192,134393,1,8,0:0:0:0:
256,192,134570,1,8,0:0:0:0:
256,192,134746,2,0,B|201:347|146:-35|26:-17|93:376|131:232|131:232|215:-38|460:337|388:182|291:103|187:327|151:329|234:179|387:104|387:104|357:146|162:373|206:-50|419:200|419:200|291:264|291:264|225:280|225:280|203:293|203:293,1,1680
256,192,139864,5,0,0:0:0:0:
256,192,140040,1,8,0:0:0:0:
256,192,140217,1,0,0:0:0:0:
256,192,140393,1,4,0:0:0:0:
256,192,140570,1,8,0:0:0:0:
256,192,140746,1,0,0:0:0:0:
256,192,140923,1,8,0:0:0:0:
256,192,141099,1,0,0:0:0:0:
256,192,141276,1,0,0:0:0:0:
256,192,141452,1,8,0:0:0:0:
256,192,141805,1,0,0:0:0:0:
256,192,141981,1,8,0:0:0:0:
256,192,142158,1,0,0:0:0:0:
256,192,142334,1,8,0:0:0:0:
256,192,142423,1,8,0:0:0:0:
256,192,142511,1,0,0:0:0:0:
256,192,142687,1,0,0:0:0:0:
256,192,142864,1,8,0:0:0:0:
256,192,143217,1,0,0:0:0:0:
256,192,143393,1,8,0:0:0:0:
256,192,143481,1,8,0:0:0:0:
256,192,143570,1,0,0:0:0:0:
256,192,143746,1,8,0:0:0:0:
256,192,143923,1,0,0:0:0:0:
256,192,144099,1,0,0:0:0:0:
256,192,144158,1,0,0:0:0:0:
256,192,144217,1,0,0:0:0:0:
256,192,144276,1,8,0:0:0:0:
256,192,144628,1,0,0:0:0:0:
256,192,144805,1,8,0:0:0:0:
256,192,144981,1,0,0:0:0:0:
256,192,145158,1,8,0:0:0:0:
256,192,145246,1,8,0:0:0:0:
256,192,145334,1,0,0:0:0:0:
256,192,145423,1,8,0:0:0:0:
256,192,145511,1,0,0:0:0:0:
256,192,145599,1,0,0:0:0:0:
256,192,145687,1,8,0:0:0:0:
256,192,146040,1,0,0:0:0:0:
256,192,146217,1,8,0:0:0:0:
256,192,146393,1,0,0:0:0:0:
256,192,146570,1,8,0:0:0:0:
256,192,146746,1,0,0:0:0:0:
256,192,146923,1,0,0:0:0:0:
256,192,147099,1,8,0:0:0:0:
256,192,147452,1,0,0:0:0:0:
256,192,147628,1,8,0:0:0:0:
256,192,147805,1,0,0:0:0:0:
256,192,147981,1,8,0:0:0:0:
256,192,148070,1,8,0:0:0:0:
256,192,148158,1,0,0:0:0:0:
256,192,148334,1,0,0:0:0:0:
256,192,148423,1,0,0:0:0:0:
256,192,148511,1,8,0:0:0:0:
256,192,148864,1,0,0:0:0:0:
256,192,149040,1,8,0:0:0:0:
256,192,149128,1,8,0:0:0:0:
256,192,149217,1,0,0:0:0:0:
256,192,149393,1,8,0:0:0:0:
256,192,149570,1,0,0:0:0:0:
256,192,149746,1,0,0:0:0:0:
256,192,149805,1,0,0:0:0:0:
256,192,149864,1,0,0:0:0:0:
256,192,149923,1,8,0:0:0:0:
256,192,150276,1,0,0:0:0:0:
256,192,150452,1,8,0:0:0:0:
256,192,150628,1,0,0:0:0:0:
256,192,150805,1,8,0:0:0:0:
256,192,150893,1,8,0:0:0:0:
256,192,150981,1,0,0:0:0:0:
256,192,151158,1,0,0:0:0:0:
256,192,151246,1,0,0:0:0:0:
256,192,151334,1,8,0:0:0:0:
256,192,151423,1,8,0:0:0:0:
256,192,151511,1,8,0:0:0:0:
256,192,151687,1,4,0:0:0:0:
256,192,151864,1,8,0:0:0:0:
256,192,152040,1,0,0:0:0:0:
256,192,152217,1,8,0:0:0:0:
256,192,152393,1,0,0:0:0:0:
256,192,152570,1,0,0:0:0:0:
256,192,152746,1,8,0:0:0:0:
256,192,153099,1,0,0:0:0:0:
256,192,153276,1,8,0:0:0:0:
256,192,153452,1,0,0:0:0:0:
256,192,153628,1,8,0:0:0:0:
256,192,153717,1,8,0:0:0:0:
256,192,153805,1,0,0:0:0:0:
256,192,153981,1,8,0:0:0:0:
256,192,154070,1,0,0:0:0:0:
256,192,154158,1,8,0:0:0:0:
256,192,154511,1,0,0:0:0:0:
256,192,154687,1,0,0:0:0:0:
256,192,154776,1,8,0:0:0:0:
256,192,154864,1,0,0:0:0:0:
256,192,155040,1,8,0:0:0:0:
256,192,155217,1,0,0:0:0:0:
256,192,155393,1,0,0:0:0:0:
256,192,155452,1,0,0:0:0:0:
256,192,155511,1,0,0:0:0:0:
256,192,155570,1,8,0:0:0:0:
256,192,155923,1,0,0:0:0:0:
256,192,156099,1,8,0:0:0:0:
256,192,156276,1,0,0:0:0:0:
256,192,156452,1,8,0:0:0:0:
256,192,156540,1,8,0:0:0:0:
256,192,156628,1,0,0:0:0:0:
256,192,156805,1,8,0:0:0:0:
256,192,156893,1,8,0:0:0:0:
256,192,156981,1,8,0:0:0:0:
256,192,157334,1,0,0:0:0:0:
256,192,157511,1,8,0:0:0:0:
256,192,157687,1,0,0:0:0:0:
256,192,157864,1,8,0:0:0:0:
256,192,158040,1,0,0:0:0:0:
256,192,158217,1,0,0:0:0:0:
256,192,158393,1,8,0:0:0:0:
256,192,158746,1,0,0:0:0:0:
256,192,158923,1,8,0:0:0:0:
256,192,159099,1,0,0:0:0:0:
256,192,159276,1,8,0:0:0:0:
256,192,159364,1,0,0:0:0:0:
256,192,159452,1,0,0:0:0:0:
256,192,159628,1,0,0:0:0:0:
256,192,159717,1,8,0:0:0:0:
256,192,159805,1,8,0:0:0:0:
256,192,160158,1,0,0:0:0:0:
256,192,160334,1,8,0:0:0:0:
256,192,160423,1,8,0:0:0:0:
256,192,160511,1,0,0:0:0:0:
256,192,160687,1,8,0:0:0:0:
256,192,160864,1,0,0:0:0:0:
256,192,161040,1,0,0:0:0:0:
256,192,161099,1,0,0:0:0:0:
256,192,161158,1,0,0:0:0:0:
256,192,161217,1,8,0:0:0:0:
256,192,161393,1,8,0:0:0:0:
256,192,161746,1,0,0:0:0:0:
256,192,162099,1,0,0:0:0:0:
256,192,162452,1,0,0:0:0:0:
256,192,162628,1,12,0:0:0:0:
256,192,162981,1,4,0:0:0:0:
256,192,163158,1,8,0:0:0:0:
256,192,163334,1,0,0:0:0:0:
256,192,163511,1,8,0:0:0:0:
256,192,163687,1,0,0:0:0:0:
256,192,163864,1,8,0:0:0:0:
256,192,163952,1,8,0:0:0:0:
256,192,164040,1,0,0:0:0:0:
256,192,164217,1,8,0:0:0:0:
256,192,164393,1,0,0:0:0:0:
256,192,164570,1,8,0:0:0:0:
256,192,164746,1,0,0:0:0:0:
256,192,164923,1,8,0:0:0:0:
256,192,165099,1,0,0:0:0:0:
256,192,165187,1,0,0:0:0:0:
256,192,165276,1,8,0:0:0:0:
256,192,165364,1,8,0:0:0:0:
256,192,165452,1,0,0:0:0:0:
256,192,165628,1,8,0:0:0:0:
256,192,165805,1,0,0:0:0:0:
256,192,165981,1,8,0:0:0:0:
256,192,166158,1,0,0:0:0:0:
256,192,166334,1,8,0:0:0:0:
256,192,166511,1,0,0:0:0:0:
256,192,166687,1,8,0:0:0:0:
256,192,166776,1,8,0:0:0:0:
256,192,166864,1,0,0:0:0:0:
256,192,166952,1,0,0:0:0:0:
256,192,167040,1,8,0:0:0:0:
256,192,167217,1,0,0:0:0:0:
256,192,167393,1,8,0:0:0:0:
256,192,167570,1,0,0:0:0:0:
256,192,167746,1,8,0:0:0:0:
256,192,167834,1,8,0:0:0:0:
256,192,167923,1,0,0:0:0:0:
256,192,168011,1,8,0:0:0:0:
256,192,168099,1,8,0:0:0:0:
256,192,168187,1,0,0:0:0:0:
256,192,168276,1,8,0:0:0:0:
256,192,168628,1,0,0:0:0:0:
256,192,168805,1,8,0:0:0:0:
256,192,168981,1,0,0:0:0:0:
256,192,169158,1,8,0:0:0:0:
256,192,169334,1,0,0:0:0:0:
256,192,169511,1,8,0:0:0:0:
256,192,169599,1,8,0:0:0:0:
256,192,169687,1,8,0:0:0:0:
256,192,169864,1,8,0:0:0:0:
256,192,169952,1,0,0:0:0:0:
256,192,170040,1,8,0:0:0:0:
256,192,170217,1,8,0:0:0:0:
256,192,170393,1,0,0:0:0:0:
256,192,170570,1,8,0:0:0:0:
256,192,170658,1,0,0:0:0:0:
256,192,170746,1,0,0:0:0:0:
256,192,170923,1,8,0:0:0:0:
256,192,171011,1,8,0:0:0:0:
256,192,171099,1,8,0:0:0:0:
256,192,171276,1,8,0:0:0:0:
256,192,171452,1,0,0:0:0:0:
256,192,171628,1,8,0:0:0:0:
256,192,171717,1,8,0:0:0:0:
256,192,171805,1,0,0:0:0:0:
256,192,171981,1,8,0:0:0:0:
256,192,172158,1,0,0:0:0:0:
256,192,172334,1,8,0:0:0:0:
256,192,172393,1,0,0:0:0:0:
256,192,172452,1,0,0:0:0:0:
256,192,172511,1,8,0:0:0:0:
256,192,172687,1,8,0:0:0:0:
256,192,172776,1,0,0:0:0:0:
256,192,172864,1,0,0:0:0:0:
256,192,173040,1,8,0:0:0:0:
256,192,173217,1,0,0:0:0:0:
256,192,173393,1,8,0:0:0:0:
256,192,173570,1,0,0:0:0:0:
256,192,173746,1,0,0:0:0:0:
256,192,173923,1,12,0:0:0:0:
256,192,174276,1,4,0:0:0:0:
256,192,174452,1,8,0:0:0:0:
256,192,174628,1,0,0:0:0:0:
256,192,174805,1,8,0:0:0:0:
256,192,174981,1,0,0:0:0:0:
256,192,175158,1,0,0:0:0:0:
256,192,175334,1,8,0:0:0:0:
256,192,175511,1,0,0:0:0:0:
256,192,175599,1,0,0:0:0:0:
256,192,175687,1,8,0:0:0:0:
256,192,175864,1,8,0:0:0:0:
256,192,176040,1,0,0:0:0:0:
256,192,176217,1,8,0:0:0:0:
256,192,176305,1,8,0:0:0:0:
256,192,176393,1,0,0:0:0:0:
256,192,176570,1,0,0:0:0:0:
256,192,176658,1,0,0:0:0:0:
256,192,176746,1,8,0:0:0:0:
256,192,176923,1,0,0:0:0:0:
256,192,177099,1,0,0:0:0:0:
256,192,177276,1,8,0:0:0:0:
256,192,177364,1,0,0:0:0:0:
256,192,177452,1,0,0:0:0:0:
256,192,177628,1,8,0:0:0:0:
256,192,177805,1,0,0:0:0:0:
256,192,177981,1,8,0:0:0:0:
256,192,178040,1,0,0:0:0:0:
256,192,178099,1,0,0:0:0:0:
256,192,178158,1,8,0:0:0:0:
256,192,178334,1,0,0:0:0:0:
256,192,178511,1,8,0:0:0:0:
256,192,178687,1,8,0:0:0:0:
256,192,178864,1,0,0:0:0:0:
256,192,179040,1,8,0:0:0:0:
256,192,179128,1,0,0:0:0:0:
256,192,179217,1,0,0:0:0:0:
256,192,179305,1,8,0:0:0:0:
256,192,179393,1,8,0:0:0:0:
256,192,179481,1,0,0:0:0:0:
256,192,179570,1,8,0:0:0:0:
256,192,179923,1,0,0:0:0:0:
256,192,180099,1,8,0:0:0:0:
256,192,180276,1,0,0:0:0:0:
256,192,180452,1,8,0:0:0:0:
256,192,180628,1,0,0:0:0:0:
256,192,180805,1,0,0:0:0:0:
256,192,180981,1,8,0:0:0:0:
256,192,181158,1,0,0:0:0:0:
256,192,181246,1,8,0:0:0:0:
256,192,181334,1,0,0:0:0:0:
256,192,181511,1,8,0:0:0:0:
256,192,181687,1,0,0:0:0:0:
256,192,181864,1,8,0:0:0:0:
256,192,181952,1,8,0:0:0:0:
256,192,182040,1,0,0:0:0:0:
256,192,182217,1,0,0:0:0:0:
256,192,182305,1,0,0:0:0:0:
256,192,182393,1,8,0:0:0:0:
256,192,182570,1,8,0:0:0:0:
256,192,182658,1,0,0:0:0:0:
256,192,182746,1,8,0:0:0:0:
256,192,182923,1,8,0:0:0:0:
256,192,183099,1,0,0:0:0:0:
256,192,183276,1,8,0:0:0:0:
256,192,183452,1,0,0:0:0:0:
256,192,183628,1,0,0:0:0:0:
256,192,183805,1,8,0:0:0:0:
256,192,184158,1,0,0:0:0:0:
256,192,184334,8,0,185393,0:0:0:0:
256,192,185570,5,4,0:0:0:0:
256,192,189452,8,0,190334,0:0:0:0:
256,192,190511,5,12,0:0:0:0:
256,192,191217,1,4,0:0:0:0:
256,192,191923,1,0,0:0:0:0:
256,192,192628,1,0,0:0:0:0:
256,192,193334,1,8,0:0:0:0:
256,192,194040,1,0,0:0:0:0:
256,192,194746,1,0,0:0:0:0:
256,192,195452,1,0,0:0:0:0:
256,192,196158,1,8,0:0:0:0:
256,192,196864,1,8,0:0:0:0:
256,192,197570,1,0,0:0:0:0:
256,192,198276,1,8,0:0:0:0:
256,192,198893,1,0,0:0:0:0:
256,192,198937,1,0,0:0:0:0:
256,192,198981,1,8,0:0:0:0:
256,192,199687,1,8,0:0:0:0:
256,192,200393,1,0,0:0:0:0:
256,192,201099,1,0,0:0:0:0:
256,192,201805,1,8,0:0:0:0:
256,192,202511,1,0,0:0:0:0:
256,192,202864,1,0,0:0:0:0:
256,192,203217,1,8,0:0:0:0:
256,192,203570,1,8,0:0:0:0:
256,192,203923,1,0,0:0:0:0:
256,192,204628,1,8,0:0:0:0:
256,192,205334,1,8,0:0:0:0:
256,192,205687,1,0,0:0:0:0:
256,192,206040,1,0,0:0:0:0:
256,192,206393,1,8,0:0:0:0:
256,192,206746,1,0,0:0:0:0:
256,192,207452,1,0,0:0:0:0:
256,192,208158,1,8,0:0:0:0:
256,192,208511,1,0,0:0:0:0:
256,192,208864,1,0,0:0:0:0:
256,192,209217,1,0,0:0:0:0:
256,192,209570,1,8,0:0:0:0:
256,192,210276,1,8,0:0:0:0:
256,192,210981,1,0,0:0:0:0:
256,192,211334,1,0,0:0:0:0:
256,192,211687,1,8,0:0:0:0:
256,192,212040,1,0,0:0:0:0:
256,192,212393,1,0,0:0:0:0:
256,192,213805,1,4,0:0:0:0:
256,192,213981,1,8,0:0:0:0:
256,192,214158,1,0,0:0:0:0:
256,192,214334,1,0,0:0:0:0:
256,192,214511,1,8,0:0:0:0:
256,192,214687,1,8,0:0:0:0:
256,192,215923,1,8,0:0:0:0:
256,192,216099,1,8,0:0:0:0:
256,192,216276,1,0,0:0:0:0:
256,192,216452,1,0,0:0:0:0:
256,192,216628,1,8,0:0:0:0:
256,192,216805,1,0,0:0:0:0:
256,192,218040,1,8,0:0:0:0:
256,192,218746,1,8,0:0:0:0:
256,192,219452,1,0,0:0:0:0:
256,192,219628,1,0,0:0:0:0:
256,192,219805,1,8,0:0:0:0:
256,192,219981,1,8,0:0:0:0:
256,192,220158,1,0,0:0:0:0:
256,192,220334,1,8,0:0:0:0:
256,192,221570,1,8,0:0:0:0:
256,192,221746,1,8,0:0:0:0:
256,192,221923,1,8,0:0:0:0:
256,192,222099,1,0,0:0:0:0:
256,192,222276,1,0,0:0:0:0:
256,192,222452,1,8,0:0:0:0:
256,192,223246,1,0,0:0:0:0:
256,192,224305,1,0,0:0:0:0:
256,192,224371,1,0,0:0:0:0:
256,192,224437,1,8,0:0:0:0:
256,192,225099,1,0,0:0:0:0:
256,192,225276,1,8,0:0:0:0:
256,192,225452,1,0,0:0:0:0:
256,192,225628,1,8,0:0:0:0:
256,192,225805,1,8,0:0:0:0:
256,192,225981,1,8,0:0:0:0:
256,192,227217,1,8,0:0:0:0:
256,192,227393,1,0,0:0:0:0:
256,192,227570,1,0,0:0:0:0:
256,192,227746,1,8,0:0:0:0:
256,192,227923,1,0,0:0:0:0:
256,192,228099,1,8,0:0:0:0:
256,192,228628,1,0,0:0:0:0:
256,192,229334,1,8,0:0:0:0:
256,192,230040,1,8,0:0:0:0:
256,192,230746,1,0,0:0:0:0:
256,192,230923,1,0,0:0:0:0:
256,192,231099,1,8,0:0:0:0:
256,192,231276,1,0,0:0:0:0:
256,192,231452,1,0,0:0:0:0:
256,192,231628,1,8,0:0:0:0:
256,192,232776,1,0,0:0:0:0:
256,192,232820,1,0,0:0:0:0:
256,192,232864,1,8,0:0:0:0:
256,192,233040,1,0,0:0:0:0:
256,192,233217,1,8,0:0:0:0:
256,192,233393,1,8,0:0:0:0:
256,192,234981,8,0,236217,0:0:0:0:
256,192,236393,5,4,0:0:0:0:
256,192,242040,5,8,0:0:0:0:
256,192,247687,5,0,0:0:0:0:
256,192,249099,1,0,0:0:0:0:
256,192,250511,1,0,0:0:0:0:
256,192,251923,1,0,0:0:0:0:
256,192,253334,1,8,0:0:0:0:
256,192,254746,1,0,0:0:0:0:
256,192,256158,1,8,0:0:0:0:
256,192,257570,1,0,0:0:0:0:
256,192,258276,1,8,0:0:0:0:
256,192,258981,1,4,0:0:0:0:
256,192,259334,1,8,0:0:0:0:
256,192,259687,1,8,0:0:0:0:
256,192,260040,1,8,0:0:0:0:
256,192,260217,1,0,0:0:0:0:
256,192,260393,1,0,0:0:0:0:
256,192,260746,1,8,0:0:0:0:
256,192,260923,1,0,0:0:0:0:
256,192,261099,1,8,0:0:0:0:
256,192,261276,1,0,0:0:0:0:
256,192,261452,1,8,0:0:0:0:
256,192,261628,1,0,0:0:0:0:
256,192,261805,1,0,0:0:0:0:
256,192,262158,1,8,0:0:0:0:
256,192,262511,1,8,0:0:0:0:
256,192,262864,1,8,0:0:0:0:
256,192,263217,1,0,0:0:0:0:
256,192,263570,1,8,0:0:0:0:
256,192,263746,1,0,0:0:0:0:
256,192,263834,1,0,0:0:0:0:
256,192,263923,1,8,0:0:0:0:
256,192,264099,1,0,0:0:0:0:
256,192,264276,1,8,0:0:0:0:
256,192,264628,1,0,0:0:0:0:
256,192,264981,1,8,0:0:0:0:
256,192,265334,1,8,0:0:0:0:
256,192,265687,1,8,0:0:0:0:
256,192,265864,1,0,0:0:0:0:
256,192,266040,1,0,0:0:0:0:
256,192,266393,1,8,0:0:0:0:
256,192,266570,1,0,0:0:0:0:
256,192,266658,1,0,0:0:0:0:
256,192,266746,1,8,0:0:0:0:
256,192,266923,1,0,0:0:0:0:
256,192,267099,1,8,0:0:0:0:
256,192,267452,1,0,0:0:0:0:
256,192,267805,1,8,0:0:0:0:
256,192,267981,1,0,0:0:0:0:
256,192,268070,1,0,0:0:0:0:
256,192,268158,1,8,0:0:0:0:
256,192,268246,1,0,0:0:0:0:
256,192,268334,1,0,0:0:0:0:
256,192,268511,1,8,0:0:0:0:
256,192,268864,1,0,0:0:0:0:
256,192,269040,1,0,0:0:0:0:
256,192,269217,1,8,0:0:0:0:
256,192,269393,1,0,0:0:0:0:
256,192,269481,1,0,0:0:0:0:
256,192,269570,1,8,0:0:0:0:
256,192,269746,1,0,0:0:0:0:
256,192,269923,1,8,0:0:0:0:
256,192,270276,1,0,0:0:0:0:
256,192,270452,1,8,0:0:0:0:
256,192,270628,1,8,0:0:0:0:
256,192,270805,1,8,0:0:0:0:
256,192,270981,1,8,0:0:0:0:
256,192,271158,1,8,0:0:0:0:
256,192,271334,1,8,0:0:0:0:
256,192,271511,1,8,0:0:0:0:
256,192,271687,1,0,0:0:0:0:
256,192,271864,1,8,0:0:0:0:
256,192,272040,1,8,0:0:0:0:
256,192,272217,1,8,0:0:0:0:
256,192,272393,1,8,0:0:0:0:
256,192,272570,1,8,0:0:0:0:
256,192,272746,1,8,0:0:0:0:
256,192,272923,1,8,0:0:0:0:
256,192,273099,1,0,0:0:0:0:
256,192,273276,1,8,0:0:0:0:
256,192,273452,1,8,0:0:0:0:
256,192,273628,1,8,0:0:0:0:
256,192,273805,1,8,0:0:0:0:
256,192,273981,1,8,0:0:0:0:
256,192,274158,1,8,0:0:0:0:
256,192,274334,1,8,0:0:0:0:
256,192,274511,1,0,0:0:0:0:
256,192,274687,1,8,0:0:0:0:
256,192,274864,1,8,0:0:0:0:
256,192,275040,1,8,0:0:0:0:
256,192,275217,1,8,0:0:0:0:
256,192,275393,1,8,0:0:0:0:
256,192,275570,1,8,0:0:0:0:
256,192,275746,1,8,0:0:0:0:
256,192,275923,2,0,B|160:192|192:64|160:128|164:210|160:64|99:83|159:113|192:128|192:256|32:320|32:320|128:256|160:320|192:160|224:160|224:352|128:278|128:288|320:256|320:256|352:320|480:320|480:320|416:256|256:288|397:162|345:194|352:192|384:160|215:-42|279:97|192:64|235:35|235:35|352:192|219:109|64:192|96:160|128:128|128:192|132:211,1,1680
256,192,281040,5,0,0:0:0:0:
256,192,281217,1,8,0:0:0:0:
256,192,281393,1,0,0:0:0:0:
256,192,281570,1,4,0:0:0:0:
256,192,281746,1,8,0:0:0:0:
256,192,281923,1,0,0:0:0:0:
256,192,282099,1,8,0:0:0:0:
256,192,282276,1,0,0:0:0:0:
256,192,282452,1,8,0:0:0:0:
256,192,282628,1,8,0:0:0:0:
256,192,282805,1,0,0:0:0:0:
256,192,282893,1,0,0:0:0:0:
256,192,282981,1,0,0:0:0:0:
256,192,283158,1,8,0:0:0:0:
256,192,283334,1,0,0:0:0:0:
256,192,283511,1,8,0:0:0:0:
256,192,283687,1,0,0:0:0:0:
256,192,283864,1,0,0:0:0:0:
256,192,283952,1,8,0:0:0:0:
256,192,284040,1,8,0:0:0:0:
256,192,284128,1,0,0:0:0:0:
256,192,284217,1,8,0:0:0:0:
256,192,284393,1,0,0:0:0:0:
256,192,284570,1,8,0:0:0:0:
256,192,284746,1,0,0:0:0:0:
256,192,284923,1,8,0:0:0:0:
256,192,285099,1,0,0:0:0:0:
256,192,285276,1,0,0:0:0:0:
256,192,285364,1,8,0:0:0:0:
256,192,285452,1,8,0:0:0:0:
256,192,285628,1,8,0:0:0:0:
256,192,285805,1,0,0:0:0:0:
256,192,285981,1,8,0:0:0:0:
256,192,286158,1,0,0:0:0:0:
256,192,286334,1,8,0:0:0:0:
256,192,286423,1,8,0:0:0:0:
256,192,286511,1,0,0:0:0:0:
256,192,286599,1,8,0:0:0:0:
256,192,286687,1,8,0:0:0:0:
256,192,286776,1,0,0:0:0:0:
256,192,286864,1,8,0:0:0:0:
256,192,287217,1,0,0:0:0:0:
256,192,287393,1,8,0:0:0:0:
256,192,287570,1,0,0:0:0:0:
256,192,287746,1,8,0:0:0:0:
256,192,287923,1,0,0:0:0:0:
256,192,288099,1,8,0:0:0:0:
256,192,288276,1,8,0:0:0:0:
256,192,288452,1,0,0:0:0:0:
256,192,288540,1,0,0:0:0:0:
256,192,288628,1,0,0:0:0:0:
256,192,288805,1,8,0:0:0:0:
256,192,288981,1,0,0:0:0:0:
256,192,289158,1,8,0:0:0:0:
256,192,289334,1,0,0:0:0:0:
256,192,289511,1,8,0:0:0:0:
256,192,289599,1,0,0:0:0:0:
256,192,289687,1,8,0:0:0:0:
256,192,289864,1,0,0:0:0:0:
256,192,289952,1,0,0:0:0:0:
256,192,290040,1,0,0:0:0:0:
256,192,290217,1,8,0:0:0:0:
256,192,290305,1,8,0:0:0:0:
256,192,290393,1,0,0:0:0:0:
256,192,290570,1,8,0:0:0:0:
256,192,290746,1,0,0:0:0:0:
256,192,290923,1,8,0:0:0:0:
256,192,290981,1,0,0:0:0:0:
256,192,291040,1,0,0:0:0:0:
256,192,291099,1,8,0:0:0:0:
256,192,291276,1,8,0:0:0:0:
256,192,291452,1,0,0:0:0:0:
256,192,291628,1,8,0:0:0:0:
256,192,291805,1,0,0:0:0:0:
256,192,291981,1,8,0:0:0:0:
256,192,292070,1,8,0:0:0:0:
256,192,292158,1,0,0:0:0:0:
256,192,292334,1,0,0:0:0:0:
256,192,292511,1,12,0:0:0:0:
256,192,292864,1,4,0:0:0:0:
256,192,293040,1,8,0:0:0:0:
256,192,293217,1,0,0:0:0:0:
256,192,293393,1,8,0:0:0:0:
256,192,293570,1,0,0:0:0:0:
256,192,293746,1,8,0:0:0:0:
256,192,293923,1,8,0:0:0:0:
256,192,294099,1,0,0:0:0:0:
256,192,294187,1,0,0:0:0:0:
256,192,294276,1,0,0:0:0:0:
256,192,294452,1,8,0:0:0:0:
256,192,294628,1,0,0:0:0:0:
256,192,294805,1,8,0:0:0:0:
256,192,294893,1,8,0:0:0:0:
256,192,294981,1,0,0:0:0:0:
256,192,295158,1,8,0:0:0:0:
256,192,295246,1,0,0:0:0:0:
256,192,295334,1,8,0:0:0:0:
256,192,295511,1,0,0:0:0:0:
256,192,295687,1,0,0:0:0:0:
256,192,295864,1,8,0:0:0:0:
256,192,295952,1,8,0:0:0:0:
256,192,296040,1,0,0:0:0:0:
256,192,296217,1,8,0:0:0:0:
256,192,296393,1,0,0:0:0:0:
256,192,296570,1,0,0:0:0:0:
256,192,296628,1,0,0:0:0:0:
256,192,296687,1,0,0:0:0:0:
256,192,296746,1,8,0:0:0:0:
256,192,296923,1,0,0:0:0:0:
256,192,297099,1,0,0:0:0:0:
256,192,297276,1,8,0:0:0:0:
256,192,297452,1,0,0:0:0:0:
256,192,297628,1,8,0:0:0:0:
256,192,297717,1,8,0:0:0:0:
256,192,297805,1,0,0:0:0:0:
256,192,297981,1,0,0:0:0:0:
256,192,298070,1,0,0:0:0:0:
256,192,298158,1,8,0:0:0:0:
256,192,298334,1,8,0:0:0:0:
256,192,298423,1,0,0:0:0:0:
256,192,298511,1,0,0:0:0:0:
256,192,298687,1,8,0:0:0:0:
256,192,298864,1,0,0:0:0:0:
256,192,299040,1,8,0:0:0:0:
256,192,299217,1,0,0:0:0:0:
256,192,299393,1,0,0:0:0:0:
256,192,299570,1,8,0:0:0:0:
256,192,299746,1,8,0:0:0:0:
256,192,299923,1,0,0:0:0:0:
256,192,300099,1,8,0:0:0:0:
256,192,300276,1,0,0:0:0:0:
256,192,300452,1,8,0:0:0:0:
256,192,300540,1,8,0:0:0:0:
256,192,300628,1,0,0:0:0:0:
256,192,300805,1,8,0:0:0:0:
256,192,300893,1,0,0:0:0:0:
256,192,300981,1,8,0:0:0:0:
256,192,301158,1,0,0:0:0:0:
256,192,301334,1,0,0:0:0:0:
256,192,301511,1,8,0:0:0:0:
256,192,301599,1,8,0:0:0:0:
256,192,301687,1,0,0:0:0:0:
256,192,301864,1,8,0:0:0:0:
256,192,302040,1,0,0:0:0:0:
256,192,302217,1,8,0:0:0:0:
256,192,302276,1,0,0:0:0:0:
256,192,302334,1,0,0:0:0:0:
256,192,302393,1,8,0:0:0:0:
256,192,302570,1,0,0:0:0:0:
256,192,302923,1,0,0:0:0:0:
256,192,303276,1,0,0:0:0:0:
256,192,303628,1,0,0:0:0:0:
256,192,303805,1,12,0:0:0:0:
256,192,304158,1,4,0:0:0:0:
256,192,304334,1,8,0:0:0:0:
256,192,304511,1,0,0:0:0:0:
256,192,304687,1,8,0:0:0:0:
256,192,304864,1,0,0:0:0:0:
256,192,305040,1,8,0:0:0:0:
256,192,305128,1,0,0:0:0:0:
256,192,305217,1,8,0:0:0:0:
256,192,305393,1,8,0:0:0:0:
256,192,305570,1,0,0:0:0:0:
256,192,305746,1,8,0:0:0:0:
256,192,305923,1,0,0:0:0:0:
256,192,306099,1,8,0:0:0:0:
256,192,306276,1,0,0:0:0:0:
256,192,306364,1,0,0:0:0:0:
256,192,306452,1,8,0:0:0:0:
256,192,306540,1,8,0:0:0:0:
256,192,306628,1,8,0:0:0:0:
256,192,306805,1,0,0:0:0:0:
256,192,306981,1,0,0:0:0:0:
256,192,307158,1,8,0:0:0:0:
256,192,307334,1,0,0:0:0:0:
256,192,307511,1,8,0:0:0:0:
256,192,307687,1,0,0:0:0:0:
256,192,307864,1,8,0:0:0:0:
256,192,307952,1,0,0:0:0:0:
256,192,308040,1,8,0:0:0:0:
256,192,308217,1,8,0:0:0:0:
256,192,308393,1,0,0:0:0:0:
256,192,308570,1,8,0:0:0:0:
256,192,308746,1,0,0:0:0:0:
256,192,308923,1,8,0:0:0:0:
256,192,309011,1,8,0:0:0:0:
256,192,309099,1,0,0:0:0:0:
256,192,309187,1,0,0:0:0:0:
256,192,309276,1,8,0:0:0:0:
256,192,309364,1,0,0:0:0:0:
256,192,309452,1,8,0:0:0:0:
256,192,309628,1,0,0:0:0:0:
256,192,309805,1,0,0:0:0:0:
256,192,309981,1,8,0:0:0:0:
256,192,310158,1,0,0:0:0:0:
256,192,310334,1,8,0:0:0:0:
256,192,310511,1,0,0:0:0:0:
256,192,310687,1,8,0:0:0:0:
256,192,310776,1,8,0:0:0:0:
256,192,310864,1,8,0:0:0:0:
256,192,311040,1,0,0:0:0:0:
256,192,311217,1,0,0:0:0:0:
256,192,311393,1,8,0:0:0:0:
256,192,311570,1,0,0:0:0:0:
256,192,311746,1,8,0:0:0:0:
256,192,311834,1,8,0:0:0:0:
256,192,311923,1,0,0:0:0:0:
256,192,312099,1,8,0:0:0:0:
256,192,312187,1,0,0:0:0:0:
256,192,312276,1,8,0:0:0:0:
256,192,312452,1,0,0:0:0:0:
256,192,312540,1,0,0:0:0:0:
256,192,312628,1,0,0:0:0:0:
256,192,312805,1,8,0:0:0:0:
256,192,312893,1,8,0:0:0:0:
256,192,312981,1,0,0:0:0:0:
256,192,313158,1,8,0:0:0:0:
256,192,313334,1,0,0:0:0:0:
256,192,313511,1,8,0:0:0:0:
256,192,313570,1,0,0:0:0:0:
256,192,313628,1,0,0:0:0:0:
256,192,313687,1,8,0:0:0:0:
256,192,313864,1,0,0:0:0:0:
256,192,314217,1,0,0:0:0:0:
256,192,314570,1,0,0:0:0:0:
256,192,314923,1,0,0:0:0:0:
256,192,315099,1,12,0:0:0:0:
256,192,315452,1,4,0:0:0:0:
256,192,315628,1,8,0:0:0:0:
256,192,315805,1,0,0:0:0:0:
256,192,315981,1,8,0:0:0:0:
256,192,316158,1,0,0:0:0:0:
256,192,316334,1,0,0:0:0:0:
256,192,316423,1,0,0:0:0:0:
256,192,316511,1,8,0:0:0:0:
256,192,316687,1,0,0:0:0:0:
256,192,316864,1,0,0:0:0:0:
256,192,317040,1,8,0:0:0:0:
256,192,317217,1,0,0:0:0:0:
256,192,317393,1,8,0:0:0:0:
256,192,317570,1,0,0:0:0:0:
256,192,317746,1,8,0:0:0:0:
256,192,317834,1,8,0:0:0:0:
256,192,317923,1,8,0:0:0:0:
256,192,318099,1,8,0:0:0:0:
256,192,318276,1,0,0:0:0:0:
256,192,318452,1,8,0:0:0:0:
256,192,318628,1,0,0:0:0:0:
256,192,318805,1,8,0:0:0:0:
256,192,318981,1,0,0:0:0:0:
256,192,319158,1,8,0:0:0:0:
256,192,319246,1,0,0:0:0:0:
256,192,319334,1,8,0:0:0:0:
256,192,319511,1,0,0:0:0:0:
256,192,319687,1,0,0:0:0:0:
256,192,319864,1,8,0:0:0:0:
256,192,320040,1,0,0:0:0:0:
256,192,320217,1,8,0:0:0:0:
256,192,320393,1,0,0:0:0:0:
256,192,320481,1,0,0:0:0:0:
256,192,320570,1,8,0:0:0:0:
256,192,320658,1,0,0:0:0:0:
256,192,320746,1,8,0:0:0:0:
256,192,321099,1,0,0:0:0:0:
256,192,321276,1,8,0:0:0:0:
256,192,321452,1,0,0:0:0:0:
256,192,321628,1,8,0:0:0:0:
256,192,321805,1,0,0:0:0:0:
256,192,321981,1,0,0:0:0:0:
256,192,322070,1,8,0:0:0:0:
256,192,322158,1,8,0:0:0:0:
256,192,322334,1,0,0:0:0:0:
256,192,322511,1,0,0:0:0:0:
256,192,322687,1,8,0:0:0:0:
256,192,322864,1,0,0:0:0:0:
256,192,323040,1,8,0:0:0:0:
256,192,323217,1,0,0:0:0:0:
256,192,323393,1,8,0:0:0:0:
256,192,323481,1,0,0:0:0:0:
256,192,323570,1,8,0:0:0:0:
256,192,323746,1,0,0:0:0:0:
256,192,323923,1,12,0:0:0:0:
256,192,324099,1,0,0:0:0:0:
256,192,324276,1,12,0:0:0:0:
256,192,324452,1,0,0:0:0:0:
256,192,324628,1,12,0:0:0:0:
256,192,324805,1,0,0:0:0:0:
256,192,324981,1,12,0:0:0:0:
256,192,325158,1,0,0:0:0:0:
256,192,325334,1,8,0:0:0:0:
256,192,325511,8,0,326570,0:0:0:0:
256,192,326746,5,4,0:0:0:0:
256,192,330276,8,0,331511,0:0:0:0:
256,192,331687,5,12,0:0:0:0:
