osu file format v14

[General]
AudioFilename: skyshifter.mp3
AudioLeadIn: 0
PreviewTime: 184158
Countdown: 0
SampleSet: Normal
StackLeniency: 0.7
Mode: 3
LetterboxInBreaks: 0
SpecialStyle: 0
WidescreenStoryboard: 1

[Editor]
DistanceSpacing: 0.8
BeatDivisor: 16
GridSize: 8
TimelineZoom: 2.4

[Metadata]
Title:skyshifter vip
TitleUnicode:skyshifter vip
Artist:sakuraburst
ArtistUnicode:【sakuraburst】
Creator:Evening
Version:us
Source:
Tags:deconstructing nature Kingdom Hearts II
BeatmapID:1122126
BeatmapSetID:529155

[Difficulty]
HPDrainRate:8
CircleSize:4
OverallDifficulty:8.5
ApproachRate:9.1
SliderMultiplier:2
SliderTickRate:1

[Events]
//Background and Video events
0,0,"sd.jpg",0,0
//Break Periods
//Storyboard Layer 0 (Background)
//Storyboard Layer 1 (Fail)
//Storyboard Layer 2 (Pass)
//Storyboard Layer 3 (Foreground)
//Storyboard Sound Samples
Sample,27408,0,"98388__the-baron__breath-02.wav",100
Sample,72628,0,"193811__geoneo0__four-voices-whispering-2.wav",70
Sample,192452,0,"74646__ifartinurgeneraldirection__birds-chirping-4.wav",40
Sample,214511,0,"276469__djmangamez__you-don-t-know-what-you-have-done.wav",100
Sample,218040,0,"269570__vonora__cuckoo-the-nightingale-duet.wav",55
Sample,331687,0,"98388__the-baron__breath-02.wav",70

[TimingPoints]
4864,352.941176470588,4,1,1,20,1,0
4864,-250,4,1,1,20,0,0
26040,-238.095238095238,4,1,1,18,0,0
26216,-227.272727272727,4,1,1,18,0,0
26393,-217.391304347826,4,1,1,18,0,0
26569,-208.333333333333,4,1,1,18,0,0
26746,-200,4,1,1,18,0,0
26922,-192.307692307692,4,1,1,18,0,0
27099,-185.185185185185,4,1,1,18,0,0
27275,-178.571428571429,4,1,1,18,0,0
27452,-250,4,1,1,18,0,0
46990.08,-243.90243902439,4,1,1,15,0,0
47117.16,-238.095238095238,4,1,1,15,0,0
47244.24,-232.558139534884,4,1,1,15,0,0
47371.32,-227.272727272727,4,1,1,15,0,0
47498.4,-222.222222222222,4,1,1,15,0,0
47625.48,-217.391304347826,4,1,1,15,0,0
47752.56,-212.765957446809,4,1,1,15,0,0
47879.64,-208.333333333333,4,1,1,15,0,0
48006.72,-204.081632653061,4,1,1,15,0,0
48133.8,-200,4,1,1,15,0,0
48260.88,-196.078431372549,4,1,1,15,0,0
48387.96,-192.307692307692,4,1,1,15,0,0
48515.04,-188.679245283019,4,1,1,15,0,0
48642.12,-185.185185185185,4,1,1,15,0,0
48769.2,-181.818181818182,4,1,1,15,0,0
48896.28,-178.571428571429,4,1,1,15,0,0
49023.36,-175.438596491228,4,1,1,15,0,0
49150.44,-172.413793103448,4,1,1,15,0,0
49277.52,-169.491525423729,4,1,1,15,0,0
49404.6,-166.666666666667,4,1,1,15,0,0
49531.68,-163.934426229508,4,1,1,15,0,0
49658.76,-161.290322580645,4,1,1,15,0,0
49785.84,-158.730158730159,4,1,1,15,0,0
49912.92,-156.25,4,1,1,15,0,0
50040,-181.818181818182,4,1,1,30,0,0
50792.9333333333,-178.571428571429,4,1,1,30,0,0
51545.8666666667,-175.438596491228,4,1,1,30,0,0
52298.8,-172.413793103448,4,1,1,30,0,0
52511,-20.6185567010309,4,1,1,30,0,0
52513.2,-947.368421052632,4,1,1,30,0,0
52533,-20.6185567010309,4,1,1,30,0,0
52535.2,-947.368421052632,4,1,1,30,0,0
52555,-20.6185567010309,4,1,1,30,0,0
52557.2,-947.368421052632,4,1,1,30,0,0
52577,-20.6185567010309,4,1,1,30,0,0
52579.2,-947.368421052632,4,1,1,30,0,0
52599,-20.6185567010309,4,1,1,30,0,0
52601.2,-947.368421052632,4,1,1,30,0,0
52621,-20.6185567010309,4,1,1,30,0,0
52623.2,-947.368421052632,4,1,1,30,0,0
52643,-20.6185567010309,4,1,1,30,0,0
52645.2,-947.368421052632,4,1,1,30,0,0
52665,-20.6185567010309,4,1,1,30,0,0
52667.2,-947.368421052632,4,1,1,30,0,0
52687,-172.413793103448,4,1,1,30,0,0
53051.7333333333,-169.491525423729,4,1,1,30,0,0
53804.6666666667,-166.666666666667,4,1,1,30,0,0
53922,-19.6078431372549,4,1,1,30,0,0
53927.9,-1000,4,1,1,30,0,0
53981,-19.6078431372549,4,1,1,30,0,0
53989.8,-1000,4,1,1,30,0,0
54069,-19.6078431372549,4,1,1,30,0,0
54074.9,-1000,4,1,1,30,0,0
54128,-19.6078431372549,4,1,1,30,0,0
54131,-1000,4,1,1,30,0,0
54158,-166.666666666667,4,1,1,30,0,0
54557.6,-163.934426229508,4,1,1,30,0,0
54805,-19.2307692307692,4,1,1,30,0,0
54813.8,-1000,4,1,1,30,0,0
54893,-19.2307692307692,4,1,1,30,0,0
54901.8,-1000,4,1,1,30,0,0
54981,-163.934426229508,4,1,1,30,0,0
55310.5333333333,-161.290322580645,4,1,1,30,0,0
55334,-16.3934426229508,4,1,1,30,0,0
55336.2,-1000,4,1,1,30,0,0
55356,-16.3934426229508,4,1,1,30,0,0
55358.2,-1000,4,1,1,30,0,0
55378,-16.3934426229508,4,1,1,30,0,0
55380.2,-1000,4,1,1,30,0,0
55400,-16.3934426229508,4,1,1,30,0,0
55402.2,-1000,4,1,1,30,0,0
55422,-16.3934426229508,4,1,1,30,0,0
55424.2,-1000,4,1,1,30,0,0
55444,-16.3934426229508,4,1,1,30,0,0
55446.2,-1000,4,1,1,30,0,0
55466,-16.3934426229508,4,1,1,30,0,0
55468.2,-1000,4,1,1,30,0,0
55488,-16.3934426229508,4,1,1,30,0,0
55490.3,-1000,4,1,1,30,0,0
55511,-16.3934426229508,4,1,1,30,0,0
55513.2,-1000,4,1,1,30,0,0
55533,-16.3934426229508,4,1,1,30,0,0
55535.2,-1000,4,1,1,30,0,0
55555,-16.3934426229508,4,1,1,30,0,0
55557.2,-1000,4,1,1,30,0,0
55577,-16.3934426229508,4,1,1,30,0,0
55579.2,-1000,4,1,1,30,0,0
55599,-16.3934426229508,4,1,1,30,0,0
55601.2,-1000,4,1,1,30,0,0
55621,-16.3934426229508,4,1,1,30,0,0
55623.2,-1000,4,1,1,30,0,0
55643,-16.3934426229508,4,1,1,30,0,0
55645.2,-1000,4,1,1,30,0,0
55665,-16.3934426229508,4,1,1,30,0,0
55667.2,-1000,4,1,1,30,0,0
55687,-161.290322580645,4,1,1,30,0,0
56040,-19.6078431372549,4,1,1,30,0,0
56045.9,-1000,4,1,1,30,0,0
56099,-19.6078431372549,4,1,1,30,0,0
56107.8,-1000,4,1,1,30,0,0
56187,-19.6078431372549,4,1,1,30,0,0
56192.9,-1000,4,1,1,30,0,0
56246,-19.6078431372549,4,1,1,30,0,0
56249,-1000,4,1,1,30,0,0
56276,-158.730158730159,4,1,1,30,0,0
56746,-322.58064516129,4,1,1,30,0,0
56870,-62.5,4,1,1,30,0,0
56975.1,-318.181818181818,4,1,1,30,0,0
57099,-156.25,4,1,1,30,0,0
57275,-40,4,1,1,30,0,0
57292.7,-230.769230769231,4,1,1,30,0,0
57452,-156.25,4,1,1,30,0,0
57569.3333333333,-153.846153846154,4,1,1,30,0,0
57628,-40,4,1,1,30,0,0
57645.7,-225,4,1,1,30,0,0
57805,-153.846153846154,4,1,1,30,0,0
57981,-33.3333333333333,4,1,1,30,0,0
57998.7,-250,4,1,1,30,0,0
58158,-37.037037037037,4,1,1,30,0,0
58180,-1000,4,1,1,30,0,0
58246,-37.037037037037,4,1,1,30,0,0
58268,-1000,4,1,1,30,0,0
58334,-37.037037037037,4,1,1,30,0,0
58348.75,-1000,4,1,1,30,0,0
58393,-37.037037037037,4,1,1,30,0,0
58407.75,-1000,4,1,1,30,0,0
58452,-37.037037037037,4,1,1,30,0,0
58466.75,-1000,4,1,1,30,0,0
58511,-151.515151515152,4,1,1,30,0,0
59075.2,-149.253731343284,4,1,1,30,0,0
59569,-16.3934426229508,4,1,1,30,0,0
59572,-1000,4,1,1,30,0,0
59599,-16.3934426229508,4,1,1,30,0,0
59601.9,-1000,4,1,1,30,0,0
59628,-16.3934426229508,4,1,1,30,0,0
59631,-1000,4,1,1,30,0,0
59658,-16.3934426229508,4,1,1,30,0,0
59660.9,-1000,4,1,1,30,0,0
59687,-16.3934426229508,4,1,1,30,0,0
59689.9,-1000,4,1,1,30,0,0
59716,-16.3934426229508,4,1,1,30,0,0
59719,-1000,4,1,1,30,0,0
59746,-16.3934426229508,4,1,1,30,0,0
59748.9,-1000,4,1,1,30,0,0
59775,-16.3934426229508,4,1,1,30,0,0
59778,-1000,4,1,1,30,0,0
59805,-16.3934426229508,4,1,1,30,0,0
59807.9,-1000,4,1,1,30,0,0
59834,-16.3934426229508,4,1,1,30,0,0
59836.9,-1000,4,1,1,30,0,0
59863,-16.3934426229508,4,1,1,30,0,0
59866,-1000,4,1,1,30,0,0
59893,-16.3934426229508,4,1,1,30,0,0
59895.9,-1000,4,1,1,30,0,0
59922,-147.058823529412,4,1,1,30,0,0
60581.0666666667,-144.927536231884,4,1,1,30,0,0
60981,-16.3934426229508,4,1,1,30,0,0
60984,-1000,4,1,1,30,0,0
61011,-16.3934426229508,4,1,1,30,0,0
61013.9,-1000,4,1,1,30,0,0
61040,-16.3934426229508,4,1,1,30,0,0
61042.9,-1000,4,1,1,30,0,0
61069,-16.3934426229508,4,1,1,30,0,0
61072,-1000,4,1,1,30,0,0
61099,-16.3934426229508,4,1,1,30,0,0
61101.9,-1000,4,1,1,30,0,0
61128,-16.3934426229508,4,1,1,30,0,0
61131,-1000,4,1,1,30,0,0
61158,-16.3934426229508,4,1,1,30,0,0
61160.9,-1000,4,1,1,30,0,0
61187,-16.3934426229508,4,1,1,30,0,0
61189.9,-1000,4,1,1,30,0,0
61216,-16.3934426229508,4,1,1,30,0,0
61219,-1000,4,1,1,30,0,0
61246,-16.3934426229508,4,1,1,30,0,0
61248.9,-1000,4,1,1,30,0,0
61275,-16.3934426229508,4,1,1,30,0,0
61278,-1000,4,1,1,30,0,0
61305,-16.3934426229508,4,1,1,30,0,0
61307.9,-1000,4,1,1,30,0,0
61334,-142.857142857143,4,1,1,30,0,0
61672.84,-140.845070422535,4,1,1,30,0,0
62011.68,-138.888888888889,4,1,1,30,0,0
62350.52,-136.986301369863,4,1,1,30,0,0
62689.36,-135.135135135135,4,1,1,30,0,0
63028.2,-133.333333333333,4,1,1,30,0,0
63367.04,-131.578947368421,4,1,1,30,0,0
63705.88,-129.87012987013,4,1,1,30,0,0
63805,-14.7058823529412,4,1,1,30,0,0
63809.4,-1000,4,1,1,30,0,0
63849,-14.7058823529412,4,1,1,30,0,0
63853.4,-1000,4,1,1,30,0,0
63893,-14.7058823529412,4,1,1,30,0,0
63897.4,-1000,4,1,1,30,0,0
63937,-14.7058823529412,4,1,1,30,0,0
63941.4,-1000,4,1,1,30,0,0
63981,-129.87012987013,4,1,1,30,0,0
64044.72,-128.205128205128,4,1,1,30,0,0
64383.56,-126.582278481013,4,1,1,30,0,0
64722.4,-125,4,1,1,30,0,0
65061.24,-123.456790123457,4,1,1,30,0,0
65400.08,-121.951219512195,4,1,1,30,0,0
65738.92,-120.481927710843,4,1,1,30,0,0
66077.76,-119.047619047619,4,1,1,30,0,0
66187,-70.0280112044818,4,1,1,30,0,0
66231,-396.825396825397,4,1,1,30,0,0
66275,-119.047619047619,4,1,1,30,0,0
66416.6,-117.647058823529,4,1,1,30,0,0
66628,-13.1578947368421,4,1,1,30,0,0
66630.2,-1000,4,1,1,30,0,0
66650,-13.1578947368421,4,1,1,30,0,0
66652.2,-1000,4,1,1,30,0,0
66672,-13.1578947368421,4,1,1,30,0,0
66674.2,-1000,4,1,1,30,0,0
66694,-13.1578947368421,4,1,1,30,0,0
66696.2,-1000,4,1,1,30,0,0
66716,-13.1578947368421,4,1,1,30,0,0
66718.2,-1000,4,1,1,30,0,0
66738,-13.1578947368421,4,1,1,30,0,0
66740.3,-1000,4,1,1,30,0,0
66761,-13.1578947368421,4,1,1,30,0,0
66763.2,-1000,4,1,1,30,0,0
66783,-13.1578947368421,4,1,1,30,0,0
66785.2,-1000,4,1,1,30,0,0
66805,-13.1578947368421,4,1,1,30,0,0
66807.2,-1000,4,1,1,30,0,0
66827,-13.1578947368421,4,1,1,30,0,0
66829.2,-1000,4,1,1,30,0,0
66849,-13.1578947368421,4,1,1,30,0,0
66851.2,-1000,4,1,1,30,0,0
66871,-13.1578947368421,4,1,1,30,0,0
66873.2,-1000,4,1,1,30,0,0
66893,-13.1578947368421,4,1,1,30,0,0
66895.2,-1000,4,1,1,30,0,0
66915,-13.1578947368421,4,1,1,30,0,0
66917.2,-1000,4,1,1,30,0,0
66937,-13.1578947368421,4,1,1,30,0,0
66939.2,-1000,4,1,1,30,0,0
66959,-13.1578947368421,4,1,1,30,0,0
66961.2,-1000,4,1,1,30,0,0
66981,-116.279069767442,4,1,1,30,0,0
67094.28,-114.942528735632,4,1,1,30,0,0
67433.12,-113.636363636364,4,1,1,30,0,0
67771.96,-112.359550561798,4,1,1,30,0,0
68040,-166.666666666667,4,1,1,30,0,0
68164,-62.5,4,1,1,30,0,0
68269.1,-166.666666666667,4,1,1,30,0,0
68449.64,-109.89010989011,4,1,1,30,0,0
68788.48,-108.695652173913,4,1,1,30,0,0
69127.32,-107.52688172043,4,1,1,30,0,0
69452,-40,4,1,1,30,0,0
69474,-230.769230769231,4,1,1,30,0,0
69540,-40,4,1,1,30,0,0
69562,-230.769230769231,4,1,1,30,0,0
69628,-40,4,1,1,30,0,0
69642.75,-230.769230769231,4,1,1,30,0,0
69687,-40,4,1,1,30,0,0
69701.75,-230.769230769231,4,1,1,30,0,0
69746,-40,4,1,1,30,0,0
69760.75,-230.769230769231,4,1,1,30,0,0
69805,-105.263157894737,4,1,1,30,0,0
69946.15,-104.166666666667,4,1,1,30,0,0
70087.3,-103.092783505155,4,1,1,30,0,0
70228.45,-102.040816326531,4,1,1,30,0,0
70369.6,-101.010101010101,4,1,1,30,0,0
70510.75,-100,4,1,1,30,0,0
70651.9,-99.009900990099,4,1,1,30,0,0
70793.05,-98.0392156862745,4,1,1,30,0,0
70934.2,-97.0873786407767,4,1,1,30,0,0
71075.35,-96.1538461538461,4,1,1,30,0,0
71216.5,-95.2380952380953,4,1,1,30,0,0
71357.65,-94.3396226415095,4,1,1,30,0,0
71498.8,-93.4579439252337,4,1,1,30,0,0
71639.95,-92.5925925925926,4,1,1,30,0,0
71781.1,-91.7431192660551,4,1,1,30,0,0
71922.25,-90.9090909090909,4,1,1,30,0,0
72063.4,-90.0900900900901,4,1,1,30,0,0
72204.55,-89.2857142857143,4,1,1,30,0,0
72345.7,-88.495575221239,4,1,1,30,0,0
72486.85,-87.719298245614,4,1,1,30,0,0
72628,-10,4,1,1,30,0,0
72632,-100,4,1,1,30,0,0
72748,-101.010101010101,4,1,1,30,0,0
72868,-102.040816326531,4,1,1,30,0,0
72988,-103.092783505155,4,1,1,30,0,0
73108,-104.166666666667,4,1,1,30,0,0
73228,-105.263157894737,4,1,1,30,0,0
73348,-106.382978723404,4,1,1,30,0,0
73468,-107.52688172043,4,1,1,30,0,0
73588,-108.695652173913,4,1,1,30,0,0
73708,-109.89010989011,4,1,1,30,0,0
73828,-111.111111111111,4,1,1,15,0,0
73948,-112.359550561798,4,1,1,15,0,0
74068,-113.636363636364,4,1,1,15,0,0
74188,-114.942528735632,4,1,1,15,0,0
74308,-116.279069767442,4,1,1,15,0,0
74428,-117.647058823529,4,1,1,15,0,0
74548,-119.047619047619,4,1,1,15,0,0
74668,-120.481927710843,4,1,1,15,0,0
74788,-121.951219512195,4,1,1,15,0,0
74908,-123.456790123457,4,1,1,15,0,0
75028,-125,4,1,1,15,0,0
75148,-126.582278481013,4,1,1,15,0,0
75268,-128.205128205128,4,1,1,15,0,0
75388,-129.87012987013,4,1,1,15,0,0
75508,-131.578947368421,4,1,1,15,0,0
75628,-133.333333333333,4,1,1,15,0,0
83283,-10,4,1,1,15,0,0
83305,-133.333333333333,4,1,1,15,0,0
92569,-133.333333333333,4,1,1,15,0,0
92644.6285714286,-131.578947368421,4,1,1,15,0,0
92720.2571428571,-129.87012987013,4,1,1,15,0,0
92795.8857142857,-128.205128205128,4,1,1,15,0,0
92871.5142857143,-126.582278481013,4,1,1,15,0,0
92947.1428571429,-125,4,1,1,15,0,0
93022.7714285714,-123.456790123457,4,1,1,15,0,0
93098.4,-121.951219512195,4,1,1,15,0,0
93174.0285714286,-120.481927710843,4,1,1,15,0,0
93249.6571428571,-119.047619047619,4,1,1,15,0,0
93325.2857142857,-117.647058823529,4,1,1,15,0,0
93400.9142857143,-116.279069767442,4,1,1,15,0,0
93476.5428571429,-114.942528735632,4,1,1,15,0,0
93552.1714285714,-113.636363636364,4,1,1,15,0,0
93627.8,-112.359550561798,4,1,1,15,0,0
93703.4285714286,-111.111111111111,4,1,1,15,0,0
93779.0571428571,-109.89010989011,4,1,1,15,0,0
93854.6857142857,-108.695652173913,4,1,1,15,0,0
93930.3142857143,-107.52688172043,4,1,1,15,0,0
94005.9428571429,-106.382978723404,4,1,1,15,0,0
94081.5714285714,-105.263157894737,4,1,1,15,0,0
94157.2,-104.166666666667,4,1,1,15,0,0
94232.8285714286,-103.092783505155,4,1,1,15,0,0
94308.4571428571,-102.040816326531,4,1,1,15,0,0
94334,-10,4,1,1,15,0,0
94352,-1000,4,1,1,15,0,0
94511,-20,4,1,1,15,0,0
94515,-1000,4,1,1,15,0,0
94599,-20,4,1,1,15,0,0
94603,-1000,4,1,1,15,0,0
94687,-19.6078431372549,4,1,1,15,0,0
94691,-1000,4,1,1,15,0,0
94775,-19.2307692307692,4,1,1,15,0,0
94779,-1000,4,1,1,15,0,0
94834,-18.8679245283019,4,1,1,15,0,0
94838,-1000,4,1,1,15,0,0
94893,-18.1818181818182,4,1,1,15,0,0
94897,-1000,4,1,1,15,0,0
94952,-17.8571428571429,4,1,1,15,0,0
94956,-1000,4,1,1,15,0,0
95011,-17.5438596491228,4,1,1,15,0,0
95015,-1000,4,1,1,15,0,0
95069,-17.2413793103448,4,1,1,15,0,0
95073,-1000,4,1,1,15,0,0
95128,-16.9491525423729,4,1,1,15,0,0
95132,-1000,4,1,1,15,0,0
95172,-16.6666666666667,4,1,1,15,0,0
95176,-1000,4,1,1,15,0,0
95216,-133.333333333333,4,1,1,15,0,0
106511,-133.333333333333,4,1,1,15,0,0
107005.1,-131.578947368421,4,1,1,15,0,0
107499.2,-129.87012987013,4,1,1,15,0,0
107993.3,-128.205128205128,4,1,1,15,0,0
108487.4,-126.582278481013,4,1,1,15,0,0
108981.5,-125,4,1,1,15,0,0
109475.6,-123.456790123457,4,1,1,15,0,0
109969.7,-121.951219512195,4,1,1,15,0,0
110463.8,-120.481927710843,4,1,1,15,0,0
110957.9,-119.047619047619,4,1,1,15,0,0
111452,-117.647058823529,4,1,1,15,0,0
111946.1,-116.279069767442,4,1,1,15,0,0
112440.2,-114.942528735632,4,1,1,15,0,0
112934.3,-113.636363636364,4,1,1,15,0,0
113428.4,-112.359550561798,4,1,1,15,0,0
113922.5,-111.111111111111,4,1,1,15,0,0
114416.6,-109.89010989011,4,1,1,15,0,0
114910.7,-108.695652173913,4,1,1,15,0,0
115404.8,-107.52688172043,4,1,1,15,0,0
115898.9,-106.382978723404,4,1,1,15,0,0
116393,-105.263157894737,4,1,1,15,0,0
117099,-23.2558139534884,4,1,1,15,0,0
117107.8,-421.052631578947,4,1,1,15,0,0
117143,-23.2558139534884,4,1,1,15,0,0
117151.8,-421.052631578947,4,1,1,15,0,0
117187,-23.2558139534884,4,1,1,15,0,0
117195.8,-421.052631578947,4,1,1,15,0,0
117231,-23.2558139534884,4,1,1,15,0,0
117239.8,-421.052631578947,4,1,1,15,0,0
117275,-23.2558139534884,4,1,1,15,0,0
117283.8,-421.052631578947,4,1,1,15,0,0
117319,-23.2558139534884,4,1,1,15,0,0
117327.8,-421.052631578947,4,1,1,15,0,0
117363,-23.2558139534884,4,1,1,15,0,0
117372,-421.052631578947,4,1,1,15,0,0
117408,-23.2558139534884,4,1,1,15,0,0
117416.8,-421.052631578947,4,1,1,15,0,0
117452,-23.2558139534884,4,1,1,15,0,0
117460.8,-421.052631578947,4,1,1,15,0,0
117496,-23.2558139534884,4,1,1,15,0,0
117504.8,-421.052631578947,4,1,1,15,0,0
117540,-23.2558139534884,4,1,1,15,0,0
117548.8,-421.052631578947,4,1,1,15,0,0
117584,-23.2558139534884,4,1,1,15,0,0
117592.8,-421.052631578947,4,1,1,15,0,0
117628,-23.2558139534884,4,1,1,15,0,0
117636.8,-421.052631578947,4,1,1,15,0,0
117672,-23.2558139534884,4,1,1,15,0,0
117680.8,-421.052631578947,4,1,1,15,0,0
117716,-23.2558139534884,4,1,1,15,0,0
117725,-421.052631578947,4,1,1,15,0,0
117761,-23.2558139534884,4,1,1,15,0,0
117769.8,-421.052631578947,4,1,1,15,0,0
117805,-20.0525422090155,4,1,1,15,0,0
117840.3,-447.071428550001,4,1,1,15,0,0
118158,-19.6433066537295,4,1,1,15,0,0
118193.3,-437.947521844898,4,1,1,15,0,0
118511,-19.2504405206548,4,1,1,15,0,0
118546.2,-429.188571408,4,1,1,15,0,0
118863,-19.2504405206548,4,1,1,15,0,0
118898.3,-420.773109223529,4,1,1,15,0,0
119216,-18.8729809026028,4,1,1,15,0,0
119251.3,-412.681318661539,4,1,1,15,0,0
119569,-18.5100389621681,4,1,1,15,0,0
119604.3,-404.894878686793,4,1,1,15,0,0
119922,-18.1607929440141,4,1,1,15,0,0
119957.3,-397.396825377778,4,1,1,15,0,0
120275,-17.8244819635693,4,1,1,15,0,0
120310.3,-390.171428552728,4,1,1,15,0,0
120628,-17.5004004733226,4,1,1,15,0,0
120663.3,-383.204081614286,4,1,1,15,0,0
120981,-17.1878933220133,4,1,1,15,0,0
121016.3,-376.481202989473,4,1,1,15,0,0
121334,-16.8863513339078,4,1,1,15,0,0
121369.3,-369.990147765518,4,1,1,15,0,0
121687,-16.5952073453921,4,1,1,15,0,0
121722.3,-363.719128311865,4,1,1,15,0,0
122040,-16.3139326446228,4,1,1,15,0,0
122075.3,-357.657142839999,4,1,1,15,0,0
122393,-16.0420337672125,4,1,1,15,0,0
122428.3,-351.793910990162,4,1,1,15,0,0
122746,-15.7790496070942,4,1,1,15,0,0
122781.3,-346.119815651613,4,1,1,15,0,0
123099,-15.5245488069797,4,1,1,15,0,0
123134.3,-340.62585032381,4,1,1,15,0,0
123452,-15.0394066567616,4,1,1,15,0,0
123487.3,-335.3035714125,4,1,1,15,0,0
123805,-14.8080311697345,4,1,1,15,0,0
123840.3,-330.145054929229,4,1,1,15,0,0
124158,-14.5836670611022,4,1,1,15,0,0
124193.3,-325.142857127273,4,1,1,15,0,0
124511,-14.3660003885485,4,1,1,15,0,0
124546.2,-320.289978662688,4,1,1,15,0,0
124863,-14.3660003885485,4,1,1,15,0,0
124898.3,-315.579831917648,4,1,1,15,0,0
125216,-14.1547356769522,4,1,1,15,0,0
125251.3,-311.006211165217,4,1,1,15,0,0
125569,-13.9495945801847,4,1,1,15,0,0
125604.3,-306.563265291428,4,1,1,15,0,0
125922,-13.7503146576106,4,1,1,15,0,0
125957.3,-302.245472822535,4,1,1,15,0,0
126275,-13.5566482539823,4,1,1,15,0,0
126310.3,-298.047619033333,4,1,1,15,0,0
126628,-13.3683614726769,4,1,1,15,0,0
126663.3,-293.964774936987,4,1,1,15,0,0
126981,-13.1852332333253,4,1,1,15,0,0
127016.3,-289.992277978378,4,1,1,15,0,0
127334,-13.0070544058479,4,1,1,15,0,0
127369.3,-286.125714272,4,1,1,15,0,0
127687,-12.8336270137699,4,1,1,15,0,0
127722.3,-282.360902242105,4,1,1,15,0,0
128040,-12.6647635004308,4,1,1,15,0,0
128075.3,-278.693877537662,4,1,1,15,0,0
128393,-12.5002860523733,4,1,1,15,0,0
128428.3,-275.120879107693,4,1,1,15,0,0
128746,-12.3400259747788,4,1,1,15,0,0
128781.3,-271.638336334177,4,1,1,15,0,0
129099,-12.0315253254093,4,1,1,15,0,0
129116.6,-268.24285713,4,1,1,15,0,0
129275,-12.0315253254093,4,1,1,15,0,0
129292.7,-268.24285713,4,1,1,15,0,0
129452,-11.8829879757129,4,1,1,15,0,0
129469.6,-264.931216918518,4,1,1,15,0,0
129628,-11.8829879757129,4,1,1,15,0,0
129645.7,-264.931216918518,4,1,1,15,0,0
129805,-11.7380734882042,4,1,1,15,0,0
129822.6,-261.700348419512,4,1,1,15,0,0
129981,-11.7380734882042,4,1,1,15,0,0
129998.7,-261.700348419512,4,1,1,15,0,0
130158,-11.5966509160572,4,1,1,15,0,0
130175.6,-258.547332173494,4,1,1,15,0,0
130334,-11.5966509160572,4,1,1,15,0,0
130351.7,-258.547332173494,4,1,1,15,0,0
130511,-11.4585955480088,4,1,1,15,0,0
130528.6,-255.469387742857,4,1,1,15,0,0
130687,-11.4585955480088,4,1,1,15,0,0
130704.6,-255.469387742857,4,1,1,15,0,0
130863,-11.4585955480088,4,1,1,15,0,0
130880.7,-252.463865534117,4,1,1,15,0,0
131040,-11.3237885415617,4,1,1,15,0,0
131057.6,-252.463865534117,4,1,1,15,0,0
131216,-11.3237885415617,4,1,1,15,0,0
131233.7,-249.528239190697,4,1,1,15,0,0
131393,-11.1921165817761,4,1,1,15,0,0
131410.6,-249.528239190697,4,1,1,15,0,0
131569,-11.1921165817761,4,1,1,15,0,0
131586.7,-246.660098510345,4,1,1,15,0,0
131746,-11.0634715635947,4,1,1,15,0,0
131763.6,-246.660098510345,4,1,1,15,0,0
131922,-11.0634715635947,4,1,1,15,0,0
131939.7,-243.857142845454,4,1,1,15,0,0
132099,-10.9377502958266,4,1,1,15,0,0
132116.6,-243.857142845454,4,1,1,15,0,0
132275,-10.9377502958266,4,1,1,15,0,0
132292.7,-241.117174948315,4,1,1,15,0,0
132452,-10.814854225087,4,1,1,15,0,0
132469.6,-241.117174948315,4,1,1,15,0,0
132628,-10.814854225087,4,1,1,15,0,0
132645.7,-238.438095226667,4,1,1,15,0,0
132805,-10.6946891781416,4,1,1,15,0,0
132822.6,-238.438095226667,4,1,1,15,0,0
132981,-10.6946891781416,4,1,1,15,0,0
132998.7,-235.817896378022,4,1,1,15,0,0
133158,-10.5771651212389,4,1,1,15,0,0
133175.6,-235.817896378022,4,1,1,15,0,0
133334,-10.5771651212389,4,1,1,15,0,0
133351.7,-233.254658373913,4,1,1,15,0,0
133511,-10.4621959351385,4,1,1,15,0,0
133528.6,-233.254658373913,4,1,1,15,0,0
133687,-10.4621959351385,4,1,1,15,0,0
133704.6,-230.746543767742,4,1,1,15,0,0
133863,-10.3496992046532,4,1,1,15,0,0
133880.7,-230.746543767742,4,1,1,15,0,0
134040,-10.3496992046532,4,1,1,15,0,0
134057.6,-228.291793302128,4,1,1,15,0,0
134216,-10.2395960216249,4,1,1,15,0,0
134233.7,-228.291793302128,4,1,1,15,0,0
134393,-10.2395960216249,4,1,1,15,0,0
134410.6,-225.888721793684,4,1,1,15,0,0
134569,-10.1318108003447,4,1,1,15,0,0
134586.7,-225.888721793684,4,1,1,15,0,0
134746,-10.0603621730382,4,1,1,15,0,0
134754.8,-221.67487684729,4,1,1,15,0,0
134834,-10.0603621730382,4,1,1,15,0,0
134842.8,-224.29906542056,4,1,1,15,0,0
134922,-10.179456803124,4,1,1,15,0,0
134930.9,-226.986128625473,4,1,1,15,0,0
135011,-10.4263102546356,4,1,1,15,0,0
135019.8,-229.738353541799,4,1,1,15,0,0
135099,-10.554281762929,4,1,1,15,0,0
135107.8,-232.558139534883,4,1,1,15,0,0
135187,-10.554281762929,4,1,1,15,0,0
135195.8,-235.448005232178,4,1,1,15,0,0
135275,-10.6854337272819,4,1,1,15,0,0
135283.8,-238.41059602649,4,1,1,15,0,0
135363,-10.8198862046451,4,1,1,15,0,0
135371.9,-241.448692152918,4,1,1,15,0,0
135452,-11.0992039191672,4,1,1,15,0,0
135460.8,-244.565217391305,4,1,1,15,0,0
135540,-11.0992039191672,4,1,1,15,0,0
135548.8,-247.76324845148,4,1,1,15,0,0
135628,-11.2443414790186,4,1,1,15,0,0
135636.8,-251.046025104602,4,1,1,15,0,0
135716,-11.3933250829945,4,1,1,15,0,0
135724.9,-254.416961130742,4,1,1,15,0,0
135805,-11.7034585737923,4,1,1,15,0,0
135813.8,-257.879656160459,4,1,1,15,0,0
135893,-11.864944204077,4,1,1,15,0,0
135901.8,-261.437908496732,4,1,1,15,0,0
135981,-11.864944204077,4,1,1,15,0,0
135989.8,-265.095729013255,4,1,1,15,0,0
136069,-12.0309485780663,4,1,1,15,0,0
136077.9,-268.857356235997,4,1,1,15,0,0
136158,-12.3772940674349,4,1,1,15,0,0
136166.8,-272.727272727272,4,1,1,15,0,0
136246,-12.5580539346765,4,1,1,15,0,0
136254.8,-276.710222905458,4,1,1,15,0,0
136334,-12.5580539346765,4,1,1,15,0,0
136342.8,-280.811232449298,4,1,1,15,0,0
136422,-12.7441717387005,4,1,1,15,0,0
136430.9,-285.035629453682,4,1,1,15,0,0
136511,-13.1334631583714,4,1,1,15,0,0
136519.8,-289.389067524116,4,1,1,15,0,0
136599,-13.3371658522564,4,1,1,15,0,0
136607.8,-293.877551020409,4,1,1,15,0,0
136687,-13.5472870389835,4,1,1,15,0,0
136695.8,-298.507462686567,4,1,1,15,0,0
136775,-13.5472870389835,4,1,1,15,0,0
136783.8,-303.285593934288,4,1,1,15,0,0
136863,-13.7641349359849,4,1,1,15,0,0
136871.9,-308.219178082191,4,1,1,15,0,0
136952,-14.2193456649382,4,1,1,15,0,0
136960.8,-313.31592689295,4,1,1,15,0,0
137040,-14.4584320079771,4,1,1,15,0,0
137048.8,-318.58407079646,4,1,1,15,0,0
137128,-14.4584320079771,4,1,1,15,0,0
137136.8,-324.032403240324,4,1,1,15,0,0
137216,-14.7056959217048,4,1,1,15,0,0
137224.9,-329.67032967033,4,1,1,15,0,0
137305,-15.2264940997335,4,1,1,15,0,0
137313.8,-335.507921714818,4,1,1,15,0,0
137393,-15.5009754924232,4,1,1,15,0,0
137401.8,-341.555977229601,4,1,1,15,0,0
137481,-15.7855344628155,4,1,1,15,0,0
137489.8,-347.826086956522,4,1,1,15,0,0
137569,-15.7855344628155,4,1,1,15,0,0
137577.9,-354.330708661417,4,1,1,15,0,0
137658,-16.3871897382287,4,1,1,15,0,0
137666.8,-361.083249749248,4,1,1,15,0,0
137746,-16.7055502750655,4,1,1,15,0,0
137754.8,-368.098159509202,4,1,1,15,0,0
137834,-17.0365257236852,4,1,1,15,0,0
137842.8,-375.391032325339,4,1,1,15,0,0
137922,-17.0365257236852,4,1,1,15,0,0
137930.9,-382.978723404255,4,1,1,15,0,0
138011,-17.7394442660304,4,1,1,15,0,0
138019.8,-390.879478827361,4,1,1,15,0,0
138099,-18.1131132694169,4,1,1,15,0,0
138107.8,-399.113082039912,4,1,1,15,0,0
138187,-18.5028631585663,4,1,1,15,0,0
138195.8,-407.701019252548,4,1,1,15,0,0
138275,-18.9097548252478,4,1,1,15,0,0
138283.8,-416.666666666667,4,1,1,15,0,0
138363,-18.9097548252478,4,1,1,15,0,0
138371.9,-426.03550295858,4,1,1,15,0,0
138452,-19.7796951198717,4,1,1,15,0,0
138460.8,-435.835351089589,4,1,1,15,0,0
138540,-20.2453880656927,4,1,1,15,0,0
138548.8,-446.096654275092,4,1,1,15,0,0
138628,-20.7335382855508,4,1,1,15,0,0
138636.8,-456.852791878173,4,1,1,15,0,0
138716,-20.7335382855508,4,1,1,15,0,0
138724.9,-468.140442132639,4,1,1,15,0,0
138805,-21.7840375586854,4,1,1,15,0,0
138813.8,-480,4,1,1,15,0,0
138893,-22.3502437332613,4,1,1,15,0,0
138901.8,-492.476060191518,4,1,1,15,0,0
138981,-22.9466687767051,4,1,1,15,0,0
138989.8,-505.61797752809,4,1,1,15,0,0
139069,-23.5757982236855,4,1,1,15,0,0
139077.9,-519.480519480519,4,1,1,15,0,0
139158,-24.2403978768754,4,1,1,15,0,0
139166.8,-534.124629080118,4,1,1,15,0,0
139246,-24.94355445651,4,1,1,15,0,0
139254.8,-549.618320610687,4,1,1,15,0,0
139334,-25.6887235361856,4,1,1,15,0,0
139342.8,-566.037735849057,4,1,1,15,0,0
139422,-26.4797863355171,4,1,1,15,0,0
139430.9,-583.468395461912,4,1,1,15,0,0
139511,-27.3211173394884,4,1,1,15,0,0
139519.8,-602.00668896321,4,1,1,15,0,0
139599,-28.2176652314578,4,1,1,15,0,0
139607.8,-621.761658031088,4,1,1,15,0,0
139687,-29.1750503018108,4,1,1,15,0,0
139695.8,-642.857142857143,4,1,1,15,0,0
139775,-30.1996823826508,4,1,1,15,0,0
139783.8,-665.43438077634,4,1,1,15,0,0
139863,-43.4782608695652,4,1,1,15,0,0
139916.1,-636.363636363636,4,1,1,15,0,0
140040,-41.6666666666667,4,1,1,15,0,0
140092.8,-636.363636363636,4,1,1,15,0,0
140216,-40,4,1,1,15,0,0
140269.1,-636.363636363636,4,1,1,15,0,0
140393,-125,4,1,1,50,0,1
141452,-12.5,4,1,1,50,0,1
141474,-125,4,1,1,50,0,1
142863,-12.5,4,1,1,50,0,1
142885,-125,4,1,1,50,0,1
144275,-12.5,4,1,1,50,0,1
144297,-125,4,1,1,50,0,1
145334,-86.2068965517241,4,1,1,50,0,1
145373.6,-197.841726618706,4,1,1,50,0,1
145422,-86.2068965517241,4,1,1,50,0,1
145462.05,-197.841726618706,4,1,1,50,0,1
145511,-86.2068965517241,4,1,1,50,0,1
145550.6,-197.841726618706,4,1,1,50,0,1
145599,-86.2068965517241,4,1,1,50,0,1
145638.6,-197.841726618706,4,1,1,50,0,1
145687,-12.5,4,1,1,50,0,1
145709,-125,4,1,1,50,0,1
147099,-12.5,4,1,1,50,0,1
147121,-125,4,1,1,50,0,1
148511,-12.5,4,1,1,50,0,1
148533,-125,4,1,1,50,0,1
149922,-12.5,4,1,1,50,0,1
149944,-108.695652173914,4,1,1,50,0,1
150275,-125,4,1,1,50,0,1
151158,-41.6666666666666,4,1,1,50,0,1
151175.6,-144.23076923077,4,1,1,50,0,1
151334,-12.5,4,1,1,50,0,0
151356,-178.57142857143,4,1,1,50,0,0
151378,-156.25,4,1,1,50,0,0
151422,-138.888888888889,4,1,1,50,0,0
151466,-125,4,1,1,50,0,0
151511,-113.636363636365,4,1,1,50,0,0
151555,-104.166666666667,4,1,1,50,0,0
151599,-96.1538461538461,4,1,1,50,0,0
151643,-89.2857142857143,4,1,1,50,0,0
151687,-125,4,1,1,50,0,1
152746,-12.5,4,1,1,50,0,1
152768,-125,4,1,1,50,0,1
154158,-12.5,4,1,1,50,0,1
154180,-125,4,1,1,50,0,1
155569,-12.5,4,1,1,50,0,1
155591,-125,4,1,1,50,0,1
156628,-78.6163522012579,4,1,1,50,0,1
156666.368,-229.821358716914,4,1,1,50,0,1
156716,-78.6163522012579,4,1,1,50,0,1
156754.804,-229.821358716914,4,1,1,50,0,1
156805,-78.6163522012579,4,1,1,50,0,1
156843.368,-229.821358716914,4,1,1,50,0,1
156893,-78.6163522012579,4,1,1,50,0,1
156931.368,-229.821358716914,4,1,1,50,0,1
156981,-12.5,4,1,1,50,0,1
157003,-125,4,1,1,50,0,1
157158,-78.125,4,1,1,50,0,1
157202,-312.5,4,1,1,50,0,1
157246,-65.7894736842106,4,1,1,50,0,1
157290,-416.666666666666,4,1,1,50,0,1
157334,-125,4,1,1,50,0,1
158393,-12.5,4,1,1,50,0,1
158415,-125,4,1,1,50,0,1
159805,-12.5,4,1,1,50,0,1
159827,-108.695652173914,4,1,1,50,0,1
160158,-125,4,1,1,50,0,1
161216,-12.5,4,1,1,50,0,1
161238,-108.695652173914,4,1,1,50,0,1
161569,-104.166666666667,4,1,1,50,0,0
161613.5,-312.5,4,1,1,50,0,0
161658,-96.1538461538461,4,1,1,50,0,0
161702,-312.5,4,1,1,50,0,0
161746,-89.2857142857143,4,1,1,50,0,0
161790,-312.5,4,1,1,50,0,0
161834,-83.3333333333335,4,1,1,50,0,0
161878,-312.5,4,1,1,50,0,0
161922,-78.125,4,1,1,50,0,0
161966.5,-312.5,4,1,1,50,0,0
162011,-73.5294117647059,4,1,1,50,0,0
162055,-312.5,4,1,1,50,0,0
162099,-69.4444444444446,4,1,1,50,0,0
162143,-312.5,4,1,1,50,0,0
162187,-65.7894736842106,4,1,1,50,0,0
162231,-312.5,4,1,1,50,0,0
162275,-62.5,4,1,1,50,0,0
162319,-312.5,4,1,1,50,0,0
162363,-62.5,4,1,1,50,0,0
162407.5,-312.5,4,1,1,50,0,0
162452,-62.5,4,1,1,50,0,0
162496,-312.5,4,1,1,50,0,0
162540,-62.5,4,1,1,50,0,0
162584,-312.5,4,1,1,50,0,0
162628,-12.5,4,1,1,50,0,0
162650,-125,4,1,1,50,0,0
162981,-125,4,1,1,50,0,1
164040,-12.5,4,1,1,50,0,1
164062,-125,4,1,1,50,0,1
164966,-138.888888888889,4,1,1,50,0,1
165055,-104.166666666667,4,1,1,50,0,1
165099,-47.5285171102662,4,1,1,50,0,1
165125.4,-414.691943127962,4,1,1,50,0,1
165187,-47.5285171102662,4,1,1,50,0,1
165213.4,-414.691943127962,4,1,1,50,0,1
165275,-47.5285171102662,4,1,1,50,0,1
165301.4,-414.691943127962,4,1,1,50,0,1
165363,-47.5285171102662,4,1,1,50,0,1
165389.7,-414.691943127962,4,1,1,50,0,1
165451,-12.5,4,1,1,50,0,1
165473,-125,4,1,1,50,0,1
166863,-12.5,4,1,1,50,0,1
166885,-125,4,1,1,50,0,1
167746,-47.6190476190477,4,1,1,50,0,1
167776.8,-10003793,4,1,1,50,0,1
167834,-47.6190476190477,4,1,1,50,0,1
167864.8,-10003793,4,1,1,50,0,1
167922,-47.6190476190477,4,1,1,50,0,1
167953.15,-10003793,4,1,1,50,0,1
168011,-47.6190476190477,4,1,1,50,0,1
168041.8,-10003793,4,1,1,50,0,1
168099,-47.6190476190477,4,1,1,50,0,1
168129.8,-10003793,4,1,1,50,0,1
168187,-47.6190476190477,4,1,1,50,0,1
168217.8,-10003793,4,1,1,50,0,1
168275,-12.5,4,1,1,50,0,1
168297,-125,4,1,1,50,0,1
169687,-12.5,4,1,1,50,0,1
169709,-125,4,1,1,50,0,1
171099,-12.5,4,1,1,50,0,1
171121,-125,4,1,1,50,0,1
172510,-12.5,4,1,1,50,0,1
172532,-108.695652173914,4,1,1,50,0,1
172863,-125,4,1,1,50,0,1
173393,-83.3333333333335,4,1,1,50,0,1
173428.2,-187.5,4,1,1,50,0,1
173481,-83.3333333333335,4,1,1,50,0,1
173516.2,-187.5,4,1,1,50,0,1
173569,-83.3333333333335,4,1,1,50,0,1
173592.6,-187.5,4,1,1,50,0,1
173628,-83.3333333333335,4,1,1,50,0,1
173651.6,-187.5,4,1,1,50,0,1
173687,-83.3333333333335,4,1,1,50,0,1
173710.6,-187.5,4,1,1,50,0,1
173746,-83.3333333333335,4,1,1,50,0,1
173769.6,-187.5,4,1,1,50,0,1
173805,-83.3333333333335,4,1,1,50,0,1
173851.8,-187.5,4,1,1,50,0,1
173922,-12.5,4,1,1,50,0,0
173944,-125,4,1,1,50,0,0
174099,-96.1538461538461,4,1,1,50,0,0
174275,-111.111111111111,4,1,1,50,0,1
175334,-11.1111111111111,4,1,1,50,0,1
175356,-111.111111111111,4,1,1,50,0,1
176746,-11.1111111111111,4,1,1,50,0,1
176768,-111.111111111111,4,1,1,50,0,1
178157,-11.1111111111111,4,1,1,50,0,1
178179,-111.111111111111,4,1,1,50,0,1
179040,-55.5555555555556,4,1,1,50,0,1
179070.8,-240.740740740742,4,1,1,50,0,1
179128,-55.5555555555556,4,1,1,50,0,1
179158.8,-240.740740740742,4,1,1,50,0,1
179216,-55.5555555555556,4,1,1,50,0,1
179247.15,-240.740740740742,4,1,1,50,0,1
179305,-55.5555555555556,4,1,1,50,0,1
179335.8,-240.740740740742,4,1,1,50,0,1
179393,-55.5555555555556,4,1,1,50,0,1
179423.8,-240.740740740742,4,1,1,50,0,1
179481,-55.5555555555556,4,1,1,50,0,1
179511.8,-240.740740740742,4,1,1,50,0,1
179569,-11.1111111111111,4,1,1,50,0,1
179591,-111.111111111111,4,1,1,50,0,1
179746,-69.4444444444444,4,1,1,50,0,1
179790,-277.777777777778,4,1,1,50,0,1
179834,-58.4795321637428,4,1,1,50,0,1
179878,-370.370370370377,4,1,1,50,0,1
179922,-111.111111111111,4,1,1,50,0,1
180981,-11.1111111111111,4,1,1,50,0,1
181003,-111.111111111111,4,1,1,50,0,1
181158,-11.2517580872013,4,1,1,50,0,1
181160.9,-889.777777777778,4,1,1,50,0,1
181187,-11.2517580872013,4,1,1,50,0,1
181189.9,-889.777777777778,4,1,1,50,0,1
181216,-11.2517580872013,4,1,1,50,0,1
181219,-889.777777777778,4,1,1,50,0,1
181246,-11.2517580872013,4,1,1,50,0,1
181248.9,-889.777777777778,4,1,1,50,0,1
181275,-11.2517580872013,4,1,1,50,0,1
181278,-889.777777777778,4,1,1,50,0,1
181305,-11.2517580872013,4,1,1,50,0,1
181307.9,-889.777777777778,4,1,1,50,0,1
181334,-111.111111111111,4,1,1,50,0,1
182393,-11.1111111111111,4,1,1,50,0,1
182415,-96.6183574879237,4,1,1,50,0,1
182746,-116.959064327487,4,1,1,50,0,1
183804,-55.5555555555556,4,1,1,50,0,1
183826,-119.047619047619,4,1,1,50,0,1
184158,-10,4,1,1,50,0,0
184180,-250,4,1,1,15,0,0
185040,-10,4,1,1,15,0,0
185042.9,-899.999999999999,4,1,1,15,0,0
185069,-10,4,1,1,15,0,0
185072,-899.999999999999,4,1,1,15,0,0
185099,-10,4,1,1,15,0,0
185101.9,-899.999999999999,4,1,1,15,0,0
185128,-10,4,1,1,15,0,0
185131,-899.999999999999,4,1,1,15,0,0
185158,-10,4,1,1,15,0,0
185160.9,-899.999999999999,4,1,1,15,0,0
185187,-10,4,1,1,15,0,0
185189.9,-899.999999999999,4,1,1,15,0,0
185216,-10,4,1,1,15,0,0
185219,-899.999999999999,4,1,1,15,0,0
185246,-10,4,1,1,15,0,0
185248.9,-899.999999999999,4,1,1,15,0,0
185275,-10,4,1,1,15,0,0
185278,-899.999999999999,4,1,1,15,0,0
185305,-10,4,1,1,15,0,0
185307.9,-899.999999999999,4,1,1,15,0,0
185334,-10,4,1,1,15,0,0
185336.9,-899.999999999999,4,1,1,15,0,0
185363,-10,4,1,1,15,0,0
185366,-899.999999999999,4,1,1,15,0,0
185393,-10,4,1,1,15,0,0
185395.9,-899.999999999999,4,1,1,15,0,0
185422,-10,4,1,1,15,0,0
185425,-899.999999999999,4,1,1,15,0,0
185452,-10,4,1,1,15,0,0
185454.9,-899.999999999999,4,1,1,15,0,0
185481,-10,4,1,1,15,0,0
185484,-899.999999999999,4,1,1,15,0,0
185511,-10,4,1,1,15,0,0
185513.9,-899.999999999999,4,1,1,15,0,0
185540,-10,4,1,1,15,0,0
185542.9,-899.999999999999,4,1,1,15,0,0
185569,-47.6190476190476,4,1,1,15,0,0
185586.7,-1000,4,1,1,15,0,0
185628,-47.6190476190476,4,1,1,15,0,0
185645.7,-1000,4,1,1,15,0,0
185687,-47.6190476190476,4,1,1,15,0,0
185704.7,-1000,4,1,1,15,0,0
185746,-47.6190476190476,4,1,1,15,0,0
185763.7,-1000,4,1,1,15,0,0
185805,-47.6190476190476,4,1,1,15,0,0
185822.4,-1000,4,1,1,15,0,0
185863,-47.6190476190476,4,1,1,15,0,0
185880.7,-1000,4,1,1,15,0,0
185922,-47.6190476190476,4,1,1,15,0,0
185939.7,-1000,4,1,1,15,0,0
185981,-47.6190476190476,4,1,1,15,0,0
185998.7,-1000,4,1,1,15,0,0
186040,-47.6190476190476,4,1,1,15,0,0
186057.7,-1000,4,1,1,15,0,0
186099,-47.6190476190476,4,1,1,15,0,0
186116.7,-1000,4,1,1,15,0,0
186158,-47.6190476190476,4,1,1,15,0,0
186175.4,-1000,4,1,1,15,0,0
186216,-47.6190476190476,4,1,1,15,0,0
186233.7,-1000,4,1,1,15,0,0
186275,-47.6190476190476,4,1,1,15,0,0
186292.7,-1000,4,1,1,15,0,0
186334,-47.6190476190476,4,1,1,15,0,0
186351.7,-1000,4,1,1,15,0,0
186393,-47.6190476190476,4,1,1,15,0,0
186410.7,-1000,4,1,1,15,0,0
186452,-47.6190476190476,4,1,1,15,0,0
186469.7,-1000,4,1,1,15,0,0
186511,-47.6190476190476,4,1,1,15,0,0
186528.4,-1000,4,1,1,15,0,0
186569,-47.6190476190476,4,1,1,15,0,0
186586.7,-1000,4,1,1,15,0,0
186628,-47.6190476190476,4,1,1,15,0,0
186645.7,-1000,4,1,1,15,0,0
186687,-47.6190476190476,4,1,1,15,0,0
186704.7,-1000,4,1,1,15,0,0
186746,-47.6190476190476,4,1,1,15,0,0
186763.7,-1000,4,1,1,15,0,0
186805,-47.6190476190476,4,1,1,15,0,0
186822.4,-1000,4,1,1,15,0,0
186863,-47.6190476190476,4,1,1,15,0,0
186880.7,-1000,4,1,1,15,0,0
186922,-47.6190476190476,4,1,1,15,0,0
186939,-1000,4,1,1,15,0,0
186981,-74.0740740740741,4,1,1,15,0,0
187004.6,-1000,4,1,1,15,0,0
187040,-74.0740740740741,4,1,1,15,0,0
187063.6,-1000,4,1,1,15,0,0
187099,-74.0740740740741,4,1,1,15,0,0
187122.6,-1000,4,1,1,15,0,0
187158,-74.0740740740741,4,1,1,15,0,0
187181.2,-1000,4,1,1,15,0,0
187216,-74.0740740740741,4,1,1,15,0,0
187239.6,-1000,4,1,1,15,0,0
187275,-74.0740740740741,4,1,1,15,0,0
187298.6,-1000,4,1,1,15,0,0
187334,-74.0740740740741,4,1,1,15,0,0
187357.6,-1000,4,1,1,15,0,0
187393,-74.0740740740741,4,1,1,15,0,0
187416.6,-1000,4,1,1,15,0,0
187452,-74.0740740740741,4,1,1,15,0,0
187475.6,-1000,4,1,1,15,0,0
187511,-74.0740740740741,4,1,1,15,0,0
187534.2,-1000,4,1,1,15,0,0
187569,-74.0740740740741,4,1,1,15,0,0
187592.6,-1000,4,1,1,15,0,0
187628,-74.0740740740741,4,1,1,15,0,0
187651.6,-1000,4,1,1,15,0,0
187687,-74.0740740740741,4,1,1,15,0,0
187710.6,-1000,4,1,1,15,0,0
187746,-74.0740740740741,4,1,1,15,0,0
187769.6,-1000,4,1,1,15,0,0
187805,-74.0740740740741,4,1,1,15,0,0
187828.2,-1000,4,1,1,15,0,0
187863,-74.0740740740741,4,1,1,15,0,0
187886.6,-1000,4,1,1,15,0,0
187922,-74.0740740740741,4,1,1,15,0,0
187945.6,-1000,4,1,1,15,0,0
187981,-74.0740740740741,4,1,1,15,0,0
188004.6,-1000,4,1,1,15,0,0
188040,-74.0740740740741,4,1,1,15,0,0
188063.6,-1000,4,1,1,15,0,0
188099,-74.0740740740741,4,1,1,15,0,0
188122.6,-1000,4,1,1,15,0,0
188158,-74.0740740740741,4,1,1,15,0,0
188181.2,-1000,4,1,1,15,0,0
188216,-74.0740740740741,4,1,1,15,0,0
188239.6,-1000,4,1,1,15,0,0
188275,-74.0740740740741,4,1,1,15,0,0
188298.6,-1000,4,1,1,15,0,0
188334,-74.0740740740741,4,1,1,15,0,0
188357.6,-1000,4,1,1,15,0,0
188393,-200,4,1,1,15,0,0
188414.18,-199.920031987205,4,1,1,15,0,0
188435.36,-199.680511182109,4,1,1,15,0,0
188456.54,-199.282582702272,4,1,1,15,0,0
188477.72,-198.72813990461,4,1,1,15,0,0
188498.9,-198.019801980198,4,1,1,15,0,0
188520.08,-197.160883280757,4,1,1,15,0,0
188541.26,-196.155355041193,4,1,1,15,0,0
188562.44,-195.007800312012,4,1,1,15,0,0
188583.62,-193.723363037582,4,1,1,15,0,0
188604.8,-192.307692307692,4,1,1,15,0,0
188625.98,-190.766882869134,4,1,1,15,0,0
188647.16,-189.10741301059,4,1,1,15,0,0
188668.34,-187.336080929187,4,1,1,15,0,0
188689.52,-185.459940652819,4,1,1,15,0,0
188710.7,-183.48623853211,4,1,1,15,0,0
188731.88,-181.422351233672,4,1,1,15,0,0
188753.06,-179.275726066691,4,1,1,15,0,0
188774.24,-177.053824362606,4,1,1,15,0,0
188795.42,-174.764068507515,4,1,1,15,0,0
188816.6,-172.413793103448,4,1,1,15,0,0
188837.78,-170.010200612037,4,1,1,15,0,0
188858.96,-167.560321715818,4,1,1,15,0,0
188880.14,-165.070980521624,4,1,1,15,0,0
188901.32,-162.548764629389,4,1,1,15,0,0
188922.5,-160,4,1,1,15,0,0
188943.68,-157.430730478589,4,1,1,15,0,0
188964.86,-154.846701765252,4,1,1,15,0,0
188986.04,-152.253349573691,4,1,1,15,0,0
189007.22,-149.655791679138,4,1,1,15,0,0
189028.4,-147.058823529412,4,1,1,15,0,0
189049.58,-144.46691707599,4,1,1,15,0,0
189070.76,-141.884222474461,4,1,1,15,0,0
189091.94,-139.314572304263,4,1,1,15,0,0
189113.12,-136.761487964989,4,1,1,15,0,0
189134.3,-134.228187919463,4,1,1,15,0,0
189155.48,-131.717597471022,4,1,1,15,0,0
189176.66,-129.23235978289,4,1,1,15,0,0
189197.84,-126.774847870183,4,1,1,15,0,0
189219.02,-124.347177319075,4,1,1,15,0,0
189240.2,-121.951219512195,4,1,1,15,0,0
189261.38,-119.588615163836,4,1,1,15,0,0
189282.56,-117.260787992495,4,1,1,15,0,0
189303.74,-114.968958381237,4,1,1,15,0,0
189324.92,-112.714156898106,4,1,1,15,0,0
189346.1,-110.497237569061,4,1,1,15,0,0
189367.28,-108.318890814558,4,1,1,15,0,0
189388.46,-106.179655977915,4,1,1,15,0,0
189409.64,-104.079933388843,4,1,1,15,0,0
189430.82,-102.0199959192,4,1,1,15,0,0
189452,-58.8235294117647,4,1,1,15,0,0
189478.55,-234.042553191489,4,1,1,15,0,0
189511,-58.8235294117647,4,1,1,15,0,0
189537.1,-234.042553191489,4,1,1,15,0,0
189569,-58.8235294117647,4,1,1,15,0,0
189595.55,-234.042553191489,4,1,1,15,0,0
189628,-58.8235294117647,4,1,1,15,0,0
189654.55,-234.042553191489,4,1,1,15,0,0
189687,-58.8235294117647,4,1,1,15,0,0
189709.95,-234.042553191489,4,1,1,15,0,0
189738,-58.8235294117647,4,1,1,15,0,0
189758.25,-234.042553191489,4,1,1,15,0,0
189783,-58.8235294117647,4,1,1,15,0,0
189805.95,-234.042553191489,4,1,1,15,0,0
189834,-58.8235294117647,4,1,1,15,0,0
189860.55,-234.042553191489,4,1,1,15,0,0
189893,-58.8235294117647,4,1,1,15,0,0
189932.6,-234.042553191489,4,1,1,15,0,0
189981,-58.8235294117647,4,1,1,15,0,0
190034.1,-234.042553191489,4,1,1,15,0,0
190099,-58.8235294117647,4,1,1,15,0,0
190191.7,-234.042553191489,4,1,1,15,0,0
190305,-58.8235294117647,4,1,1,15,0,0
190397.7,-234.042553191489,4,1,1,15,0,0
190511,-100,4,1,1,15,0,0
190569,-10,4,1,1,15,0,0
190599,-500,4,1,1,15,0,0
190602.629411765,-499.852984416348,4,1,1,15,0,0
190606.258823529,-499.412455934195,4,1,1,15,0,0
190609.888235294,-498.679964799061,4,1,1,15,0,0
190613.517647059,-497.658079625293,4,1,1,15,0,0
190617.147058824,-496.350364963504,4,1,1,15,0,0
190620.776470588,-494.76135040745,4,1,1,15,0,0
190624.405882353,-492.896491736735,4,1,1,15,0,0
190628.035294118,-490.762124711316,4,1,1,15,0,0
190631.664705882,-488.365412237863,4,1,1,15,0,0
190635.294117647,-485.714285714286,4,1,1,15,0,0
190638.923529412,-482.817381425731,4,1,1,15,0,0
190642.552941176,-479.683972911964,4,1,1,15,0,0
190646.182352941,-476.323900252171,4,1,1,15,0,0
190649.811764706,-472.747497219132,4,1,1,15,0,0
190653.441176471,-468.965517241379,4,1,1,15,0,0
190657.070588235,-464.989059080963,4,1,1,15,0,0
190660.7,-460.829493087558,4,1,1,15,0,0
190664.329411765,-456.498388829216,4,1,1,15,0,0
190667.958823529,-452.007444828503,4,1,1,15,0,0
190671.588235294,-447.368421052632,4,1,1,15,0,0
190675.217647059,-442.593074720125,4,1,1,15,0,0
190678.847058824,-437.693099897013,4,1,1,15,0,0
190682.476470588,-432.680071264953,4,1,1,15,0,0
190686.105882353,-427.565392354125,4,1,1,15,0,0
190689.735294118,-422.360248447205,4,1,1,15,0,0
190693.364705882,-417.075564278705,4,1,1,15,0,0
190696.994117647,-411.721966577864,4,1,1,15,0,0
190700.623529412,-406.309751434034,4,1,1,15,0,0
190704.252941176,-400.848856401792,4,1,1,15,0,0
190707.882352941,-395.348837209302,4,1,1,15,0,0
190711.511764706,-389.81884888787,4,1,1,15,0,0
190715.141176471,-384.267631103074,4,1,1,15,0,0
190718.770588235,-378.703497438182,4,1,1,15,0,0
190722.4,-373.134328358209,4,1,1,15,0,0
190726.029411765,-367.567567567568,4,1,1,15,0,0
190729.658823529,-362.010221465077,4,1,1,15,0,0
190733.288235294,-356.468861396519,4,1,1,15,0,0
190736.917647059,-350.949628406276,4,1,1,15,0,0
190740.547058824,-345.458240195082,4,1,1,15,0,0
190744.176470588,-340,4,1,1,15,0,0
190747.805882353,-334.579807124582,4,1,1,15,0,0
190751.435294118,-329.202168861348,4,1,1,15,0,0
190755.064705882,-323.871213564488,4,1,1,15,0,0
190758.694117647,-318.590704647676,4,1,1,15,0,0
190762.323529412,-313.364055299539,4,1,1,15,0,0
190765.952941176,-308.194343727339,4,1,1,15,0,0
190769.582352941,-303.084328757354,4,1,1,15,0,0
190773.211764706,-298.036465638149,4,1,1,15,0,0
190776.841176471,-293.052921910015,4,1,1,15,0,0
190780.470588235,-288.135593220339,4,1,1,15,0,0
190784.1,-283.28611898017,4,1,1,15,0,0
190787.729411765,-278.505897771953,4,1,1,15,0,0
190791.358823529,-273.796102431954,4,1,1,15,0,0
190794.988235294,-269.157694743509,4,1,1,15,0,0
190798.617647059,-264.591439688716,4,1,1,15,0,0
190802.247058824,-260.097919216646,4,1,1,15,0,0
190805.876470588,-255.677545495563,4,1,1,15,0,0
190809.505882353,-251.330573625074,4,1,1,15,0,0
190813.135294118,-247.0571137916,4,1,1,15,0,0
190816.764705882,-242.857142857143,4,1,1,15,0,0
190820.394117647,-238.730515377054,4,1,1,15,0,0
190824.023529412,-234.676974047488,4,1,1,15,0,0
190827.652941176,-230.696159587461,4,1,1,15,0,0
190831.282352941,-226.787620064034,4,1,1,15,0,0
190834.911764706,-222.950819672131,4,1,1,15,0,0
190838.541176471,-219.185146982981,4,1,1,15,0,0
190842.170588235,-215.489922677145,4,1,1,15,0,0
190845.8,-211.864406779661,4,1,1,15,0,0
190849.429411765,-208.307805416003,4,1,1,15,0,0
190853.058823529,-204.819277108434,4,1,1,15,0,0
190856.688235294,-201.397938632863,4,1,1,15,0,0
190860.317647059,-198.042870456664,4,1,1,15,0,0
190863.947058824,-194.753121777981,4,1,1,15,0,0
190867.576470588,-191.527715187021,4,1,1,15,0,0
190871.205882353,-188.365650969529,4,1,1,15,0,0
190874.835294118,-185.265911072363,4,1,1,15,0,0
190878.464705882,-182.227462750563,4,1,1,15,0,0
190882.094117647,-179.249261914804,4,1,1,15,0,0
190885.723529412,-176.33025619749,4,1,1,15,0,0
190889.352941176,-173.469387755102,4,1,1,15,0,0
190892.982352941,-170.665595823712,4,1,1,15,0,0
190896.611764706,-167.917819043856,4,1,1,15,0,0
190900.241176471,-165.224997570221,4,1,1,15,0,0
190903.870588235,-162.586074980872,4,1,1,15,0,0
190907.5,-160,4,1,1,15,0,0
190911.129411765,-157.465728047425,4,1,1,15,0,0
190914.758823529,-154.982222627405,4,1,1,15,0,0
190918.388235294,-152.548456568557,4,1,1,15,0,0
190922.017647059,-150.163413126049,4,1,1,15,0,0
190925.647058824,-147.826086956522,4,1,1,15,0,0
190929.276470588,-145.535484975601,4,1,1,15,0,0
190932.905882353,-143.290627107215,4,1,1,15,0,0
190936.535294118,-141.090546933355,4,1,1,15,0,0
190940.164705882,-138.93429225237,4,1,1,15,0,0
190943.794117647,-136.82092555332,4,1,1,15,0,0
190947.423529412,-134.749524413443,4,1,1,15,0,0
190951.052941176,-132.719181825279,4,1,1,15,0,0
190954.682352941,-130.729006459551,4,1,1,15,0,0
190958.311764706,-128.77812286948,4,1,1,15,0,0
190961.941176471,-126.865671641791,4,1,1,15,0,0
190965.570588235,-124.990809499302,4,1,1,15,0,0
190969.2,-123.152709359606,4,1,1,15,0,0
190972.829411765,-121.350560354058,4,1,1,15,0,0
190976.458823529,-119.583567810917,4,1,1,15,0,0
190980.088235294,-117.850953206239,4,1,1,15,0,0
190983.717647059,-116.151954085816,4,1,1,15,0,0
190987.347058824,-114.48582396121,4,1,1,15,0,0
190990.976470588,-112.851832182687,4,1,1,15,0,0
190994.605882353,-111.249263791637,4,1,1,15,0,0
190998.235294118,-109.677419354839,4,1,1,15,0,0
191001.864705882,-108.135614782775,4,1,1,15,0,0
191005.494117647,-106.623181133969,4,1,1,15,0,0
191009.123529412,-105.139464407199,4,1,1,15,0,0
191012.752941176,-103.68382532325,4,1,1,15,0,0
191016.382352941,-102.255639097744,4,1,1,15,0,0
191020.011764706,-100.854295206455,4,1,1,15,0,0
191023.641176471,-99.4791971443619,4,1,1,15,0,0
191027.270588235,-98.1297621796352,4,1,1,15,0,0
191030.9,-96.8054211035818,4,1,1,15,0,0
191034.529411765,-95.5056179775281,4,1,1,15,0,0
191038.158823529,-94.2298098775013,4,1,1,15,0,0
191041.788235294,-92.9774666374973,4,1,1,15,0,0
191045.417647059,-91.7480705920449,4,1,1,15,0,0
191049.047058824,-90.5411163187048,4,1,1,15,0,0
191052.676470588,-89.3561103810775,4,1,1,15,0,0
191056.305882353,-88.1925710728367,4,1,1,15,0,0
191059.935294118,-87.0500281632444,4,1,1,15,0,0
191063.564705882,-85.9280226445613,4,1,1,15,0,0
191067.194117647,-84.8261064817125,4,1,1,15,0,0
191070.823529412,-83.743842364532,4,1,1,15,0,0
191074.452941176,-82.6808034628666,4,1,1,15,0,0
191078.082352941,-81.6365731847868,4,1,1,15,0,0
191081.711764706,-80.6107449381194,4,1,1,15,0,0
191085.341176471,-79.6029218954861,4,1,1,15,0,0
191088.970588235,-78.6127167630058,4,1,1,15,0,0
191092.6,-77.639751552795,4,1,1,15,0,0
191096.229411765,-76.6836573593757,4,1,1,15,0,0
191099.858823529,-75.744074140082,4,1,1,15,0,0
191103.488235294,-74.8206504995379,4,1,1,15,0,0
191107.117647059,-73.9130434782609,4,1,1,15,0,0
191110.747058824,-73.0209183454319,4,1,1,15,0,0
191114.376470588,-72.1439483958581,4,1,1,15,0,0
191118.005882353,-71.2818147511426,4,1,1,15,0,0
191121.635294118,-70.4342061650646,4,1,1,15,0,0
191125.264705882,-69.6008188331627,4,1,1,15,0,0
191128.894117647,-68.7813562065059,4,1,1,15,0,0
191132.523529412,-67.9755288096285,4,1,1,15,0,0
191136.152941176,-67.1830540625988,4,1,1,15,0,0
191139.782352941,-66.4036561071833,4,1,1,15,0,0
191143.411764706,-65.6370656370656,4,1,1,15,0,0
191147.041176471,-64.8830197320713,4,1,1,15,0,0
191150.670588235,-64.1412616963477,4,1,1,15,0,0
191154.3,-63.4115409004439,4,1,1,15,0,0
191157.929411765,-62.6936126272312,4,1,1,15,0,0
191161.558823529,-61.9872379216044,4,1,1,15,0,0
191165.188235294,-61.2921834438996,4,1,1,15,0,0
191168.817647059,-60.6082213269635,4,1,1,15,0,0
191172.447058824,-59.9351290368072,4,1,1,15,0,0
191176.076470588,-59.272689236777,4,1,1,15,0,0
191179.705882353,-58.6206896551724,4,1,1,15,0,0
191183.335294118,-57.978922956243,4,1,1,15,0,0
191186.964705882,-57.347186614492,4,1,1,15,0,0
191190.594117647,-56.7252827922186,4,1,1,15,0,0
191194.223529412,-56.1130182202271,4,1,1,15,0,0
191197.852941176,-55.5102040816327,4,1,1,15,0,0
191201.482352941,-54.9166558986949,4,1,1,15,0,0
191205.111764706,-54.3321934226086,4,1,1,15,0,0
191208.741176471,-53.7566405261826,4,1,1,15,0,0
191212.370588235,-53.1898250993398,4,1,1,15,0,0
191216,-10,4,1,1,15,0,0
191238,-250,4,1,1,15,0,0
212393,-25,4,1,1,15,0,0
212396,-1000,4,1,1,15,0,0
212437,-25,4,1,1,15,0,0
212440,-1000,4,1,1,15,0,0
212481,-25,4,1,1,15,0,0
212484,-1000,4,1,1,15,0,0
212547,-25,4,1,1,15,0,0
212550,-1000,4,1,1,15,0,0
212613,-25,4,1,1,15,0,0
212616,-1000,4,1,1,15,0,0
212680,-25,4,1,1,15,0,0
212683,-1000,4,1,1,15,0,0
212702,-25,4,1,1,15,0,0
212705,-1000,4,1,1,15,0,0
212724,-25,4,1,1,15,0,0
212727,-1000,4,1,1,15,0,0
212746,-25,4,1,1,15,0,0
212749,-1000,4,1,1,15,0,0
212805,-25,4,1,1,15,0,0
212808,-1000,4,1,1,15,0,0
212878,-25,4,1,1,15,0,0
212881,-1000,4,1,1,15,0,0
212900,-25,4,1,1,15,0,0
212903,-1000,4,1,1,15,0,0
212922,-25,4,1,1,15,0,0
212925,-1000,4,1,1,15,0,0
213011,-25,4,1,1,15,0,0
213014,-1000,4,1,1,15,0,0
213077,-25,4,1,1,15,0,0
213080,-1000,4,1,1,15,0,0
213143,-25,4,1,1,15,0,0
213146,-1000,4,1,1,15,0,0
213187,-25,4,1,1,15,0,0
213190,-1000,4,1,1,15,0,0
213297,-25,4,1,1,15,0,0
213300,-1000,4,1,1,15,0,0
213341,-25,4,1,1,15,0,0
213344,-1000,4,1,1,15,0,0
213408,-25,4,1,1,15,0,0
213411,-1000,4,1,1,15,0,0
213452,-25,4,1,1,15,0,0
213455,-1000,4,1,1,15,0,0
213511,-25,4,1,1,15,0,0
213514,-1000,4,1,1,15,0,0
213569,-25,4,1,1,15,0,0
213572,-1000,4,1,1,15,0,0
213628,-25,4,1,1,15,0,0
213631,-1000,4,1,1,15,0,0
213687,-25,4,1,1,15,0,0
213690,-1000,4,1,1,15,0,0
213716,-25,4,1,1,15,0,0
213719,-1000,4,1,1,15,0,0
213761,-25,4,1,1,15,0,0
213764,-1000,4,1,1,15,0,0
213805,-83.3333333333333,4,1,1,30,0,0
213834,-333.333333333333,4,1,1,30,0,0
213863,-83.3333333333333,4,1,1,30,0,0
213892.5,-333.333333333333,4,1,1,30,0,0
213922,-83.3333333333333,4,1,1,30,0,0
213951.5,-333.333333333333,4,1,1,30,0,0
213981,-83.3333333333333,4,1,1,30,0,0
214010.5,-333.333333333333,4,1,1,30,0,0
214040,-83.3333333333333,4,1,1,30,0,0
214069.5,-333.333333333333,4,1,1,30,0,0
214099,-83.3333333333333,4,1,1,30,0,0
214128.5,-333.333333333333,4,1,1,30,0,0
214158,-83.3333333333333,4,1,1,30,0,0
214187,-333.333333333333,4,1,1,30,0,0
214216,-83.3333333333333,4,1,1,30,0,0
214245.5,-333.333333333333,4,1,1,30,0,0
214275,-83.3333333333333,4,1,1,30,0,0
214304.5,-333.333333333333,4,1,1,30,0,0
214334,-83.3333333333333,4,1,1,30,0,0
214363.5,-333.333333333333,4,1,1,30,0,0
214393,-83.3333333333333,4,1,1,30,0,0
214422.5,-333.333333333333,4,1,1,30,0,0
214452,-83.3333333333333,4,1,1,30,0,0
214481.5,-333.333333333333,4,1,1,30,0,0
214511,-83.3333333333333,4,1,1,30,0,0
214540,-333.333333333333,4,1,1,30,0,0
214569,-83.3333333333333,4,1,1,30,0,0
214598.5,-333.333333333333,4,1,1,30,0,0
214628,-83.3333333333333,4,1,1,30,0,0
214657.5,-333.333333333333,4,1,1,30,0,0
214687,-83.3333333333333,4,1,1,30,0,0
214716.5,-333.333333333333,4,1,1,30,0,0
214746,-83.3333333333333,4,1,1,30,0,0
214775.5,-333.333333333333,4,1,1,30,0,0
214805,-83.3333333333333,4,1,1,30,0,0
214834,-333.333333333333,4,1,1,30,0,0
214863,-83.3333333333333,4,1,1,30,0,0
214892.5,-333.333333333333,4,1,1,30,0,0
214922,-83.3333333333333,4,1,1,30,0,0
214951.5,-333.333333333333,4,1,1,30,0,0
214981,-83.3333333333333,4,1,1,30,0,0
215010.5,-333.333333333333,4,1,1,30,0,0
215040,-83.3333333333333,4,1,1,30,0,0
215069.5,-333.333333333333,4,1,1,30,0,0
215099,-83.3333333333333,4,1,1,30,0,0
215128.5,-333.333333333333,4,1,1,30,0,0
215158,-83.3333333333333,4,1,1,30,0,0
215187,-333.333333333333,4,1,1,30,0,0
215216,-90.9090909090909,4,1,1,30,0,0
215245.5,-333.333333333333,4,1,1,30,0,0
215275,-90.9090909090909,4,1,1,30,0,0
215304.5,-333.333333333333,4,1,1,30,0,0
215334,-90.9090909090909,4,1,1,30,0,0
215363.5,-333.333333333333,4,1,1,30,0,0
215393,-90.9090909090909,4,1,1,30,0,0
215422.5,-333.333333333333,4,1,1,30,0,0
215452,-90.9090909090909,4,1,1,30,0,0
215481.5,-333.333333333333,4,1,1,30,0,0
215511,-90.9090909090909,4,1,1,30,0,0
215540,-333.333333333333,4,1,1,30,0,0
215569,-90.9090909090909,4,1,1,30,0,0
215598.5,-333.333333333333,4,1,1,30,0,0
215628,-90.9090909090909,4,1,1,30,0,0
215657.5,-333.333333333333,4,1,1,30,0,0
215687,-90.9090909090909,4,1,1,30,0,0
215716.5,-333.333333333333,4,1,1,30,0,0
215746,-90.9090909090909,4,1,1,30,0,0
215775.5,-333.333333333333,4,1,1,30,0,0
215805,-90.9090909090909,4,1,1,30,0,0
215834,-333.333333333333,4,1,1,30,0,0
215863,-90.9090909090909,4,1,1,30,0,0
215892.5,-333.333333333333,4,1,1,30,0,0
215922,-90.9090909090909,4,1,1,30,0,0
215951.5,-333.333333333333,4,1,1,30,0,0
215981,-90.9090909090909,4,1,1,30,0,0
216010.5,-333.333333333333,4,1,1,30,0,0
216040,-90.9090909090909,4,1,1,30,0,0
216069.5,-333.333333333333,4,1,1,30,0,0
216099,-90.9090909090909,4,1,1,30,0,0
216128.5,-333.333333333333,4,1,1,30,0,0
216158,-90.9090909090909,4,1,1,30,0,0
216187,-333.333333333333,4,1,1,30,0,0
216216,-90.9090909090909,4,1,1,30,0,0
216245.5,-333.333333333333,4,1,1,30,0,0
216275,-90.9090909090909,4,1,1,30,0,0
216304.5,-333.333333333333,4,1,1,30,0,0
216334,-90.9090909090909,4,1,1,30,0,0
216363.5,-333.333333333333,4,1,1,30,0,0
216393,-90.9090909090909,4,1,1,30,0,0
216422.5,-333.333333333333,4,1,1,30,0,0
216452,-90.9090909090909,4,1,1,30,0,0
216481.5,-333.333333333333,4,1,1,30,0,0
216511,-90.9090909090909,4,1,1,30,0,0
216540,-333.333333333333,4,1,1,30,0,0
216569,-90.9090909090909,4,1,1,30,0,0
216598.5,-333.333333333333,4,1,1,30,0,0
216628,-142.857142857143,4,1,1,20,0,0
224437,-10,4,1,1,15,0,0
224459,-142.857142857143,4,1,1,15,0,0
233569,-10,4,1,1,15,0,0
233591,-250,4,1,1,15,0,0
235334,-52.6315789473684,4,1,1,15,0,0
235360.4,-269.23076923077,4,1,1,15,0,0
235422,-50,4,1,1,15,0,0
235448.7,-269.23076923077,4,1,1,15,0,0
235511,-10,4,1,1,15,0,0
235537.4,-1000,4,1,1,15,0,0
235599,-45.4545454545455,4,1,1,15,0,0
235625.4,-1000,4,1,1,15,0,0
235687,-43.4782608695652,4,1,1,15,0,0
235713.4,-1000,4,1,1,15,0,0
235775,-41.6666666666667,4,1,1,15,0,0
235801.4,-1000,4,1,1,15,0,0
235863,-40,4,1,1,15,0,0
235889.7,-1000,4,1,1,15,0,0
235952,-38.4615384615385,4,1,1,15,0,0
235978.4,-1000,4,1,1,15,0,0
236040,-37.037037037037,4,1,1,15,0,0
236066.4,-1000,4,1,1,15,0,0
236128,-35.7142857142857,4,1,1,15,0,0
236154.4,-1000,4,1,1,15,0,0
236216,-34.4827586206897,4,1,1,15,0,0
236242.7,-1000,4,1,1,15,0,0
236305,-33.3333333333333,4,1,1,15,0,0
236331.4,-1000,4,1,1,15,0,0
236393,-166.666666666667,4,1,1,15,0,0
247934.05,-163.934426229508,4,1,1,15,0,0
248181.1,-161.290322580645,4,1,1,15,0,0
248428.15,-158.730158730159,4,1,1,15,0,0
248675.2,-156.25,4,1,1,15,0,0
248922.25,-153.846153846154,4,1,1,15,0,0
249169.3,-151.515151515152,4,1,1,15,0,0
249416.35,-149.253731343284,4,1,1,15,0,0
249663.4,-147.058823529412,4,1,1,15,0,0
249910.45,-144.927536231884,4,1,1,15,0,0
250157.5,-142.857142857143,4,1,1,15,0,0
250404.55,-140.845070422535,4,1,1,15,0,0
250651.6,-138.888888888889,4,1,1,15,0,0
250898.65,-136.986301369863,4,1,1,15,0,0
251145.7,-135.135135135135,4,1,1,15,0,0
251392.75,-133.333333333333,4,1,1,15,0,0
251639.8,-131.578947368421,4,1,1,15,0,0
251886.85,-129.87012987013,4,1,1,15,0,0
252133.9,-128.205128205128,4,1,1,15,0,0
252380.95,-126.582278481013,4,1,1,15,0,0
252628,-125,4,1,1,15,0,0
252875.05,-123.456790123457,4,1,1,15,0,0
253122.1,-121.951219512195,4,1,1,15,0,0
253369.15,-120.481927710843,4,1,1,15,0,0
253616.2,-119.047619047619,4,1,1,15,0,0
253863.25,-117.647058823529,4,1,1,15,0,0
254110.3,-116.279069767442,4,1,1,15,0,0
254357.35,-114.942528735632,4,1,1,15,0,0
254604.4,-113.636363636364,4,1,1,15,0,0
254851.45,-112.359550561798,4,1,1,15,0,0
255098.5,-111.111111111111,4,1,1,15,0,0
255345.55,-109.89010989011,4,1,1,15,0,0
255592.6,-108.695652173913,4,1,1,15,0,0
255839.65,-107.52688172043,4,1,1,15,0,0
256086.7,-106.382978723404,4,1,1,15,0,0
256333.75,-105.263157894737,4,1,1,15,0,0
256580.8,-104.166666666667,4,1,1,15,0,0
256827.85,-103.092783505155,4,1,1,15,0,0
257074.9,-102.040816326531,4,1,1,15,0,0
257321.95,-101.010101010101,4,1,1,15,0,0
257569,-100,4,1,1,15,0,0
258275,-43.4782608695652,4,1,1,15,0,0
258301.4,-225.806451612903,4,1,1,15,0,0
258363,-43.4782608695652,4,1,1,15,0,0
258389.7,-225.806451612903,4,1,1,15,0,0
258452,-43.4782608695652,4,1,1,15,0,0
258478.4,-225.806451612903,4,1,1,15,0,0
258540,-43.4782608695652,4,1,1,15,0,0
258566.4,-225.806451612903,4,1,1,15,0,0
258628,-41.6666666666667,4,1,1,15,0,0
258645.7,-225.806451612903,4,1,1,15,0,0
258687,-40,4,1,1,15,0,0
258704.7,-225.806451612903,4,1,1,15,0,0
258746,-38.4615384615385,4,1,1,15,0,0
258763.7,-225.806451612903,4,1,1,15,0,0
258805,-37.037037037037,4,1,1,15,0,0
258822.4,-225.806451612903,4,1,1,15,0,0
258863,-35.7142857142857,4,1,1,15,0,0
258880.7,-225.806451612903,4,1,1,15,0,0
258922,-34.4827586206897,4,1,1,15,0,0
258939.7,-225.806451612903,4,1,1,15,0,0
258981,-20.0525422090155,4,1,1,15,0,0
259016.3,-447.071428550001,4,1,1,15,0,0
259334,-19.6433066537295,4,1,1,15,0,0
259369.3,-437.947521844898,4,1,1,15,0,0
259687,-19.2504405206548,4,1,1,15,0,0
259722.2,-429.188571408,4,1,1,15,0,0
260039,-19.2504405206548,4,1,1,15,0,0
260074.3,-420.773109223529,4,1,1,15,0,0
260392,-18.8729809026028,4,1,1,15,0,0
260427.3,-412.681318661539,4,1,1,15,0,0
260745,-18.5100389621681,4,1,1,15,0,0
260780.3,-404.894878686793,4,1,1,15,0,0
261098,-18.1607929440141,4,1,1,15,0,0
261133.3,-397.396825377778,4,1,1,15,0,0
261451,-17.8244819635693,4,1,1,15,0,0
261486.3,-390.171428552728,4,1,1,15,0,0
261804,-17.5004004733226,4,1,1,15,0,0
261839.3,-383.204081614286,4,1,1,15,0,0
262157,-17.1878933220133,4,1,1,15,0,0
262192.3,-376.481202989473,4,1,1,15,0,0
262510,-16.8863513339078,4,1,1,15,0,0
262545.3,-369.990147765518,4,1,1,15,0,0
262863,-16.5952073453921,4,1,1,15,0,0
262898.3,-363.719128311865,4,1,1,15,0,0
263216,-16.3139326446228,4,1,1,15,0,0
263251.3,-357.657142839999,4,1,1,15,0,0
263569,-16.0420337672125,4,1,1,15,0,0
263604.3,-351.793910990162,4,1,1,15,0,0
263922,-15.7790496070942,4,1,1,15,0,0
263957.3,-346.119815651613,4,1,1,15,0,0
264275,-15.5245488069797,4,1,1,15,0,0
264310.3,-340.62585032381,4,1,1,15,0,0
264628,-15.0394066567616,4,1,1,15,0,0
264663.3,-335.3035714125,4,1,1,15,0,0
264981,-14.8080311697345,4,1,1,15,0,0
265016.3,-330.145054929229,4,1,1,15,0,0
265334,-14.5836670611022,4,1,1,15,0,0
265369.3,-325.142857127273,4,1,1,15,0,0
265687,-14.3660003885485,4,1,1,15,0,0
265722.2,-320.289978662688,4,1,1,15,0,0
266039,-14.3660003885485,4,1,1,15,0,0
266074.3,-315.579831917648,4,1,1,15,0,0
266392,-14.1547356769522,4,1,1,15,0,0
266427.3,-311.006211165217,4,1,1,15,0,0
266745,-13.9495945801847,4,1,1,15,0,0
266780.3,-306.563265291428,4,1,1,15,0,0
267098,-13.7503146576106,4,1,1,15,0,0
267133.3,-302.245472822535,4,1,1,15,0,0
267451,-13.5566482539823,4,1,1,15,0,0
267486.3,-298.047619033333,4,1,1,15,0,0
267804,-13.3683614726769,4,1,1,15,0,0
267839.3,-293.964774936987,4,1,1,15,0,0
268157,-13.1852332333253,4,1,1,15,0,0
268192.3,-289.992277978378,4,1,1,15,0,0
268510,-13.0070544058479,4,1,1,15,0,0
268545.3,-286.125714272,4,1,1,15,0,0
268863,-12.8336270137699,4,1,1,15,0,0
268898.3,-282.360902242105,4,1,1,15,0,0
269216,-12.6647635004308,4,1,1,15,0,0
269251.3,-278.693877537662,4,1,1,15,0,0
269569,-12.5002860523733,4,1,1,15,0,0
269604.3,-275.120879107693,4,1,1,15,0,0
269922,-12.3400259747788,4,1,1,15,0,0
269957.3,-271.638336334177,4,1,1,15,0,0
270275,-12.0315253254093,4,1,1,15,0,0
270292.6,-268.24285713,4,1,1,15,0,0
270451,-12.0315253254093,4,1,1,15,0,0
270468.7,-268.24285713,4,1,1,15,0,0
270628,-11.8829879757129,4,1,1,15,0,0
270645.6,-264.931216918518,4,1,1,15,0,0
270804,-11.8829879757129,4,1,1,15,0,0
270821.7,-264.931216918518,4,1,1,15,0,0
270981,-11.7380734882042,4,1,1,15,0,0
270998.6,-261.700348419512,4,1,1,15,0,0
271157,-11.7380734882042,4,1,1,15,0,0
271174.7,-261.700348419512,4,1,1,15,0,0
271334,-11.5966509160572,4,1,1,15,0,0
271351.6,-258.547332173494,4,1,1,15,0,0
271510,-11.5966509160572,4,1,1,15,0,0
271527.7,-258.547332173494,4,1,1,15,0,0
271687,-11.4585955480088,4,1,1,15,0,0
271704.6,-255.469387742857,4,1,1,15,0,0
271863,-11.4585955480088,4,1,1,15,0,0
271880.6,-255.469387742857,4,1,1,15,0,0
272039,-11.4585955480088,4,1,1,15,0,0
272056.7,-252.463865534117,4,1,1,15,0,0
272216,-11.3237885415617,4,1,1,15,0,0
272233.6,-252.463865534117,4,1,1,15,0,0
272392,-11.3237885415617,4,1,1,15,0,0
272409.7,-249.528239190697,4,1,1,15,0,0
272569,-11.1921165817761,4,1,1,15,0,0
272586.6,-249.528239190697,4,1,1,15,0,0
272745,-11.1921165817761,4,1,1,15,0,0
272762.7,-246.660098510345,4,1,1,15,0,0
272922,-11.0634715635947,4,1,1,15,0,0
272939.6,-246.660098510345,4,1,1,15,0,0
273098,-11.0634715635947,4,1,1,15,0,0
273115.7,-243.857142845454,4,1,1,15,0,0
273275,-10.9377502958266,4,1,1,15,0,0
273292.6,-243.857142845454,4,1,1,15,0,0
273451,-10.9377502958266,4,1,1,15,0,0
273468.7,-241.117174948315,4,1,1,15,0,0
273628,-10.814854225087,4,1,1,15,0,0
273645.6,-241.117174948315,4,1,1,15,0,0
273804,-10.814854225087,4,1,1,15,0,0
273821.7,-238.438095226667,4,1,1,15,0,0
273981,-10.6946891781416,4,1,1,15,0,0
273998.6,-238.438095226667,4,1,1,15,0,0
274157,-10.6946891781416,4,1,1,15,0,0
274174.7,-235.817896378022,4,1,1,15,0,0
274334,-10.5771651212389,4,1,1,15,0,0
274351.6,-235.817896378022,4,1,1,15,0,0
274510,-10.5771651212389,4,1,1,15,0,0
274527.7,-233.254658373913,4,1,1,15,0,0
274687,-10.4621959351385,4,1,1,15,0,0
274704.6,-233.254658373913,4,1,1,15,0,0
274863,-10.4621959351385,4,1,1,15,0,0
274880.6,-230.746543767742,4,1,1,15,0,0
275039,-10.3496992046532,4,1,1,15,0,0
275056.7,-230.746543767742,4,1,1,15,0,0
275216,-10.3496992046532,4,1,1,15,0,0
275233.6,-228.291793302128,4,1,1,15,0,0
275392,-10.2395960216249,4,1,1,15,0,0
275409.7,-228.291793302128,4,1,1,15,0,0
275569,-10.2395960216249,4,1,1,15,0,0
275586.6,-225.888721793684,4,1,1,15,0,0
275745,-10.1318108003447,4,1,1,15,0,0
275762.7,-225.888721793684,4,1,1,15,0,0
275922,-10.0603621730382,4,1,1,15,0,0
275930.8,-221.67487684729,4,1,1,15,0,0
276010,-10.0603621730382,4,1,1,15,0,0
276018.8,-224.29906542056,4,1,1,15,0,0
276098,-10.179456803124,4,1,1,15,0,0
276106.9,-226.986128625473,4,1,1,15,0,0
276187,-10.4263102546356,4,1,1,15,0,0
276195.8,-229.738353541799,4,1,1,15,0,0
276275,-10.554281762929,4,1,1,15,0,0
276283.8,-232.558139534883,4,1,1,15,0,0
276363,-10.554281762929,4,1,1,15,0,0
276371.8,-235.448005232178,4,1,1,15,0,0
276451,-10.6854337272819,4,1,1,15,0,0
276459.8,-238.41059602649,4,1,1,15,0,0
276539,-10.8198862046451,4,1,1,15,0,0
276547.9,-241.448692152918,4,1,1,15,0,0
276628,-11.0992039191672,4,1,1,15,0,0
276636.8,-244.565217391305,4,1,1,15,0,0
276716,-11.0992039191672,4,1,1,15,0,0
276724.8,-247.76324845148,4,1,1,15,0,0
276804,-11.2443414790186,4,1,1,15,0,0
276812.8,-251.046025104602,4,1,1,15,0,0
276892,-11.3933250829945,4,1,1,15,0,0
276900.9,-254.416961130742,4,1,1,15,0,0
276981,-11.7034585737923,4,1,1,15,0,0
276989.8,-257.879656160459,4,1,1,15,0,0
277069,-11.864944204077,4,1,1,15,0,0
277077.8,-261.437908496732,4,1,1,15,0,0
277157,-11.864944204077,4,1,1,15,0,0
277165.8,-265.095729013255,4,1,1,15,0,0
277245,-12.0309485780663,4,1,1,15,0,0
277253.9,-268.857356235997,4,1,1,15,0,0
277334,-12.3772940674349,4,1,1,15,0,0
277342.8,-272.727272727272,4,1,1,15,0,0
277422,-12.5580539346765,4,1,1,15,0,0
277430.8,-276.710222905458,4,1,1,15,0,0
277510,-12.5580539346765,4,1,1,15,0,0
277518.8,-280.811232449298,4,1,1,15,0,0
277598,-12.7441717387005,4,1,1,15,0,0
277606.9,-285.035629453682,4,1,1,15,0,0
277687,-13.1334631583714,4,1,1,15,0,0
277695.8,-289.389067524116,4,1,1,15,0,0
277775,-13.3371658522564,4,1,1,15,0,0
277783.8,-293.877551020409,4,1,1,15,0,0
277863,-13.5472870389835,4,1,1,15,0,0
277871.8,-298.507462686567,4,1,1,15,0,0
277951,-13.5472870389835,4,1,1,15,0,0
277959.8,-303.285593934288,4,1,1,15,0,0
278039,-13.7641349359849,4,1,1,15,0,0
278047.9,-308.219178082191,4,1,1,15,0,0
278128,-14.2193456649382,4,1,1,15,0,0
278136.8,-313.31592689295,4,1,1,15,0,0
278216,-14.4584320079771,4,1,1,15,0,0
278224.8,-318.58407079646,4,1,1,15,0,0
278304,-14.4584320079771,4,1,1,15,0,0
278312.8,-324.032403240324,4,1,1,15,0,0
278392,-14.7056959217048,4,1,1,15,0,0
278400.9,-329.67032967033,4,1,1,15,0,0
278481,-15.2264940997335,4,1,1,15,0,0
278489.8,-335.507921714818,4,1,1,15,0,0
278569,-15.5009754924232,4,1,1,15,0,0
278577.8,-341.555977229601,4,1,1,15,0,0
278657,-15.7855344628155,4,1,1,15,0,0
278665.8,-347.826086956522,4,1,1,15,0,0
278745,-15.7855344628155,4,1,1,15,0,0
278753.9,-354.330708661417,4,1,1,15,0,0
278834,-16.3871897382287,4,1,1,15,0,0
278842.8,-361.083249749248,4,1,1,15,0,0
278922,-16.7055502750655,4,1,1,15,0,0
278930.8,-368.098159509202,4,1,1,15,0,0
279010,-17.0365257236852,4,1,1,15,0,0
279018.8,-375.391032325339,4,1,1,15,0,0
279098,-17.0365257236852,4,1,1,15,0,0
279106.9,-382.978723404255,4,1,1,15,0,0
279187,-17.7394442660304,4,1,1,15,0,0
279195.8,-390.879478827361,4,1,1,15,0,0
279275,-18.1131132694169,4,1,1,15,0,0
279283.8,-399.113082039912,4,1,1,15,0,0
279363,-18.5028631585663,4,1,1,15,0,0
279371.8,-407.701019252548,4,1,1,15,0,0
279451,-18.9097548252478,4,1,1,15,0,0
279459.8,-416.666666666667,4,1,1,15,0,0
279539,-18.9097548252478,4,1,1,15,0,0
279547.9,-426.03550295858,4,1,1,15,0,0
279628,-19.7796951198717,4,1,1,15,0,0
279636.8,-435.835351089589,4,1,1,15,0,0
279716,-20.2453880656927,4,1,1,15,0,0
279724.8,-446.096654275092,4,1,1,15,0,0
279804,-20.7335382855508,4,1,1,15,0,0
279812.8,-456.852791878173,4,1,1,15,0,0
279892,-20.7335382855508,4,1,1,15,0,0
279900.9,-468.140442132639,4,1,1,15,0,0
279981,-21.7840375586854,4,1,1,15,0,0
279989.8,-480,4,1,1,15,0,0
280069,-22.3502437332613,4,1,1,15,0,0
280077.8,-492.476060191518,4,1,1,15,0,0
280157,-22.9466687767051,4,1,1,15,0,0
280165.8,-505.61797752809,4,1,1,15,0,0
280245,-23.5757982236855,4,1,1,15,0,0
280253.9,-519.480519480519,4,1,1,15,0,0
280334,-24.2403978768754,4,1,1,15,0,0
280342.8,-534.124629080118,4,1,1,15,0,0
280422,-24.94355445651,4,1,1,15,0,0
280430.8,-549.618320610687,4,1,1,15,0,0
280510,-25.6887235361856,4,1,1,15,0,0
280518.8,-566.037735849057,4,1,1,15,0,0
280598,-26.4797863355171,4,1,1,15,0,0
280606.9,-583.468395461912,4,1,1,15,0,0
280687,-27.3211173394884,4,1,1,15,0,0
280695.8,-602.00668896321,4,1,1,15,0,0
280775,-28.2176652314578,4,1,1,15,0,0
280783.8,-621.761658031088,4,1,1,15,0,0
280863,-29.1750503018108,4,1,1,15,0,0
280871.8,-642.857142857143,4,1,1,15,0,0
280951,-30.1996823826508,4,1,1,15,0,0
280959.8,-665.43438077634,4,1,1,15,0,0
281039,-43.4782608695652,4,1,1,15,0,0
281092.1,-636.363636363636,4,1,1,15,0,0
281216,-41.6666666666667,4,1,1,15,0,0
281268.8,-636.363636363636,4,1,1,15,0,0
281392,-40,4,1,1,15,0,0
281445.1,-636.363636363636,4,1,1,15,0,0
281569,-125,4,1,1,50,0,1
282628,-12.5,4,1,1,50,0,1
282650,-125,4,1,1,50,0,1
283687,-186.567164179105,4,1,1,50,0,1
283952,-62.5,4,1,1,50,0,1
284040,-12.5,4,1,1,50,0,1
284061,-125,4,1,1,50,0,1
285452,-12.5,4,1,1,50,0,1
285473,-125,4,1,1,50,0,1
286511,-86.2068965517241,4,1,1,50,0,1
286549.6,-197.841726618706,4,1,1,50,0,1
286599,-86.2068965517241,4,1,1,50,0,1
286638.05,-197.841726618706,4,1,1,50,0,1
286687,-86.2068965517241,4,1,1,50,0,1
286726.6,-197.841726618706,4,1,1,50,0,1
286775,-86.2068965517241,4,1,1,50,0,1
286814.6,-197.841726618706,4,1,1,50,0,1
286863,-12.5,4,1,1,50,0,1
286885,-125,4,1,1,50,0,1
288275,-12.5,4,1,1,50,0,1
288297,-125,4,1,1,50,0,1
289687,-12.5,4,1,1,50,0,1
289709,-125,4,1,1,50,0,1
289863,-62.5,4,1,1,50,0,1
289886,-156.25,4,1,1,50,0,1
289952,-62.5,4,1,1,50,0,1
289974,-156.25,4,1,1,50,0,1
290040,-125,4,1,1,50,0,1
291099,-12.5,4,1,1,50,0,1
291120,-108.695652173914,4,1,1,50,0,1
291452,-125,4,1,1,50,0,1
292334,-41.6666666666666,4,1,1,50,0,1
292351.6,-144.23076923077,4,1,1,50,0,1
292511,-12.5,4,1,1,50,0,0
292532,-178.57142857143,4,1,1,50,0,0
292554,-156.25,4,1,1,50,0,0
292598,-138.888888888889,4,1,1,50,0,0
292642,-125,4,1,1,50,0,0
292687,-113.636363636365,4,1,1,50,0,0
292731,-104.166666666667,4,1,1,50,0,0
292775,-96.1538461538461,4,1,1,50,0,0
292819,-89.2857142857143,4,1,1,50,0,0
292863,-125,4,1,1,50,0,1
293922,-12.5,4,1,1,50,0,1
293944,-125,4,1,1,50,0,1
295334,-12.5,4,1,1,50,0,1
295356,-125,4,1,1,50,0,1
296746,-12.5,4,1,1,50,0,1
296767,-125,4,1,1,50,0,1
297805,-78.6163522012579,4,1,1,50,0,1
297842.368,-229.821358716914,4,1,1,50,0,1
297893,-78.6163522012579,4,1,1,50,0,1
297930.804,-229.821358716914,4,1,1,50,0,1
297981,-78.6163522012579,4,1,1,50,0,1
298019.368,-229.821358716914,4,1,1,50,0,1
298069,-78.6163522012579,4,1,1,50,0,1
298107.368,-229.821358716914,4,1,1,50,0,1
298158,-12.5,4,1,1,50,0,1
298179,-125,4,1,1,50,0,1
298334,-78.125,4,1,1,50,0,1
298378,-312.5,4,1,1,50,0,1
298422,-65.7894736842106,4,1,1,50,0,1
298466,-416.666666666666,4,1,1,50,0,1
298511,-125,4,1,1,50,0,1
299569,-12.5,4,1,1,50,0,1
299591,-125,4,1,1,50,0,1
300981,-12.5,4,1,1,50,0,1
301003,-108.695652173914,4,1,1,50,0,1
301334,-125,4,1,1,50,0,1
302393,-12.5,4,1,1,50,0,1
302414,-108.695652173914,4,1,1,50,0,1
302746,-104.166666666667,4,1,1,50,0,0
302789.5,-312.5,4,1,1,50,0,0
302834,-96.1538461538461,4,1,1,50,0,0
302878,-312.5,4,1,1,50,0,0
302922,-89.2857142857143,4,1,1,50,0,0
302966,-312.5,4,1,1,50,0,0
303011,-83.3333333333335,4,1,1,50,0,0
303054,-312.5,4,1,1,50,0,0
303099,-78.125,4,1,1,50,0,0
303142.5,-312.5,4,1,1,50,0,0
303187,-73.5294117647059,4,1,1,50,0,0
303231,-312.5,4,1,1,50,0,0
303275,-69.4444444444446,4,1,1,50,0,0
303319,-312.5,4,1,1,50,0,0
303363,-65.7894736842106,4,1,1,50,0,0
303407,-312.5,4,1,1,50,0,0
303452,-62.5,4,1,1,50,0,0
303495,-312.5,4,1,1,50,0,0
303540,-62.5,4,1,1,50,0,0
303583.5,-312.5,4,1,1,50,0,0
303628,-62.5,4,1,1,50,0,0
303672,-312.5,4,1,1,50,0,0
303716,-62.5,4,1,1,50,0,0
303760,-312.5,4,1,1,50,0,0
303805,-12.5,4,1,1,50,0,0
303826,-125,4,1,1,50,0,0
304158,-125,4,1,1,50,0,1
305216,-10,4,1,1,50,0,1
305246,-125,4,1,1,50,0,1
306142,-138.888888888889,4,1,1,50,0,1
306231,-104.166666666667,4,1,1,50,0,1
306275,-47.5285171102662,4,1,1,50,0,1
306301.4,-414.691943127962,4,1,1,50,0,1
306363,-47.5285171102662,4,1,1,50,0,1
306389.4,-414.691943127962,4,1,1,50,0,1
306452,-47.5285171102662,4,1,1,50,0,1
306477.4,-414.691943127962,4,1,1,50,0,1
306540,-47.5285171102662,4,1,1,50,0,1
306565.7,-414.691943127962,4,1,1,50,0,1
306628,-12.5,4,1,1,50,0,1
306649,-125,4,1,1,50,0,1
308040,-10,4,1,1,50,0,1
308069,-125,4,1,1,50,0,1
308922,-47.6190476190477,4,1,1,50,0,1
308952.8,-10003793,4,1,1,50,0,1
309011,-47.6190476190477,4,1,1,50,0,1
309040.8,-10003793,4,1,1,50,0,1
309099,-47.6190476190477,4,1,1,50,0,1
309129.15,-10003793,4,1,1,50,0,1
309187,-47.6190476190477,4,1,1,50,0,1
309217.8,-10003793,4,1,1,50,0,1
309275,-47.6190476190477,4,1,1,50,0,1
309305.8,-10003793,4,1,1,50,0,1
309363,-47.6190476190477,4,1,1,50,0,1
309393.8,-10003793,4,1,1,50,0,1
309452,-12.5,4,1,1,50,0,1
309473,-125,4,1,1,50,0,1
310863,-12.5,4,1,1,50,0,1
310885,-125,4,1,1,50,0,1
312275,-12.5,4,1,1,50,0,1
312297,-125,4,1,1,50,0,1
312452,-62.5,4,1,1,50,0,1
312474,-156.25,4,1,1,50,0,1
312540,-62.5,4,1,1,50,0,1
312562,-156.25,4,1,1,50,0,1
312628,-125,4,1,1,50,0,1
313687,-12.5,4,1,1,50,0,1
313708,-108.695652173914,4,1,1,50,0,1
314040,-125,4,1,1,50,0,1
314511,-54.3478260869566,4,1,1,50,0,1
314522.6,-185.185185185185,4,1,1,50,0,1
314569,-54.3478260869566,4,1,1,50,0,1
314580.8,-185.185185185185,4,1,1,50,0,1
314628,-54.3478260869566,4,1,1,50,0,1
314639.8,-185.185185185185,4,1,1,50,0,1
314687,-54.3478260869566,4,1,1,50,0,1
314698.8,-185.185185185185,4,1,1,50,0,1
314746,-54.3478260869566,4,1,1,50,0,1
314757.8,-185.185185185185,4,1,1,50,0,1
314805,-54.3478260869566,4,1,1,50,0,1
314816.6,-185.185185185185,4,1,1,50,0,1
314863,-54.3478260869566,4,1,1,50,0,1
314874.8,-185.185185185185,4,1,1,50,0,1
314922,-54.3478260869566,4,1,1,50,0,1
314933.8,-185.185185185185,4,1,1,50,0,1
314981,-12.5,4,1,1,50,0,1
315004.6,-185.185185185185,4,1,1,50,0,1
315099,-12.5,4,1,1,50,0,0
315120,-125,4,1,1,50,0,0
315275,-96.1538461538461,4,1,1,50,0,0
315452,-111.111111111111,4,1,1,50,0,1
316511,-11.1111111111111,4,1,1,50,0,1
316532,-111.111111111111,4,1,1,50,0,1
317922,-11.1111111111111,4,1,1,50,0,1
317944,-111.111111111111,4,1,1,50,0,1
319334,-11.1111111111111,4,1,1,50,0,1
319355,-111.111111111111,4,1,1,50,0,1
320393,-55.5555555555556,4,1,1,50,0,1
320423.15,-240.740740740742,4,1,1,50,0,1
320481,-55.5555555555556,4,1,1,50,0,1
320511.8,-240.740740740742,4,1,1,50,0,1
320569,-55.5555555555556,4,1,1,50,0,1
320599.8,-240.740740740742,4,1,1,50,0,1
320658,-55.5555555555556,4,1,1,50,0,1
320687.8,-240.740740740742,4,1,1,50,0,1
320746,-11.1111111111111,4,1,1,50,0,1
320767,-111.111111111111,4,1,1,50,0,1
320922,-69.4444444444444,4,1,1,50,0,1
320966,-277.777777777778,4,1,1,50,0,1
321010,-58.4795321637428,4,1,1,50,0,1
321054,-370.370370370373,4,1,1,50,0,1
321099,-111.111111111111,4,1,1,50,0,1
322158,-11.1111111111111,4,1,1,50,0,1
322179,-111.111111111111,4,1,1,50,0,1
323569,-11.1111111111111,4,1,1,50,0,1
323591,-96.6183574879228,4,1,1,50,0,1
323746,-55.5555555555556,4,1,1,50,0,1
323768,-119.047619047619,4,1,1,50,0,1
323922,-116.959064327487,4,1,1,50,0,1
324981,-55.5555555555556,4,1,1,50,0,1
325002,-111.111111111111,4,1,1,50,0,1
325334,-10,4,1,1,50,0,0
325378,-250,4,1,1,50,0,0
326216,-10,4,1,1,50,0,0
326218.9,-899.999999999999,4,1,1,50,0,0
326245,-10,4,1,1,50,0,0
326248,-899.999999999999,4,1,1,50,0,0
326275,-10,4,1,1,50,0,0
326277.9,-899.999999999999,4,1,1,50,0,0
326304,-10,4,1,1,50,0,0
326307,-899.999999999999,4,1,1,50,0,0
326334,-10,4,1,1,50,0,0
326336.9,-899.999999999999,4,1,1,50,0,0
326363,-10,4,1,1,50,0,0
326365.9,-899.999999999999,4,1,1,50,0,0
326393,-10,4,1,1,50,0,0
326395,-899.999999999999,4,1,1,50,0,0
326422,-10,4,1,1,50,0,0
326424.9,-899.999999999999,4,1,1,50,0,0
326451,-10,4,1,1,50,0,0
326454,-899.999999999999,4,1,1,50,0,0
326481,-10,4,1,1,50,0,0
326483.9,-899.999999999999,4,1,1,50,0,0
326510,-10,4,1,1,50,0,0
326512.9,-899.999999999999,4,1,1,50,0,0
326539,-10,4,1,1,50,0,0
326542,-899.999999999999,4,1,1,50,0,0
326569,-10,4,1,1,50,0,0
326571.9,-899.999999999999,4,1,1,50,0,0
326598,-10,4,1,1,50,0,0
326601,-899.999999999999,4,1,1,50,0,0
326628,-10,4,1,1,50,0,0
326630.9,-899.999999999999,4,1,1,50,0,0
326657,-10,4,1,1,50,0,0
326660,-899.999999999999,4,1,1,50,0,0
326687,-10,4,1,1,50,0,0
326689.9,-899.999999999999,4,1,1,50,0,0
326716,-10,4,1,1,50,0,0
326718.9,-899.999999999999,4,1,1,50,0,0
326746,-47.6190476190476,4,1,1,50,0,0
326762.7,-1000,4,1,1,50,0,0
326804,-47.6190476190476,4,1,1,50,0,0
326821.7,-1000,4,1,1,50,0,0
326863,-47.6190476190476,4,1,1,50,0,0
326880.7,-1000,4,1,1,50,0,0
326922,-47.6190476190476,4,1,1,50,0,0
326939.7,-1000,4,1,1,50,0,0
326981,-47.6190476190476,4,1,1,50,0,0
326998.4,-1000,4,1,1,50,0,0
327039,-47.6190476190476,4,1,1,50,0,0
327056.7,-1000,4,1,1,50,0,0
327098,-47.6190476190476,4,1,1,50,0,0
327115.7,-1000,4,1,1,50,0,0
327157,-47.6190476190476,4,1,1,50,0,0
327174.7,-1000,4,1,1,50,0,0
327216,-47.6190476190476,4,1,1,50,0,0
327233.7,-1000,4,1,1,50,0,0
327275,-47.6190476190476,4,1,1,50,0,0
327292.7,-1000,4,1,1,50,0,0
327334,-47.6190476190476,4,1,1,50,0,0
327351.4,-1000,4,1,1,50,0,0
327392,-47.6190476190476,4,1,1,50,0,0
327409.7,-1000,4,1,1,50,0,0
327451,-47.6190476190476,4,1,1,50,0,0
327468.7,-1000,4,1,1,50,0,0
327510,-47.6190476190476,4,1,1,50,0,0
327527.7,-1000,4,1,1,50,0,0
327569,-47.6190476190476,4,1,1,50,0,0
327586.7,-1000,4,1,1,50,0,0
327628,-47.6190476190476,4,1,1,50,0,0
327645.7,-1000,4,1,1,50,0,0
327687,-47.6190476190476,4,1,1,50,0,0
327704.4,-1000,4,1,1,50,0,0
327745,-47.6190476190476,4,1,1,50,0,0
327762.7,-1000,4,1,1,50,0,0
327804,-47.6190476190476,4,1,1,50,0,0
327821.7,-1000,4,1,1,50,0,0
327863,-47.6190476190476,4,1,1,50,0,0
327880.7,-1000,4,1,1,50,0,0
327922,-47.6190476190476,4,1,1,50,0,0
327939.7,-1000,4,1,1,50,0,0
327981,-47.6190476190476,4,1,1,50,0,0
327998.4,-1000,4,1,1,50,0,0
328039,-47.6190476190476,4,1,1,50,0,0
328056.7,-1000,4,1,1,50,0,0
328099,-47.6190476190476,4,1,1,50,0,0
328116,-1000,4,1,1,50,0,0
328157,-74.0740740740741,4,1,1,50,0,0
328180.6,-1000,4,1,1,50,0,0
328216,-74.0740740740741,4,1,1,50,0,0
328239.6,-1000,4,1,1,50,0,0
328275,-74.0740740740741,4,1,1,50,0,0
328298.6,-1000,4,1,1,50,0,0
328334,-74.0740740740741,4,1,1,50,0,0
328357.2,-1000,4,1,1,50,0,0
328392,-74.0740740740741,4,1,1,50,0,0
328415.6,-1000,4,1,1,50,0,0
328451,-74.0740740740741,4,1,1,50,0,0
328474.6,-1000,4,1,1,50,0,0
328510,-74.0740740740741,4,1,1,50,0,0
328533.6,-1000,4,1,1,50,0,0
328569,-74.0740740740741,4,1,1,50,0,0
328592.6,-1000,4,1,1,50,0,0
328628,-74.0740740740741,4,1,1,50,0,0
328651.6,-1000,4,1,1,50,0,0
328687,-74.0740740740741,4,1,1,50,0,0
328710.2,-1000,4,1,1,50,0,0
328745,-74.0740740740741,4,1,1,50,0,0
328768.6,-1000,4,1,1,50,0,0
328804,-74.0740740740741,4,1,1,50,0,0
328827.6,-1000,4,1,1,50,0,0
328863,-74.0740740740741,4,1,1,50,0,0
328886.6,-1000,4,1,1,50,0,0
328922,-74.0740740740741,4,1,1,50,0,0
328945.6,-1000,4,1,1,50,0,0
328981,-74.0740740740741,4,1,1,50,0,0
329004.2,-1000,4,1,1,50,0,0
329039,-74.0740740740741,4,1,1,50,0,0
329062.6,-1000,4,1,1,50,0,0
329098,-74.0740740740741,4,1,1,50,0,0
329121.6,-1000,4,1,1,50,0,0
329157,-74.0740740740741,4,1,1,50,0,0
329180.6,-1000,4,1,1,50,0,0
329216,-74.0740740740741,4,1,1,50,0,0
329239.6,-1000,4,1,1,50,0,0
329275,-74.0740740740741,4,1,1,50,0,0
329298.6,-1000,4,1,1,50,0,0
329334,-74.0740740740741,4,1,1,50,0,0
329357.2,-1000,4,1,1,50,0,0
329392,-74.0740740740741,4,1,1,50,0,0
329415.6,-1000,4,1,1,50,0,0
329451,-74.0740740740741,4,1,1,50,0,0
329474.6,-1000,4,1,1,50,0,0
329510,-74.0740740740741,4,1,1,50,0,0
329533.6,-1000,4,1,1,50,0,0
329569,-200,4,1,1,50,0,0
329590.18,-199.920031987205,4,1,1,50,0,0
329611.36,-199.680511182109,4,1,1,50,0,0
329632.54,-199.282582702272,4,1,1,50,0,0
329653.72,-198.72813990461,4,1,1,50,0,0
329674.9,-198.019801980198,4,1,1,50,0,0
329696.08,-197.160883280757,4,1,1,50,0,0
329717.26,-196.155355041193,4,1,1,50,0,0
329738.44,-195.007800312012,4,1,1,50,0,0
329759.62,-193.723363037582,4,1,1,50,0,0
329780.8,-192.307692307692,4,1,1,50,0,0
329801.98,-190.766882869134,4,1,1,50,0,0
329823.16,-189.10741301059,4,1,1,50,0,0
329844.34,-187.336080929187,4,1,1,50,0,0
329865.52,-185.459940652819,4,1,1,50,0,0
329886.7,-183.48623853211,4,1,1,50,0,0
329907.88,-181.422351233672,4,1,1,50,0,0
329929.06,-179.275726066691,4,1,1,50,0,0
329950.24,-177.053824362606,4,1,1,50,0,0
329971.42,-174.764068507515,4,1,1,50,0,0
329992.6,-172.413793103448,4,1,1,50,0,0
330013.78,-170.010200612037,4,1,1,50,0,0
330034.96,-167.560321715818,4,1,1,50,0,0
330056.14,-165.070980521624,4,1,1,50,0,0
330077.32,-162.548764629389,4,1,1,50,0,0
330098.5,-160,4,1,1,50,0,0
330119.68,-157.430730478589,4,1,1,50,0,0
330140.86,-154.846701765252,4,1,1,50,0,0
330162.04,-152.253349573691,4,1,1,50,0,0
330183.22,-149.655791679138,4,1,1,50,0,0
330204.4,-147.058823529412,4,1,1,50,0,0
330225.58,-144.46691707599,4,1,1,50,0,0
330246.76,-141.884222474461,4,1,1,50,0,0
330267.94,-139.314572304263,4,1,1,50,0,0
330289.12,-136.761487964989,4,1,1,50,0,0
330310.3,-134.228187919463,4,1,1,50,0,0
330331.48,-131.717597471022,4,1,1,50,0,0
330352.66,-129.23235978289,4,1,1,50,0,0
330373.84,-126.774847870183,4,1,1,50,0,0
330395.02,-124.347177319075,4,1,1,50,0,0
330416.2,-121.951219512195,4,1,1,50,0,0
330437.38,-119.588615163836,4,1,1,50,0,0
330458.56,-117.260787992495,4,1,1,50,0,0
330479.74,-114.968958381237,4,1,1,50,0,0
330500.92,-112.714156898106,4,1,1,50,0,0
330522.1,-110.497237569061,4,1,1,50,0,0
330543.28,-108.318890814558,4,1,1,50,0,0
330564.46,-106.179655977915,4,1,1,50,0,0
330585.64,-104.079933388843,4,1,1,50,0,0
330606.82,-102.0199959192,4,1,1,50,0,0
330628,-47.6190476190476,4,1,1,50,0,0
330645.7,-189.189189189189,4,1,1,50,0,0
330687,-47.6190476190476,4,1,1,50,0,0
330704.7,-189.189189189189,4,1,1,50,0,0
330746,-47.6190476190476,4,1,1,50,0,0
330763.7,-189.189189189189,4,1,1,50,0,0
330805,-47.6190476190476,4,1,1,50,0,0
330822.4,-189.189189189189,4,1,1,50,0,0
330863,-47.6190476190476,4,1,1,50,0,0
330878.6,-189.189189189189,4,1,1,50,0,0
330915,-47.6190476190476,4,1,1,50,0,0
330928.2,-189.189189189189,4,1,1,50,0,0
330959,-47.6190476190476,4,1,1,50,0,0
330974.6,-189.189189189189,4,1,1,50,0,0
331011,-47.6190476190476,4,1,1,50,0,0
331028.4,-189.189189189189,4,1,1,50,0,0
331069,-47.6190476190476,4,1,1,50,0,0
331095.7,-189.189189189189,4,1,1,50,0,0
331158,-47.6190476190476,4,1,1,50,0,0
331193.1,-189.189189189189,4,1,1,50,0,0
331275,-47.6190476190476,4,1,1,50,0,0
331336.8,-189.189189189189,4,1,1,50,0,0
331481,-10,4,1,1,50,0,0
331542.8,-189.189189189189,4,1,1,50,0,0
331687,-100,4,1,1,50,0,0

[Colours]
Combo1 : 190,67,14
Combo2 : 119,200,217

[HitObjects]
192,192,4864,5,0,0:0:0:0:
320,192,6275,1,0,0:0:0:0:
192,192,7687,1,0,0:0:0:13:
64,192,7687,1,0,2:0:0:13:
448,192,9805,1,0,0:0:0:0:
320,192,10511,1,0,0:0:0:13:
192,192,10511,1,0,2:0:0:13:
448,192,12628,1,0,0:0:0:0:
320,192,13334,1,0,0:0:0:13:
64,192,13334,1,0,2:0:0:13:
192,192,16158,1,0,0:0:0:0:
320,192,17569,1,0,0:0:0:0:
64,192,18981,1,0,0:0:0:13:
192,192,18981,1,0,2:0:0:13:
448,192,21099,1,0,0:0:0:0:
320,192,21805,1,0,2:0:0:13:
64,192,21805,1,0,0:0:0:13:
448,192,23922,1,0,0:0:0:0:
192,192,24628,1,0,0:0:0:13:
320,192,24628,1,0,0:0:0:13:
64,192,27452,128,0,27496:0:0:0:70:LR4_BassKickReverbXD.wav
448,192,27452,128,0,27496:0:0:0:0:
320,192,27452,128,0,27496:0:0:0:0:
320,192,28511,1,0,0:0:0:0:
448,192,29569,1,0,0:0:0:0:
320,192,29922,1,0,0:0:0:0:
192,192,30628,1,0,0:0:0:0:
320,192,31334,1,0,0:0:0:0:
192,192,31687,1,0,0:0:0:0:
64,192,32040,1,0,0:0:0:0:
320,192,32393,1,0,0:0:0:0:
448,192,32746,1,0,0:0:0:0:
320,192,33099,1,0,0:0:0:13:
64,192,33099,1,0,2:0:0:13:
320,192,34158,1,0,0:0:0:0:
192,192,34511,1,0,0:0:0:0:
64,192,34863,1,0,0:0:0:0:
448,192,35569,1,0,0:0:0:0:
192,192,35922,1,0,0:0:0:0:
320,192,36275,1,0,0:0:0:0:
64,192,36981,1,0,0:0:0:0:
192,192,37334,1,0,0:0:0:0:
320,192,37687,1,0,0:0:0:0:
448,192,38040,1,0,0:0:0:0:
192,192,38393,1,0,0:0:0:0:
448,192,38746,128,0,38812:2:0:0:10:LR_HiHat Normal - R.wav
64,192,38746,128,0,38812:2:0:0:0:
320,192,39452,1,0,0:0:0:13:
192,192,39452,1,0,2:0:0:13:
448,192,40158,1,0,0:0:0:13:
192,192,40158,1,0,2:0:0:13:
320,192,40863,1,0,0:0:0:0:
192,192,41216,1,0,0:0:0:0:
64,192,41922,1,0,0:0:0:0:
448,192,42275,1,0,0:0:0:0:
320,192,42628,1,0,2:0:0:13:
192,192,42628,1,0,0:0:0:13:
64,192,42981,1,0,0:0:0:0:
320,192,43334,1,0,0:0:0:0:
192,192,43687,1,0,0:0:0:13:
448,192,43687,1,0,2:0:0:13:
320,192,44040,1,0,2:0:0:13:
64,192,44040,1,0,0:0:0:13:
192,192,44393,1,0,2:0:0:13:
64,192,44393,1,0,0:0:0:13:
448,192,45099,1,0,0:0:0:0:
64,192,45452,1,0,0:0:0:13:
320,192,45452,1,0,2:0:0:13:
192,192,45805,1,0,0:0:0:0:
64,192,46158,1,0,0:0:0:0:
448,192,46511,128,0,46599:0:0:0:0:
192,192,46863,128,0,46952:2:0:0:0:
320,192,46863,128,0,46952:0:0:0:0:
64,192,47216,128,0,47305:2:0:0:0:
320,192,47216,128,0,47305:0:0:0:0:
192,192,47569,128,0,47658:2:0:0:0:
448,192,47569,128,0,47658:0:0:0:0:
448,192,47922,128,0,48011:0:0:0:0:
320,192,48275,128,0,48363:2:0:0:0:
64,192,48275,128,0,48363:0:0:0:0:
320,192,48628,128,0,48746:2:0:0:0:
192,192,48628,128,0,48746:0:0:0:0:
192,192,48981,128,0,49099:2:0:0:0:
448,192,48981,128,0,49099:0:0:0:0:
448,192,49334,1,0,0:0:0:70:LR_Kick Total beat.wav
320,192,49334,1,0,0:0:0:0:
320,192,49511,1,0,0:0:0:70:LR_Kick Total beat.wav
192,192,49687,1,0,0:0:0:70:LR_Kick Total beat.wav
448,192,49687,1,0,0:0:0:0:
192,192,49863,1,0,0:0:0:70:LR_Kick Total beat.wav
320,192,50040,1,0,0:0:0:100:LR_Kick Total beat.wav
64,192,50040,128,0,50099:0:0:0:30:LR_HiHat Normal - L.wav
320,192,50393,1,0,0:0:0:100:LR_Kick Total beat.wav
320,192,50746,1,0,0:0:0:100:LR_Kick Total beat.wav
320,192,51099,1,0,0:0:0:100:LR_Kick Total beat.wav
64,192,51275,1,0,0:0:0:0:
320,192,51452,1,0,0:0:0:100:LR_Kick Total beat.wav
320,192,51805,1,0,0:0:0:100:LR_Kick Total beat.wav
192,192,51981,1,0,0:0:0:0:
320,192,52158,1,0,0:0:0:100:LR_Kick Total beat.wav
448,192,52334,1,0,0:0:0:0:
320,192,52511,1,0,0:0:0:100:LR_Kick Total beat.wav
192,192,52511,1,0,0:0:0:0:
64,192,52687,1,0,0:0:0:0:
320,192,52863,1,0,0:0:0:100:LR_Kick Total beat.wav
320,192,53216,1,0,0:0:0:100:LR_Kick Total beat.wav
320,192,53569,1,0,0:0:0:100:LR_Kick Total beat.wav
320,192,53922,1,0,0:0:0:100:LR_Kick Total beat.wav
192,192,53922,1,0,0:0:0:30:LR_Kick Bass strong fast.wav
64,192,53981,1,0,0:0:0:30:LR_Kick Bass strong fast.wav
320,192,54275,1,0,0:0:0:100:LR_Kick Total beat.wav
320,192,54628,1,0,0:0:0:100:LR_Kick Total beat.wav
192,192,54805,1,0,0:0:0:0:
64,192,54893,1,0,0:0:0:0:
448,192,54893,1,0,0:0:0:0:
320,192,54981,1,0,0:0:0:100:LR_Kick Total beat.wav
64,192,55158,1,0,0:0:0:0:
192,192,55246,1,0,0:0:0:0:
320,192,55334,1,0,0:0:0:100:LR_Kick Total beat.wav
448,192,55334,1,0,0:0:0:0:
192,192,55511,128,0,55687:0:0:0:0:
320,192,55687,1,0,0:0:0:100:LR_Kick Total beat.wav
320,192,56040,1,0,0:0:0:100:LR_Kick Total beat.wav
192,192,56040,1,0,0:0:0:30:LR_Kick Bass strong fast.wav
64,192,56099,1,0,0:0:0:30:LR_Kick Bass strong fast.wav
320,192,56393,1,0,0:0:0:100:LR_Kick Total beat.wav
192,192,56569,1,0,0:0:0:0:
320,192,56746,1,0,0:0:0:100:LR_Kick Total beat.wav
64,192,56746,128,0,57099:0:0:0:0:
448,192,56922,128,0,57099:0:0:0:0:
320,192,57099,1,0,0:0:0:100:LR_Kick Total beat.wav
192,192,57275,1,0,0:0:0:0:
320,192,57452,1,0,0:0:0:100:LR_Kick Total beat.wav
64,192,57628,1,0,0:0:0:0:
448,192,57628,1,0,0:0:0:0:
320,192,57805,1,0,0:0:0:100:LR_Kick Total beat.wav
192,192,57981,1,0,0:0:0:0:
320,192,58158,1,0,0:0:0:100:LR_Kick Total beat.wav
64,192,58158,1,0,0:0:0:0:
448,192,58246,1,0,0:0:0:0:
192,192,58334,1,0,0:0:0:0:
448,192,58393,1,0,0:0:0:0:
192,192,58452,1,0,0:0:0:0:
320,192,58511,1,0,0:0:0:100:LR_Kick Total beat.wav
320,192,58863,1,0,0:0:0:100:LR_Kick Total beat.wav
320,192,59216,1,0,0:0:0:100:LR_Kick Total beat.wav
192,192,59393,1,0,0:0:0:0:
320,192,59569,1,0,0:0:0:100:LR_Kick Total beat.wav
448,192,59569,1,0,0:0:0:0:
448,192,59746,1,0,0:0:0:0:
320,192,59922,1,0,0:0:0:100:LR_Kick Total beat.wav
320,192,60275,1,0,0:0:0:100:LR_Kick Total beat.wav
192,192,60452,1,0,0:0:0:0:
320,192,60628,1,0,0:0:0:100:LR_Kick Total beat.wav
448,192,60805,1,0,0:0:0:0:
320,192,60981,1,0,0:0:0:100:LR_Kick Total beat.wav
192,192,60981,1,0,0:0:0:0:
192,192,61158,1,0,0:0:0:0:
448,192,61334,1,0,0:0:0:100:LR_Kick Total beat.wav
64,192,61334,1,0,0:0:0:0:
192,192,61511,1,0,0:0:0:0:
320,192,61687,1,0,0:0:0:100:LR_Kick Total beat.wav
448,192,61687,1,8,0:0:0:100:normal-hitclap.wav
64,192,61687,1,0,0:0:0:0:
320,192,61863,1,0,0:0:0:0:
192,192,62040,1,0,0:0:0:100:LR_Kick Total beat.wav
64,192,62040,1,0,0:0:0:0:
320,192,62216,1,0,0:0:0:0:
448,192,62393,1,0,0:0:0:100:LR_Kick Total beat.wav
320,192,62393,1,0,0:0:0:100:normal-hitclap.wav
64,192,62393,1,0,0:0:0:0:
192,192,62569,1,0,0:0:0:50:LR_Kick Total beat.wav
448,192,62569,1,0,0:0:0:0:
320,192,62746,1,0,0:0:0:100:LR_Kick Total beat.wav
64,192,62746,1,0,0:0:0:0:
192,192,62922,1,0,0:0:0:0:
448,192,63099,1,0,0:0:0:100:LR_Kick Total beat.wav
64,192,63099,1,0,0:0:0:100:normal-hitclap.wav
320,192,63099,1,0,0:0:0:0:
320,192,63275,1,0,0:0:0:0:
192,192,63275,1,0,0:0:0:0:
448,192,63452,1,0,0:0:0:100:LR_Kick Total beat.wav
64,192,63452,1,0,0:0:0:0:
64,192,63628,1,0,0:0:0:0:
448,192,63805,1,0,0:0:0:100:LR_Kick Total beat.wav
320,192,63805,128,0,63981:0:0:0:100:normal-hitclap.wav
192,192,63805,1,0,0:0:0:0:
64,192,63981,1,0,0:0:0:0:
320,192,64158,1,0,0:0:0:100:LR_Kick Total beat.wav
192,192,64158,1,0,0:0:0:0:
192,192,64334,1,0,0:0:0:0:
448,192,64511,1,0,0:0:0:100:LR_Kick Total beat.wav
64,192,64511,1,0,0:0:0:100:normal-hitclap.wav
320,192,64511,1,0,0:0:0:0:
192,192,64687,1,0,0:0:0:0:
320,192,64863,1,0,0:0:0:100:LR_Kick Total beat.wav
192,192,64863,1,0,0:0:0:0:
64,192,65040,1,0,0:0:0:0:
448,192,65216,1,0,0:0:0:100:LR_Kick Total beat.wav
64,192,65216,1,0,0:0:0:100:normal-hitclap.wav
320,192,65216,1,0,0:0:0:0:
320,192,65393,1,0,0:0:0:0:
192,192,65569,1,0,0:0:0:100:LR_Kick Total beat.wav
64,192,65569,1,0,0:0:0:0:
320,192,65746,1,0,0:0:0:0:
448,192,65922,1,0,0:0:0:100:LR_Kick Total beat.wav
320,192,65922,1,0,0:0:0:100:normal-hitclap.wav
64,192,65922,1,0,0:0:0:0:
64,192,66099,1,0,0:0:0:0:
192,192,66099,1,0,0:0:0:0:
448,192,66187,1,0,0:0:0:0:
320,192,66187,1,0,0:0:0:0:
64,192,66275,1,0,0:0:0:100:LR_Kick Total beat.wav
192,192,66275,1,0,0:0:0:0:
320,192,66363,1,0,0:0:0:0:
448,192,66452,1,0,0:0:0:0:
192,192,66540,1,0,0:0:0:0:
448,192,66628,128,0,66981:0:0:0:100:normal-hitclap.wav
64,192,66628,1,0,0:0:0:100:LR_Kick Total beat.wav
320,192,66628,1,0,0:0:0:0:
192,192,66805,1,0,0:0:0:0:
64,192,66981,1,0,0:0:0:100:LR_Kick Total beat.wav
192,192,66981,1,0,0:0:0:0:
320,192,67158,1,0,0:0:0:0:
448,192,67334,1,0,0:0:0:100:LR_Kick Total beat.wav
320,192,67334,1,0,0:0:0:100:normal-hitclap.wav
64,192,67334,1,0,0:0:0:0:
192,192,67511,1,0,0:0:0:0:
192,192,67687,1,0,0:0:0:100:LR_Kick Total beat.wav
320,192,67687,128,0,67863:0:0:0:0:
64,192,67863,1,0,0:0:0:0:
320,192,68040,1,0,0:0:0:100:LR_Kick Total beat.wav
448,192,68040,128,0,68393:0:0:0:100:normal-hitclap.wav
64,192,68040,1,0,0:0:0:0:
192,192,68216,128,0,68393:0:0:0:0:
320,192,68393,1,0,0:0:0:100:LR_Kick Total beat.wav
64,192,68393,1,0,0:0:0:0:
192,192,68569,1,0,0:0:0:0:
448,192,68746,1,0,0:0:0:100:LR_Kick Total beat.wav
320,192,68746,1,0,0:0:0:100:normal-hitclap.wav
64,192,68746,1,0,0:0:0:0:
64,192,68922,1,0,0:0:0:0:
192,192,69011,1,0,0:0:0:0:
320,192,69099,1,0,0:0:0:100:LR_Kick Total beat.wav
448,192,69099,128,0,69275:0:0:0:0:
64,192,69275,1,0,0:0:0:0:
192,192,69363,1,0,0:0:0:0:
320,192,69452,128,0,69805:0:0:0:100:LR_Kick Total beat.wav
448,192,69452,1,0,0:0:0:100:normal-hitclap.wav
64,192,69452,1,0,0:0:0:0:
192,192,69628,1,0,0:0:0:0:
192,192,69805,1,0,0:0:0:100:LR_Kick Total beat.wav
64,192,69805,1,0,0:0:0:0:
448,192,69893,1,0,0:0:0:30:normal-hitnormal.wav
64,192,69981,1,0,0:0:0:30:normal-hitnormal.wav
192,192,70069,1,0,0:0:0:30:normal-hitnormal.wav
320,192,70158,1,0,0:0:0:100:normal-hitclap.wav
64,192,70158,1,0,0:0:0:100:LR_Kick Total beat.wav
448,192,70158,1,0,0:0:0:0:
192,192,70246,1,0,0:0:0:40:normal-hitnormal.wav
448,192,70334,1,0,0:0:0:40:normal-hitnormal.wav
192,192,70422,1,0,0:0:0:40:normal-hitnormal.wav
320,192,70511,1,0,0:0:0:100:LR_Kick Total beat.wav
64,192,70511,1,0,0:0:0:0:
192,192,70599,1,0,0:0:0:50:normal-hitnormal.wav
448,192,70687,1,0,0:0:0:50:normal-hitnormal.wav
320,192,70687,1,0,0:0:0:0:
192,192,70775,1,0,0:0:0:50:normal-hitnormal.wav
448,192,70863,1,0,0:0:0:100:LR_Kick Total beat.wav
320,192,70863,1,0,0:0:0:100:normal-hitclap.wav
64,192,70863,1,0,0:0:0:0:
192,192,70952,1,0,0:0:0:60:normal-hitnormal.wav
320,192,71040,1,0,0:0:0:60:normal-hitnormal.wav
64,192,71128,1,0,0:0:0:60:normal-hitnormal.wav
192,192,71216,1,0,0:0:0:100:LR_Kick Total beat.wav
448,192,71216,1,0,0:0:0:0:
320,192,71305,1,0,0:0:0:70:normal-hitnormal.wav
448,192,71393,1,0,0:0:0:70:normal-hitnormal.wav
192,192,71481,1,0,0:0:0:70:normal-hitnormal.wav
448,192,71569,1,0,0:0:0:100:LR_Kick Total beat.wav
320,192,71569,1,0,0:0:0:100:normal-hitclap.wav
64,192,71569,1,0,0:0:0:0:
192,192,71658,1,0,0:0:0:80:normal-hitnormal.wav
64,192,71746,1,0,0:0:0:80:normal-hitnormal.wav
320,192,71746,1,0,0:0:0:0:
448,192,71834,1,0,0:0:0:80:normal-hitnormal.wav
64,192,71922,1,0,0:0:0:100:LR_Kick Total beat.wav
192,192,71922,128,0,72187:0:0:0:0:
448,192,72011,1,0,0:0:0:90:normal-hitnormal.wav
320,192,72099,1,0,0:0:0:90:normal-hitnormal.wav
448,192,72187,1,0,0:0:0:90:normal-hitnormal.wav
192,192,72275,1,0,0:0:0:100:normal-hitclap.wav
64,192,72275,128,0,72628:0:0:0:50:LR_Kick Total beat.wav
320,192,72275,1,0,0:0:0:0:
448,192,72363,1,0,0:0:0:100:normal-hitnormal.wav
192,192,72452,1,0,0:0:0:100:normal-hitnormal.wav
320,192,72540,1,0,0:0:0:100:normal-hitnormal.wav
192,192,72628,1,0,0:0:0:100:LR4_BassKickReverbXD.wav
448,192,72628,1,0,0:0:0:100:LR_Kick Total beat.wav
64,192,72805,1,0,0:0:0:0:
192,192,72981,1,0,0:0:0:0:
448,192,73158,1,0,0:0:0:0:
64,192,73334,1,0,0:0:0:0:
320,192,73511,1,0,0:0:0:0:
448,192,74746,128,0,75011:0:0:0:0:
320,192,74922,128,0,75187:0:0:0:0:
192,192,75099,128,0,75363:0:0:0:0:
64,192,75275,128,0,75540:0:0:0:0:
320,192,75452,128,0,75628:0:0:0:0:
192,192,75628,128,0,75716:0:0:0:0:
320,192,76863,1,0,0:0:0:0:
448,192,77569,1,0,0:0:0:0:
320,192,78275,1,0,2:0:0:0:
64,192,78275,1,0,0:0:0:0:
192,192,78452,1,0,0:0:0:0:
320,192,78628,1,0,0:0:0:0:
64,192,78805,1,0,0:0:0:0:
192,192,78981,1,0,0:0:0:0:
448,192,79158,128,0,79202:0:0:0:0:
448,192,80393,128,0,80658:0:0:0:0:
320,192,80569,128,0,80834:0:0:0:0:
192,192,80746,128,0,81011:0:0:0:0:
64,192,80922,128,0,81187:0:0:0:0:
320,192,81099,128,0,81275:0:0:0:0:
192,192,81275,128,0,81319:0:0:0:0:
448,192,81297,128,0,81363:0:0:0:0:
192,192,82069,128,0,82158:0:0:0:0:
64,192,83150,128,0,83746:0:0:0:0:
192,192,83216,128,0,83746:0:0:0:0:
448,192,83283,128,0,83922:2:0:0:0:
320,192,83283,128,0,83922:0:0:0:0:
64,192,83922,1,0,0:0:0:0:
192,192,84099,1,0,0:0:0:0:
320,192,84275,1,0,0:0:0:0:
64,192,84452,1,0,0:0:0:0:
192,192,84628,1,0,0:0:0:0:
448,192,84805,128,0,84871:0:0:0:0:
320,192,84827,128,0,84937:0:0:0:0:
448,192,86040,128,0,86305:0:0:0:0:
320,192,86216,128,0,86481:0:0:0:0:
192,192,86393,128,0,86658:0:0:0:0:
64,192,86569,128,0,86834:0:0:0:0:
320,192,86746,128,0,86922:0:0:0:0:
192,192,86922,128,0,87011:2:0:0:0:
448,192,86922,128,0,87275:0:0:0:0:
64,192,87452,128,0,87540:0:0:0:0:
192,192,88158,128,0,88268:0:0:0:0:
320,192,88180,128,0,88422:0:0:0:0:
320,192,88863,128,0,88974:0:0:0:0:
448,192,88886,128,0,89128:0:0:0:0:
320,192,89569,1,0,0:0:0:0:
64,192,89569,1,0,0:0:0:0:
192,192,89746,1,0,0:0:0:0:
64,192,89922,1,0,0:0:0:0:
192,192,90099,1,0,0:0:0:0:
320,192,90275,1,0,0:0:0:0:
448,192,90452,128,0,90511:2:0:0:0:
64,192,91599,128,0,91665:0:0:0:0:
320,192,91643,128,0,91731:0:0:0:0:
448,192,91687,128,0,91797:0:0:0:0:
192,192,91863,1,0,0:0:0:0:
320,192,92040,1,0,0:0:0:0:
192,192,92216,1,0,0:0:0:0:
64,192,92393,1,0,0:0:0:0:
320,192,92599,1,0,0:0:0:0:
64,192,95216,128,0,95261:0:0:0:35:LR4_BassKickReverbXD.wav
320,192,95216,128,0,95261:0:0:0:35:LR4_BassKickReverbXD.wav
192,192,95216,128,0,95261:0:0:0:35:LR4_BassKickReverbXD.wav
448,192,95216,128,0,95261:0:0:0:35:LR4_BassKickReverbXD.wav
320,192,95569,1,0,0:0:0:0:
192,192,95922,1,0,0:0:0:0:
320,192,96275,1,0,0:0:0:0:
192,192,96628,1,0,0:0:0:0:
320,192,96981,1,0,0:0:0:0:
192,192,97334,1,0,0:0:0:0:
320,192,97687,1,0,0:0:0:0:
192,192,98040,1,0,0:0:0:0:
320,192,98393,1,0,0:0:0:0:
192,192,98746,1,0,0:0:0:0:
320,192,99099,1,0,0:0:0:0:
192,192,99452,1,0,0:0:0:0:
320,192,99805,1,0,0:0:0:0:
192,192,100158,1,0,0:0:0:0:
320,192,100511,1,0,0:0:0:0:
64,192,100863,128,0,100952:0:0:0:0:
192,192,100863,128,0,100952:0:0:0:0:
320,192,101216,1,0,0:0:0:0:
192,192,101569,1,0,0:0:0:0:
320,192,101922,1,0,0:0:0:0:
192,192,102275,1,0,0:0:0:0:
320,192,102628,1,0,0:0:0:0:
192,192,102981,1,0,0:0:0:0:
320,192,103334,1,0,0:0:0:0:
192,192,103687,1,0,0:0:0:0:
320,192,104040,1,0,0:0:0:0:
192,192,104393,1,0,0:0:0:0:
320,192,104746,1,0,0:0:0:0:
192,192,105099,1,0,0:0:0:0:
320,192,105452,1,0,0:0:0:0:
192,192,105805,1,0,0:0:0:0:
320,192,106158,1,0,0:0:0:0:
64,192,106511,128,0,106599:0:0:0:0:
192,192,106687,1,0,0:0:0:0:
320,192,106863,1,0,0:0:0:35:LR4_ClapLRV.wav
448,192,107040,1,0,0:0:0:0:
192,192,107216,1,0,0:0:0:0:
448,192,107393,1,0,0:0:0:0:
320,192,107569,1,0,0:0:0:35:LR4_ClapLRV.wav
64,192,107746,1,0,0:0:0:0:
192,192,107922,1,0,0:0:0:0:
448,192,108099,1,0,0:0:0:0:
320,192,108275,1,0,0:0:0:35:LR4_ClapLRV.wav
64,192,108452,1,0,0:0:0:0:
192,192,108628,1,0,0:0:0:0:
448,192,108805,1,0,0:0:0:0:
320,192,108981,1,0,0:0:0:35:LR4_ClapLRV.wav
64,192,109158,1,0,0:0:0:0:
192,192,109334,1,0,0:0:0:0:
448,192,109511,1,0,0:0:0:0:
320,192,109687,1,0,0:0:0:35:LR4_ClapLRV.wav
64,192,109863,1,0,0:0:0:0:
192,192,110040,1,0,0:0:0:0:
448,192,110216,1,0,0:0:0:0:
320,192,110393,1,0,0:0:0:35:LR4_ClapLRV.wav
64,192,110569,1,0,0:0:0:0:
192,192,110746,1,0,0:0:0:0:
448,192,110922,1,0,0:0:0:0:
320,192,111099,1,0,0:0:0:35:LR4_ClapLRV.wav
64,192,111275,1,0,0:0:0:0:
192,192,111452,1,0,0:0:0:0:
448,192,111628,1,0,0:0:0:0:
320,192,111805,1,0,0:0:0:35:LR4_ClapLRV.wav
64,192,111981,1,0,0:0:0:0:
448,192,112158,128,0,112246:0:0:0:0:
192,192,112158,128,0,112246:0:0:0:0:
64,192,112334,1,0,0:0:0:0:
320,192,112511,1,0,0:0:0:35:LR4_ClapLRV.wav
448,192,112687,1,0,0:0:0:0:
192,192,112863,1,0,0:0:0:0:
64,192,113040,1,0,0:0:0:0:
320,192,113216,1,0,0:0:0:35:LR4_ClapLRV.wav
448,192,113393,1,0,0:0:0:0:
192,192,113569,1,0,0:0:0:0:
64,192,113746,1,0,0:0:0:0:
320,192,113922,1,0,0:0:0:35:LR4_ClapLRV.wav
448,192,114099,1,0,0:0:0:0:
192,192,114275,1,0,0:0:0:0:
64,192,114452,1,0,0:0:0:0:
320,192,114628,1,0,0:0:0:35:LR4_ClapLRV.wav
64,192,114805,1,0,0:0:0:0:
448,192,114981,128,0,115069:0:0:0:0:
64,192,115158,1,0,0:0:0:0:
320,192,115334,1,0,0:0:0:35:LR4_ClapLRV.wav
448,192,115511,1,0,0:0:0:0:
192,192,115687,1,0,0:0:0:0:
64,192,115863,1,0,0:0:0:0:
320,192,116040,1,0,0:0:0:35:LR4_ClapLRV.wav
448,192,116216,1,0,0:0:0:0:
192,192,116393,1,0,0:0:0:0:
64,192,116569,1,0,0:0:0:0:
320,192,116746,1,0,0:0:0:35:LR4_ClapLRV.wav
448,192,116922,1,0,0:0:0:0:
64,192,117099,128,0,117187:0:0:0:0:
448,192,117275,1,0,0:0:0:0:
320,192,117452,1,0,0:0:0:35:LR4_ClapLRV.wav
192,192,117628,1,0,0:0:0:0:
64,192,117805,1,0,0:0:0:35:LR_HiHat Normal - L.wav
192,192,117805,1,0,0:0:0:35:LR_HiHat Normal - R.wav
448,192,117805,1,0,0:0:0:70:LR_Snare Wet Echoing Hollow.wav
320,192,117805,1,0,0:0:0:0:
448,192,118158,1,0,0:0:0:70:LR_Snare Wet Echoing Hollow.wav
320,192,118158,1,0,0:0:0:0:
448,192,118511,1,0,0:0:0:70:LR_Snare Wet Echoing Hollow.wav
320,192,118511,1,0,0:0:0:0:
448,192,118863,1,0,0:0:0:70:LR_Snare Wet Echoing Hollow.wav
320,192,118863,1,0,0:0:0:0:
448,192,119216,1,0,0:0:0:70:LR_Snare Wet Echoing Hollow.wav
320,192,119216,1,0,0:0:0:0:
448,192,119569,1,0,0:0:0:70:LR_Snare Wet Echoing Hollow.wav
320,192,119569,1,0,0:0:0:0:
448,192,119922,1,0,0:0:0:70:LR_Snare Wet Echoing Hollow.wav
320,192,119922,1,0,0:0:0:0:
448,192,120275,1,0,0:0:0:70:LR_Snare Wet Echoing Hollow.wav
320,192,120275,1,0,0:0:0:0:
320,192,120628,1,0,0:0:0:70:LR_Snare Wet Echoing Hollow.wav
448,192,120628,1,0,0:0:0:0:
448,192,120981,1,0,0:0:0:70:LR_Snare Wet Echoing Hollow.wav
320,192,120981,1,0,0:0:0:0:
448,192,121334,1,0,0:0:0:70:LR_Snare Wet Echoing Hollow.wav
320,192,121334,1,0,0:0:0:0:
448,192,121687,1,0,0:0:0:70:LR_Snare Wet Echoing Hollow.wav
320,192,121687,1,0,0:0:0:0:
320,192,122040,1,0,0:0:0:70:LR_Snare Wet Echoing Hollow.wav
448,192,122040,1,0,0:0:0:0:
448,192,122393,1,0,0:0:0:70:LR_Snare Wet Echoing Hollow.wav
320,192,122393,1,0,0:0:0:0:
320,192,122746,1,0,0:0:0:70:LR_Snare Wet Echoing Hollow.wav
448,192,122746,1,0,0:0:0:0:
448,192,123099,1,0,0:0:0:70:LR_Snare Wet Echoing Hollow.wav
320,192,123099,1,0,0:0:0:0:
448,192,123452,1,0,0:0:0:70:LR_Snare Wet Echoing Hollow.wav
320,192,123452,1,0,0:0:0:0:
448,192,123805,1,0,0:0:0:70:LR_Snare Wet Echoing Hollow.wav
320,192,123805,1,0,0:0:0:0:
448,192,124158,1,0,0:0:0:70:LR_Snare Wet Echoing Hollow.wav
320,192,124158,1,0,0:0:0:0:
448,192,124511,1,0,0:0:0:70:LR_Snare Wet Echoing Hollow.wav
320,192,124511,1,0,0:0:0:0:
448,192,124863,1,0,0:0:0:70:LR_Snare Wet Echoing Hollow.wav
320,192,124863,1,0,0:0:0:0:
448,192,125216,1,0,0:0:0:70:LR_Snare Wet Echoing Hollow.wav
320,192,125216,1,0,0:0:0:0:
448,192,125569,1,0,0:0:0:70:LR_Snare Wet Echoing Hollow.wav
320,192,125569,1,0,0:0:0:0:
448,192,125922,1,0,0:0:0:70:LR_Snare Wet Echoing Hollow.wav
320,192,125922,1,0,0:0:0:0:
448,192,126275,1,0,0:0:0:70:LR_Snare Wet Echoing Hollow.wav
320,192,126275,1,0,0:0:0:0:
448,192,126628,1,0,0:0:0:70:LR_Snare Wet Echoing Hollow.wav
320,192,126628,1,0,0:0:0:0:
448,192,126981,1,0,0:0:0:70:LR_Snare Wet Echoing Hollow.wav
320,192,126981,1,0,0:0:0:0:
448,192,127334,1,0,0:0:0:70:LR_Snare Wet Echoing Hollow.wav
320,192,127334,1,0,0:0:0:0:
448,192,127687,1,0,0:0:0:70:LR_Snare Wet Echoing Hollow.wav
320,192,127687,1,0,0:0:0:0:
448,192,128040,1,0,0:0:0:70:LR_Snare Wet Echoing Hollow.wav
320,192,128040,1,0,0:0:0:0:
448,192,128393,1,0,0:0:0:70:LR_Snare Wet Echoing Hollow.wav
320,192,128393,1,0,0:0:0:0:
448,192,128746,1,0,0:0:0:70:LR_Snare Wet Echoing Hollow.wav
320,192,128746,1,0,0:0:0:0:
448,192,129099,1,0,0:0:0:65:LR_Snare Wet Echoing Hollow.wav
320,192,129099,1,0,0:0:0:0:
192,192,129275,1,0,0:0:0:65:LR_Snare Wet Echoing Hollow.wav
64,192,129275,1,0,0:0:0:0:
448,192,129452,1,0,0:0:0:65:LR_Snare Wet Echoing Hollow.wav
320,192,129452,1,0,0:0:0:0:
192,192,129628,1,0,0:0:0:65:LR_Snare Wet Echoing Hollow.wav
64,192,129628,1,0,0:0:0:0:
448,192,129805,1,0,0:0:0:60:LR_Snare Wet Echoing Hollow.wav
320,192,129805,1,0,0:0:0:0:
192,192,129981,1,0,0:0:0:60:LR_Snare Wet Echoing Hollow.wav
64,192,129981,1,0,0:0:0:0:
320,192,130158,1,0,0:0:0:60:LR_Snare Wet Echoing Hollow.wav
448,192,130158,1,0,0:0:0:0:
64,192,130334,1,0,0:0:0:60:LR_Snare Wet Echoing Hollow.wav
192,192,130334,1,0,0:0:0:0:
320,192,130511,1,0,0:0:0:55:LR_Snare Wet Echoing Hollow.wav
448,192,130511,1,0,0:0:0:0:
64,192,130687,1,0,0:0:0:55:LR_Snare Wet Echoing Hollow.wav
192,192,130687,1,0,0:0:0:0:
448,192,130863,1,0,0:0:0:55:LR_Snare Wet Echoing Hollow.wav
320,192,130863,1,0,0:0:0:0:
192,192,131040,1,0,0:0:0:55:LR_Snare Wet Echoing Hollow.wav
64,192,131040,1,0,0:0:0:0:
448,192,131216,1,0,0:0:0:50:LR_Snare Wet Echoing Hollow.wav
320,192,131216,1,0,0:0:0:0:
64,192,131393,1,0,0:0:0:50:LR_Snare Wet Echoing Hollow.wav
192,192,131393,1,0,0:0:0:0:
448,192,131569,1,0,0:0:0:50:LR_Snare Wet Echoing Hollow.wav
320,192,131569,1,0,0:0:0:0:
64,192,131746,1,0,0:0:0:50:LR_Snare Wet Echoing Hollow.wav
192,192,131746,1,0,0:0:0:0:
448,192,131922,1,0,0:0:0:45:LR_Snare Wet Echoing Hollow.wav
320,192,131922,1,0,0:0:0:0:
64,192,132099,1,0,0:0:0:45:LR_Snare Wet Echoing Hollow.wav
192,192,132099,1,0,0:0:0:0:
320,192,132275,1,0,0:0:0:45:LR_Snare Wet Echoing Hollow.wav
448,192,132275,1,0,0:0:0:0:
192,192,132452,1,0,0:0:0:45:LR_Snare Wet Echoing Hollow.wav
64,192,132452,1,0,0:0:0:0:
448,192,132628,1,0,0:0:0:40:LR_Snare Wet Echoing Hollow.wav
320,192,132628,1,0,0:0:0:0:
192,192,132805,1,0,0:0:0:40:LR_Snare Wet Echoing Hollow.wav
64,192,132805,1,0,0:0:0:0:
448,192,132981,1,0,0:0:0:40:LR_Snare Wet Echoing Hollow.wav
320,192,132981,1,0,0:0:0:0:
64,192,133158,1,0,0:0:0:40:LR_Snare Wet Echoing Hollow.wav
192,192,133158,1,0,0:0:0:0:
320,192,133334,1,0,0:0:0:35:LR_Snare Wet Echoing Hollow.wav
448,192,133334,1,0,0:0:0:0:
192,192,133511,1,0,0:0:0:35:LR_Snare Wet Echoing Hollow.wav
64,192,133511,1,0,0:0:0:0:
320,192,133687,1,0,0:0:0:35:LR_Snare Wet Echoing Hollow.wav
448,192,133687,1,0,0:0:0:0:
192,192,133863,1,0,0:0:0:35:LR_Snare Wet Echoing Hollow.wav
64,192,133863,1,0,0:0:0:0:
320,192,134040,1,0,0:0:0:30:LR_Snare Wet Echoing Hollow.wav
448,192,134040,1,0,0:0:0:0:
192,192,134216,1,0,0:0:0:30:LR_Snare Wet Echoing Hollow.wav
64,192,134216,1,0,0:0:0:0:
448,192,134393,1,0,0:0:0:30:LR_Snare Wet Echoing Hollow.wav
320,192,134393,1,0,0:0:0:0:
64,192,134569,1,0,0:0:0:30:LR_Snare Wet Echoing Hollow.wav
192,192,134569,1,0,0:0:0:0:
320,192,134746,1,0,0:0:0:25:LR_Snare Wet Echoing Hollow.wav
448,192,134746,1,0,0:0:0:0:
192,192,134834,1,0,0:0:0:25:LR_Snare Wet Echoing Hollow.wav
64,192,134834,1,0,0:0:0:0:
448,192,134922,1,0,0:0:0:25:LR_Snare Wet Echoing Hollow.wav
320,192,134922,1,0,0:0:0:0:
192,192,135011,1,0,0:0:0:25:LR_Snare Wet Echoing Hollow.wav
64,192,135011,1,0,0:0:0:0:
320,192,135099,1,0,0:0:0:25:LR_Snare Wet Echoing Hollow.wav
448,192,135099,1,0,0:0:0:0:
192,192,135187,1,0,0:0:0:25:LR_Snare Wet Echoing Hollow.wav
64,192,135187,1,0,0:0:0:0:
320,192,135275,1,0,0:0:0:25:LR_Snare Wet Echoing Hollow.wav
448,192,135275,1,0,0:0:0:0:
192,192,135363,1,0,0:0:0:25:LR_Snare Wet Echoing Hollow.wav
64,192,135363,1,0,0:0:0:0:
320,192,135452,1,0,0:0:0:20:LR_Snare Wet Echoing Hollow.wav
448,192,135452,1,0,0:0:0:0:
192,192,135540,1,0,0:0:0:20:LR_Snare Wet Echoing Hollow.wav
64,192,135540,1,0,0:0:0:0:
320,192,135628,1,0,0:0:0:20:LR_Snare Wet Echoing Hollow.wav
448,192,135628,1,0,0:0:0:0:
192,192,135716,1,0,0:0:0:20:LR_Snare Wet Echoing Hollow.wav
64,192,135716,1,0,0:0:0:0:
320,192,135805,1,0,0:0:0:20:LR_Snare Wet Echoing Hollow.wav
448,192,135805,1,0,0:0:0:0:
192,192,135893,1,0,0:0:0:20:LR_Snare Wet Echoing Hollow.wav
64,192,135893,1,0,0:0:0:0:
320,192,135981,1,0,0:0:0:20:LR_Snare Wet Echoing Hollow.wav
448,192,135981,1,0,0:0:0:0:
192,192,136069,1,0,0:0:0:20:LR_Snare Wet Echoing Hollow.wav
64,192,136069,1,0,0:0:0:0:
320,192,136158,1,0,0:0:0:15:LR_Snare Wet Echoing Hollow.wav
192,192,136246,1,0,0:0:0:15:LR_Snare Wet Echoing Hollow.wav
320,192,136334,1,0,0:0:0:15:LR_Snare Wet Echoing Hollow.wav
192,192,136422,1,0,0:0:0:15:LR_Snare Wet Echoing Hollow.wav
320,192,136511,1,0,0:0:0:15:LR_Snare Wet Echoing Hollow.wav
192,192,136599,1,0,0:0:0:15:LR_Snare Wet Echoing Hollow.wav
320,192,136687,1,0,0:0:0:15:LR_Snare Wet Echoing Hollow.wav
192,192,136775,1,0,0:0:0:15:LR_Snare Wet Echoing Hollow.wav
320,192,136863,1,0,0:0:0:10:LR_Snare Wet Echoing Hollow.wav
192,192,136952,1,0,0:0:0:10:LR_Snare Wet Echoing Hollow.wav
320,192,137040,1,0,0:0:0:10:LR_Snare Wet Echoing Hollow.wav
192,192,137128,1,0,0:0:0:10:LR_Snare Wet Echoing Hollow.wav
320,192,137216,1,0,0:0:0:10:LR_Snare Wet Echoing Hollow.wav
192,192,137305,1,0,0:0:0:10:LR_Snare Wet Echoing Hollow.wav
320,192,137393,1,0,0:0:0:10:LR_Snare Wet Echoing Hollow.wav
192,192,137481,1,0,0:0:0:10:LR_Snare Wet Echoing Hollow.wav
448,192,137569,1,0,0:0:0:30:normal-hitnormal.wav
64,192,137658,1,0,0:0:0:30:normal-hitnormal.wav
448,192,137746,1,0,0:0:0:30:normal-hitnormal.wav
64,192,137834,1,0,0:0:0:30:normal-hitnormal.wav
448,192,137922,1,0,0:0:0:30:normal-hitnormal.wav
64,192,138011,1,0,0:0:0:30:normal-hitnormal.wav
448,192,138099,1,0,0:0:0:30:normal-hitnormal.wav
64,192,138187,1,0,0:0:0:30:normal-hitnormal.wav
448,192,138275,1,0,0:0:0:45:normal-hitnormal.wav
64,192,138363,1,0,0:0:0:45:normal-hitnormal.wav
448,192,138452,1,0,0:0:0:45:normal-hitnormal.wav
64,192,138540,1,0,0:0:0:45:normal-hitnormal.wav
320,192,138628,1,0,0:0:0:45:normal-hitnormal.wav
192,192,138716,1,0,0:0:0:45:normal-hitnormal.wav
320,192,138805,1,0,0:0:0:45:normal-hitnormal.wav
192,192,138893,1,0,0:0:0:45:normal-hitnormal.wav
320,192,138981,1,0,0:0:0:60:normal-hitnormal.wav
192,192,139069,1,0,0:0:0:60:normal-hitnormal.wav
320,192,139158,1,0,0:0:0:60:normal-hitnormal.wav
192,192,139246,1,0,0:0:0:60:normal-hitnormal.wav
320,192,139334,1,0,0:0:0:60:normal-hitnormal.wav
192,192,139422,1,0,0:0:0:60:normal-hitnormal.wav
320,192,139511,1,0,0:0:0:60:normal-hitnormal.wav
192,192,139599,1,0,0:0:0:60:normal-hitnormal.wav
320,192,139687,1,0,0:0:0:60:normal-hitnormal.wav
192,192,139775,1,0,0:0:0:60:normal-hitnormal.wav
320,192,139863,1,0,0:0:0:70:LR_Kick Bass strong fast.wav
448,192,139863,1,0,0:0:0:0:
448,192,140040,1,0,0:0:0:35:LR_Snare Wet Echoing Hollow.wav
320,192,140040,1,0,0:0:0:35:LR_Snare Wet Echoing Hollow.wav
192,192,140040,1,0,0:0:0:35:LR_Snare Wet Echoing Hollow.wav
64,192,140040,1,0,0:0:0:35:LR_Snare Wet Echoing Hollow.wav
192,192,140216,1,0,0:0:0:70:LR_Kick Bass strong fast.wav
64,192,140216,1,0,0:0:0:0:
320,192,140393,1,0,0:0:0:70:LR_Kick Bass strong fast.wav
192,192,140393,1,0,0:0:0:0:
64,192,140393,1,0,0:0:0:0:
320,192,140569,1,0,0:0:0:0:
192,192,140746,1,0,0:0:0:70:LR_Kick Bass strong fast.wav
64,192,140746,1,0,0:0:0:0:
320,192,140922,1,0,0:0:0:0:
192,192,141099,1,0,0:0:0:70:LR_Kick Bass strong fast.wav
64,192,141099,1,0,0:0:0:0:
320,192,141275,1,0,0:0:0:0:
448,192,141452,1,0,0:0:0:70:LR_Kick Bass strong fast.wav
64,192,141452,1,0,0:0:0:70:LR_DS - Snare Wet High.wav
192,192,141452,1,0,0:0:0:0:
320,192,141452,1,0,0:0:0:0:
320,192,141805,1,0,0:0:0:70:LR_Kick Bass strong fast.wav
64,192,141805,1,0,0:0:0:0:
192,192,141805,1,0,0:0:0:0:
320,192,141981,1,0,0:0:0:0:
64,192,142158,1,0,0:0:0:70:LR_Kick Bass strong fast.wav
192,192,142158,1,0,0:0:0:0:
320,192,142334,1,0,0:0:0:0:
448,192,142422,1,0,0:0:0:0:
64,192,142511,1,0,0:0:0:70:LR_Kick Bass strong fast.wav
192,192,142511,1,0,0:0:0:0:
320,192,142687,1,0,0:0:0:0:
64,192,142863,1,0,0:0:0:70:LR_Kick Bass strong fast.wav
448,192,142863,1,0,0:0:0:70:LR_DS - Snare Wet High.wav
320,192,142863,1,0,0:0:0:0:
192,192,142863,1,0,0:0:0:0:
320,192,143216,1,0,0:0:0:70:LR_Kick Bass strong fast.wav
192,192,143216,1,0,0:0:0:0:
64,192,143216,1,0,0:0:0:0:
320,192,143393,1,0,0:0:0:0:
448,192,143481,1,0,0:0:0:0:
192,192,143569,1,0,0:0:0:70:LR_Kick Bass strong fast.wav
64,192,143569,1,0,0:0:0:0:
320,192,143746,1,0,0:0:0:0:
64,192,143922,1,0,0:0:0:70:LR_Kick Bass strong fast.wav
192,192,143922,1,0,0:0:0:0:
320,192,144099,1,0,0:0:0:0:
448,192,144158,1,0,0:0:0:0:
320,192,144216,1,0,0:0:0:0:
448,192,144275,1,0,0:0:0:70:LR_DS - Snare Wet High.wav
64,192,144275,1,0,0:0:0:70:LR_Kick Bass strong fast.wav
192,192,144275,1,0,0:0:0:0:
320,192,144628,1,0,0:0:0:70:LR_Kick Bass strong fast.wav
192,192,144628,1,0,0:0:0:0:
64,192,144628,1,0,0:0:0:0:
320,192,144805,1,0,0:0:0:0:
192,192,144981,1,0,0:0:0:70:LR_Kick Bass strong fast.wav
64,192,144981,1,0,0:0:0:0:
320,192,145158,1,0,0:0:0:0:
448,192,145246,1,0,0:0:0:0:
192,192,145334,1,0,0:0:0:70:LR_Kick Bass strong fast.wav
64,192,145334,1,0,0:0:0:0:
320,192,145422,1,0,0:0:0:0:
448,192,145511,1,0,0:0:0:0:
192,192,145511,1,0,0:0:0:0:
64,192,145599,1,0,0:0:0:0:
448,192,145687,1,0,0:0:0:70:LR_DS - Snare Wet High.wav
320,192,145687,1,0,0:0:0:70:LR_Kick Bass strong fast.wav
192,192,145687,1,0,0:0:0:0:
320,192,146040,1,0,0:0:0:70:LR_Kick Bass strong fast.wav
192,192,146040,1,0,0:0:0:0:
64,192,146040,1,0,0:0:0:0:
320,192,146216,1,0,0:0:0:0:
192,192,146393,1,0,0:0:0:70:LR_Kick Bass strong fast.wav
64,192,146393,1,0,0:0:0:0:
320,192,146569,1,0,0:0:0:0:
192,192,146746,1,0,0:0:0:70:LR_Kick Bass strong fast.wav
64,192,146746,1,0,0:0:0:0:
320,192,146922,1,0,0:0:0:0:
448,192,147099,1,0,0:0:0:70:LR_DS - Snare Wet High.wav
64,192,147099,1,0,0:0:0:70:LR_Kick Bass strong fast.wav
192,192,147099,1,0,0:0:0:0:
320,192,147099,1,0,0:0:0:0:
320,192,147452,1,0,0:0:0:70:LR_Kick Bass strong fast.wav
64,192,147452,1,0,0:0:0:0:
192,192,147452,1,0,0:0:0:0:
320,192,147628,1,0,0:0:0:0:
64,192,147805,1,0,0:0:0:70:LR_Kick Bass strong fast.wav
192,192,147805,1,0,0:0:0:0:
320,192,147981,1,0,0:0:0:0:
448,192,148069,1,0,0:0:0:0:
64,192,148158,1,0,0:0:0:70:LR_Kick Bass strong fast.wav
192,192,148158,1,0,0:0:0:0:
320,192,148334,1,0,0:0:0:0:
320,192,148511,1,0,0:0:0:70:LR_Kick Bass strong fast.wav
64,192,148511,1,0,0:0:0:70:LR_DS - Snare Wet High.wav
192,192,148511,1,0,0:0:0:0:
448,192,148511,1,0,0:0:0:0:
320,192,148863,1,0,0:0:0:70:LR_Kick Bass strong fast.wav
192,192,148863,1,0,0:0:0:0:
64,192,148863,1,0,0:0:0:0:
320,192,149040,1,0,0:0:0:0:
448,192,149128,1,0,0:0:0:0:
192,192,149216,1,0,0:0:0:70:LR_Kick Bass strong fast.wav
64,192,149216,1,0,0:0:0:0:
320,192,149393,1,0,0:0:0:0:
64,192,149569,1,0,0:0:0:70:LR_Kick Bass strong fast.wav
192,192,149569,1,0,0:0:0:0:
320,192,149746,1,0,0:0:0:0:
448,192,149805,1,0,0:0:0:0:
320,192,149863,1,0,0:0:0:0:
192,192,149922,1,0,0:0:0:70:LR_DS - Snare Wet High.wav
448,192,149922,1,0,0:0:0:70:LR_Kick Bass strong fast.wav
64,192,149922,1,0,0:0:0:0:
320,192,150275,1,0,0:0:0:70:LR_Kick Bass strong fast.wav
192,192,150275,1,0,0:0:0:0:
64,192,150275,1,0,0:0:0:0:
320,192,150452,1,0,0:0:0:0:
192,192,150628,1,0,0:0:0:70:LR_Kick Bass strong fast.wav
64,192,150628,1,0,0:0:0:0:
320,192,150805,1,0,0:0:0:0:
448,192,150893,1,0,0:0:0:0:
192,192,150981,1,0,0:0:0:70:LR_Kick Bass strong fast.wav
64,192,150981,1,0,0:0:0:0:
64,192,151158,1,0,0:0:0:0:
64,192,151334,128,0,151378:0:0:0:70:LR_Kick Bass strong fast.wav
192,192,151334,128,0,151378:0:0:0:70:LR_Snare Wet Echoing Hollow.wav
320,192,151334,128,0,151378:0:0:0:70:LR_DS - Snare Wet High.wav
448,192,151334,128,0,151378:0:0:0:0:
192,192,151687,1,0,0:0:0:70:LR_Kick Bass strong fast.wav
320,192,151687,1,0,0:0:0:0:
448,192,151687,1,0,0:0:0:0:
192,192,151863,1,0,0:0:0:0:
320,192,152040,1,0,0:0:0:70:LR_Kick Bass strong fast.wav
448,192,152040,1,0,0:0:0:0:
192,192,152216,1,0,0:0:0:0:
320,192,152393,1,0,0:0:0:70:LR_Kick Bass strong fast.wav
448,192,152393,1,0,0:0:0:0:
192,192,152569,1,0,0:0:0:0:
64,192,152746,1,0,0:0:0:70:LR_DS - Snare Wet High.wav
448,192,152746,1,0,0:0:0:70:LR_Kick Bass strong fast.wav
320,192,152746,1,0,0:0:0:0:
192,192,152746,1,0,0:0:0:0:
192,192,153099,1,0,0:0:0:70:LR_Kick Bass strong fast.wav
448,192,153099,1,0,0:0:0:0:
320,192,153099,1,0,0:0:0:0:
192,192,153275,1,0,0:0:0:0:
448,192,153452,1,0,0:0:0:70:LR_Kick Bass strong fast.wav
320,192,153452,1,0,0:0:0:0:
192,192,153628,1,0,0:0:0:0:
64,192,153716,1,0,0:0:0:0:
448,192,153805,1,0,0:0:0:70:LR_Kick Bass strong fast.wav
320,192,153805,1,0,0:0:0:0:
192,192,153981,1,0,0:0:0:0:
192,192,154158,1,0,0:0:0:70:LR_Kick Bass strong fast.wav
448,192,154158,1,0,0:0:0:70:LR_DS - Snare Wet High.wav
320,192,154158,1,0,0:0:0:0:
64,192,154158,1,0,0:0:0:0:
192,192,154511,1,0,0:0:0:70:LR_Kick Bass strong fast.wav
320,192,154511,1,0,0:0:0:0:
448,192,154511,1,0,0:0:0:0:
192,192,154687,1,0,0:0:0:0:
64,192,154775,1,0,0:0:0:0:
320,192,154863,1,0,0:0:0:70:LR_Kick Bass strong fast.wav
448,192,154863,1,0,0:0:0:0:
192,192,155040,1,0,0:0:0:0:
448,192,155216,1,0,0:0:0:70:LR_Kick Bass strong fast.wav
320,192,155216,1,0,0:0:0:0:
192,192,155393,1,0,0:0:0:0:
64,192,155452,1,0,0:0:0:0:
192,192,155511,1,0,0:0:0:0:
320,192,155569,1,0,0:0:0:70:LR_DS - Snare Wet High.wav
64,192,155569,1,0,0:0:0:70:LR_Kick Bass strong fast.wav
448,192,155569,1,0,0:0:0:0:
192,192,155922,1,0,0:0:0:70:LR_Kick Bass strong fast.wav
320,192,155922,1,0,0:0:0:0:
448,192,155922,1,0,0:0:0:0:
192,192,156099,1,0,0:0:0:0:
320,192,156275,1,0,0:0:0:70:LR_Kick Bass strong fast.wav
448,192,156275,1,0,0:0:0:0:
192,192,156452,1,0,0:0:0:0:
64,192,156540,1,0,0:0:0:0:
320,192,156628,1,0,0:0:0:70:LR_Kick Bass strong fast.wav
448,192,156628,1,0,0:0:0:0:
192,192,156716,1,0,0:0:0:0:
448,192,156805,1,0,0:0:0:0:
320,192,156893,1,0,0:0:0:70:LR_Kick Bass strong fast.wav
192,192,156893,1,0,0:0:0:0:
64,192,156981,1,0,0:0:0:70:LR_DS - Snare Wet High.wav
448,192,156981,1,0,0:0:0:70:LR_Kick Bass strong fast.wav
192,192,157334,1,0,0:0:0:70:LR_Kick Bass strong fast.wav
320,192,157334,1,0,0:0:0:0:
448,192,157334,1,0,0:0:0:0:
192,192,157511,1,0,0:0:0:0:
320,192,157687,1,0,0:0:0:70:LR_Kick Bass strong fast.wav
448,192,157687,1,0,0:0:0:0:
192,192,157863,1,0,0:0:0:0:
320,192,158040,1,0,0:0:0:70:LR_Kick Bass strong fast.wav
448,192,158040,1,0,0:0:0:0:
192,192,158216,1,0,0:0:0:0:
64,192,158393,1,0,0:0:0:70:LR_DS - Snare Wet High.wav
448,192,158393,1,0,0:0:0:70:LR_Kick Bass strong fast.wav
320,192,158393,1,0,0:0:0:0:
192,192,158393,1,0,0:0:0:0:
192,192,158746,1,0,0:0:0:70:LR_Kick Bass strong fast.wav
448,192,158746,1,0,0:0:0:0:
320,192,158746,1,0,0:0:0:0:
192,192,158922,1,0,0:0:0:0:
448,192,159099,1,0,0:0:0:70:LR_Kick Bass strong fast.wav
320,192,159099,1,0,0:0:0:0:
192,192,159275,1,0,0:0:0:0:
64,192,159363,1,0,0:0:0:0:
448,192,159452,1,0,0:0:0:70:LR_Kick Bass strong fast.wav
320,192,159452,1,0,0:0:0:0:
192,192,159628,1,0,0:0:0:0:
192,192,159805,1,0,0:0:0:70:LR_Kick Bass strong fast.wav
448,192,159805,1,0,0:0:0:70:LR_DS - Snare Wet High.wav
320,192,159805,1,0,0:0:0:0:
64,192,159805,1,0,0:0:0:0:
192,192,160158,1,0,0:0:0:70:LR_Kick Bass strong fast.wav
320,192,160158,1,0,0:0:0:0:
448,192,160158,1,0,0:0:0:0:
192,192,160334,1,0,0:0:0:0:
64,192,160422,1,0,0:0:0:0:
320,192,160511,1,0,0:0:0:70:LR_Kick Bass strong fast.wav
448,192,160511,1,0,0:0:0:0:
192,192,160687,1,0,0:0:0:0:
448,192,160863,1,0,0:0:0:70:LR_Kick Bass strong fast.wav
320,192,160863,1,0,0:0:0:0:
192,192,161040,1,0,0:0:0:0:
64,192,161099,1,0,0:0:0:0:
192,192,161158,1,0,0:0:0:0:
320,192,161216,1,0,0:0:0:70:LR_DS - Snare Wet High.wav
64,192,161216,1,0,0:0:0:70:LR_Kick Bass strong fast.wav
448,192,161216,1,0,0:0:0:0:
320,192,161569,1,0,0:0:0:0:
192,192,161658,1,0,0:0:0:0:
320,192,161746,1,0,0:0:0:0:
192,192,161834,1,0,0:0:0:0:
320,192,161922,1,0,0:0:0:0:
64,192,162011,1,0,0:0:0:0:
320,192,162099,1,0,0:0:0:0:
64,192,162187,1,0,0:0:0:0:
320,192,162275,1,0,0:0:0:0:
448,192,162275,1,0,0:0:0:0:
192,192,162363,1,0,0:0:0:0:
320,192,162452,1,0,0:0:0:0:
448,192,162452,1,0,0:0:0:0:
192,192,162540,1,0,0:0:0:0:
448,192,162628,1,0,0:0:0:70:LR_DS - Snare Wet High.wav
320,192,162628,1,0,0:0:0:70:LR_DS - Snare Wet High.wav
64,192,162628,1,0,0:0:0:0:
64,192,162981,1,0,0:0:0:70:LR_Kick Bass strong fast.wav
192,192,162981,1,0,0:0:0:0:
448,192,162981,1,0,0:0:0:0:
448,192,163158,1,0,0:0:0:0:
64,192,163334,1,0,0:0:0:70:LR_Kick Bass strong fast.wav
192,192,163334,1,0,0:0:0:0:
448,192,163511,1,0,0:0:0:0:
64,192,163687,1,0,0:0:0:70:LR_Kick Bass strong fast.wav
192,192,163687,1,0,0:0:0:0:
448,192,163863,1,0,0:0:0:0:
320,192,163952,1,0,0:0:0:0:
192,192,164040,1,0,0:0:0:70:LR_DS - Snare Wet High.wav
448,192,164040,1,0,0:0:0:70:LR_Kick Bass strong fast.wav
64,192,164040,1,0,0:0:0:0:
64,192,164393,1,0,0:0:0:70:LR_Kick Bass strong fast.wav
192,192,164393,1,0,0:0:0:0:
448,192,164393,1,0,0:0:0:0:
448,192,164569,1,0,0:0:0:0:
64,192,164746,1,0,0:0:0:70:LR_Kick Bass strong fast.wav
192,192,164746,1,0,0:0:0:0:
448,192,164922,128,0,164966:0:0:0:0:
64,192,165099,1,0,0:0:0:70:LR_Kick Bass strong fast.wav
192,192,165099,1,0,0:0:0:0:
448,192,165187,1,0,0:0:0:0:
320,192,165275,1,0,0:0:0:0:
448,192,165363,1,0,0:0:0:0:
64,192,165452,1,0,0:0:0:70:LR_Kick Bass strong fast.wav
320,192,165452,1,0,0:0:0:70:LR_DS - Snare Wet High.wav
192,192,165452,1,0,0:0:0:0:
192,192,165805,1,0,0:0:0:70:LR_Kick Bass strong fast.wav
64,192,165805,1,0,0:0:0:0:
448,192,165805,1,0,0:0:0:0:
448,192,165981,1,0,0:0:0:0:
192,192,166158,1,0,0:0:0:70:LR_Kick Bass strong fast.wav
64,192,166158,1,0,0:0:0:0:
448,192,166334,1,0,0:0:0:0:
64,192,166511,1,0,0:0:0:70:LR_Kick Bass strong fast.wav
192,192,166511,1,0,0:0:0:0:
448,192,166687,1,0,0:0:0:0:
320,192,166775,1,0,0:0:0:0:
192,192,166863,1,0,0:0:0:70:LR_Kick Bass strong fast.wav
64,192,166863,1,0,0:0:0:70:LR_DS - Snare Wet High.wav
448,192,166863,1,0,0:0:0:0:
192,192,167216,1,0,0:0:0:70:LR_Kick Bass strong fast.wav
64,192,167216,1,0,0:0:0:0:
448,192,167216,1,0,0:0:0:0:
448,192,167393,1,0,0:0:0:0:
192,192,167569,1,0,0:0:0:70:LR_Kick Bass strong fast.wav
64,192,167569,1,0,0:0:0:0:
448,192,167746,1,0,0:0:0:0:
320,192,167834,1,0,0:0:0:0:
192,192,167922,1,0,0:0:0:70:LR_Kick Bass strong fast.wav
64,192,167922,1,0,0:0:0:0:
448,192,168011,1,0,0:0:0:0:
320,192,168099,1,0,0:0:0:0:
64,192,168099,1,0,0:0:0:0:
192,192,168187,1,0,0:0:0:0:
64,192,168275,1,0,0:0:0:70:LR_Kick Bass strong fast.wav
448,192,168275,1,0,0:0:0:70:LR_DS - Snare Wet High.wav
320,192,168275,1,0,0:0:0:0:
192,192,168628,1,0,0:0:0:70:LR_Kick Bass strong fast.wav
64,192,168628,1,0,0:0:0:0:
448,192,168628,1,0,0:0:0:0:
448,192,168805,1,0,0:0:0:0:
192,192,168981,1,0,0:0:0:70:LR_Kick Bass strong fast.wav
64,192,168981,1,0,0:0:0:0:
448,192,169158,1,0,0:0:0:0:
192,192,169334,1,0,0:0:0:70:LR_Kick Bass strong fast.wav
64,192,169334,1,0,0:0:0:0:
448,192,169511,1,0,0:0:0:0:
320,192,169599,1,0,0:0:0:0:
64,192,169687,1,0,0:0:0:70:LR_Kick Bass strong fast.wav
448,192,169687,1,0,0:0:0:70:LR_DS - Snare Wet High.wav
192,192,169687,1,0,0:0:0:0:
64,192,170040,1,0,0:0:0:70:LR_Kick Bass strong fast.wav
192,192,170040,1,0,0:0:0:0:
448,192,170040,1,0,0:0:0:0:
448,192,170216,1,0,0:0:0:0:
64,192,170393,1,0,0:0:0:70:LR_Kick Bass strong fast.wav
192,192,170393,1,0,0:0:0:0:
448,192,170569,1,0,0:0:0:0:
320,192,170658,1,0,0:0:0:0:
64,192,170746,1,0,0:0:0:70:LR_Kick Bass strong fast.wav
192,192,170746,1,0,0:0:0:0:
448,192,170922,1,0,0:0:0:0:
64,192,171099,1,0,0:0:0:70:LR_Kick Bass strong fast.wav
320,192,171099,1,0,0:0:0:70:LR_DS - Snare Wet High.wav
448,192,171099,1,0,0:0:0:0:
192,192,171099,1,0,0:0:0:0:
192,192,171452,1,0,0:0:0:70:LR_Kick Bass strong fast.wav
64,192,171452,1,0,0:0:0:0:
448,192,171452,1,0,0:0:0:0:
448,192,171628,1,0,0:0:0:0:
320,192,171716,1,0,0:0:0:0:
192,192,171805,1,0,0:0:0:70:LR_Kick Bass strong fast.wav
64,192,171805,1,0,0:0:0:0:
448,192,171981,1,0,0:0:0:0:
64,192,172158,1,0,0:0:0:70:LR_Kick Bass strong fast.wav
192,192,172158,1,0,0:0:0:0:
448,192,172334,1,0,0:0:0:0:
320,192,172393,1,0,0:0:0:0:
448,192,172452,1,0,0:0:0:0:
192,192,172511,1,0,0:0:0:70:LR_DS - Snare Wet High.wav
320,192,172511,1,0,0:0:0:70:LR_Kick Bass strong fast.wav
64,192,172511,1,0,0:0:0:0:
192,192,172863,1,0,0:0:0:70:LR_Kick Bass strong fast.wav
64,192,172863,1,0,0:0:0:0:
448,192,172863,1,0,0:0:0:0:
448,192,173040,1,0,0:0:0:0:
192,192,173216,1,0,0:0:0:70:LR_Kick Bass strong fast.wav
64,192,173216,1,0,0:0:0:0:
448,192,173393,1,0,0:0:0:0:
320,192,173481,1,0,0:0:0:0:
192,192,173569,1,0,0:0:0:70:LR_Kick Bass strong fast.wav
64,192,173569,1,0,0:0:0:0:
448,192,173628,1,0,0:0:0:0:
320,192,173687,1,0,0:0:0:0:
192,192,173746,1,0,0:0:0:0:
320,192,173805,1,0,0:0:0:0:
320,192,173922,128,0,173966:0:0:0:0:
448,192,173922,128,0,173966:0:0:0:70:LR_DS - Snare Wet High.wav
192,192,173922,128,0,173966:0:0:0:0:
64,192,173922,128,0,173966:0:0:0:70:LR_Kick Bass strong fast.wav
320,192,174275,1,0,0:0:0:70:LR_Kick Bass strong fast.wav
448,192,174275,1,0,0:0:0:0:
64,192,174275,1,0,0:0:0:0:
64,192,174452,1,0,0:0:0:0:
320,192,174628,1,0,0:0:0:100:LR4_ClapLRV.wav
448,192,174628,1,0,0:0:0:70:LR_Kick Bass strong fast.wav
64,192,174805,1,0,0:0:0:0:
320,192,174981,1,0,0:0:0:70:LR_Kick Bass strong fast.wav
448,192,174981,1,0,0:0:0:0:
64,192,175158,1,0,0:0:0:0:
448,192,175334,1,0,0:0:0:70:LR_Kick Bass strong fast.wav
64,192,175334,1,0,0:0:0:70:LR_DS - Snare Wet High.wav
192,192,175334,1,0,0:0:0:0:
320,192,175334,1,0,0:0:0:0:
448,192,175687,1,0,0:0:0:70:LR_Kick Bass strong fast.wav
320,192,175687,1,0,0:0:0:0:
64,192,175687,1,0,0:0:0:0:
64,192,175863,1,0,0:0:0:0:
448,192,176040,1,0,0:0:0:70:LR_Kick Bass strong fast.wav
320,192,176040,1,0,0:0:0:100:LR4_ClapLRV.wav
64,192,176216,1,0,0:0:0:0:
192,192,176305,1,0,0:0:0:0:
448,192,176393,1,0,0:0:0:70:LR_Kick Bass strong fast.wav
320,192,176393,1,0,0:0:0:0:
64,192,176569,1,0,0:0:0:0:
448,192,176746,1,0,0:0:0:70:LR_Kick Bass strong fast.wav
192,192,176746,1,0,0:0:0:70:LR_DS - Snare Wet High.wav
64,192,176746,1,0,0:0:0:0:
320,192,176746,1,0,0:0:0:0:
320,192,177099,1,0,0:0:0:70:LR_Kick Bass strong fast.wav
448,192,177099,1,0,0:0:0:0:
64,192,177099,1,0,0:0:0:0:
64,192,177275,1,0,0:0:0:0:
192,192,177363,1,0,0:0:0:0:
320,192,177452,1,0,0:0:0:100:LR4_ClapLRV.wav
448,192,177452,1,0,0:0:0:70:LR_Kick Bass strong fast.wav
64,192,177628,1,0,0:0:0:0:
448,192,177805,1,0,0:0:0:70:LR_Kick Bass strong fast.wav
320,192,177805,1,0,0:0:0:0:
64,192,177981,1,0,0:0:0:0:
192,192,178040,1,0,0:0:0:0:
64,192,178099,1,0,0:0:0:0:
320,192,178158,1,0,0:0:0:70:LR_DS - Snare Wet High.wav
192,192,178158,1,0,0:0:0:70:LR_Kick Bass strong fast.wav
448,192,178158,1,0,0:0:0:0:
320,192,178511,1,0,0:0:0:70:LR_Kick Bass strong fast.wav
448,192,178511,1,0,0:0:0:0:
64,192,178511,1,0,0:0:0:0:
64,192,178687,1,0,0:0:0:0:
320,192,178863,1,0,0:0:0:100:LR4_ClapLRV.wav
448,192,178863,1,0,0:0:0:70:LR_Kick Bass strong fast.wav
64,192,179040,1,0,0:0:0:0:
192,192,179128,1,0,0:0:0:0:
320,192,179216,1,0,0:0:0:70:LR_Kick Bass strong fast.wav
448,192,179216,1,0,0:0:0:0:
192,192,179305,1,0,0:0:0:0:
64,192,179393,1,0,0:0:0:0:
448,192,179481,1,0,0:0:0:70:LR_Kick Bass strong fast.wav
320,192,179481,1,0,0:0:0:0:
192,192,179569,1,0,0:0:0:70:LR_DS - Snare Wet High.wav
64,192,179569,1,0,0:0:0:0:
320,192,179922,1,0,0:0:0:70:LR_Kick Bass strong fast.wav
448,192,179922,1,0,0:0:0:0:
64,192,179922,1,0,0:0:0:0:
64,192,180099,1,0,0:0:0:0:
320,192,180275,1,0,0:0:0:100:LR4_ClapLRV.wav
448,192,180275,1,0,0:0:0:70:LR_Kick Bass strong fast.wav
64,192,180452,1,0,0:0:0:0:
320,192,180628,1,0,0:0:0:70:LR_Kick Bass strong fast.wav
448,192,180628,1,0,0:0:0:0:
64,192,180805,1,0,0:0:0:0:
448,192,180981,1,0,0:0:0:70:LR_Kick Bass strong fast.wav
64,192,180981,1,0,0:0:0:70:LR_DS - Snare Wet High.wav
192,192,180981,1,0,0:0:0:0:
320,192,180981,1,0,0:0:0:0:
448,192,181334,1,0,0:0:0:70:LR_Kick Bass strong fast.wav
320,192,181334,1,0,0:0:0:0:
64,192,181334,1,0,0:0:0:0:
64,192,181511,1,0,0:0:0:0:
448,192,181687,1,0,0:0:0:70:LR_Kick Bass strong fast.wav
320,192,181687,1,0,0:0:0:100:LR4_ClapLRV.wav
64,192,181863,1,0,0:0:0:0:
192,192,181952,1,0,0:0:0:0:
448,192,182040,1,0,0:0:0:70:LR_Kick Bass strong fast.wav
320,192,182040,1,0,0:0:0:0:
64,192,182216,1,0,0:0:0:0:
448,192,182393,1,0,0:0:0:70:LR_Kick Bass strong fast.wav
192,192,182393,1,0,0:0:0:70:LR_DS - Snare Wet High.wav
64,192,182393,1,0,0:0:0:0:
320,192,182393,1,0,0:0:0:0:
320,192,182746,1,0,0:0:0:70:LR_Kick Bass strong fast.wav
448,192,182746,1,0,0:0:0:0:
64,192,182746,1,0,0:0:0:0:
64,192,182922,128,0,182966:0:0:0:0:
320,192,183099,1,0,0:0:0:100:LR4_ClapLRV.wav
448,192,183099,1,0,0:0:0:70:LR_Kick Bass strong fast.wav
64,192,183275,128,0,183319:0:0:0:0:
448,192,183452,1,0,0:0:0:70:LR_Kick Bass strong fast.wav
320,192,183452,1,0,0:0:0:0:
64,192,183628,128,0,183672:0:0:0:0:
320,192,183805,1,0,0:0:0:70:LR_Kick Bass strong fast.wav
192,192,183805,1,0,0:0:0:70:LR_DS - Snare Wet High.wav
448,192,183805,1,0,0:0:0:0:
64,192,183805,1,0,0:0:0:0:
64,192,183981,128,0,184025:0:0:0:0:
448,192,184158,1,0,0:0:0:70:LR_Kick Bass strong fast.wav
320,192,184158,1,0,0:0:0:0:
192,192,185040,128,0,185481:0:0:0:0:
320,192,185216,128,0,185481:0:0:0:0:
64,192,185569,128,0,185613:0:0:0:30:LR4_BassKickReverbXD.wav
192,192,185569,128,0,185613:0:0:0:30:LR4_BassKickReverbXD.wav
320,192,185569,128,0,185613:0:0:0:30:LR4_BassKickReverbXD.wav
448,192,185569,128,0,185613:0:0:0:30:LR4_BassKickReverbXD.wav
448,192,189452,1,0,0:0:0:0:
320,192,189511,1,0,0:0:0:0:
192,192,189569,1,0,0:0:0:0:
448,192,189628,1,0,0:0:0:0:
64,192,189687,1,0,0:0:0:0:
192,192,189738,1,0,0:0:0:0:
320,192,189783,1,0,0:0:0:0:
64,192,189834,1,0,0:0:0:0:
448,192,189893,1,0,0:0:0:0:
320,192,189981,1,0,0:0:0:0:
192,192,190099,1,0,0:0:0:0:
192,192,190305,1,0,0:0:0:0:
64,192,190511,128,0,190569:0:0:0:40:LR_Snare Wet Echoing Hollow.wav
192,192,190511,128,0,190569:0:0:0:40:LR_Snare Wet Echoing Hollow.wav
320,192,190511,128,0,190569:0:0:0:40:LR_Snare Wet Echoing Hollow.wav
448,192,190511,128,0,190569:0:0:0:40:LR_Snare Wet Echoing Hollow.wav
448,192,191216,1,0,0:0:0:55:LR_Kick Bass strong fast.wav
320,192,191216,1,0,0:0:0:100:98388__the-baron__breath-02.wav
64,192,191216,1,0,0:0:0:55:LR_Kick Bass strong fast.wav
192,192,191216,1,0,0:0:0:70:LR4_BassKickReverbXD.wav
192,192,191900,1,0,0:0:0:0:
64,192,192628,1,0,0:0:0:0:
448,192,193334,1,0,0:0:0:0:
320,192,194040,1,0,0:0:0:0:
192,192,194724,1,0,0:0:0:0:
64,192,195430,1,0,0:0:0:0:
192,192,196158,1,0,0:0:0:0:
320,192,196893,1,0,0:0:0:0:
192,192,197569,1,0,0:0:0:0:
448,192,198253,1,0,0:0:0:0:
320,192,198893,1,0,0:0:0:0:
448,192,198937,1,0,0:0:0:0:
192,192,198981,1,0,0:0:0:0:
320,192,199687,1,0,0:0:0:0:
192,192,200393,1,0,0:0:0:0:
64,192,201077,1,0,0:0:0:0:
192,192,201805,1,0,0:0:0:0:
320,192,202511,1,0,0:0:0:0:
192,192,203194,1,0,0:0:0:0:
64,192,203922,1,0,0:0:0:0:
448,192,204628,1,0,0:0:0:0:
320,192,205356,1,0,0:0:0:0:
448,192,205378,1,0,0:0:0:0:
64,192,206040,1,0,0:0:0:0:
192,192,206062,1,0,0:0:0:0:
64,192,206746,1,0,0:0:0:0:
192,192,207452,1,0,0:0:0:0:
320,192,208158,128,0,208202:0:0:0:0:
448,192,208180,128,0,208224:0:0:0:0:
192,192,208841,1,0,0:0:0:0:
448,192,209569,128,0,209613:2:0:0:0:
64,192,210253,1,0,0:0:0:0:
192,192,210275,1,0,0:0:0:0:
320,192,210981,128,0,211334:0:0:0:0:
192,192,211687,128,0,212040:0:0:0:0:
64,192,212393,128,0,213805:0:0:0:0:
320,192,213805,1,0,0:0:0:100:LR4_BassKickReverbXD.wav
192,192,213805,1,0,0:0:0:0:
64,192,213981,1,0,0:0:0:0:
192,192,214158,1,0,0:0:0:0:
448,192,214334,1,0,0:0:0:0:
64,192,214511,1,0,0:0:0:0:
320,192,214687,1,0,0:0:0:0:
448,192,215922,128,0,216187:0:0:0:0:
320,192,216099,128,0,216363:0:0:0:20:
192,192,216275,128,0,216540:0:0:0:20:
64,192,216452,128,0,216716:0:0:0:20:
320,192,216628,128,0,216805:0:0:0:20:
448,192,216805,128,0,216981:0:0:0:20:
192,192,218040,128,0,218084:0:0:0:0:
448,192,218746,128,0,218790:0:0:0:0:
320,192,219452,1,0,0:0:0:10:soft-hitnormal.wav
64,192,219452,1,0,0:0:0:10:
192,192,219628,1,0,0:0:0:0:
64,192,219805,1,0,0:0:0:0:
320,192,219981,1,0,0:0:0:0:
192,192,220158,1,0,0:0:0:0:
448,192,220334,128,0,220422:0:0:0:0:
448,192,221569,128,0,221834:0:0:0:0:
320,192,221746,128,0,222011:0:0:0:0:
192,192,221922,128,0,222187:0:0:0:0:
64,192,222099,128,0,222363:0:0:0:0:
448,192,222275,128,0,222452:0:0:0:0:
192,192,222452,128,0,222518:0:0:0:0:
320,192,222474,128,0,222562:0:0:0:0:
192,192,223224,128,0,223312:0:0:0:0:
64,192,224305,128,0,224922:0:0:0:0:
192,192,224371,128,0,224922:0:0:0:0:
320,192,224437,128,0,225099:0:0:0:0:
448,192,224437,128,0,225099:0:0:0:0:
64,192,225099,1,0,0:0:0:0:
192,192,225275,1,0,0:0:0:0:
320,192,225452,1,0,0:0:0:0:
64,192,225628,1,0,0:0:0:0:
192,192,225805,1,0,0:0:0:0:
448,192,225981,128,0,226047:0:0:0:0:
320,192,226003,128,0,226091:0:0:0:0:
448,192,227216,128,0,227481:0:0:0:0:
320,192,227393,128,0,227658:0:0:0:0:
192,192,227569,128,0,227834:0:0:0:0:
64,192,227746,128,0,228011:0:0:0:0:
320,192,227922,128,0,228099:0:0:0:0:
448,192,228099,128,0,228275:0:0:0:0:
192,192,228099,128,0,228165:0:0:0:0:
64,192,228628,128,0,228805:0:0:0:0:
192,192,229334,128,0,229400:0:0:0:0:
448,192,229356,128,0,229444:0:0:0:0:
320,192,230040,128,0,230084:0:0:0:0:
448,192,230062,128,0,230128:0:0:0:0:
320,192,230746,1,0,0:0:0:0:
64,192,230746,1,0,0:0:0:0:
192,192,230922,1,0,0:0:0:0:
320,192,231099,1,0,0:0:0:0:
64,192,231275,1,0,0:0:0:0:
192,192,231452,1,0,0:0:0:0:
448,192,231628,128,0,231716:0:0:0:0:
192,192,232775,1,0,0:0:0:0:
320,192,232819,1,0,0:0:0:0:
448,192,232863,128,0,233128:0:0:0:0:
320,192,233040,128,0,233305:0:0:0:0:
192,192,233216,128,0,233481:0:0:0:0:
64,192,233393,128,0,236305:0:0:0:0:
64,192,236393,128,0,236437:0:0:0:35:LR4_BassKickReverbXD.wav
320,192,236393,128,0,236437:0:0:0:35:LR4_BassKickReverbXD.wav
448,192,236393,128,0,236437:0:0:0:35:LR4_BassKickReverbXD.wav
192,192,236393,128,0,236437:0:0:0:35:LR4_BassKickReverbXD.wav
320,192,236746,1,0,0:0:0:0:
192,192,237099,1,0,0:0:0:0:
320,192,237452,1,0,0:0:0:0:
192,192,237805,1,0,0:0:0:0:
320,192,238158,1,0,0:0:0:0:
192,192,238511,1,0,0:0:0:0:
320,192,238863,1,0,0:0:0:0:
192,192,239216,1,0,0:0:0:0:
320,192,239569,1,0,0:0:0:0:
192,192,239922,1,0,0:0:0:0:
320,192,240275,1,0,0:0:0:0:
192,192,240628,1,0,0:0:0:0:
320,192,240981,1,0,0:0:0:0:
192,192,241334,1,0,0:0:0:0:
320,192,241687,1,0,0:0:0:0:
64,192,242040,128,0,242128:0:0:0:0:
192,192,242040,128,0,242128:2:0:0:0:
320,192,242393,1,0,0:0:0:0:
192,192,242746,1,0,0:0:0:0:
320,192,243099,1,0,0:0:0:0:
192,192,243452,1,0,0:0:0:0:
320,192,243805,1,0,0:0:0:0:
192,192,244158,1,0,0:0:0:0:
320,192,244511,1,0,0:0:0:0:
192,192,244863,1,0,0:0:0:0:
320,192,245216,1,0,0:0:0:0:
192,192,245569,1,0,0:0:0:0:
320,192,245922,1,0,0:0:0:0:
192,192,246275,1,0,0:0:0:0:
320,192,246628,1,0,0:0:0:0:
192,192,246981,1,0,0:0:0:0:
320,192,247334,1,0,0:0:0:0:
64,192,247687,128,0,247775:0:0:0:0:
192,192,247863,1,0,0:0:0:0:
320,192,248040,1,0,0:0:0:0:
64,192,248216,1,0,0:0:0:0:
448,192,248393,1,0,0:0:0:0:
448,192,248569,1,0,0:0:0:0:
320,192,248746,1,0,0:0:0:0:
64,192,248922,1,0,0:0:0:0:
448,192,249099,1,0,0:0:0:0:
448,192,249275,1,0,0:0:0:0:
320,192,249452,1,0,0:0:0:0:
64,192,249628,1,0,0:0:0:0:
448,192,249805,1,0,0:0:0:0:
448,192,249981,1,0,0:0:0:0:
320,192,250158,1,0,0:0:0:0:
64,192,250334,1,0,0:0:0:0:
448,192,250511,1,0,0:0:0:0:
448,192,250687,1,0,0:0:0:0:
320,192,250863,1,0,0:0:0:0:
64,192,251040,1,0,0:0:0:0:
448,192,251216,1,0,0:0:0:0:
448,192,251393,1,0,0:0:0:0:
320,192,251569,1,0,0:0:0:0:
64,192,251746,1,0,0:0:0:0:
448,192,251922,1,0,0:0:0:0:
448,192,252099,1,0,0:0:0:0:
320,192,252275,1,0,0:0:0:0:
64,192,252452,1,0,0:0:0:0:
448,192,252628,1,0,0:0:0:0:
448,192,252805,1,0,0:0:0:0:
320,192,252981,1,0,0:0:0:0:
64,192,253158,1,0,0:0:0:0:
448,192,253334,128,0,253422:0:0:0:0:
192,192,253334,128,0,253422:2:0:0:0:
64,192,253511,1,0,0:0:0:0:
320,192,253687,1,0,0:0:0:0:
448,192,253863,1,0,0:0:0:0:
64,192,254040,1,0,0:0:0:0:
64,192,254216,1,0,0:0:0:0:
320,192,254393,1,0,0:0:0:0:
448,192,254569,1,0,0:0:0:0:
64,192,254746,1,0,0:0:0:0:
64,192,254922,1,0,0:0:0:0:
320,192,255099,1,0,0:0:0:0:
448,192,255275,1,0,0:0:0:0:
64,192,255452,1,0,0:0:0:0:
64,192,255628,1,0,0:0:0:0:
320,192,255805,1,0,0:0:0:0:
192,192,255981,1,0,0:0:0:0:
448,192,256158,128,0,256246:0:0:0:0:
64,192,256334,1,0,0:0:0:0:
320,192,256511,1,0,0:0:0:0:
64,192,256687,1,0,0:0:0:0:
448,192,256863,1,0,0:0:0:0:
448,192,257040,1,0,0:0:0:0:
320,192,257216,1,0,0:0:0:0:
64,192,257393,1,0,0:0:0:0:
448,192,257569,1,0,0:0:0:0:
448,192,257746,1,0,0:0:0:0:
320,192,257922,1,0,0:0:0:0:
64,192,258099,1,0,0:0:0:0:
192,192,258275,128,0,258363:0:0:0:0:
448,192,258452,1,0,0:0:0:0:
320,192,258628,1,0,0:0:0:0:
192,192,258805,1,0,0:0:0:0:
64,192,258981,1,0,0:0:0:35:LR_HiHat Normal - L.wav
192,192,258981,1,0,0:0:0:35:LR_HiHat Normal - R.wav
448,192,258981,1,0,0:0:0:70:LR_Snare Wet Echoing Hollow.wav
320,192,258981,1,0,0:0:0:0:
64,192,259334,1,0,0:0:0:70:LR_Snare Wet Echoing Hollow.wav
192,192,259334,1,0,0:0:0:0:
64,192,259687,1,0,0:0:0:70:LR_Snare Wet Echoing Hollow.wav
192,192,259687,1,0,0:0:0:0:
64,192,260040,1,0,0:0:0:70:LR_Snare Wet Echoing Hollow.wav
192,192,260040,1,0,0:0:0:0:
64,192,260393,1,0,0:0:0:70:LR_Snare Wet Echoing Hollow.wav
192,192,260393,1,0,0:0:0:0:
64,192,260746,1,0,0:0:0:70:LR_Snare Wet Echoing Hollow.wav
192,192,260746,1,0,0:0:0:0:
64,192,261099,1,0,0:0:0:70:LR_Snare Wet Echoing Hollow.wav
192,192,261099,1,0,0:0:0:0:
64,192,261452,1,0,0:0:0:70:LR_Snare Wet Echoing Hollow.wav
192,192,261452,1,0,0:0:0:0:
192,192,261805,1,0,0:0:0:70:LR_Snare Wet Echoing Hollow.wav
64,192,261805,1,0,0:0:0:0:
64,192,262158,1,0,0:0:0:70:LR_Snare Wet Echoing Hollow.wav
192,192,262158,1,0,0:0:0:0:
64,192,262511,1,0,0:0:0:70:LR_Snare Wet Echoing Hollow.wav
192,192,262511,1,0,0:0:0:0:
64,192,262863,1,0,0:0:0:70:LR_Snare Wet Echoing Hollow.wav
192,192,262863,1,0,0:0:0:0:
192,192,263216,1,0,0:0:0:70:LR_Snare Wet Echoing Hollow.wav
64,192,263216,1,0,0:0:0:0:
64,192,263569,1,0,0:0:0:70:LR_Snare Wet Echoing Hollow.wav
192,192,263569,1,0,0:0:0:0:
192,192,263922,1,0,0:0:0:70:LR_Snare Wet Echoing Hollow.wav
64,192,263922,1,0,0:0:0:0:
64,192,264275,1,0,0:0:0:70:LR_Snare Wet Echoing Hollow.wav
192,192,264275,1,0,0:0:0:0:
64,192,264628,1,0,0:0:0:70:LR_Snare Wet Echoing Hollow.wav
192,192,264628,1,0,0:0:0:0:
64,192,264981,1,0,0:0:0:70:LR_Snare Wet Echoing Hollow.wav
192,192,264981,1,0,0:0:0:0:
64,192,265334,1,0,0:0:0:70:LR_Snare Wet Echoing Hollow.wav
192,192,265334,1,0,0:0:0:0:
64,192,265687,1,0,0:0:0:70:LR_Snare Wet Echoing Hollow.wav
192,192,265687,1,0,0:0:0:0:
64,192,266040,1,0,0:0:0:70:LR_Snare Wet Echoing Hollow.wav
192,192,266040,1,0,0:0:0:0:
64,192,266393,1,0,0:0:0:70:LR_Snare Wet Echoing Hollow.wav
192,192,266393,1,0,0:0:0:0:
64,192,266746,1,0,0:0:0:70:LR_Snare Wet Echoing Hollow.wav
192,192,266746,1,0,0:0:0:0:
64,192,267099,1,0,0:0:0:70:LR_Snare Wet Echoing Hollow.wav
192,192,267099,1,0,0:0:0:0:
64,192,267452,1,0,0:0:0:70:LR_Snare Wet Echoing Hollow.wav
192,192,267452,1,0,0:0:0:0:
64,192,267805,1,0,0:0:0:70:LR_Snare Wet Echoing Hollow.wav
192,192,267805,1,0,0:0:0:0:
64,192,268158,1,0,0:0:0:70:LR_Snare Wet Echoing Hollow.wav
192,192,268158,1,0,0:0:0:0:
64,192,268511,1,0,0:0:0:70:LR_Snare Wet Echoing Hollow.wav
192,192,268511,1,0,0:0:0:0:
64,192,268863,1,0,0:0:0:70:LR_Snare Wet Echoing Hollow.wav
192,192,268863,1,0,0:0:0:0:
64,192,269216,1,0,0:0:0:70:LR_Snare Wet Echoing Hollow.wav
192,192,269216,1,0,0:0:0:0:
64,192,269569,1,0,0:0:0:70:LR_Snare Wet Echoing Hollow.wav
192,192,269569,1,0,0:0:0:0:
64,192,269922,1,0,0:0:0:70:LR_Snare Wet Echoing Hollow.wav
192,192,269922,1,0,0:0:0:0:
64,192,270275,1,0,0:0:0:65:LR_Snare Wet Echoing Hollow.wav
192,192,270275,1,0,0:0:0:0:
320,192,270452,1,0,0:0:0:65:LR_Snare Wet Echoing Hollow.wav
448,192,270452,1,0,0:0:0:0:
64,192,270628,1,0,0:0:0:65:LR_Snare Wet Echoing Hollow.wav
192,192,270628,1,0,0:0:0:0:
320,192,270805,1,0,0:0:0:65:LR_Snare Wet Echoing Hollow.wav
448,192,270805,1,0,0:0:0:0:
64,192,270981,1,0,0:0:0:60:LR_Snare Wet Echoing Hollow.wav
192,192,270981,1,0,0:0:0:0:
320,192,271158,1,0,0:0:0:60:LR_Snare Wet Echoing Hollow.wav
448,192,271158,1,0,0:0:0:0:
192,192,271334,1,0,0:0:0:60:LR_Snare Wet Echoing Hollow.wav
64,192,271334,1,0,0:0:0:0:
448,192,271511,1,0,0:0:0:60:LR_Snare Wet Echoing Hollow.wav
320,192,271511,1,0,0:0:0:0:
192,192,271687,1,0,0:0:0:55:LR_Snare Wet Echoing Hollow.wav
64,192,271687,1,0,0:0:0:0:
448,192,271863,1,0,0:0:0:55:LR_Snare Wet Echoing Hollow.wav
320,192,271863,1,0,0:0:0:0:
64,192,272040,1,0,0:0:0:55:LR_Snare Wet Echoing Hollow.wav
192,192,272040,1,0,0:0:0:0:
320,192,272216,1,0,0:0:0:55:LR_Snare Wet Echoing Hollow.wav
448,192,272216,1,0,0:0:0:0:
64,192,272393,1,0,0:0:0:50:LR_Snare Wet Echoing Hollow.wav
192,192,272393,1,0,0:0:0:0:
448,192,272569,1,0,0:0:0:50:LR_Snare Wet Echoing Hollow.wav
320,192,272569,1,0,0:0:0:0:
64,192,272746,1,0,0:0:0:50:LR_Snare Wet Echoing Hollow.wav
192,192,272746,1,0,0:0:0:0:
448,192,272922,1,0,0:0:0:50:LR_Snare Wet Echoing Hollow.wav
320,192,272922,1,0,0:0:0:0:
64,192,273099,1,0,0:0:0:45:LR_Snare Wet Echoing Hollow.wav
192,192,273099,1,0,0:0:0:0:
448,192,273275,1,0,0:0:0:45:LR_Snare Wet Echoing Hollow.wav
320,192,273275,1,0,0:0:0:0:
192,192,273452,1,0,0:0:0:45:LR_Snare Wet Echoing Hollow.wav
64,192,273452,1,0,0:0:0:0:
320,192,273628,1,0,0:0:0:45:LR_Snare Wet Echoing Hollow.wav
448,192,273628,1,0,0:0:0:0:
64,192,273805,1,0,0:0:0:40:LR_Snare Wet Echoing Hollow.wav
192,192,273805,1,0,0:0:0:0:
320,192,273981,1,0,0:0:0:40:LR_Snare Wet Echoing Hollow.wav
448,192,273981,1,0,0:0:0:0:
64,192,274158,1,0,0:0:0:40:LR_Snare Wet Echoing Hollow.wav
192,192,274158,1,0,0:0:0:0:
448,192,274334,1,0,0:0:0:40:LR_Snare Wet Echoing Hollow.wav
320,192,274334,1,0,0:0:0:0:
192,192,274511,1,0,0:0:0:35:LR_Snare Wet Echoing Hollow.wav
64,192,274511,1,0,0:0:0:0:
320,192,274687,1,0,0:0:0:35:LR_Snare Wet Echoing Hollow.wav
448,192,274687,1,0,0:0:0:0:
192,192,274863,1,0,0:0:0:35:LR_Snare Wet Echoing Hollow.wav
64,192,274863,1,0,0:0:0:0:
320,192,275040,1,0,0:0:0:35:LR_Snare Wet Echoing Hollow.wav
448,192,275040,1,0,0:0:0:0:
192,192,275216,1,0,0:0:0:30:LR_Snare Wet Echoing Hollow.wav
64,192,275216,1,0,0:0:0:0:
320,192,275393,1,0,0:0:0:30:LR_Snare Wet Echoing Hollow.wav
448,192,275393,1,0,0:0:0:0:
64,192,275569,1,0,0:0:0:30:LR_Snare Wet Echoing Hollow.wav
192,192,275569,1,0,0:0:0:0:
448,192,275746,1,0,0:0:0:30:LR_Snare Wet Echoing Hollow.wav
320,192,275746,1,0,0:0:0:0:
192,192,275922,1,0,0:0:0:25:LR_Snare Wet Echoing Hollow.wav
64,192,275922,1,0,0:0:0:0:
320,192,276011,1,0,0:0:0:25:LR_Snare Wet Echoing Hollow.wav
448,192,276011,1,0,0:0:0:0:
64,192,276099,1,0,0:0:0:25:LR_Snare Wet Echoing Hollow.wav
192,192,276099,1,0,0:0:0:0:
320,192,276187,1,0,0:0:0:25:LR_Snare Wet Echoing Hollow.wav
448,192,276187,1,0,0:0:0:0:
64,192,276275,1,0,0:0:0:25:LR_Snare Wet Echoing Hollow.wav
192,192,276275,1,0,0:0:0:0:
448,192,276363,1,0,0:0:0:25:LR_Snare Wet Echoing Hollow.wav
320,192,276363,1,0,0:0:0:0:
64,192,276452,1,0,0:0:0:25:LR_Snare Wet Echoing Hollow.wav
192,192,276452,1,0,0:0:0:0:
448,192,276540,1,0,0:0:0:25:LR_Snare Wet Echoing Hollow.wav
320,192,276540,1,0,0:0:0:0:
64,192,276628,1,0,0:0:0:20:LR_Snare Wet Echoing Hollow.wav
192,192,276628,1,0,0:0:0:0:
448,192,276716,1,0,0:0:0:20:LR_Snare Wet Echoing Hollow.wav
320,192,276716,1,0,0:0:0:0:
64,192,276805,1,0,0:0:0:20:LR_Snare Wet Echoing Hollow.wav
192,192,276805,1,0,0:0:0:0:
448,192,276893,1,0,0:0:0:20:LR_Snare Wet Echoing Hollow.wav
320,192,276893,1,0,0:0:0:0:
64,192,276981,1,0,0:0:0:20:LR_Snare Wet Echoing Hollow.wav
192,192,276981,1,0,0:0:0:0:
448,192,277069,1,0,0:0:0:20:LR_Snare Wet Echoing Hollow.wav
320,192,277069,1,0,0:0:0:0:
64,192,277158,1,0,0:0:0:20:LR_Snare Wet Echoing Hollow.wav
192,192,277158,1,0,0:0:0:0:
448,192,277246,1,0,0:0:0:20:LR_Snare Wet Echoing Hollow.wav
320,192,277246,1,0,0:0:0:0:
64,192,277334,1,0,0:0:0:15:LR_Snare Wet Echoing Hollow.wav
448,192,277422,1,0,0:0:0:15:LR_Snare Wet Echoing Hollow.wav
64,192,277511,1,0,0:0:0:15:LR_Snare Wet Echoing Hollow.wav
448,192,277599,1,0,0:0:0:15:LR_Snare Wet Echoing Hollow.wav
64,192,277687,1,0,0:0:0:15:LR_Snare Wet Echoing Hollow.wav
448,192,277775,1,0,0:0:0:15:LR_Snare Wet Echoing Hollow.wav
64,192,277863,1,0,0:0:0:15:LR_Snare Wet Echoing Hollow.wav
448,192,277952,1,0,0:0:0:15:LR_Snare Wet Echoing Hollow.wav
64,192,278040,1,0,0:0:0:10:LR_Snare Wet Echoing Hollow.wav
448,192,278128,1,0,0:0:0:10:LR_Snare Wet Echoing Hollow.wav
64,192,278216,1,0,0:0:0:10:LR_Snare Wet Echoing Hollow.wav
448,192,278305,1,0,0:0:0:10:LR_Snare Wet Echoing Hollow.wav
64,192,278393,1,0,0:0:0:10:LR_Snare Wet Echoing Hollow.wav
448,192,278481,1,0,0:0:0:10:LR_Snare Wet Echoing Hollow.wav
64,192,278569,1,0,0:0:0:10:LR_Snare Wet Echoing Hollow.wav
448,192,278658,1,0,0:0:0:10:LR_Snare Wet Echoing Hollow.wav
192,192,278746,1,0,0:0:0:30:normal-hitnormal.wav
320,192,278834,1,0,0:0:0:30:normal-hitnormal.wav
192,192,278922,1,0,0:0:0:30:normal-hitnormal.wav
320,192,279011,1,0,0:0:0:30:normal-hitnormal.wav
192,192,279099,1,0,0:0:0:30:normal-hitnormal.wav
320,192,279187,1,0,0:0:0:30:normal-hitnormal.wav
192,192,279275,1,0,0:0:0:30:normal-hitnormal.wav
320,192,279363,1,0,0:0:0:30:normal-hitnormal.wav
192,192,279452,1,0,0:0:0:45:normal-hitnormal.wav
320,192,279540,1,0,0:0:0:45:normal-hitnormal.wav
192,192,279628,1,0,0:0:0:45:normal-hitnormal.wav
320,192,279716,1,0,0:0:0:45:normal-hitnormal.wav
64,192,279805,1,0,0:0:0:45:normal-hitnormal.wav
448,192,279893,1,0,0:0:0:45:normal-hitnormal.wav
64,192,279981,1,0,0:0:0:45:normal-hitnormal.wav
448,192,280069,1,0,0:0:0:45:normal-hitnormal.wav
64,192,280158,1,0,0:0:0:60:normal-hitnormal.wav
448,192,280246,1,0,0:0:0:60:normal-hitnormal.wav
64,192,280334,1,0,0:0:0:60:normal-hitnormal.wav
448,192,280422,1,0,0:0:0:60:normal-hitnormal.wav
64,192,280511,1,0,0:0:0:60:normal-hitnormal.wav
448,192,280599,1,0,0:0:0:60:normal-hitnormal.wav
64,192,280687,1,0,0:0:0:60:normal-hitnormal.wav
448,192,280775,1,0,0:0:0:60:normal-hitnormal.wav
64,192,280863,1,0,0:0:0:60:normal-hitnormal.wav
448,192,280952,1,0,0:0:0:60:normal-hitnormal.wav
192,192,281040,1,0,0:0:0:70:LR_Kick Bass strong fast.wav
64,192,281040,1,0,0:0:0:0:
64,192,281216,1,0,0:0:0:35:LR_Snare Wet Echoing Hollow.wav
192,192,281216,1,0,0:0:0:35:LR_Snare Wet Echoing Hollow.wav
320,192,281216,1,0,0:0:0:35:LR_Snare Wet Echoing Hollow.wav
448,192,281216,1,0,0:0:0:35:LR_Snare Wet Echoing Hollow.wav
448,192,281393,1,0,0:0:0:70:LR_Kick Bass strong fast.wav
320,192,281393,1,0,0:0:0:0:
64,192,281569,1,0,0:0:0:70:LR_Kick Bass strong fast.wav
192,192,281569,1,0,0:0:0:0:
320,192,281569,1,0,0:0:0:0:
320,192,281746,1,0,0:0:0:0:
64,192,281922,1,0,0:0:0:70:LR_Kick Bass strong fast.wav
192,192,281922,1,0,0:0:0:0:
320,192,282099,1,0,0:0:0:0:
64,192,282275,1,0,0:0:0:70:LR_Kick Bass strong fast.wav
192,192,282275,1,0,0:0:0:0:
320,192,282452,1,0,0:0:0:0:
192,192,282628,1,0,0:0:0:70:LR_Kick Bass strong fast.wav
320,192,282628,1,0,0:0:0:70:LR_DS - Snare Wet High.wav
448,192,282628,1,0,0:0:0:0:
64,192,282628,1,0,0:0:0:0:
192,192,282981,1,0,0:0:0:70:LR_Kick Bass strong fast.wav
64,192,282981,1,0,0:0:0:0:
320,192,282981,1,0,0:0:0:0:
320,192,283158,1,0,0:0:0:0:
192,192,283334,1,0,0:0:0:70:LR_Kick Bass strong fast.wav
64,192,283334,1,0,0:0:0:0:
320,192,283511,1,0,0:0:0:0:
192,192,283687,1,0,0:0:0:70:LR_Kick Bass strong fast.wav
64,192,283687,1,0,0:0:0:0:
320,192,283952,1,0,0:0:0:0:
192,192,284040,1,0,0:0:0:70:LR_Kick Bass strong fast.wav
448,192,284040,1,0,0:0:0:70:LR_DS - Snare Wet High.wav
64,192,284040,1,0,0:0:0:0:
320,192,284216,1,0,0:0:0:0:
64,192,284393,1,0,0:0:0:70:LR_Kick Bass strong fast.wav
192,192,284393,1,0,0:0:0:0:
320,192,284393,1,0,0:0:0:0:
320,192,284569,1,0,0:0:0:0:
64,192,284746,1,0,0:0:0:70:LR_Kick Bass strong fast.wav
192,192,284746,1,0,0:0:0:0:
320,192,284922,1,0,0:0:0:0:
192,192,285099,1,0,0:0:0:70:LR_Kick Bass strong fast.wav
64,192,285099,1,0,0:0:0:0:
448,192,285275,1,0,0:0:0:0:
320,192,285363,1,0,0:0:0:0:
64,192,285452,1,0,0:0:0:70:LR_DS - Snare Wet High.wav
192,192,285452,1,0,0:0:0:70:LR_Kick Bass strong fast.wav
448,192,285452,1,0,0:0:0:0:
64,192,285805,1,0,0:0:0:70:LR_Kick Bass strong fast.wav
192,192,285805,1,0,0:0:0:0:
320,192,285805,1,0,0:0:0:0:
320,192,285981,1,0,0:0:0:0:
64,192,286158,1,0,0:0:0:70:LR_Kick Bass strong fast.wav
192,192,286158,1,0,0:0:0:0:
320,192,286334,1,0,0:0:0:0:
448,192,286422,1,0,0:0:0:0:
64,192,286511,1,0,0:0:0:70:LR_Kick Bass strong fast.wav
192,192,286511,1,0,0:0:0:0:
448,192,286599,1,0,0:0:0:0:
192,192,286687,1,0,0:0:0:0:
320,192,286687,1,0,0:0:0:0:
64,192,286775,1,0,0:0:0:0:
192,192,286863,1,0,0:0:0:70:LR_DS - Snare Wet High.wav
320,192,286863,1,0,0:0:0:70:LR_Kick Bass strong fast.wav
448,192,286863,1,0,0:0:0:0:
64,192,287216,1,0,0:0:0:70:LR_Kick Bass strong fast.wav
192,192,287216,1,0,0:0:0:0:
320,192,287216,1,0,0:0:0:0:
320,192,287393,1,0,0:0:0:0:
64,192,287569,1,0,0:0:0:70:LR_Kick Bass strong fast.wav
192,192,287569,1,0,0:0:0:0:
320,192,287746,1,0,0:0:0:0:
64,192,287922,1,0,0:0:0:70:LR_Kick Bass strong fast.wav
192,192,287922,1,0,0:0:0:0:
320,192,288099,1,0,0:0:0:0:
192,192,288275,1,0,0:0:0:70:LR_DS - Snare Wet High.wav
320,192,288275,1,0,0:0:0:70:LR_Kick Bass strong fast.wav
448,192,288275,1,0,0:0:0:0:
64,192,288275,1,0,0:0:0:0:
192,192,288628,1,0,0:0:0:70:LR_Kick Bass strong fast.wav
64,192,288628,1,0,0:0:0:0:
320,192,288628,1,0,0:0:0:0:
320,192,288805,1,0,0:0:0:0:
192,192,288981,1,0,0:0:0:70:LR_Kick Bass strong fast.wav
64,192,288981,1,0,0:0:0:0:
320,192,289158,1,0,0:0:0:0:
192,192,289334,1,0,0:0:0:70:LR_Kick Bass strong fast.wav
64,192,289334,1,0,0:0:0:0:
448,192,289511,1,0,0:0:0:0:
320,192,289599,1,0,0:0:0:0:
448,192,289687,1,0,0:0:0:70:LR_Kick Bass strong fast.wav
192,192,289687,1,0,0:0:0:70:LR_DS - Snare Wet High.wav
64,192,289687,1,0,0:0:0:0:
64,192,290040,1,0,0:0:0:70:LR_Kick Bass strong fast.wav
192,192,290040,1,0,0:0:0:0:
320,192,290040,1,0,0:0:0:0:
320,192,290216,1,0,0:0:0:0:
448,192,290305,1,0,0:0:0:0:
64,192,290393,1,0,0:0:0:70:LR_Kick Bass strong fast.wav
192,192,290393,1,0,0:0:0:0:
320,192,290569,1,0,0:0:0:0:
192,192,290746,1,0,0:0:0:70:LR_Kick Bass strong fast.wav
64,192,290746,1,0,0:0:0:0:
320,192,290922,1,0,0:0:0:0:
448,192,290981,1,0,0:0:0:0:
320,192,291040,1,0,0:0:0:0:
64,192,291099,1,0,0:0:0:70:LR_DS - Snare Wet High.wav
448,192,291099,1,0,0:0:0:70:LR_Kick Bass strong fast.wav
192,192,291099,1,0,0:0:0:0:
64,192,291452,1,0,0:0:0:70:LR_Kick Bass strong fast.wav
192,192,291452,1,0,0:0:0:0:
320,192,291452,1,0,0:0:0:0:
320,192,291628,1,0,0:0:0:0:
64,192,291805,1,0,0:0:0:70:LR_Kick Bass strong fast.wav
192,192,291805,1,0,0:0:0:0:
320,192,291981,1,0,0:0:0:0:
448,192,292069,1,0,0:0:0:0:
64,192,292158,1,0,0:0:0:70:LR_Kick Bass strong fast.wav
192,192,292158,1,0,0:0:0:0:
64,192,292334,1,0,0:0:0:0:
64,192,292511,128,0,292555:0:0:0:70:LR_Kick Bass strong fast.wav
192,192,292511,128,0,292555:0:0:0:70:LR_Snare Wet Echoing Hollow.wav
320,192,292511,128,0,292555:0:0:0:70:LR_DS - Snare Wet High.wav
448,192,292511,128,0,292555:0:0:0:0:
448,192,292863,1,0,0:0:0:70:LR_Kick Bass strong fast.wav
320,192,292863,1,0,0:0:0:0:
192,192,292863,1,0,0:0:0:0:
192,192,293040,1,0,0:0:0:0:
448,192,293216,1,0,0:0:0:70:LR_Kick Bass strong fast.wav
320,192,293216,1,0,0:0:0:0:
192,192,293393,1,0,0:0:0:0:
448,192,293569,1,0,0:0:0:70:LR_Kick Bass strong fast.wav
320,192,293569,1,0,0:0:0:0:
192,192,293746,1,0,0:0:0:0:
320,192,293922,1,0,0:0:0:70:LR_DS - Snare Wet High.wav
192,192,293922,1,0,0:0:0:70:LR_Kick Bass strong fast.wav
64,192,293922,1,0,0:0:0:0:
448,192,293922,1,0,0:0:0:0:
320,192,294275,1,0,0:0:0:70:LR_Kick Bass strong fast.wav
448,192,294275,1,0,0:0:0:0:
192,192,294275,1,0,0:0:0:0:
192,192,294452,1,0,0:0:0:0:
320,192,294628,1,0,0:0:0:70:LR_Kick Bass strong fast.wav
448,192,294628,1,0,0:0:0:0:
192,192,294805,1,0,0:0:0:0:
64,192,294893,1,0,0:0:0:0:
320,192,294981,1,0,0:0:0:70:LR_Kick Bass strong fast.wav
448,192,294981,1,0,0:0:0:0:
192,192,295158,1,0,0:0:0:0:
320,192,295334,1,0,0:0:0:70:LR_Kick Bass strong fast.wav
64,192,295334,1,0,0:0:0:70:LR_DS - Snare Wet High.wav
192,192,295334,1,0,0:0:0:0:
448,192,295334,1,0,0:0:0:0:
448,192,295687,1,0,0:0:0:70:LR_Kick Bass strong fast.wav
320,192,295687,1,0,0:0:0:0:
192,192,295687,1,0,0:0:0:0:
192,192,295863,1,0,0:0:0:0:
64,192,295952,1,0,0:0:0:0:
448,192,296040,1,0,0:0:0:70:LR_Kick Bass strong fast.wav
320,192,296040,1,0,0:0:0:0:
192,192,296216,1,0,0:0:0:0:
320,192,296393,1,0,0:0:0:70:LR_Kick Bass strong fast.wav
448,192,296393,1,0,0:0:0:0:
192,192,296569,1,0,0:0:0:0:
64,192,296628,1,0,0:0:0:0:
192,192,296687,1,0,0:0:0:0:
448,192,296746,1,0,0:0:0:70:LR_DS - Snare Wet High.wav
64,192,296746,1,0,0:0:0:70:LR_Kick Bass strong fast.wav
320,192,296746,1,0,0:0:0:0:
448,192,297099,1,0,0:0:0:70:LR_Kick Bass strong fast.wav
320,192,297099,1,0,0:0:0:0:
192,192,297099,1,0,0:0:0:0:
192,192,297275,1,0,0:0:0:0:
448,192,297452,1,0,0:0:0:70:LR_Kick Bass strong fast.wav
320,192,297452,1,0,0:0:0:0:
192,192,297628,1,0,0:0:0:0:
64,192,297716,1,0,0:0:0:0:
448,192,297805,1,0,0:0:0:70:LR_Kick Bass strong fast.wav
320,192,297805,1,0,0:0:0:0:
192,192,297893,1,0,0:0:0:0:
448,192,297981,1,0,0:0:0:0:
192,192,298069,1,0,0:0:0:70:LR_Kick Bass strong fast.wav
320,192,298069,1,0,0:0:0:0:
448,192,298158,1,0,0:0:0:70:LR_DS - Snare Wet High.wav
64,192,298158,1,0,0:0:0:70:LR_Kick Bass strong fast.wav
448,192,298511,1,0,0:0:0:70:LR_Kick Bass strong fast.wav
320,192,298511,1,0,0:0:0:0:
192,192,298511,1,0,0:0:0:0:
192,192,298687,1,0,0:0:0:0:
448,192,298863,1,0,0:0:0:70:LR_Kick Bass strong fast.wav
320,192,298863,1,0,0:0:0:0:
192,192,299040,1,0,0:0:0:0:
448,192,299216,1,0,0:0:0:70:LR_Kick Bass strong fast.wav
320,192,299216,1,0,0:0:0:0:
192,192,299393,1,0,0:0:0:0:
320,192,299569,1,0,0:0:0:70:LR_DS - Snare Wet High.wav
192,192,299569,1,0,0:0:0:70:LR_Kick Bass strong fast.wav
64,192,299569,1,0,0:0:0:0:
448,192,299569,1,0,0:0:0:0:
320,192,299922,1,0,0:0:0:70:LR_Kick Bass strong fast.wav
448,192,299922,1,0,0:0:0:0:
192,192,299922,1,0,0:0:0:0:
192,192,300099,1,0,0:0:0:0:
320,192,300275,1,0,0:0:0:70:LR_Kick Bass strong fast.wav
448,192,300275,1,0,0:0:0:0:
192,192,300452,1,0,0:0:0:0:
64,192,300540,1,0,0:0:0:0:
320,192,300628,1,0,0:0:0:70:LR_Kick Bass strong fast.wav
448,192,300628,1,0,0:0:0:0:
192,192,300805,1,0,0:0:0:0:
320,192,300981,1,0,0:0:0:70:LR_Kick Bass strong fast.wav
64,192,300981,1,0,0:0:0:70:LR_DS - Snare Wet High.wav
192,192,300981,1,0,0:0:0:0:
448,192,300981,1,0,0:0:0:0:
448,192,301334,1,0,0:0:0:70:LR_Kick Bass strong fast.wav
320,192,301334,1,0,0:0:0:0:
192,192,301334,1,0,0:0:0:0:
192,192,301511,1,0,0:0:0:0:
64,192,301599,1,0,0:0:0:0:
448,192,301687,1,0,0:0:0:70:LR_Kick Bass strong fast.wav
320,192,301687,1,0,0:0:0:0:
192,192,301863,1,0,0:0:0:0:
320,192,302040,1,0,0:0:0:70:LR_Kick Bass strong fast.wav
448,192,302040,1,0,0:0:0:0:
192,192,302216,1,0,0:0:0:0:
64,192,302275,1,0,0:0:0:0:
192,192,302334,1,0,0:0:0:0:
448,192,302393,1,0,0:0:0:70:LR_DS - Snare Wet High.wav
64,192,302393,1,0,0:0:0:70:LR_Kick Bass strong fast.wav
320,192,302393,1,0,0:0:0:0:
320,192,302746,1,0,0:0:0:0:
192,192,302834,1,0,0:0:0:0:
320,192,302922,1,0,0:0:0:0:
192,192,303011,1,0,0:0:0:0:
320,192,303099,1,0,0:0:0:0:
64,192,303187,1,0,0:0:0:0:
320,192,303275,1,0,0:0:0:0:
64,192,303363,1,0,0:0:0:0:
448,192,303452,1,0,0:0:0:0:
320,192,303452,1,0,0:0:0:0:
192,192,303540,1,0,0:0:0:0:
448,192,303628,1,0,0:0:0:0:
320,192,303628,1,0,0:0:0:0:
192,192,303716,1,0,0:0:0:0:
64,192,303805,1,0,0:0:0:70:LR_DS - Snare Wet High.wav
320,192,303805,1,0,0:0:0:70:LR_DS - Snare Wet High.wav
448,192,303805,1,0,0:0:0:0:
448,192,304158,1,0,0:0:0:70:LR_Kick Bass strong fast.wav
192,192,304158,1,0,0:0:0:0:
64,192,304158,1,0,0:0:0:0:
448,192,304334,1,0,0:0:0:0:
192,192,304511,1,0,0:0:0:70:LR_Kick Bass strong fast.wav
64,192,304511,1,0,0:0:0:0:
448,192,304687,1,0,0:0:0:0:
192,192,304863,1,0,0:0:0:70:LR_Kick Bass strong fast.wav
64,192,304863,1,0,0:0:0:0:
448,192,305040,1,0,0:0:0:0:
64,192,305216,1,0,0:0:0:70:LR_DS - Snare Wet High.wav
192,192,305216,1,0,0:0:0:70:LR_Kick Bass strong fast.wav
320,192,305216,1,0,0:0:0:0:
448,192,305393,1,0,0:0:0:0:
448,192,305569,1,0,0:0:0:70:LR_Kick Bass strong fast.wav
192,192,305569,1,0,0:0:0:0:
64,192,305569,1,0,0:0:0:0:
448,192,305746,1,0,0:0:0:0:
192,192,305922,1,0,0:0:0:70:LR_Kick Bass strong fast.wav
64,192,305922,1,0,0:0:0:0:
448,192,306099,128,0,306143:0:0:0:0:
192,192,306275,1,0,0:0:0:70:LR_Kick Bass strong fast.wav
64,192,306275,1,0,0:0:0:0:
448,192,306363,1,0,0:0:0:0:
320,192,306452,1,0,0:0:0:0:
448,192,306540,1,0,0:0:0:0:
192,192,306628,1,0,0:0:0:70:LR_Kick Bass strong fast.wav
320,192,306628,1,0,0:0:0:70:LR_DS - Snare Wet High.wav
64,192,306628,1,0,0:0:0:0:
448,192,306981,1,0,0:0:0:70:LR_Kick Bass strong fast.wav
64,192,306981,1,0,0:0:0:0:
192,192,306981,1,0,0:0:0:0:
448,192,307158,1,0,0:0:0:0:
64,192,307334,1,0,0:0:0:70:LR_Kick Bass strong fast.wav
192,192,307334,1,0,0:0:0:0:
448,192,307511,1,0,0:0:0:0:
192,192,307687,1,0,0:0:0:70:LR_Kick Bass strong fast.wav
64,192,307687,1,0,0:0:0:0:
448,192,307863,1,0,0:0:0:0:
64,192,308040,1,0,0:0:0:70:LR_Kick Bass strong fast.wav
192,192,308040,1,0,0:0:0:70:LR_DS - Snare Wet High.wav
320,192,308040,1,0,0:0:0:0:
448,192,308216,1,0,0:0:0:0:
448,192,308393,1,0,0:0:0:70:LR_Kick Bass strong fast.wav
64,192,308393,1,0,0:0:0:0:
192,192,308393,1,0,0:0:0:0:
448,192,308569,1,0,0:0:0:0:
64,192,308746,1,0,0:0:0:70:LR_Kick Bass strong fast.wav
192,192,308746,1,0,0:0:0:0:
448,192,308922,1,0,0:0:0:0:
320,192,309011,1,0,0:0:0:0:
64,192,309099,1,0,0:0:0:70:LR_Kick Bass strong fast.wav
192,192,309099,1,0,0:0:0:0:
448,192,309187,1,0,0:0:0:0:
320,192,309275,1,0,0:0:0:0:
64,192,309275,1,0,0:0:0:0:
192,192,309363,1,0,0:0:0:0:
320,192,309452,1,0,0:0:0:70:LR_Kick Bass strong fast.wav
448,192,309452,1,0,0:0:0:70:LR_DS - Snare Wet High.wav
64,192,309452,1,0,0:0:0:0:
448,192,309805,1,0,0:0:0:70:LR_Kick Bass strong fast.wav
64,192,309805,1,0,0:0:0:0:
192,192,309805,1,0,0:0:0:0:
448,192,309981,1,0,0:0:0:0:
64,192,310158,1,0,0:0:0:70:LR_Kick Bass strong fast.wav
192,192,310158,1,0,0:0:0:0:
448,192,310334,1,0,0:0:0:0:
64,192,310511,1,0,0:0:0:70:LR_Kick Bass strong fast.wav
192,192,310511,1,0,0:0:0:0:
448,192,310687,1,0,0:0:0:0:
192,192,310863,1,0,0:0:0:70:LR_Kick Bass strong fast.wav
64,192,310863,1,0,0:0:0:70:LR_DS - Snare Wet High.wav
320,192,310863,1,0,0:0:0:0:
448,192,310863,1,0,0:0:0:0:
448,192,311216,1,0,0:0:0:70:LR_Kick Bass strong fast.wav
192,192,311216,1,0,0:0:0:0:
64,192,311216,1,0,0:0:0:0:
448,192,311393,1,0,0:0:0:0:
192,192,311569,1,0,0:0:0:70:LR_Kick Bass strong fast.wav
64,192,311569,1,0,0:0:0:0:
448,192,311746,1,0,0:0:0:0:
320,192,311834,1,0,0:0:0:0:
192,192,311922,1,0,0:0:0:70:LR_Kick Bass strong fast.wav
64,192,311922,1,0,0:0:0:0:
448,192,312099,1,0,0:0:0:0:
448,192,312275,1,0,0:0:0:70:LR_Kick Bass strong fast.wav
192,192,312275,1,0,0:0:0:70:LR_DS - Snare Wet High.wav
64,192,312275,1,0,0:0:0:0:
320,192,312275,1,0,0:0:0:0:
448,192,312628,1,0,0:0:0:70:LR_Kick Bass strong fast.wav
64,192,312628,1,0,0:0:0:0:
192,192,312628,1,0,0:0:0:0:
448,192,312805,1,0,0:0:0:0:
320,192,312893,1,0,0:0:0:0:
64,192,312981,1,0,0:0:0:70:LR_Kick Bass strong fast.wav
192,192,312981,1,0,0:0:0:0:
448,192,313158,1,0,0:0:0:0:
192,192,313334,1,0,0:0:0:70:LR_Kick Bass strong fast.wav
64,192,313334,1,0,0:0:0:0:
448,192,313511,1,0,0:0:0:0:
320,192,313569,1,0,0:0:0:0:
448,192,313628,1,0,0:0:0:0:
64,192,313687,1,0,0:0:0:70:LR_DS - Snare Wet High.wav
320,192,313687,1,0,0:0:0:70:LR_Kick Bass strong fast.wav
192,192,313687,1,0,0:0:0:0:
448,192,314040,1,0,0:0:0:0:
64,192,314040,1,0,0:0:0:0:
448,192,314216,1,0,0:0:0:0:
64,192,314393,1,0,0:0:0:0:
64,192,314511,1,0,0:0:0:0:
192,192,314569,1,0,0:0:0:0:
448,192,314628,1,0,0:0:0:0:
320,192,314687,1,0,0:0:0:0:
192,192,314746,1,0,0:0:0:0:
448,192,314805,1,0,0:0:0:0:
320,192,314863,1,0,0:0:0:0:
192,192,314922,1,0,0:0:0:0:
64,192,314981,1,0,0:0:0:0:
64,192,315099,128,0,315143:0:0:0:70:LR_Kick Bass strong fast.wav
192,192,315099,128,0,315143:0:0:0:70:LR_DS - Snare Wet High.wav
320,192,315099,128,0,315143:0:0:0:0:
448,192,315099,128,0,315143:0:0:0:0:
64,192,315452,1,0,0:0:0:70:LR_Kick Bass strong fast.wav
448,192,315452,1,0,0:0:0:0:
320,192,315452,1,0,0:0:0:0:
64,192,315628,1,0,0:0:0:0:
448,192,315805,1,0,0:0:0:100:LR4_ClapLRV.wav
320,192,315805,1,0,0:0:0:70:LR_Kick Bass strong fast.wav
64,192,315981,1,0,0:0:0:0:
448,192,316158,1,0,0:0:0:70:LR_Kick Bass strong fast.wav
320,192,316158,1,0,0:0:0:0:
64,192,316334,1,0,0:0:0:0:
192,192,316511,1,0,0:0:0:70:LR_Kick Bass strong fast.wav
320,192,316511,1,0,0:0:0:70:LR_DS - Snare Wet High.wav
448,192,316511,1,0,0:0:0:0:
64,192,316511,1,0,0:0:0:0:
64,192,316863,1,0,0:0:0:70:LR_Kick Bass strong fast.wav
320,192,316863,1,0,0:0:0:0:
448,192,316863,1,0,0:0:0:0:
64,192,317040,1,0,0:0:0:0:
320,192,317216,1,0,0:0:0:70:LR_Kick Bass strong fast.wav
448,192,317216,1,0,0:0:0:100:LR4_ClapLRV.wav
64,192,317393,1,0,0:0:0:0:
320,192,317569,1,0,0:0:0:70:LR_Kick Bass strong fast.wav
448,192,317569,1,0,0:0:0:0:
64,192,317746,1,0,0:0:0:0:
192,192,317834,1,0,0:0:0:0:
64,192,317922,1,0,0:0:0:70:LR_Kick Bass strong fast.wav
320,192,317922,1,0,0:0:0:70:LR_DS - Snare Wet High.wav
448,192,317922,1,0,0:0:0:0:
64,192,318275,1,0,0:0:0:70:LR_Kick Bass strong fast.wav
448,192,318275,1,0,0:0:0:0:
320,192,318275,1,0,0:0:0:0:
64,192,318452,1,0,0:0:0:0:
448,192,318628,1,0,0:0:0:100:LR4_ClapLRV.wav
320,192,318628,1,0,0:0:0:70:LR_Kick Bass strong fast.wav
64,192,318805,1,0,0:0:0:0:
320,192,318981,1,0,0:0:0:70:LR_Kick Bass strong fast.wav
448,192,318981,1,0,0:0:0:0:
64,192,319158,1,0,0:0:0:0:
448,192,319334,1,0,0:0:0:70:LR_DS - Snare Wet High.wav
320,192,319334,1,0,0:0:0:70:LR_Kick Bass strong fast.wav
192,192,319334,1,0,0:0:0:0:
64,192,319334,1,0,0:0:0:0:
64,192,319687,1,0,0:0:0:70:LR_Kick Bass strong fast.wav
448,192,319687,1,0,0:0:0:0:
320,192,319687,1,0,0:0:0:0:
64,192,319863,1,0,0:0:0:0:
448,192,320040,1,0,0:0:0:100:LR4_ClapLRV.wav
320,192,320040,1,0,0:0:0:70:LR_Kick Bass strong fast.wav
64,192,320216,1,0,0:0:0:0:
192,192,320305,1,0,0:0:0:0:
448,192,320393,1,0,0:0:0:70:LR_Kick Bass strong fast.wav
320,192,320393,1,0,0:0:0:0:
192,192,320481,1,0,0:0:0:0:
64,192,320569,1,0,0:0:0:0:
320,192,320658,1,0,0:0:0:70:LR_Kick Bass strong fast.wav
448,192,320658,1,0,0:0:0:0:
64,192,320746,1,0,0:0:0:70:LR_DS - Snare Wet High.wav
192,192,320746,1,0,0:0:0:0:
64,192,321099,1,0,0:0:0:70:LR_Kick Bass strong fast.wav
448,192,321099,1,0,0:0:0:0:
320,192,321099,1,0,0:0:0:0:
64,192,321275,1,0,0:0:0:0:
448,192,321452,1,0,0:0:0:100:LR4_ClapLRV.wav
320,192,321452,1,0,0:0:0:70:LR_Kick Bass strong fast.wav
64,192,321628,1,0,0:0:0:0:
448,192,321805,1,0,0:0:0:70:LR_Kick Bass strong fast.wav
320,192,321805,1,0,0:0:0:0:
64,192,321981,1,0,0:0:0:0:
192,192,322158,1,0,0:0:0:70:LR_Kick Bass strong fast.wav
320,192,322158,1,0,0:0:0:70:LR_DS - Snare Wet High.wav
448,192,322158,1,0,0:0:0:0:
64,192,322158,1,0,0:0:0:0:
64,192,322511,1,0,0:0:0:70:LR_Kick Bass strong fast.wav
320,192,322511,1,0,0:0:0:0:
448,192,322511,1,0,0:0:0:0:
64,192,322687,1,0,0:0:0:0:
320,192,322863,1,0,0:0:0:70:LR_Kick Bass strong fast.wav
448,192,322863,1,0,0:0:0:100:LR4_ClapLRV.wav
64,192,323040,1,0,0:0:0:0:
320,192,323216,1,0,0:0:0:70:LR_Kick Bass strong fast.wav
448,192,323216,1,0,0:0:0:0:
64,192,323393,1,0,0:0:0:0:
192,192,323481,1,0,0:0:0:0:
64,192,323569,1,0,0:0:0:70:LR_Kick Bass strong fast.wav
320,192,323569,1,0,0:0:0:70:LR_DS - Snare Wet High.wav
448,192,323569,1,0,0:0:0:0:
64,192,323922,1,0,0:0:0:70:LR_Kick Bass strong fast.wav
448,192,323922,1,0,0:0:0:0:
320,192,323922,1,0,0:0:0:0:
192,192,324099,128,0,324275:0:0:0:0:
448,192,324275,1,0,0:0:0:100:LR4_ClapLRV.wav
320,192,324275,1,0,0:0:0:70:LR_Kick Bass strong fast.wav
64,192,324275,1,0,0:0:0:0:
192,192,324452,128,0,324628:0:0:0:0:
320,192,324628,1,0,0:0:0:70:LR_Kick Bass strong fast.wav
448,192,324628,1,0,0:0:0:0:
64,192,324628,1,0,0:0:0:0:
192,192,324805,128,0,324981:0:0:0:0:
448,192,324981,1,0,0:0:0:70:LR_Kick Bass strong fast.wav
64,192,324981,1,0,0:0:0:70:LR_DS - Snare Wet High.wav
320,192,324981,1,0,0:0:0:0:
192,192,325158,128,0,325334:0:0:0:0:
320,192,325158,1,0,0:0:0:0:
448,192,325334,1,0,0:0:0:70:LR_Kick Bass strong fast.wav
320,192,325334,1,0,0:0:0:0:
64,192,326216,128,0,326658:0:0:0:0:
448,192,326393,128,0,326658:0:0:0:0:
64,192,326746,128,0,326790:0:0:0:70:thunder_strike_1-Mike_Koenig-739781745.wav
448,192,326746,128,0,326790:0:0:0:70:thunder_strike_1-Mike_Koenig-739781745.wav
320,192,326746,128,0,326790:0:0:0:30:LR4_BassKickReverbXD.wav
192,192,326746,128,0,326790:0:0:0:30:LR4_BassKickReverbXD.wav
448,192,330628,1,0,0:0:0:0:
320,192,330687,1,0,0:0:0:0:
192,192,330746,1,0,0:0:0:0:
448,192,330805,1,0,0:0:0:0:
64,192,330863,1,0,0:0:0:0:
192,192,330915,1,0,0:0:0:0:
320,192,330959,1,0,0:0:0:0:
64,192,331011,1,0,0:0:0:0:
448,192,331069,1,0,0:0:0:0:
320,192,331158,1,0,0:0:0:0:
192,192,331275,1,0,0:0:0:0:
192,192,331481,1,0,0:0:0:0:
192,192,331687,128,0,331746:0:0:0:50:LR4_BassKickReverbXD.wav
448,192,331687,128,0,331746:0:0:0:50:LR_Snare Wet Echoing Hollow.wav
320,192,331687,128,0,331746:0:0:0:50:LR4_BassKickReverbXD.wav
64,192,331687,128,0,331746:0:0:0:50:LR_Snare Wet Echoing Hollow.wav
