osu file format v14

[General]
AudioFilename: audio.mp3
AudioLeadIn: 0
PreviewTime: 44774
Countdown: 1
SampleSet: Normal
StackLeniency: 0.7
Mode: 1
LetterboxInBreaks: 0
WidescreenStoryboard: 1

[Editor]
DistanceSpacing: 0.9
BeatDivisor: 4
GridSize: 32
TimelineZoom: 1.9

[Metadata]
Title:sha
TitleUnicode:sha
Artist:sakuraburst
ArtistUnicode:sakuraburst
Creator:salchow
Version:kantan
Source:osu!
Tags:instrumental experimental featured artist fa mappers' guild mg anticrystal ep drum bass orchestral glitch noise electronic edm idm
BeatmapID:2218428
BeatmapSetID:1057855

[Difficulty]
HPDrainRate:7
CircleSize:2
OverallDifficulty:3
ApproachRate:10
SliderMultiplier:1.4
SliderTickRate:1

[Events]
//Background and Video events
0,0,"black-and-white-black-and-white-feather-401413 (1).jpg",0,0
//Break Periods
2,510,5507
2,6157,11154
2,11804,16801
2,17451,22095
2,113452,118448
2,119098,129742
//Storyboard Layer 0 (Background)
//Storyboard Layer 1 (Fail)
//Storyboard Layer 2 (Pass)
//Storyboard Layer 3 (Foreground)
//Storyboard Layer 4 (Overlay)
//Storyboard Sound Samples

[TimingPoints]
310,352.941176470588,4,1,1,70,1,0
45486,-100,4,1,1,50,0,1
66662,-100,4,1,1,70,0,0
79368,-100,4,1,1,50,0,1
89251,-100,4,1,1,70,0,0
130192,-100,4,1,1,50,0,0
152251,-100,4,1,1,70,0,0
175368,-100,4,1,1,50,0,1
196545,-100,4,1,1,70,0,0
209251,-100,4,1,1,50,0,1
219133,-100,4,1,1,70,0,0

[HitObjects]
256,192,310,5,4,0:0:0:0:
256,192,5957,5,0,0:0:0:0:
256,192,11604,5,4,0:0:0:0:
256,192,17251,5,0,0:0:0:0:
256,192,22545,5,0,0:0:0:0:
256,192,22898,5,4,0:0:0:0:
256,192,23604,1,8,0:0:0:0:
256,192,24309,1,0,0:0:0:0:
256,192,25368,1,0,0:0:0:0:
256,192,25721,1,0,0:0:0:0:
256,192,26427,1,8,0:0:0:0:
256,192,27133,1,0,0:0:0:0:
256,192,28192,1,0,0:0:0:0:
256,192,28545,5,4,0:0:0:0:
256,192,29251,1,8,0:0:0:0:
256,192,29956,1,0,0:0:0:0:
256,192,31015,1,0,0:0:0:0:
256,192,31368,1,0,0:0:0:0:
256,192,32074,1,8,0:0:0:0:
256,192,32780,1,0,0:0:0:0:
256,192,33839,1,0,0:0:0:0:
256,192,34192,5,4,0:0:0:0:
256,192,34898,1,0,0:0:0:0:
256,192,35251,1,0,0:0:0:0:
256,192,35604,1,0,0:0:0:0:
256,192,36662,1,8,0:0:0:0:
256,192,37015,1,0,0:0:0:0:
256,192,37721,1,0,0:0:0:0:
256,192,38074,1,0,0:0:0:0:
256,192,38427,1,0,0:0:0:0:
256,192,39485,1,8,0:0:0:0:
256,192,39838,1,0,0:0:0:0:
256,192,40545,1,0,0:0:0:0:
256,192,40898,1,8,0:0:0:0:
256,192,41251,1,0,0:0:0:0:
256,192,41957,1,0,0:0:0:0:
256,192,42310,1,8,0:0:0:0:
256,192,42663,1,0,0:0:0:0:
256,192,43368,1,8,0:0:0:0:
256,192,44074,1,0,0:0:0:0:
256,192,44780,1,8,0:0:0:0:
256,192,45486,1,4,0:0:0:0:
256,192,45839,1,8,0:0:0:0:
256,192,46545,1,8,0:0:0:0:
256,192,46898,1,4,0:0:0:0:
256,192,47957,1,0,0:0:0:0:
256,192,48309,1,4,0:0:0:0:
256,192,48662,1,8,0:0:0:0:
256,192,49368,1,8,0:0:0:0:
256,192,49721,1,4,0:0:0:0:
256,192,50780,1,8,0:0:0:0:
256,192,51133,1,4,0:0:0:0:
256,192,51486,1,8,0:0:0:0:
256,192,52192,1,0,0:0:0:0:
256,192,52545,1,4,0:0:0:0:
256,192,52898,1,8,0:0:0:0:
256,192,53604,1,8,0:0:0:0:
256,192,53956,1,4,0:0:0:0:
256,192,55015,1,0,0:0:0:0:
256,192,55368,1,4,0:0:0:0:
256,192,55721,1,8,0:0:0:0:
256,192,56427,1,8,0:0:0:0:
256,192,56780,1,4,0:0:0:0:
256,192,57133,1,8,0:0:0:0:
256,192,57839,1,8,0:0:0:0:
256,192,58192,1,4,0:0:0:0:
256,192,59251,1,0,0:0:0:0:
256,192,59603,1,4,0:0:0:0:
256,192,59956,1,8,0:0:0:0:
256,192,60662,1,8,0:0:0:0:
256,192,61015,1,4,0:0:0:0:
256,192,62074,1,8,0:0:0:0:
256,192,62427,1,4,0:0:0:0:
256,192,62780,1,8,0:0:0:0:
256,192,63486,1,0,0:0:0:0:
256,192,63839,1,4,0:0:0:0:
256,192,64192,1,8,0:0:0:0:
256,192,64898,1,8,0:0:0:0:
256,192,65250,1,4,0:0:0:0:
256,192,66309,1,8,0:0:0:0:
256,192,66927,1,0,0:0:0:0:
256,192,67721,1,8,0:0:0:0:
256,192,68074,1,8,0:0:0:0:
256,192,68780,1,0,0:0:0:0:
256,192,69133,1,8,0:0:0:0:
256,192,69486,1,0,0:0:0:0:
256,192,70545,1,8,0:0:0:0:
256,192,70898,1,8,0:0:0:0:
256,192,71604,1,0,0:0:0:0:
256,192,71957,1,8,0:0:0:0:
256,192,72309,1,0,0:0:0:0:
256,192,73368,1,0,0:0:0:0:
256,192,73721,1,8,0:0:0:0:
256,192,74427,1,0,0:0:0:0:
256,192,74780,1,8,0:0:0:0:
256,192,75133,1,0,0:0:0:0:
256,192,76192,1,8,0:0:0:0:
256,192,76545,1,8,0:0:0:0:
256,192,77251,1,0,0:0:0:0:
256,192,77957,1,0,0:0:0:0:
256,192,79368,1,4,0:0:0:0:
256,192,79721,1,8,0:0:0:0:
256,192,80427,1,8,0:0:0:0:
256,192,80780,1,4,0:0:0:0:
256,192,81839,1,0,0:0:0:0:
256,192,82191,1,4,0:0:0:0:
256,192,82544,1,8,0:0:0:0:
256,192,83250,1,8,0:0:0:0:
256,192,83603,1,4,0:0:0:0:
256,192,84662,1,8,0:0:0:0:
256,192,85015,1,4,0:0:0:0:
256,192,85368,1,8,0:0:0:0:
256,192,86074,1,0,0:0:0:0:
256,192,86427,1,4,0:0:0:0:
256,192,86780,1,8,0:0:0:0:
256,192,87486,1,8,0:0:0:0:
256,192,87838,1,4,0:0:0:0:
256,192,88897,1,8,0:0:0:0:
256,192,90309,5,8,0:0:0:0:
256,192,90662,1,4,0:0:0:0:
256,192,91015,1,8,0:0:0:0:
256,192,92074,1,0,0:0:0:0:
256,192,93133,1,8,0:0:0:0:
256,192,93486,1,4,0:0:0:0:
256,192,94545,1,8,0:0:0:0:
256,192,94898,1,0,0:0:0:0:
256,192,95251,1,8,0:0:0:0:
256,192,96309,1,4,0:0:0:0:
256,192,96662,1,8,0:0:0:0:
256,192,97721,1,0,0:0:0:0:
256,192,98427,1,0,0:0:0:0:
256,192,98780,1,8,0:0:0:0:
256,192,99133,1,4,0:0:0:0:
256,192,100192,1,8,0:0:0:0:
256,192,100809,5,4,0:0:0:0:
256,192,101339,1,4,0:0:0:0:
256,192,101957,1,4,0:0:0:0:
256,192,102310,1,8,0:0:0:0:
256,192,103369,1,0,0:0:0:0:
256,192,104428,1,8,0:0:0:0:
256,192,104781,1,4,0:0:0:0:
256,192,105840,1,8,0:0:0:0:
256,192,106193,1,0,0:0:0:0:
256,192,106546,1,8,0:0:0:0:
256,192,107604,1,4,0:0:0:0:
256,192,107957,1,8,0:0:0:0:
256,192,109016,1,0,0:0:0:0:
256,192,109722,1,0,0:0:0:0:
256,192,110075,1,8,0:0:0:0:
256,192,110428,1,4,0:0:0:0:
256,192,111487,1,8,0:0:0:0:
256,192,112104,5,4,0:0:0:0:
256,192,112634,1,4,0:0:0:0:
256,192,113252,1,4,0:0:0:0:
256,192,118898,5,4,0:0:0:0:
256,192,130192,5,4,0:0:0:0:
256,192,131251,1,8,0:0:0:0:
256,192,131604,1,8,0:0:0:0:
256,192,133015,1,8,0:0:0:0:
256,192,134074,1,8,0:0:0:0:
256,192,134427,1,8,0:0:0:0:
256,192,135838,1,8,0:0:0:0:
256,192,136898,1,8,0:0:0:0:
256,192,137250,1,8,0:0:0:0:
256,192,138662,1,8,0:0:0:0:
256,192,139721,1,8,0:0:0:0:
256,192,140074,1,12,0:0:0:0:
256,192,141486,1,4,0:0:0:0:
256,192,142898,5,0,0:0:0:0:
256,192,144309,5,4,0:0:0:0:
256,192,145721,5,0,0:0:0:0:
256,192,147133,5,4,0:0:0:0:
256,192,148545,5,0,0:0:0:0:
256,192,149956,5,4,0:0:0:0:
256,192,151368,5,0,0:0:0:0:
256,192,152427,5,0,0:0:0:0:
256,192,152780,5,4,0:0:0:0:
256,192,153486,1,8,0:0:0:0:
256,192,154191,1,0,0:0:0:0:
256,192,155250,1,0,0:0:0:0:
256,192,155603,1,0,0:0:0:0:
256,192,156309,1,8,0:0:0:0:
256,192,157015,1,0,0:0:0:0:
256,192,158074,1,0,0:0:0:0:
256,192,158427,5,4,0:0:0:0:
256,192,159133,1,8,0:0:0:0:
256,192,159838,1,0,0:0:0:0:
256,192,160897,1,0,0:0:0:0:
256,192,161250,1,0,0:0:0:0:
256,192,161956,1,8,0:0:0:0:
256,192,162662,1,0,0:0:0:0:
256,192,163721,1,0,0:0:0:0:
256,192,164074,5,4,0:0:0:0:
256,192,164780,1,0,0:0:0:0:
256,192,165133,1,0,0:0:0:0:
256,192,165486,1,0,0:0:0:0:
256,192,166544,1,8,0:0:0:0:
256,192,166897,1,0,0:0:0:0:
256,192,167603,1,0,0:0:0:0:
256,192,167956,1,0,0:0:0:0:
256,192,168309,1,0,0:0:0:0:
256,192,169367,1,8,0:0:0:0:
256,192,169720,1,0,0:0:0:0:
256,192,170427,1,0,0:0:0:0:
256,192,170780,1,8,0:0:0:0:
256,192,171133,1,0,0:0:0:0:
256,192,171839,1,0,0:0:0:0:
256,192,172192,1,8,0:0:0:0:
256,192,172545,1,0,0:0:0:0:
256,192,173250,1,8,0:0:0:0:
256,192,173956,1,0,0:0:0:0:
256,192,174662,1,8,0:0:0:0:
256,192,175368,1,4,0:0:0:0:
256,192,175721,1,8,0:0:0:0:
256,192,176427,1,8,0:0:0:0:
256,192,176780,1,4,0:0:0:0:
256,192,177839,1,0,0:0:0:0:
256,192,178191,1,4,0:0:0:0:
256,192,178544,1,8,0:0:0:0:
256,192,179250,1,8,0:0:0:0:
256,192,179603,1,4,0:0:0:0:
256,192,180662,1,8,0:0:0:0:
256,192,181015,1,4,0:0:0:0:
256,192,181368,1,8,0:0:0:0:
256,192,182074,1,0,0:0:0:0:
256,192,182427,1,4,0:0:0:0:
256,192,182780,1,8,0:0:0:0:
256,192,183486,1,8,0:0:0:0:
256,192,183838,1,4,0:0:0:0:
256,192,184897,1,0,0:0:0:0:
256,192,185250,1,4,0:0:0:0:
256,192,185603,1,8,0:0:0:0:
256,192,186309,1,8,0:0:0:0:
256,192,186662,1,4,0:0:0:0:
256,192,187015,1,8,0:0:0:0:
256,192,187721,1,8,0:0:0:0:
256,192,188074,1,4,0:0:0:0:
256,192,189133,1,0,0:0:0:0:
256,192,189485,1,4,0:0:0:0:
256,192,189838,1,8,0:0:0:0:
256,192,190544,1,8,0:0:0:0:
256,192,190897,1,4,0:0:0:0:
256,192,191956,1,8,0:0:0:0:
256,192,192309,1,4,0:0:0:0:
256,192,192662,1,8,0:0:0:0:
256,192,193368,1,0,0:0:0:0:
256,192,193721,1,4,0:0:0:0:
256,192,194074,1,8,0:0:0:0:
256,192,194780,1,8,0:0:0:0:
256,192,195132,1,4,0:0:0:0:
256,192,196191,1,8,0:0:0:0:
256,192,196809,5,0,0:0:0:0:
256,192,197603,1,8,0:0:0:0:
256,192,197956,1,8,0:0:0:0:
256,192,198662,1,0,0:0:0:0:
256,192,199015,1,8,0:0:0:0:
256,192,199368,1,0,0:0:0:0:
256,192,200427,1,8,0:0:0:0:
256,192,200780,1,8,0:0:0:0:
256,192,201486,1,0,0:0:0:0:
256,192,201839,1,8,0:0:0:0:
256,192,202191,1,0,0:0:0:0:
256,192,203250,1,0,0:0:0:0:
256,192,203603,1,8,0:0:0:0:
256,192,204309,1,0,0:0:0:0:
256,192,204662,1,8,0:0:0:0:
256,192,205015,1,0,0:0:0:0:
256,192,206074,1,8,0:0:0:0:
256,192,206427,1,8,0:0:0:0:
256,192,207133,1,0,0:0:0:0:
256,192,207839,1,0,0:0:0:0:
256,192,209250,1,4,0:0:0:0:
256,192,209603,1,8,0:0:0:0:
256,192,210309,1,8,0:0:0:0:
256,192,210662,1,4,0:0:0:0:
256,192,211721,1,0,0:0:0:0:
256,192,212073,1,4,0:0:0:0:
256,192,212426,1,8,0:0:0:0:
256,192,213132,1,8,0:0:0:0:
256,192,213485,1,4,0:0:0:0:
256,192,214544,1,8,0:0:0:0:
256,192,214897,1,4,0:0:0:0:
256,192,215250,1,8,0:0:0:0:
256,192,215957,1,0,0:0:0:0:
256,192,216309,1,4,0:0:0:0:
256,192,216662,1,8,0:0:0:0:
256,192,217368,1,8,0:0:0:0:
256,192,217720,1,4,0:0:0:0:
256,192,218779,1,8,0:0:0:0:
256,192,220191,5,8,0:0:0:0:
256,192,220544,1,4,0:0:0:0:
256,192,220897,1,8,0:0:0:0:
256,192,221956,1,0,0:0:0:0:
256,192,223015,1,8,0:0:0:0:
256,192,223368,1,4,0:0:0:0:
256,192,224427,1,8,0:0:0:0:
256,192,224780,1,0,0:0:0:0:
256,192,225133,1,8,0:0:0:0:
256,192,226191,1,4,0:0:0:0:
256,192,226544,1,8,0:0:0:0:
256,192,227603,1,0,0:0:0:0:
256,192,228309,1,0,0:0:0:0:
256,192,228662,1,8,0:0:0:0:
256,192,229015,1,4,0:0:0:0:
256,192,230074,1,8,0:0:0:0:
256,192,230691,5,4,0:0:0:0:
256,192,231221,1,4,0:0:0:0:
256,192,231839,1,4,0:0:0:0:
256,192,232192,1,8,0:0:0:0:
256,192,233251,1,0,0:0:0:0:
256,192,234310,1,8,0:0:0:0:
256,192,234663,1,4,0:0:0:0:
256,192,235722,1,8,0:0:0:0:
256,192,236075,1,0,0:0:0:0:
256,192,236428,1,8,0:0:0:0:
256,192,237486,1,4,0:0:0:0:
256,192,237839,1,8,0:0:0:0:
256,192,238898,1,0,0:0:0:0:
256,192,239604,1,0,0:0:0:0:
256,192,239957,1,8,0:0:0:0:
256,192,240310,1,4,0:0:0:0:
256,192,241369,1,8,0:0:0:0:
256,192,241986,5,4,0:0:0:0:
256,192,242516,1,4,0:0:0:0:
256,192,243134,1,4,0:0:0:0:
