osu file format v14

[General]
AudioFilename: audio.mp3
AudioLeadIn: 0
PreviewTime: 44774
Countdown: 1
SampleSet: Normal
StackLeniency: 0.7
Mode: 1
LetterboxInBreaks: 0
WidescreenStoryboard: 0

[Editor]
Bookmarks: 152774
DistanceSpacing: 0.9
BeatDivisor: 16
GridSize: 32
TimelineZoom: 1.9

[Metadata]
Title:sha
TitleUnicode:sha
Artist:sakuraburst
ArtistUnicode:sakuraburst
Creator:salchow
Version:hush
Source:osu!
Tags:instrumental experimental featured artist fa mappers' guild mg anticrystal ep drum bass orchestral glitch noise electronic edm idm
BeatmapID:2211089
BeatmapSetID:1057855

[Difficulty]
HPDrainRate:5
CircleSize:2
OverallDifficulty:7
ApproachRate:10
SliderMultiplier:1.4
SliderTickRate:1

[Events]
//Background and Video events
0,0,"black-and-white-black-and-white-feather-401413 (1).jpg",0,0
//Break Periods
2,510,5507
2,6157,10095
2,11804,16801
2,17451,21036
2,113451,118448
2,119098,129742
//Storyboard Layer 0 (Background)
//Storyboard Layer 1 (Fail)
//Storyboard Layer 2 (Pass)
//Storyboard Layer 3 (Foreground)
//Storyboard Layer 4 (Overlay)
//Storyboard Sound Samples

[TimingPoints]
310,352.941176470588,4,1,1,70,1,0
17604,-100,4,1,1,5,0,0
22280,-100,4,1,1,70,0,0
24642,-100,4,1,1,70,0,0
24819,-95.2380952380952,4,1,1,70,0,0
24907,-100,4,1,1,70,0,0
25084,-95.2380952380952,4,1,1,70,0,0
25172,-100,4,1,1,70,0,0
27378,-105.263157894737,4,1,1,70,0,0
27466,-100,4,1,1,70,0,0
27642,-105.263157894737,4,1,1,70,0,0
27731,-100,4,1,1,70,0,0
27907,-105.263157894737,4,1,1,70,0,0
27995,-100,4,1,1,70,0,0
30201,-95.2380952380952,4,1,1,70,0,0
30289,-100,4,1,1,70,0,0
30466,-95.2380952380952,4,1,1,70,0,0
30554,-100,4,1,1,70,0,0
30731,-95.2380952380952,4,1,1,70,0,0
30819,-100,4,1,1,70,0,0
33025,-105.263157894737,4,1,1,70,0,0
33113,-100,4,1,1,70,0,0
33289,-105.263157894737,4,1,1,70,0,0
33378,-100,4,1,1,70,0,0
33554,-105.263157894737,4,1,1,70,0,0
33642,-100,4,1,1,70,0,0
34172,-66.6666666666667,4,1,1,70,0,0
34437,-76.9230769230769,4,1,1,70,0,0
35848,-78.7401574803149,4,1,1,70,0,0
35937,-76.9230769230769,4,1,1,70,0,0
36113,-78.7401574803149,4,1,1,70,0,0
36201,-76.9230769230769,4,1,1,70,0,0
36378,-78.7401574803149,4,1,1,70,0,0
36466,-76.9230769230769,4,1,1,70,0,0
36642,-78.7401574803149,4,1,1,70,0,0
36819,-76.9230769230769,4,1,1,70,0,0
36995,-78.7401574803149,4,1,1,70,0,0
38672,-78.7401574803149,4,1,1,70,0,0
38760,-76.9230769230769,4,1,1,70,0,0
38937,-78.7401574803149,4,1,1,70,0,0
39025,-76.9230769230769,4,1,1,70,0,0
39201,-78.7401574803149,4,1,1,70,0,0
39289,-76.9230769230769,4,1,1,70,0,0
39466,-78.7401574803149,4,1,1,70,0,0
39642,-76.9230769230769,4,1,1,70,0,0
39819,-66.6666666666667,4,1,1,70,0,0
39995,-76.9230769230769,4,1,1,70,0,0
40525,-74.0740740740741,4,1,1,70,0,0
40613,-76.9230769230769,4,1,1,70,0,0
40878,-74.0740740740741,4,1,1,70,0,0
40966,-76.9230769230769,4,1,1,70,0,0
41231,-74.0740740740741,4,1,1,70,0,0
41319,-76.9230769230769,4,1,1,70,0,0
41515,-74.0740740740741,4,1,1,70,0,0
41603,-76.9230769230769,4,1,1,70,0,0
41780,-74.0740740740741,4,1,1,70,0,0
41868,-76.9230769230769,4,1,1,70,0,0
42045,-74.0740740740741,4,1,1,70,0,0
42133,-76.9230769230769,4,1,1,70,0,0
42309,-74.0740740740741,4,1,1,70,0,0
42397,-76.9230769230769,4,1,1,70,0,0
42642,-74.6268656716418,4,1,1,70,0,0
42731,-78.1250000000002,4,1,1,70,0,0
42819,-78.7401574803151,4,1,1,70,0,0
42907,-79.3650793650796,4,1,1,70,0,0
42995,-76.3358778625954,4,1,1,70,0,0
43084,-80.6451612903224,4,1,1,70,0,0
43172,-81.30081300813,4,1,1,70,0,0
43260,-81.9672131147541,4,1,1,70,0,0
43348,-79.3650793650794,4,1,1,70,0,0
43437,-83.3333333333333,4,1,1,70,0,0
43525,-84.0336134453781,4,1,1,70,0,0
43613,-84.7457627118644,4,1,1,70,0,0
43701,-81.9672131147541,4,1,1,70,0,0
43789,-86.2068965517241,4,1,1,70,0,0
43878,-86.9565217391302,4,1,1,70,0,0
43966,-87.719298245614,4,1,1,70,0,0
44054,-84.7457627118644,4,1,1,70,0,0
44760,-100,4,1,1,70,0,0
44937,-103.092783505155,4,1,1,70,0,0
45025,-106.382978723404,4,1,1,70,0,0
45113,-109.89010989011,4,1,1,70,0,0
45201,-113.636363636364,4,1,1,70,0,0
45289,-117.647058823529,4,1,1,70,0,0
45378,-121.951219512195,4,1,1,70,0,0
45486,-66.6666666666667,4,1,1,90,0,1
45731,-142.857142857143,4,1,1,90,0,1
46878,-125,4,1,1,90,0,1
46966,-142.857142857143,4,1,1,90,0,1
48289,-125,4,1,1,90,0,1
48378,-142.857142857143,4,1,1,90,0,1
49701,-125,4,1,1,90,0,1
49789,-142.857142857143,4,1,1,90,0,1
51113,-66.6666666666667,4,1,1,90,0,1
51201,-142.857142857143,4,1,1,90,0,1
52525,-125,4,1,1,90,0,1
52613,-142.857142857143,4,1,1,90,0,1
53937,-125,4,1,1,90,0,1
54025,-142.857142857143,4,1,1,90,0,1
55348,-125,4,1,1,90,0,1
55437,-142.857142857143,4,1,1,90,0,1
56427,-100,4,1,1,90,0,0
56780,-66.6666666666667,4,1,1,90,0,1
57025,-142.857142857143,4,1,1,90,0,1
58172,-125,4,1,1,90,0,1
58348,-142.857142857143,4,1,1,90,0,1
59584,-125,4,1,1,90,0,1
59760,-142.857142857143,4,1,1,90,0,1
60995,-125,4,1,1,90,0,1
61172,-142.857142857143,4,1,1,90,0,1
62407,-66.6666666666667,4,1,1,90,0,1
62584,-142.857142857143,4,1,1,90,0,1
63819,-125,4,1,1,90,0,1
63995,-142.857142857143,4,1,1,90,0,1
65231,-125,4,1,1,90,0,1
65407,-142.857142857143,4,1,1,90,0,1
66662,-142.857142857143,4,1,1,70,0,0
66907,-111.111111111111,4,1,1,70,0,0
67172,-90.9090909090909,4,1,1,70,0,0
67437,-76.9230769230769,4,1,1,70,0,0
68339,-90.9090909090909,4,1,1,70,0,0
68495,-100,4,1,1,70,0,0
72554,-66.6666666666667,4,1,1,70,0,0
72819,-71.4285714285714,4,1,1,70,0,0
73084,-66.6666666666667,4,1,1,70,0,0
73348,-100,4,1,1,70,0,0
78201,-71.4285714285714,4,1,1,70,0,0
78466,-66.6666666666667,4,1,1,70,0,0
78731,-71.4285714285714,4,1,1,70,0,0
78995,-111.111111111111,4,1,1,70,0,0
79172,-125,4,1,1,70,0,0
79368,-142.857142857143,4,1,1,90,0,1
80760,-125,4,1,1,90,0,1
80848,-142.857142857143,4,1,1,90,0,1
82172,-125,4,1,1,90,0,1
82348,-142.857142857143,4,1,1,90,0,1
83584,-125,4,1,1,90,0,1
83760,-142.857142857143,4,1,1,90,0,1
84995,-125,4,1,1,90,0,1
85170,-142.857142857143,4,1,1,90,0,1
86407,-125,4,1,1,90,0,1
86495,-142.857142857143,4,1,1,90,0,1
87819,-125,4,1,1,90,0,1
87907,-142.857142857143,4,1,1,90,0,1
89251,-142.857142857143,4,1,1,70,0,0
89305,-100,4,1,1,70,0,0
90275,-166.666666666667,4,1,1,70,0,0
90628,-50,4,1,1,70,0,0
90717,-100,4,1,1,70,0,0
100775,-117.647058823529,4,1,1,70,0,0
101658,-120.481927710843,4,1,1,70,0,0
101746,-123.456790123457,4,1,1,70,0,0
101834,-126.582278481013,4,1,1,70,0,0
101923,-50,4,1,1,70,0,0
102275,-100,4,1,1,70,0,0
112070,-117.647058823529,4,1,1,70,0,0
112864,-58.8235294117647,4,1,1,70,0,0
113217,-133.333333333333,4,1,1,70,0,0
130172,-133.333333333333,4,1,1,50,0,0
141275,-117.647058823529,4,1,1,70,0,0
141628,-86.9565217391303,4,1,1,70,0,0
142898,-74.0740740740741,4,1,1,70,0,0
143074,-80,4,1,1,70,0,0
144309,-86.9565217391304,4,1,1,70,0,0
144486,-95.2380952380952,4,1,1,70,0,0
145721,-105.263157894737,4,1,1,70,0,0
145898,-117.647058823529,4,1,1,70,0,0
147133,-86.9565217391304,4,1,1,70,0,0
147309,-95.2380952380952,4,1,1,70,0,0
148545,-80,4,1,1,70,0,0
148721,-86.9565217391304,4,1,1,70,0,0
149957,-95.2380952380952,4,1,1,70,0,0
150133,-105.263157894737,4,1,1,70,0,0
151368,-117.647058823529,4,1,1,70,0,0
151545,-133.333333333333,4,1,1,70,0,0
152217,-74.0740740740741,4,1,1,70,0,0
152746,-100,4,1,1,70,0,0
154423,-95.2380952380952,4,1,1,70,0,0
154511,-100,4,1,1,70,0,0
154688,-95.2380952380952,4,1,1,70,0,0
154776,-100,4,1,1,70,0,0
154953,-95.2380952380952,4,1,1,70,0,0
155041,-100,4,1,1,70,0,0
157247,-105.263157894737,4,1,1,70,0,0
157335,-100,4,1,1,70,0,0
157511,-105.263157894737,4,1,1,70,0,0
157600,-100,4,1,1,70,0,0
157776,-105.263157894737,4,1,1,70,0,0
157864,-100,4,1,1,70,0,0
160070,-95.2380952380952,4,1,1,70,0,0
160158,-100,4,1,1,70,0,0
160335,-95.2380952380952,4,1,1,70,0,0
160423,-100,4,1,1,70,0,0
160600,-95.2380952380952,4,1,1,70,0,0
160688,-100,4,1,1,70,0,0
162894,-105.263157894737,4,1,1,70,0,0
162982,-100,4,1,1,70,0,0
163158,-105.263157894737,4,1,1,70,0,0
163247,-100,4,1,1,70,0,0
163423,-105.263157894737,4,1,1,70,0,0
163511,-100,4,1,1,70,0,0
164040,-66.6666666666667,4,1,1,70,0,0
164305,-76.9230769230769,4,1,1,70,0,0
165717,-78.7401574803149,4,1,1,70,0,0
165806,-76.9230769230769,4,1,1,70,0,0
165982,-78.7401574803149,4,1,1,70,0,0
166070,-76.9230769230769,4,1,1,70,0,0
166247,-78.7401574803149,4,1,1,70,0,0
166335,-76.9230769230769,4,1,1,70,0,0
166511,-78.7401574803149,4,1,1,70,0,0
166688,-76.9230769230769,4,1,1,70,0,0
166864,-78.7401574803149,4,1,1,70,0,0
168541,-78.7401574803149,4,1,1,70,0,0
168629,-76.9230769230769,4,1,1,70,0,0
168806,-78.7401574803149,4,1,1,70,0,0
168894,-76.9230769230769,4,1,1,70,0,0
169070,-78.7401574803149,4,1,1,70,0,0
169158,-76.9230769230769,4,1,1,70,0,0
169335,-78.7401574803149,4,1,1,70,0,0
169511,-76.9230769230769,4,1,1,70,0,0
169688,-66.6666666666667,4,1,1,70,0,0
169864,-76.9230769230769,4,1,1,70,0,0
170394,-74.0740740740741,4,1,1,70,0,0
170482,-76.9230769230769,4,1,1,70,0,0
170747,-74.0740740740741,4,1,1,70,0,0
170835,-76.9230769230769,4,1,1,70,0,0
171100,-74.0740740740741,4,1,1,70,0,0
171188,-76.9230769230769,4,1,1,70,0,0
171398,-74.0740740740741,4,1,1,70,0,0
171486,-76.9230769230769,4,1,1,70,0,0
171662,-74.0740740740741,4,1,1,70,0,0
171751,-76.9230769230769,4,1,1,70,0,0
171927,-74.0740740740741,4,1,1,70,0,0
172015,-76.9230769230769,4,1,1,70,0,0
172192,-74.0740740740741,4,1,1,70,0,0
172280,-76.9230769230769,4,1,1,70,0,0
172511,-74.6268656716418,4,1,1,70,0,0
172864,-72.463768115942,4,1,1,70,0,0
173217,-70.4225352112676,4,1,1,70,0,0
173570,-68.4931506849315,4,1,1,70,0,0
173923,-66.6666666666667,4,1,1,70,0,0
174628,-100,4,1,1,70,0,0
174805,-103.092783505155,4,1,1,70,0,0
174893,-106.382978723404,4,1,1,70,0,0
174981,-109.89010989011,4,1,1,70,0,0
175070,-113.636363636364,4,1,1,70,0,0
175158,-117.647058823529,4,1,1,70,0,0
175246,-121.951219512195,4,1,1,70,0,0
175368,-66.6666666666667,4,1,1,90,0,1
175611,-142.857142857143,4,1,1,90,0,1
176758,-125,4,1,1,90,0,1
176846,-142.857142857143,4,1,1,90,0,1
178169,-125,4,1,1,90,0,1
178258,-142.857142857143,4,1,1,90,0,1
179581,-125,4,1,1,90,0,1
179669,-142.857142857143,4,1,1,90,0,1
180993,-66.6666666666667,4,1,1,90,0,1
181081,-142.857142857143,4,1,1,90,0,1
182405,-125,4,1,1,90,0,1
182493,-142.857142857143,4,1,1,90,0,1
183817,-125,4,1,1,90,0,1
183905,-142.857142857143,4,1,1,90,0,1
185228,-125,4,1,1,90,0,1
185317,-142.857142857143,4,1,1,90,0,1
186309,-100,4,1,1,70,0,0
186662,-66.6666666666667,4,1,1,90,0,1
186905,-142.857142857143,4,1,1,90,0,1
188052,-125,4,1,1,90,0,1
188228,-142.857142857143,4,1,1,90,0,1
189464,-125,4,1,1,90,0,1
189640,-142.857142857143,4,1,1,90,0,1
190875,-125,4,1,1,90,0,1
191052,-142.857142857143,4,1,1,90,0,1
192287,-66.6666666666667,4,1,1,90,0,1
192464,-142.857142857143,4,1,1,90,0,1
193699,-125,4,1,1,90,0,1
193875,-142.857142857143,4,1,1,90,0,1
195133,-125,4,1,1,90,0,1
195287,-142.857142857143,4,1,1,90,0,1
196545,-142.857142857143,4,1,1,70,0,0
196787,-111.111111111111,4,1,1,70,0,0
197052,-90.9090909090909,4,1,1,70,0,0
197317,-76.9230769230769,4,1,1,70,0,0
198199,-90.9090909090909,4,1,1,70,0,0
198375,-100,4,1,1,70,0,0
202434,-66.6666666666667,4,1,1,70,0,0
202699,-71.4285714285714,4,1,1,70,0,0
202964,-66.6666666666667,4,1,1,70,0,0
203228,-100,4,1,1,70,0,0
208081,-71.4285714285714,4,1,1,70,0,0
208346,-66.6666666666667,4,1,1,70,0,0
208611,-71.4285714285714,4,1,1,70,0,0
208875,-111.111111111111,4,1,1,70,0,0
209052,-125,4,1,1,70,0,0
209251,-142.857142857143,4,1,1,90,0,1
210640,-125,4,1,1,90,0,1
210728,-142.857142857143,4,1,1,90,0,1
212052,-125,4,1,1,90,0,1
212228,-142.857142857143,4,1,1,90,0,1
213464,-125,4,1,1,90,0,1
213640,-142.857142857143,4,1,1,90,0,1
214875,-125,4,1,1,90,0,1
215050,-142.857142857143,4,1,1,90,0,1
216287,-125,4,1,1,90,0,1
216375,-142.857142857143,4,1,1,90,0,1
217699,-125,4,1,1,90,0,1
217787,-142.857142857143,4,1,1,90,0,1
219133,-142.857142857143,4,1,1,70,0,0
219199,-100,4,1,1,70,0,0
220169,-166.666666666667,4,1,1,70,0,0
220522,-50,4,1,1,70,0,0
220611,-100,4,1,1,70,0,0
230669,-117.647058823529,4,1,1,70,0,0
231552,-120.481927710843,4,1,1,70,0,0
231640,-123.456790123457,4,1,1,70,0,0
231728,-126.582278481013,4,1,1,70,0,0
231817,-50,4,1,1,70,0,0
232169,-100,4,1,1,70,0,0
241964,-117.647058823529,4,1,1,70,0,0
242758,-58.8235294117647,4,1,1,70,0,0
243111,-133.333333333333,4,1,1,70,0,24568

[HitObjects]
256,192,310,5,4,0:0:0:0:
256,192,5957,5,0,0:0:0:0:
256,192,10545,12,0,11427,0:0:0:0:
256,192,11604,5,4,0:0:0:0:
256,192,17251,5,0,0:0:0:0:
256,192,21486,12,8,22192,0:0:0:0:
256,192,22368,5,8,0:0:0:0:
256,192,22427,1,8,0:0:0:0:
256,192,22486,1,8,0:0:0:0:
256,192,22545,1,0,0:0:0:0:
256,192,22898,1,4,0:0:0:0:
256,192,23074,1,0,0:0:0:0:
256,192,23162,1,0,0:0:0:0:
256,192,23251,1,8,0:0:0:0:
256,192,23427,1,8,0:0:0:0:
256,192,23515,1,8,0:0:0:0:
256,192,23604,1,8,0:0:0:0:
256,192,23780,1,8,0:0:0:0:
256,192,23868,1,0,0:0:0:0:
256,192,23957,1,8,0:0:0:0:
256,192,24133,1,0,0:0:0:0:
256,192,24221,1,0,0:0:0:0:
256,192,24309,1,8,0:0:0:0:
256,192,24574,1,8,0:0:0:0:
256,192,24662,1,0,0:0:0:0:
256,192,24839,1,8,0:0:0:0:
256,192,24927,1,0,0:0:0:0:
256,192,25104,1,8,0:0:0:0:
256,192,25192,1,0,0:0:0:0:
256,192,25368,1,8,0:0:0:0:
256,192,25427,1,8,0:0:0:0:
256,192,25486,1,8,0:0:0:0:
256,192,25545,1,0,0:0:0:0:
256,192,25633,1,0,0:0:0:0:
256,192,25721,1,8,0:0:0:0:
256,192,25986,1,0,0:0:0:0:
256,192,26074,1,8,0:0:0:0:
256,192,26251,1,8,0:0:0:0:
256,192,26339,1,8,0:0:0:0:
256,192,26427,1,8,0:0:0:0:
256,192,26604,1,0,0:0:0:0:
256,192,26692,1,8,0:0:0:0:
256,192,26780,1,8,0:0:0:0:
256,192,26957,1,0,0:0:0:0:
256,192,27045,1,8,0:0:0:0:
256,192,27133,1,0,0:0:0:0:
256,192,27398,1,8,0:0:0:0:
256,192,27486,1,0,0:0:0:0:
256,192,27662,1,8,0:0:0:0:
256,192,27751,1,0,0:0:0:0:
256,192,27927,1,8,0:0:0:0:
256,192,28015,1,0,0:0:0:0:
256,192,28192,1,8,0:0:0:0:
256,192,28251,1,8,0:0:0:0:
256,192,28309,1,8,0:0:0:0:
256,192,28368,1,0,0:0:0:0:
256,192,28457,1,0,0:0:0:0:
256,192,28545,1,8,0:0:0:0:
256,192,28898,1,8,0:0:0:0:
256,192,29074,1,0,0:0:0:0:
256,192,29162,1,0,0:0:0:0:
256,192,29251,1,8,0:0:0:0:
256,192,29427,1,0,0:0:0:0:
256,192,29515,1,0,0:0:0:0:
256,192,29604,1,8,0:0:0:0:
256,192,29780,1,0,0:0:0:0:
256,192,29868,1,8,0:0:0:0:
256,192,29957,1,0,0:0:0:0:
256,192,30221,1,8,0:0:0:0:
256,192,30309,1,0,0:0:0:0:
256,192,30486,1,8,0:0:0:0:
256,192,30574,1,0,0:0:0:0:
256,192,30751,1,8,0:0:0:0:
256,192,30839,1,0,0:0:0:0:
256,192,31015,1,8,0:0:0:0:
256,192,31074,1,8,0:0:0:0:
256,192,31133,1,8,0:0:0:0:
256,192,31192,1,0,0:0:0:0:
256,192,31280,1,0,0:0:0:0:
256,192,31368,1,8,0:0:0:0:
256,192,31633,1,0,0:0:0:0:
256,192,31721,1,8,0:0:0:0:
256,192,31898,1,8,0:0:0:0:
256,192,31986,1,0,0:0:0:0:
256,192,32074,1,8,0:0:0:0:
256,192,32251,1,8,0:0:0:0:
256,192,32339,1,8,0:0:0:0:
256,192,32427,1,8,0:0:0:0:
256,192,32604,1,8,0:0:0:0:
256,192,32692,1,8,0:0:0:0:
256,192,32780,1,0,0:0:0:0:
256,192,33045,1,8,0:0:0:0:
256,192,33133,1,0,0:0:0:0:
256,192,33309,1,8,0:0:0:0:
256,192,33398,1,0,0:0:0:0:
256,192,33574,1,8,0:0:0:0:
256,192,33662,1,0,0:0:0:0:
256,192,33839,1,8,0:0:0:0:
256,192,33898,1,8,0:0:0:0:
256,192,33957,1,8,0:0:0:0:
256,192,34015,1,0,0:0:0:0:
256,192,34104,1,0,0:0:0:0:
256,192,34192,1,8,0:0:0:0:
256,192,34457,1,0,0:0:0:0:
256,192,34545,1,8,0:0:0:0:
256,192,34721,1,8,0:0:0:0:
256,192,34809,1,0,0:0:0:0:
256,192,34898,1,8,0:0:0:0:
256,192,35162,1,8,0:0:0:0:
256,192,35251,1,0,0:0:0:0:
256,192,35427,1,0,0:0:0:0:
256,192,35515,1,8,0:0:0:0:
256,192,35604,1,0,0:0:0:0:
256,192,35868,1,8,0:0:0:0:
256,192,35957,1,0,0:0:0:0:
256,192,36045,1,0,0:0:0:0:
256,192,36133,1,8,0:0:0:0:
256,192,36221,1,0,0:0:0:0:
256,192,36309,1,0,0:0:0:0:
256,192,36397,1,8,0:0:0:0:
256,192,36486,1,0,0:0:0:0:
256,192,36574,1,0,0:0:0:0:
256,192,36662,1,8,0:0:0:0:
256,192,36721,1,8,0:0:0:0:
256,192,36780,1,8,0:0:0:0:
256,192,36839,1,0,0:0:0:0:
256,192,36927,1,0,0:0:0:0:
256,192,37015,1,8,0:0:0:0:
256,192,37280,1,0,0:0:0:0:
256,192,37368,1,8,0:0:0:0:
256,192,37545,1,0,0:0:0:0:
256,192,37633,1,8,0:0:0:0:
256,192,37722,1,8,0:0:0:0:
256,192,37986,1,8,0:0:0:0:
256,192,38075,1,0,0:0:0:0:
256,192,38251,1,8,0:0:0:0:
256,192,38339,1,8,0:0:0:0:
256,192,38428,1,0,0:0:0:0:
256,192,38692,1,8,0:0:0:0:
256,192,38781,1,0,0:0:0:0:
256,192,38869,1,0,0:0:0:0:
256,192,38957,1,8,0:0:0:0:
256,192,39045,1,0,0:0:0:0:
256,192,39133,1,0,0:0:0:0:
256,192,39221,1,8,0:0:0:0:
256,192,39310,1,0,0:0:0:0:
256,192,39398,1,0,0:0:0:0:
256,192,39486,1,8,0:0:0:0:
256,192,39545,1,8,0:0:0:0:
256,192,39604,1,8,0:0:0:0:
256,192,39663,1,0,0:0:0:0:
256,192,39751,1,0,0:0:0:0:
256,192,39839,1,8,0:0:0:0:
256,192,40015,1,8,0:0:0:0:
256,192,40192,1,8,0:0:0:0:
256,192,40368,1,8,0:0:0:0:
256,192,40457,1,8,0:0:0:0:
256,192,40545,1,0,0:0:0:0:
256,192,40721,1,8,0:0:0:0:
256,192,40809,1,8,0:0:0:0:
256,192,40898,1,0,0:0:0:0:
256,192,41074,1,8,0:0:0:0:
256,192,41162,1,8,0:0:0:0:
256,192,41251,1,0,0:0:0:0:
256,192,41515,1,8,0:0:0:0:
256,192,41604,1,0,0:0:0:0:
256,192,41692,1,0,0:0:0:0:
256,192,41780,1,8,0:0:0:0:
256,192,41868,1,0,0:0:0:0:
256,192,41957,1,0,0:0:0:0:
256,192,42045,1,8,0:0:0:0:
256,192,42133,1,0,0:0:0:0:
256,192,42221,1,0,0:0:0:0:
256,192,42309,1,8,0:0:0:0:
256,192,42398,1,0,0:0:0:0:
256,192,42486,1,0,0:0:0:0:
256,192,42574,1,0,0:0:0:0:
256,192,42662,1,8,0:0:0:0:
256,192,42751,1,8,0:0:0:0:
256,192,42839,1,8,0:0:0:0:
256,192,42927,1,8,0:0:0:0:
256,192,43016,1,0,0:0:0:0:
256,192,43104,1,0,0:0:0:0:
256,192,43192,1,0,0:0:0:0:
256,192,43281,1,0,0:0:0:0:
256,192,43369,1,8,0:0:0:0:
256,192,43457,1,8,0:0:0:0:
256,192,43545,1,8,0:0:0:0:
256,192,43633,1,8,0:0:0:0:
256,192,43721,1,0,0:0:0:0:
256,192,43809,1,0,0:0:0:0:
256,192,43898,1,0,0:0:0:0:
256,192,43987,1,0,0:0:0:0:
256,192,44075,1,8,0:0:0:0:
256,192,44781,1,8,0:0:0:0:
256,192,44958,1,8,0:0:0:0:
256,192,45046,1,8,0:0:0:0:
256,192,45134,1,0,0:0:0:0:
256,192,45222,1,0,0:0:0:0:
256,192,45310,1,0,0:0:0:0:
256,192,45399,1,8,0:0:0:0:
256,192,45487,1,4,0:0:0:0:
256,192,45751,1,0,0:0:0:0:
256,192,45839,1,8,0:0:0:0:
256,192,46015,1,0,0:0:0:0:
256,192,46192,1,8,0:0:0:0:
256,192,46280,1,0,0:0:0:0:
256,192,46368,1,0,0:0:0:0:
256,192,46457,1,0,0:0:0:0:
256,192,46545,1,8,0:0:0:0:
256,192,46721,1,8,0:0:0:0:
256,192,46780,1,8,0:0:0:0:
256,192,46839,1,8,0:0:0:0:
256,192,46899,1,4,0:0:0:0:
256,192,47074,1,8,0:0:0:0:
256,192,47162,1,0,0:0:0:0:
256,192,47251,1,8,0:0:0:0:
256,192,47427,1,0,0:0:0:0:
256,192,47604,1,8,0:0:0:0:
256,192,47692,1,0,0:0:0:0:
256,192,47868,1,0,0:0:0:0:
256,192,47957,1,8,0:0:0:0:
256,192,48015,1,8,0:0:0:0:
256,192,48074,1,0,0:0:0:0:
256,192,48133,1,0,0:0:0:0:
256,192,48192,1,8,0:0:0:0:
256,192,48251,1,8,0:0:0:0:
256,192,48310,1,4,0:0:0:0:
256,192,48574,1,0,0:0:0:0:
256,192,48662,1,8,0:0:0:0:
256,192,48839,1,8,0:0:0:0:
256,192,48927,1,0,0:0:0:0:
256,192,49015,1,8,0:0:0:0:
256,192,49104,1,8,0:0:0:0:
256,192,49192,1,0,0:0:0:0:
256,192,49368,1,8,0:0:0:0:
256,192,49545,1,0,0:0:0:0:
256,192,49604,1,8,0:0:0:0:
256,192,49662,1,8,0:0:0:0:
256,192,49721,1,4,0:0:0:0:
256,192,49986,1,0,0:0:0:0:
256,192,50074,1,8,0:0:0:0:
256,192,50251,1,8,0:0:0:0:
256,192,50339,1,0,0:0:0:0:
256,192,50427,1,0,0:0:0:0:
256,192,50516,1,8,0:0:0:0:
256,192,50604,1,0,0:0:0:0:
256,192,50692,1,0,0:0:0:0:
256,192,50780,1,8,0:0:0:0:
256,192,50957,1,8,0:0:0:0:
256,192,51001,1,0,0:0:0:0:
256,192,51133,1,4,0:0:0:0:
256,192,51398,1,0,0:0:0:0:
256,192,51486,1,8,0:0:0:0:
256,192,51662,1,0,0:0:0:0:
256,192,51839,1,8,0:0:0:0:
256,192,51927,1,0,0:0:0:0:
256,192,52015,1,0,0:0:0:0:
256,192,52104,1,0,0:0:0:0:
256,192,52192,1,8,0:0:0:0:
256,192,52368,1,8,0:0:0:0:
256,192,52427,1,8,0:0:0:0:
256,192,52486,1,8,0:0:0:0:
256,192,52545,1,4,0:0:0:0:
256,192,52721,1,8,0:0:0:0:
256,192,52809,1,0,0:0:0:0:
256,192,52898,1,8,0:0:0:0:
256,192,53074,1,0,0:0:0:0:
256,192,53251,1,8,0:0:0:0:
256,192,53339,1,0,0:0:0:0:
256,192,53515,1,0,0:0:0:0:
256,192,53604,1,8,0:0:0:0:
256,192,53662,1,8,0:0:0:0:
256,192,53721,1,0,0:0:0:0:
256,192,53780,1,0,0:0:0:0:
256,192,53839,1,8,0:0:0:0:
256,192,53898,1,8,0:0:0:0:
256,192,53957,1,4,0:0:0:0:
256,192,54221,1,0,0:0:0:0:
256,192,54309,1,8,0:0:0:0:
256,192,54486,1,8,0:0:0:0:
256,192,54574,1,0,0:0:0:0:
256,192,54662,1,8,0:0:0:0:
256,192,54751,1,8,0:0:0:0:
256,192,54839,1,0,0:0:0:0:
256,192,55015,1,8,0:0:0:0:
256,192,55192,1,0,0:0:0:0:
256,192,55251,1,8,0:0:0:0:
256,192,55309,1,8,0:0:0:0:
256,192,55368,1,4,0:0:0:0:
256,192,55633,1,0,0:0:0:0:
256,192,55721,1,8,0:0:0:0:
256,192,55898,1,8,0:0:0:0:
256,192,55986,1,0,0:0:0:0:
256,192,56074,1,0,0:0:0:0:
256,192,56163,1,8,0:0:0:0:
256,192,56251,1,0,0:0:0:0:
256,192,56339,1,0,0:0:0:0:
256,192,56428,1,8,0:0:0:0:
256,192,56471,1,8,0:0:0:0:
256,192,56781,1,4,0:0:0:0:
256,192,57045,1,0,0:0:0:0:
256,192,57133,1,8,0:0:0:0:
256,192,57309,1,0,0:0:0:0:
256,192,57486,1,8,0:0:0:0:
256,192,57574,1,0,0:0:0:0:
256,192,57662,1,0,0:0:0:0:
256,192,57751,1,0,0:0:0:0:
256,192,57839,1,8,0:0:0:0:
256,192,58015,1,8,0:0:0:0:
256,192,58074,1,8,0:0:0:0:
256,192,58133,1,8,0:0:0:0:
256,192,58192,1,4,0:0:0:0:
256,192,58368,1,8,0:0:0:0:
256,192,58456,1,0,0:0:0:0:
256,192,58545,1,8,0:0:0:0:
256,192,58721,1,0,0:0:0:0:
256,192,58898,1,8,0:0:0:0:
256,192,58986,1,0,0:0:0:0:
256,192,59162,1,0,0:0:0:0:
256,192,59251,1,8,0:0:0:0:
256,192,59309,1,8,0:0:0:0:
256,192,59368,1,0,0:0:0:0:
256,192,59427,1,0,0:0:0:0:
256,192,59486,1,8,0:0:0:0:
256,192,59545,1,8,0:0:0:0:
256,192,59604,1,4,0:0:0:0:
256,192,59868,1,0,0:0:0:0:
256,192,59956,1,8,0:0:0:0:
256,192,60133,1,8,0:0:0:0:
256,192,60221,1,0,0:0:0:0:
256,192,60309,1,8,0:0:0:0:
256,192,60398,1,8,0:0:0:0:
256,192,60486,1,0,0:0:0:0:
256,192,60662,1,8,0:0:0:0:
256,192,60839,1,0,0:0:0:0:
256,192,60898,1,8,0:0:0:0:
256,192,60956,1,8,0:0:0:0:
256,192,61015,1,4,0:0:0:0:
256,192,61280,1,0,0:0:0:0:
256,192,61368,1,8,0:0:0:0:
256,192,61545,1,8,0:0:0:0:
256,192,61633,1,0,0:0:0:0:
256,192,61721,1,0,0:0:0:0:
256,192,61810,1,8,0:0:0:0:
256,192,61898,1,0,0:0:0:0:
256,192,61986,1,0,0:0:0:0:
256,192,62074,1,8,0:0:0:0:
256,192,62251,1,8,0:0:0:0:
256,192,62295,1,0,0:0:0:0:
256,192,62427,1,4,0:0:0:0:
256,192,62692,1,0,0:0:0:0:
256,192,62780,1,8,0:0:0:0:
256,192,62956,1,0,0:0:0:0:
256,192,63133,1,8,0:0:0:0:
256,192,63221,1,0,0:0:0:0:
256,192,63309,1,0,0:0:0:0:
256,192,63398,1,0,0:0:0:0:
256,192,63486,1,8,0:0:0:0:
256,192,63662,1,8,0:0:0:0:
256,192,63721,1,8,0:0:0:0:
256,192,63780,1,8,0:0:0:0:
256,192,63839,1,4,0:0:0:0:
256,192,64015,1,8,0:0:0:0:
256,192,64103,1,0,0:0:0:0:
256,192,64192,1,8,0:0:0:0:
256,192,64368,1,0,0:0:0:0:
256,192,64545,1,8,0:0:0:0:
256,192,64633,1,0,0:0:0:0:
256,192,64809,1,0,0:0:0:0:
256,192,64898,1,8,0:0:0:0:
256,192,64956,1,8,0:0:0:0:
256,192,65015,1,0,0:0:0:0:
256,192,65074,1,0,0:0:0:0:
256,192,65133,1,8,0:0:0:0:
256,192,65192,1,8,0:0:0:0:
256,192,65251,1,4,0:0:0:0:
256,192,65515,1,0,0:0:0:0:
256,192,65603,1,8,0:0:0:0:
256,192,65780,1,8,0:0:0:0:
256,192,65868,1,0,0:0:0:0:
256,192,65956,1,8,0:0:0:0:
256,192,66045,1,8,0:0:0:0:
256,192,66133,1,0,0:0:0:0:
256,192,66309,1,8,0:0:0:0:
256,192,66486,1,0,0:0:0:0:
256,192,66545,1,8,0:0:0:0:
256,192,66603,1,8,0:0:0:0:
256,192,66663,1,0,0:0:0:0:
256,192,66927,1,0,0:0:0:0:
256,192,66971,1,0,0:0:0:0:
256,192,67192,1,0,0:0:0:0:
256,192,67236,1,0,0:0:0:0:
256,192,67457,1,0,0:0:0:0:
256,192,67501,1,0,0:0:0:0:
256,192,67721,1,8,0:0:0:0:
256,192,67809,1,0,0:0:0:0:
256,192,67898,1,8,0:0:0:0:
256,192,67986,1,0,0:0:0:0:
256,192,68074,1,8,0:0:0:0:
256,192,68118,1,8,0:0:0:0:
256,192,68339,1,0,0:0:0:0:
256,192,68427,1,8,0:0:0:0:
256,192,68692,1,8,0:0:0:0:
256,192,68736,1,8,0:0:0:0:
256,192,68780,1,0,0:0:0:0:
256,192,69045,1,0,0:0:0:0:
256,192,69089,1,8,0:0:0:0:
256,192,69133,1,0,0:0:0:0:
256,192,69398,1,8,0:0:0:0:
256,192,69442,1,8,0:0:0:0:
256,192,69486,1,0,0:0:0:0:
256,192,69751,1,0,0:0:0:0:
256,192,69839,1,8,0:0:0:0:
256,192,69883,1,8,0:0:0:0:
256,192,70015,1,8,0:0:0:0:
256,192,70104,1,0,0:0:0:0:
256,192,70280,1,8,0:0:0:0:
256,192,70368,1,0,0:0:0:0:
256,192,70545,1,8,0:0:0:0:
256,192,70721,1,0,0:0:0:0:
256,192,70780,1,0,0:0:0:0:
256,192,70839,1,0,0:0:0:0:
256,192,70898,1,8,0:0:0:0:
256,192,71251,1,8,0:0:0:0:
256,192,71515,1,8,0:0:0:0:
256,192,71559,1,8,0:0:0:0:
256,192,71604,1,0,0:0:0:0:
256,192,71868,1,0,0:0:0:0:
256,192,71912,1,0,0:0:0:0:
256,192,71957,1,8,0:0:0:0:
256,192,72133,1,0,0:0:0:0:
256,192,72192,1,8,0:0:0:0:
256,192,72251,1,8,0:0:0:0:
256,192,72309,1,0,0:0:0:0:
256,192,72574,1,12,0:0:0:0:
256,192,72839,1,12,0:0:0:0:
256,192,73104,1,12,0:0:0:0:
256,192,73368,1,8,0:0:0:0:
256,192,73457,1,0,0:0:0:0:
256,192,73545,1,8,0:0:0:0:
256,192,73604,1,8,0:0:0:0:
256,192,73662,1,0,0:0:0:0:
256,192,73721,1,8,0:0:0:0:
256,192,73986,1,0,0:0:0:0:
256,192,74074,1,8,0:0:0:0:
256,192,74339,1,8,0:0:0:0:
256,192,74383,1,8,0:0:0:0:
256,192,74427,1,0,0:0:0:0:
256,192,74692,1,0,0:0:0:0:
256,192,74736,1,8,0:0:0:0:
256,192,74780,1,0,0:0:0:0:
256,192,75045,1,8,0:0:0:0:
256,192,75089,1,8,0:0:0:0:
256,192,75133,1,0,0:0:0:0:
256,192,75398,1,0,0:0:0:0:
256,192,75486,1,8,0:0:0:0:
256,192,75530,1,8,0:0:0:0:
256,192,75662,1,8,0:0:0:0:
256,192,75751,1,0,0:0:0:0:
256,192,75927,1,8,0:0:0:0:
256,192,76015,1,0,0:0:0:0:
256,192,76192,1,8,0:0:0:0:
256,192,76368,1,0,0:0:0:0:
256,192,76427,1,0,0:0:0:0:
256,192,76486,1,0,0:0:0:0:
256,192,76545,1,8,0:0:0:0:
256,192,76898,1,8,0:0:0:0:
256,192,77162,1,8,0:0:0:0:
256,192,77206,1,8,0:0:0:0:
256,192,77251,1,0,0:0:0:0:
256,192,77515,1,0,0:0:0:0:
256,192,77559,1,0,0:0:0:0:
256,192,77604,1,8,0:0:0:0:
256,192,77780,5,0,0:0:0:0:
256,192,77839,1,8,0:0:0:0:
256,192,77898,1,8,0:0:0:0:
256,192,77956,1,0,0:0:0:0:
256,192,78221,1,12,0:0:0:0:
256,192,78486,1,12,0:0:0:0:
256,192,78751,1,12,0:0:0:0:
256,192,79016,1,8,0:0:0:0:
256,192,79193,1,8,0:0:0:0:
256,192,79236,1,0,0:0:0:0:
256,192,79369,1,4,0:0:0:0:
256,192,79633,1,0,0:0:0:0:
256,192,79721,1,8,0:0:0:0:
256,192,79897,1,0,0:0:0:0:
256,192,80074,1,8,0:0:0:0:
256,192,80162,1,0,0:0:0:0:
256,192,80250,1,0,0:0:0:0:
256,192,80339,1,0,0:0:0:0:
256,192,80427,1,8,0:0:0:0:
256,192,80603,1,8,0:0:0:0:
256,192,80662,1,8,0:0:0:0:
256,192,80721,1,8,0:0:0:0:
256,192,80781,1,4,0:0:0:0:
256,192,80956,1,8,0:0:0:0:
256,192,81044,1,0,0:0:0:0:
256,192,81133,1,8,0:0:0:0:
256,192,81309,1,0,0:0:0:0:
256,192,81486,1,8,0:0:0:0:
256,192,81574,1,0,0:0:0:0:
256,192,81750,1,0,0:0:0:0:
256,192,81839,1,8,0:0:0:0:
256,192,81897,1,8,0:0:0:0:
256,192,81956,1,0,0:0:0:0:
256,192,82015,1,0,0:0:0:0:
256,192,82074,1,8,0:0:0:0:
256,192,82133,1,8,0:0:0:0:
256,192,82193,1,4,0:0:0:0:
256,192,82456,1,0,0:0:0:0:
256,192,82544,1,8,0:0:0:0:
256,192,82721,1,8,0:0:0:0:
256,192,82809,1,0,0:0:0:0:
256,192,82897,1,8,0:0:0:0:
256,192,82986,1,8,0:0:0:0:
256,192,83074,1,0,0:0:0:0:
256,192,83250,1,8,0:0:0:0:
256,192,83427,1,0,0:0:0:0:
256,192,83486,1,8,0:0:0:0:
256,192,83544,1,8,0:0:0:0:
256,192,83605,1,4,0:0:0:0:
256,192,83868,1,0,0:0:0:0:
256,192,83956,1,8,0:0:0:0:
256,192,84133,1,8,0:0:0:0:
256,192,84221,1,0,0:0:0:0:
256,192,84309,1,0,0:0:0:0:
256,192,84398,1,8,0:0:0:0:
256,192,84486,1,0,0:0:0:0:
256,192,84574,1,0,0:0:0:0:
256,192,84662,1,8,0:0:0:0:
256,192,84839,1,8,0:0:0:0:
256,192,84883,1,0,0:0:0:0:
256,192,85016,1,4,0:0:0:0:
256,192,85280,1,0,0:0:0:0:
256,192,85368,1,8,0:0:0:0:
256,192,85544,1,0,0:0:0:0:
256,192,85721,1,8,0:0:0:0:
256,192,85809,1,0,0:0:0:0:
256,192,85897,1,0,0:0:0:0:
256,192,85986,1,0,0:0:0:0:
256,192,86074,1,8,0:0:0:0:
256,192,86250,1,8,0:0:0:0:
256,192,86309,1,8,0:0:0:0:
256,192,86368,1,8,0:0:0:0:
256,192,86428,1,4,0:0:0:0:
256,192,86603,1,8,0:0:0:0:
256,192,86691,1,0,0:0:0:0:
256,192,86780,1,8,0:0:0:0:
256,192,86956,1,0,0:0:0:0:
256,192,87133,1,8,0:0:0:0:
256,192,87221,1,0,0:0:0:0:
256,192,87397,1,0,0:0:0:0:
256,192,87486,1,8,0:0:0:0:
256,192,87544,1,8,0:0:0:0:
256,192,87603,1,0,0:0:0:0:
256,192,87662,1,0,0:0:0:0:
256,192,87721,1,8,0:0:0:0:
256,192,87780,1,8,0:0:0:0:
256,192,87840,1,4,0:0:0:0:
256,192,88103,1,0,0:0:0:0:
256,192,88191,1,8,0:0:0:0:
256,192,88368,1,8,0:0:0:0:
256,192,88456,1,0,0:0:0:0:
256,192,88544,1,8,0:0:0:0:
256,192,88633,1,8,0:0:0:0:
256,192,88721,1,0,0:0:0:0:
256,192,88897,1,8,0:0:0:0:
256,192,89074,1,0,0:0:0:0:
256,192,89133,1,8,0:0:0:0:
256,192,89191,1,8,0:0:0:0:
256,192,89252,1,0,0:0:0:0:
256,192,89515,1,4,0:0:0:0:
256,192,89692,1,8,0:0:0:0:
256,192,89780,1,4,0:0:0:0:
256,192,89957,1,8,0:0:0:0:
256,192,90045,1,4,0:0:0:0:
256,192,90309,1,8,0:0:0:0:
256,192,90354,1,8,0:0:0:0:
256,192,90398,1,8,0:0:0:0:
256,192,90663,1,4,0:0:0:0:
256,192,91015,1,8,0:0:0:0:
256,192,91368,1,0,0:0:0:0:
256,192,91633,1,0,0:0:0:0:
256,192,91721,1,8,0:0:0:0:
256,192,91898,1,8,0:0:0:0:
256,192,91957,1,8,0:0:0:0:
256,192,92015,1,8,0:0:0:0:
256,192,92074,1,0,0:0:0:0:
256,192,92427,1,8,0:0:0:0:
256,192,92780,1,8,0:0:0:0:
256,192,93045,1,0,0:0:0:0:
256,192,93133,1,8,0:0:0:0:
256,192,93486,1,4,0:0:0:0:
256,192,93839,1,8,0:0:0:0:
256,192,94104,1,8,0:0:0:0:
256,192,94192,1,0,0:0:0:0:
256,192,94457,1,0,0:0:0:0:
256,192,94545,1,8,0:0:0:0:
256,192,94721,1,8,0:0:0:0:
256,192,94780,1,8,0:0:0:0:
256,192,94839,1,8,0:0:0:0:
256,192,94898,1,0,0:0:0:0:
256,192,95251,1,8,0:0:0:0:
256,192,95604,1,8,0:0:0:0:
256,192,95868,1,0,0:0:0:0:
256,192,95957,1,8,0:0:0:0:
256,192,96133,1,8,0:0:0:0:
256,192,96177,1,0,0:0:0:0:
256,192,96309,1,4,0:0:0:0:
256,192,96662,1,8,0:0:0:0:
256,192,97015,1,0,0:0:0:0:
256,192,97280,1,0,0:0:0:0:
256,192,97368,1,8,0:0:0:0:
256,192,97545,1,8,0:0:0:0:
256,192,97604,1,8,0:0:0:0:
256,192,97662,1,8,0:0:0:0:
256,192,97721,1,0,0:0:0:0:
256,192,98074,1,8,0:0:0:0:
256,192,98427,1,8,0:0:0:0:
256,192,98692,1,0,0:0:0:0:
256,192,98780,1,8,0:0:0:0:
256,192,99133,1,4,0:0:0:0:
256,192,99486,1,8,0:0:0:0:
256,192,99751,1,8,0:0:0:0:
256,192,99839,1,0,0:0:0:0:
256,192,100104,1,0,0:0:0:0:
256,192,100192,1,8,0:0:0:0:
256,192,100368,1,8,0:0:0:0:
256,192,100427,1,8,0:0:0:0:
256,192,100486,1,8,0:0:0:0:
256,192,100545,1,0,0:0:0:0:
256,192,100809,1,12,0:0:0:0:
256,192,100986,1,0,0:0:0:0:
256,192,101074,1,12,0:0:0:0:
256,192,101251,1,0,0:0:0:0:
256,192,101339,1,12,0:0:0:0:
256,192,101604,1,8,0:0:0:0:
256,192,101692,1,8,0:0:0:0:
256,192,101780,1,8,0:0:0:0:
256,192,101868,1,8,0:0:0:0:
256,192,101957,1,4,0:0:0:0:
256,192,102310,1,8,0:0:0:0:
256,192,102663,1,0,0:0:0:0:
256,192,102928,1,0,0:0:0:0:
256,192,103016,1,8,0:0:0:0:
256,192,103193,1,8,0:0:0:0:
256,192,103252,1,8,0:0:0:0:
256,192,103310,1,8,0:0:0:0:
256,192,103369,1,0,0:0:0:0:
256,192,103722,1,8,0:0:0:0:
256,192,104075,1,8,0:0:0:0:
256,192,104340,1,0,0:0:0:0:
256,192,104428,1,8,0:0:0:0:
256,192,104781,1,4,0:0:0:0:
256,192,105134,1,8,0:0:0:0:
256,192,105399,1,8,0:0:0:0:
256,192,105487,1,0,0:0:0:0:
256,192,105752,1,0,0:0:0:0:
256,192,105840,1,8,0:0:0:0:
256,192,106016,1,8,0:0:0:0:
256,192,106075,1,8,0:0:0:0:
256,192,106134,1,8,0:0:0:0:
256,192,106193,1,0,0:0:0:0:
256,192,106546,1,8,0:0:0:0:
256,192,106899,1,8,0:0:0:0:
256,192,107163,1,0,0:0:0:0:
256,192,107252,1,8,0:0:0:0:
256,192,107428,1,8,0:0:0:0:
256,192,107472,1,0,0:0:0:0:
256,192,107604,1,4,0:0:0:0:
256,192,107957,1,8,0:0:0:0:
256,192,108310,1,0,0:0:0:0:
256,192,108575,1,0,0:0:0:0:
256,192,108663,1,8,0:0:0:0:
256,192,108840,1,8,0:0:0:0:
256,192,108899,1,8,0:0:0:0:
256,192,108957,1,8,0:0:0:0:
256,192,109016,1,0,0:0:0:0:
256,192,109369,1,8,0:0:0:0:
256,192,109722,1,8,0:0:0:0:
256,192,109987,1,0,0:0:0:0:
256,192,110075,1,8,0:0:0:0:
256,192,110428,1,4,0:0:0:0:
256,192,110781,1,8,0:0:0:0:
256,192,111046,1,8,0:0:0:0:
256,192,111134,1,0,0:0:0:0:
256,192,111399,1,0,0:0:0:0:
256,192,111487,1,8,0:0:0:0:
256,192,111663,1,8,0:0:0:0:
256,192,111722,1,8,0:0:0:0:
256,192,111781,1,8,0:0:0:0:
256,192,111840,1,0,0:0:0:0:
256,192,112104,1,12,0:0:0:0:
256,192,112280,1,0,0:0:0:0:
256,192,112368,1,12,0:0:0:0:
256,192,112545,1,0,0:0:0:0:
256,192,112633,1,12,0:0:0:0:
256,192,112898,1,8,0:0:0:0:
256,192,113251,1,4,0:0:0:0:
256,192,118898,5,4,0:0:0:0:
256,192,130192,5,4,0:0:0:0:
256,192,130721,1,8,0:0:0:0:
256,192,131251,1,8,0:0:0:0:
256,192,131604,1,8,0:0:0:0:
256,192,132133,1,8,0:0:0:0:
256,192,132662,1,8,0:0:0:0:
256,192,133015,1,8,0:0:0:0:
256,192,133545,1,8,0:0:0:0:
256,192,134075,1,8,0:0:0:0:
256,192,134428,1,8,0:0:0:0:
256,192,134957,1,8,0:0:0:0:
256,192,135486,1,8,0:0:0:0:
256,192,135839,1,8,0:0:0:0:
256,192,136368,1,8,0:0:0:0:
256,192,136898,1,8,0:0:0:0:
256,192,137251,1,8,0:0:0:0:
256,192,137780,1,8,0:0:0:0:
256,192,138309,1,8,0:0:0:0:
256,192,138662,1,8,0:0:0:0:
256,192,139192,1,8,0:0:0:0:
256,192,139722,1,8,0:0:0:0:
256,192,140075,1,12,0:0:0:0:
256,192,140957,1,8,0:0:0:0:
256,192,141074,1,8,0:0:0:0:
256,192,141192,1,0,0:0:0:0:
256,192,141309,1,8,0:0:0:0:
256,192,141368,1,8,0:0:0:0:
256,192,141427,1,8,0:0:0:0:
256,192,141486,1,4,0:0:0:0:
256,192,141663,12,0,142722,0:0:0:0:
256,192,142899,5,0,0:0:0:0:
256,192,143075,12,0,144134,0:0:0:0:
256,192,144310,5,4,0:0:0:0:
256,192,144487,12,0,145546,0:0:0:0:
256,192,145722,5,0,0:0:0:0:
256,192,145899,12,0,146958,0:0:0:0:
256,192,147134,5,4,0:0:0:0:
256,192,147310,12,0,148369,0:0:0:0:
256,192,148546,5,0,0:0:0:0:
256,192,148722,12,0,149781,0:0:0:0:
256,192,149958,5,4,0:0:0:0:
256,192,150134,12,0,151193,0:0:0:0:
256,192,151369,5,0,0:0:0:0:
256,192,151546,12,0,152075,0:0:0:0:
256,192,152251,5,8,0:0:0:0:
256,192,152310,1,8,0:0:0:0:
256,192,152369,1,8,0:0:0:0:
256,192,152428,1,0,0:0:0:0:
256,192,152781,1,4,0:0:0:0:
256,192,152957,1,0,0:0:0:0:
256,192,153045,1,0,0:0:0:0:
256,192,153134,1,8,0:0:0:0:
256,192,153310,1,8,0:0:0:0:
256,192,153398,1,8,0:0:0:0:
256,192,153487,1,8,0:0:0:0:
256,192,153663,1,8,0:0:0:0:
256,192,153751,1,0,0:0:0:0:
256,192,153840,1,8,0:0:0:0:
256,192,154016,1,0,0:0:0:0:
256,192,154104,1,0,0:0:0:0:
256,192,154192,1,8,0:0:0:0:
256,192,154457,1,8,0:0:0:0:
256,192,154545,1,0,0:0:0:0:
256,192,154722,1,8,0:0:0:0:
256,192,154810,1,0,0:0:0:0:
256,192,154987,1,8,0:0:0:0:
256,192,155075,1,0,0:0:0:0:
256,192,155251,1,8,0:0:0:0:
256,192,155310,1,8,0:0:0:0:
256,192,155369,1,8,0:0:0:0:
256,192,155428,1,0,0:0:0:0:
256,192,155516,1,0,0:0:0:0:
256,192,155604,1,8,0:0:0:0:
256,192,155869,1,0,0:0:0:0:
256,192,155957,1,8,0:0:0:0:
256,192,156134,1,8,0:0:0:0:
256,192,156222,1,8,0:0:0:0:
256,192,156310,1,8,0:0:0:0:
256,192,156487,1,0,0:0:0:0:
256,192,156575,1,8,0:0:0:0:
256,192,156663,1,8,0:0:0:0:
256,192,156840,1,0,0:0:0:0:
256,192,156928,1,8,0:0:0:0:
256,192,157016,1,0,0:0:0:0:
256,192,157281,1,8,0:0:0:0:
256,192,157369,1,0,0:0:0:0:
256,192,157545,1,8,0:0:0:0:
256,192,157634,1,0,0:0:0:0:
256,192,157810,1,8,0:0:0:0:
256,192,157898,1,0,0:0:0:0:
256,192,158075,1,8,0:0:0:0:
256,192,158134,1,8,0:0:0:0:
256,192,158192,1,8,0:0:0:0:
256,192,158251,1,0,0:0:0:0:
256,192,158340,1,0,0:0:0:0:
256,192,158428,1,8,0:0:0:0:
256,192,158781,1,8,0:0:0:0:
256,192,158957,1,0,0:0:0:0:
256,192,159045,1,0,0:0:0:0:
256,192,159134,1,8,0:0:0:0:
256,192,159310,1,0,0:0:0:0:
256,192,159398,1,0,0:0:0:0:
256,192,159487,1,8,0:0:0:0:
256,192,159663,1,0,0:0:0:0:
256,192,159751,1,8,0:0:0:0:
256,192,159840,1,0,0:0:0:0:
256,192,160104,1,8,0:0:0:0:
256,192,160192,1,0,0:0:0:0:
256,192,160369,1,8,0:0:0:0:
256,192,160457,1,0,0:0:0:0:
256,192,160634,1,8,0:0:0:0:
256,192,160722,1,0,0:0:0:0:
256,192,160898,1,8,0:0:0:0:
256,192,160957,1,8,0:0:0:0:
256,192,161016,1,8,0:0:0:0:
256,192,161075,1,0,0:0:0:0:
256,192,161163,1,0,0:0:0:0:
256,192,161251,1,8,0:0:0:0:
256,192,161516,1,0,0:0:0:0:
256,192,161604,1,8,0:0:0:0:
256,192,161781,1,8,0:0:0:0:
256,192,161869,1,0,0:0:0:0:
256,192,161957,1,8,0:0:0:0:
256,192,162134,1,8,0:0:0:0:
256,192,162222,1,8,0:0:0:0:
256,192,162310,1,8,0:0:0:0:
256,192,162487,1,8,0:0:0:0:
256,192,162575,1,8,0:0:0:0:
256,192,162663,1,0,0:0:0:0:
256,192,162928,1,8,0:0:0:0:
256,192,163016,1,0,0:0:0:0:
256,192,163192,1,8,0:0:0:0:
256,192,163281,1,0,0:0:0:0:
256,192,163457,1,8,0:0:0:0:
256,192,163545,1,0,0:0:0:0:
256,192,163722,1,8,0:0:0:0:
256,192,163781,1,8,0:0:0:0:
256,192,163840,1,8,0:0:0:0:
256,192,163898,1,0,0:0:0:0:
256,192,163987,1,0,0:0:0:0:
256,192,164074,1,8,0:0:0:0:
256,192,164339,1,0,0:0:0:0:
256,192,164427,1,8,0:0:0:0:
256,192,164604,1,8,0:0:0:0:
256,192,164692,1,8,0:0:0:0:
256,192,164781,1,0,0:0:0:0:
256,192,164957,1,8,0:0:0:0:
256,192,165045,1,0,0:0:0:0:
256,192,165134,1,8,0:0:0:0:
256,192,165310,1,8,0:0:0:0:
256,192,165398,1,8,0:0:0:0:
256,192,165487,1,0,0:0:0:0:
256,192,165751,1,8,0:0:0:0:
256,192,165840,1,0,0:0:0:0:
256,192,165928,1,0,0:0:0:0:
256,192,166016,1,8,0:0:0:0:
256,192,166104,1,0,0:0:0:0:
256,192,166192,1,0,0:0:0:0:
256,192,166280,1,8,0:0:0:0:
256,192,166369,1,0,0:0:0:0:
256,192,166457,1,0,0:0:0:0:
256,192,166545,1,8,0:0:0:0:
256,192,166604,1,8,0:0:0:0:
256,192,166663,1,8,0:0:0:0:
256,192,166722,1,0,0:0:0:0:
256,192,166810,1,0,0:0:0:0:
256,192,166898,1,8,0:0:0:0:
256,192,167163,1,0,0:0:0:0:
256,192,167251,1,8,0:0:0:0:
256,192,167428,1,8,0:0:0:0:
256,192,167516,1,8,0:0:0:0:
256,192,167605,1,0,0:0:0:0:
256,192,167869,1,0,0:0:0:0:
256,192,167957,1,8,0:0:0:0:
256,192,168134,1,8,0:0:0:0:
256,192,168222,1,8,0:0:0:0:
256,192,168309,1,0,0:0:0:0:
256,192,168575,1,8,0:0:0:0:
256,192,168662,1,0,0:0:0:0:
256,192,168752,1,0,0:0:0:0:
256,192,168840,1,8,0:0:0:0:
256,192,168928,1,0,0:0:0:0:
256,192,169016,1,0,0:0:0:0:
256,192,169104,1,8,0:0:0:0:
256,192,169193,1,0,0:0:0:0:
256,192,169281,1,0,0:0:0:0:
256,192,169369,1,8,0:0:0:0:
256,192,169428,1,8,0:0:0:0:
256,192,169487,1,8,0:0:0:0:
256,192,169546,1,0,0:0:0:0:
256,192,169634,1,0,0:0:0:0:
256,192,169722,1,8,0:0:0:0:
256,192,169898,1,8,0:0:0:0:
256,192,169986,1,8,0:0:0:0:
256,192,170074,1,0,0:0:0:0:
256,192,170251,1,8,0:0:0:0:
256,192,170340,1,8,0:0:0:0:
256,192,170428,1,0,0:0:0:0:
256,192,170604,1,8,0:0:0:0:
256,192,170692,1,8,0:0:0:0:
256,192,170781,1,0,0:0:0:0:
256,192,170957,1,8,0:0:0:0:
256,192,171045,1,8,0:0:0:0:
256,192,171134,1,0,0:0:0:0:
256,192,171398,1,8,0:0:0:0:
256,192,171486,1,0,0:0:0:0:
256,192,171574,1,0,0:0:0:0:
256,192,171662,1,8,0:0:0:0:
256,192,171751,1,0,0:0:0:0:
256,192,171838,1,0,0:0:0:0:
256,192,171927,1,8,0:0:0:0:
256,192,172015,1,0,0:0:0:0:
256,192,172103,1,0,0:0:0:0:
256,192,172192,1,8,0:0:0:0:
256,192,172368,1,0,0:0:0:0:
256,192,172545,1,8,0:0:0:0:
256,192,172633,1,0,0:0:0:0:
256,192,172721,1,0,0:0:0:0:
256,192,172809,1,0,0:0:0:0:
256,192,172898,1,8,0:0:0:0:
256,192,172986,1,0,0:0:0:0:
256,192,173074,1,0,0:0:0:0:
256,192,173162,1,0,0:0:0:0:
256,192,173251,1,8,0:0:0:0:
256,192,173339,1,8,0:0:0:0:
256,192,173427,1,0,0:0:0:0:
256,192,173515,1,0,0:0:0:0:
256,192,173604,1,8,0:0:0:0:
256,192,173692,1,8,0:0:0:0:
256,192,173780,1,8,0:0:0:0:
256,192,173868,1,8,0:0:0:0:
256,192,173957,1,0,0:0:0:0:
256,192,174663,1,8,0:0:0:0:
256,192,174840,1,8,0:0:0:0:
256,192,174928,1,8,0:0:0:0:
256,192,175016,1,0,0:0:0:0:
256,192,175104,1,0,0:0:0:0:
256,192,175192,1,0,0:0:0:0:
256,192,175281,1,8,0:0:0:0:
256,192,175369,1,4,0:0:0:0:
256,192,175633,1,0,0:0:0:0:
256,192,175721,1,8,0:0:0:0:
256,192,175898,1,0,0:0:0:0:
256,192,176075,1,8,0:0:0:0:
256,192,176162,1,0,0:0:0:0:
256,192,176251,1,0,0:0:0:0:
256,192,176428,1,8,0:0:0:0:
256,192,176604,1,8,0:0:0:0:
256,192,176663,1,8,0:0:0:0:
256,192,176722,1,8,0:0:0:0:
256,192,176780,1,4,0:0:0:0:
256,192,176957,1,8,0:0:0:0:
256,192,177045,1,0,0:0:0:0:
256,192,177134,1,8,0:0:0:0:
256,192,177310,1,0,0:0:0:0:
256,192,177487,1,8,0:0:0:0:
256,192,177575,1,0,0:0:0:0:
256,192,177751,1,0,0:0:0:0:
256,192,177840,1,8,0:0:0:0:
256,192,177898,1,8,0:0:0:0:
256,192,177957,1,0,0:0:0:0:
256,192,178016,1,0,0:0:0:0:
256,192,178075,1,8,0:0:0:0:
256,192,178134,1,8,0:0:0:0:
256,192,178192,1,4,0:0:0:0:
256,192,178457,1,0,0:0:0:0:
256,192,178545,1,8,0:0:0:0:
256,192,178722,1,8,0:0:0:0:
256,192,178810,1,0,0:0:0:0:
256,192,178898,1,8,0:0:0:0:
256,192,178987,1,8,0:0:0:0:
256,192,179075,1,0,0:0:0:0:
256,192,179251,1,8,0:0:0:0:
256,192,179428,1,0,0:0:0:0:
256,192,179487,1,8,0:0:0:0:
256,192,179545,1,8,0:0:0:0:
256,192,179604,1,4,0:0:0:0:
256,192,179869,1,0,0:0:0:0:
256,192,179957,1,8,0:0:0:0:
256,192,180134,1,8,0:0:0:0:
256,192,180222,1,0,0:0:0:0:
256,192,180310,1,0,0:0:0:0:
256,192,180399,1,8,0:0:0:0:
256,192,180575,1,0,0:0:0:0:
256,192,180663,1,8,0:0:0:0:
256,192,180840,1,8,0:0:0:0:
256,192,180884,1,0,0:0:0:0:
256,192,181016,1,4,0:0:0:0:
256,192,181281,1,0,0:0:0:0:
256,192,181369,1,8,0:0:0:0:
256,192,181545,1,0,0:0:0:0:
256,192,181722,1,8,0:0:0:0:
256,192,181810,1,0,0:0:0:0:
256,192,181898,1,0,0:0:0:0:
256,192,182075,1,8,0:0:0:0:
256,192,182251,1,8,0:0:0:0:
256,192,182310,1,8,0:0:0:0:
256,192,182369,1,8,0:0:0:0:
256,192,182428,1,4,0:0:0:0:
256,192,182604,1,8,0:0:0:0:
256,192,182692,1,0,0:0:0:0:
256,192,182781,1,8,0:0:0:0:
256,192,182957,1,0,0:0:0:0:
256,192,183134,1,8,0:0:0:0:
256,192,183222,1,0,0:0:0:0:
256,192,183398,1,0,0:0:0:0:
256,192,183487,1,8,0:0:0:0:
256,192,183545,1,8,0:0:0:0:
256,192,183604,1,0,0:0:0:0:
256,192,183663,1,0,0:0:0:0:
256,192,183722,1,8,0:0:0:0:
256,192,183781,1,8,0:0:0:0:
256,192,183839,1,4,0:0:0:0:
256,192,184104,1,0,0:0:0:0:
256,192,184192,1,8,0:0:0:0:
256,192,184369,1,8,0:0:0:0:
256,192,184457,1,0,0:0:0:0:
256,192,184545,1,8,0:0:0:0:
256,192,184634,1,8,0:0:0:0:
256,192,184722,1,0,0:0:0:0:
256,192,184898,1,8,0:0:0:0:
256,192,185075,1,0,0:0:0:0:
256,192,185134,1,8,0:0:0:0:
256,192,185192,1,8,0:0:0:0:
256,192,185251,1,4,0:0:0:0:
256,192,185516,1,0,0:0:0:0:
256,192,185604,1,8,0:0:0:0:
256,192,185781,1,8,0:0:0:0:
256,192,185869,1,0,0:0:0:0:
256,192,185957,1,0,0:0:0:0:
256,192,186046,1,8,0:0:0:0:
256,192,186134,1,0,0:0:0:0:
256,192,186222,1,0,0:0:0:0:
256,192,186310,1,8,0:0:0:0:
256,192,186354,1,8,0:0:0:0:
256,192,186663,1,4,0:0:0:0:
256,192,186928,1,0,0:0:0:0:
256,192,187016,1,8,0:0:0:0:
256,192,187192,1,0,0:0:0:0:
256,192,187369,1,8,0:0:0:0:
256,192,187457,1,0,0:0:0:0:
256,192,187545,1,0,0:0:0:0:
256,192,187722,1,8,0:0:0:0:
256,192,187898,1,8,0:0:0:0:
256,192,187957,1,8,0:0:0:0:
256,192,188016,1,8,0:0:0:0:
256,192,188075,1,4,0:0:0:0:
256,192,188251,1,8,0:0:0:0:
256,192,188339,1,0,0:0:0:0:
256,192,188428,1,8,0:0:0:0:
256,192,188604,1,0,0:0:0:0:
256,192,188781,1,8,0:0:0:0:
256,192,188869,1,0,0:0:0:0:
256,192,189045,1,0,0:0:0:0:
256,192,189134,1,8,0:0:0:0:
256,192,189192,1,8,0:0:0:0:
256,192,189251,1,0,0:0:0:0:
256,192,189310,1,0,0:0:0:0:
256,192,189369,1,8,0:0:0:0:
256,192,189428,1,8,0:0:0:0:
256,192,189486,1,4,0:0:0:0:
256,192,189751,1,0,0:0:0:0:
256,192,189839,1,8,0:0:0:0:
256,192,190016,1,8,0:0:0:0:
256,192,190104,1,0,0:0:0:0:
256,192,190192,1,8,0:0:0:0:
256,192,190281,1,8,0:0:0:0:
256,192,190369,1,0,0:0:0:0:
256,192,190545,1,8,0:0:0:0:
256,192,190722,1,0,0:0:0:0:
256,192,190781,1,8,0:0:0:0:
256,192,190839,1,8,0:0:0:0:
256,192,190898,1,4,0:0:0:0:
256,192,191163,1,0,0:0:0:0:
256,192,191251,1,8,0:0:0:0:
256,192,191428,1,8,0:0:0:0:
256,192,191516,1,0,0:0:0:0:
256,192,191604,1,0,0:0:0:0:
256,192,191693,1,8,0:0:0:0:
256,192,191781,1,0,0:0:0:0:
256,192,191869,1,0,0:0:0:0:
256,192,191957,1,8,0:0:0:0:
256,192,192134,1,8,0:0:0:0:
256,192,192178,1,0,0:0:0:0:
256,192,192310,1,4,0:0:0:0:
256,192,192575,1,0,0:0:0:0:
256,192,192663,1,8,0:0:0:0:
256,192,192839,1,0,0:0:0:0:
256,192,193016,1,8,0:0:0:0:
256,192,193104,1,0,0:0:0:0:
256,192,193192,1,0,0:0:0:0:
256,192,193369,1,8,0:0:0:0:
256,192,193545,1,8,0:0:0:0:
256,192,193604,1,8,0:0:0:0:
256,192,193663,1,8,0:0:0:0:
256,192,193722,1,4,0:0:0:0:
256,192,193898,1,8,0:0:0:0:
256,192,193986,1,0,0:0:0:0:
256,192,194075,1,8,0:0:0:0:
256,192,194251,1,0,0:0:0:0:
256,192,194428,1,8,0:0:0:0:
256,192,194516,1,0,0:0:0:0:
256,192,194692,1,0,0:0:0:0:
256,192,194781,1,8,0:0:0:0:
256,192,194839,1,8,0:0:0:0:
256,192,194898,1,0,0:0:0:0:
256,192,194957,1,0,0:0:0:0:
256,192,195016,1,8,0:0:0:0:
256,192,195075,1,8,0:0:0:0:
256,192,195134,1,4,0:0:0:0:
256,192,195398,1,0,0:0:0:0:
256,192,195486,1,8,0:0:0:0:
256,192,195663,1,8,0:0:0:0:
256,192,195751,1,0,0:0:0:0:
256,192,195839,1,8,0:0:0:0:
256,192,195928,1,8,0:0:0:0:
256,192,196016,1,0,0:0:0:0:
256,192,196192,1,8,0:0:0:0:
256,192,196369,1,0,0:0:0:0:
256,192,196428,1,8,0:0:0:0:
256,192,196486,1,8,0:0:0:0:
256,192,196545,1,0,0:0:0:0:
256,192,196809,1,0,0:0:0:0:
256,192,196854,1,0,0:0:0:0:
256,192,197075,1,0,0:0:0:0:
256,192,197118,1,0,0:0:0:0:
256,192,197340,1,0,0:0:0:0:
256,192,197383,1,0,0:0:0:0:
256,192,197604,1,8,0:0:0:0:
256,192,197692,1,0,0:0:0:0:
256,192,197781,1,8,0:0:0:0:
256,192,197869,1,0,0:0:0:0:
256,192,197957,1,8,0:0:0:0:
256,192,198001,1,8,0:0:0:0:
256,192,198222,1,0,0:0:0:0:
256,192,198310,1,8,0:0:0:0:
256,192,198575,1,8,0:0:0:0:
256,192,198619,1,8,0:0:0:0:
256,192,198663,1,0,0:0:0:0:
256,192,198928,1,0,0:0:0:0:
256,192,198972,1,8,0:0:0:0:
256,192,199016,1,0,0:0:0:0:
256,192,199281,1,8,0:0:0:0:
256,192,199325,1,8,0:0:0:0:
256,192,199369,1,0,0:0:0:0:
256,192,199634,1,0,0:0:0:0:
256,192,199722,1,8,0:0:0:0:
256,192,199766,1,8,0:0:0:0:
256,192,199898,1,8,0:0:0:0:
256,192,199987,1,0,0:0:0:0:
256,192,200163,1,8,0:0:0:0:
256,192,200251,1,0,0:0:0:0:
256,192,200428,1,8,0:0:0:0:
256,192,200604,1,0,0:0:0:0:
256,192,200663,1,0,0:0:0:0:
256,192,200722,1,0,0:0:0:0:
256,192,200781,1,8,0:0:0:0:
256,192,201134,1,8,0:0:0:0:
256,192,201398,1,8,0:0:0:0:
256,192,201442,1,8,0:0:0:0:
256,192,201487,1,0,0:0:0:0:
256,192,201751,1,0,0:0:0:0:
256,192,201795,1,0,0:0:0:0:
256,192,201840,1,8,0:0:0:0:
256,192,202016,1,0,0:0:0:0:
256,192,202075,1,8,0:0:0:0:
256,192,202134,1,8,0:0:0:0:
256,192,202192,1,0,0:0:0:0:
256,192,202457,1,12,0:0:0:0:
256,192,202722,1,12,0:0:0:0:
256,192,202987,1,12,0:0:0:0:
256,192,203251,1,8,0:0:0:0:
256,192,203340,1,0,0:0:0:0:
256,192,203428,1,8,0:0:0:0:
256,192,203487,1,8,0:0:0:0:
256,192,203545,1,0,0:0:0:0:
256,192,203604,1,8,0:0:0:0:
256,192,203869,1,0,0:0:0:0:
256,192,203957,1,8,0:0:0:0:
256,192,204222,1,8,0:0:0:0:
256,192,204266,1,8,0:0:0:0:
256,192,204310,1,0,0:0:0:0:
256,192,204575,1,0,0:0:0:0:
256,192,204619,1,8,0:0:0:0:
256,192,204663,1,0,0:0:0:0:
256,192,204928,1,8,0:0:0:0:
256,192,204972,1,8,0:0:0:0:
256,192,205016,1,0,0:0:0:0:
256,192,205281,1,0,0:0:0:0:
256,192,205369,1,8,0:0:0:0:
256,192,205413,1,8,0:0:0:0:
256,192,205545,1,8,0:0:0:0:
256,192,205634,1,0,0:0:0:0:
256,192,205810,1,8,0:0:0:0:
256,192,205898,1,0,0:0:0:0:
256,192,206075,1,8,0:0:0:0:
256,192,206251,1,0,0:0:0:0:
256,192,206310,1,0,0:0:0:0:
256,192,206369,1,0,0:0:0:0:
256,192,206428,1,8,0:0:0:0:
256,192,206781,1,8,0:0:0:0:
256,192,207045,1,8,0:0:0:0:
256,192,207089,1,8,0:0:0:0:
256,192,207134,1,0,0:0:0:0:
256,192,207398,1,0,0:0:0:0:
256,192,207442,1,0,0:0:0:0:
256,192,207487,1,8,0:0:0:0:
256,192,207663,5,0,0:0:0:0:
256,192,207722,1,8,0:0:0:0:
256,192,207781,1,8,0:0:0:0:
256,192,207839,1,0,0:0:0:0:
256,192,208104,1,12,0:0:0:0:
256,192,208369,1,12,0:0:0:0:
256,192,208634,1,12,0:0:0:0:
256,192,208898,1,8,0:0:0:0:
256,192,209075,5,8,0:0:0:0:
256,192,209119,1,0,0:0:0:0:
256,192,209252,1,4,0:0:0:0:
256,192,209516,1,0,0:0:0:0:
256,192,209604,1,8,0:0:0:0:
256,192,209780,1,0,0:0:0:0:
256,192,209957,1,8,0:0:0:0:
256,192,210045,1,0,0:0:0:0:
256,192,210133,1,0,0:0:0:0:
256,192,210310,1,8,0:0:0:0:
256,192,210486,1,8,0:0:0:0:
256,192,210545,1,8,0:0:0:0:
256,192,210604,1,8,0:0:0:0:
256,192,210663,1,4,0:0:0:0:
256,192,210839,1,8,0:0:0:0:
256,192,210927,1,0,0:0:0:0:
256,192,211016,1,8,0:0:0:0:
256,192,211192,1,0,0:0:0:0:
256,192,211369,1,8,0:0:0:0:
256,192,211457,1,0,0:0:0:0:
256,192,211633,1,0,0:0:0:0:
256,192,211722,1,8,0:0:0:0:
256,192,211780,1,8,0:0:0:0:
256,192,211839,1,0,0:0:0:0:
256,192,211898,1,0,0:0:0:0:
256,192,211957,1,8,0:0:0:0:
256,192,212016,1,8,0:0:0:0:
256,192,212074,1,4,0:0:0:0:
256,192,212339,1,0,0:0:0:0:
256,192,212427,1,8,0:0:0:0:
256,192,212604,1,8,0:0:0:0:
256,192,212692,1,0,0:0:0:0:
256,192,212780,1,8,0:0:0:0:
256,192,212869,1,8,0:0:0:0:
256,192,212957,1,0,0:0:0:0:
256,192,213133,1,8,0:0:0:0:
256,192,213310,1,0,0:0:0:0:
256,192,213369,1,8,0:0:0:0:
256,192,213427,1,8,0:0:0:0:
256,192,213486,1,4,0:0:0:0:
256,192,213751,1,0,0:0:0:0:
256,192,213839,1,8,0:0:0:0:
256,192,214016,1,8,0:0:0:0:
256,192,214104,1,0,0:0:0:0:
256,192,214192,1,0,0:0:0:0:
256,192,214281,1,8,0:0:0:0:
256,192,214369,1,0,0:0:0:0:
256,192,214457,1,0,0:0:0:0:
256,192,214545,1,8,0:0:0:0:
256,192,214722,1,8,0:0:0:0:
256,192,214766,1,0,0:0:0:0:
256,192,214898,1,4,0:0:0:0:
256,192,215163,1,0,0:0:0:0:
256,192,215251,1,8,0:0:0:0:
256,192,215427,1,0,0:0:0:0:
256,192,215604,1,8,0:0:0:0:
256,192,215692,1,0,0:0:0:0:
256,192,215780,1,0,0:0:0:0:
256,192,215957,1,8,0:0:0:0:
256,192,216133,1,8,0:0:0:0:
256,192,216192,1,8,0:0:0:0:
256,192,216251,1,8,0:0:0:0:
256,192,216310,1,4,0:0:0:0:
256,192,216486,1,8,0:0:0:0:
256,192,216574,1,0,0:0:0:0:
256,192,216663,1,8,0:0:0:0:
256,192,216839,1,0,0:0:0:0:
256,192,217016,1,8,0:0:0:0:
256,192,217104,1,0,0:0:0:0:
256,192,217280,1,0,0:0:0:0:
256,192,217369,1,8,0:0:0:0:
256,192,217427,1,8,0:0:0:0:
256,192,217486,1,0,0:0:0:0:
256,192,217545,1,0,0:0:0:0:
256,192,217604,1,8,0:0:0:0:
256,192,217663,1,8,0:0:0:0:
256,192,217721,1,4,0:0:0:0:
256,192,217986,1,0,0:0:0:0:
256,192,218074,1,8,0:0:0:0:
256,192,218251,1,8,0:0:0:0:
256,192,218339,1,0,0:0:0:0:
256,192,218427,1,8,0:0:0:0:
256,192,218516,1,8,0:0:0:0:
256,192,218604,1,0,0:0:0:0:
256,192,218780,1,8,0:0:0:0:
256,192,218957,1,0,0:0:0:0:
256,192,219016,1,8,0:0:0:0:
256,192,219074,1,8,0:0:0:0:
256,192,219134,1,0,0:0:0:0:
256,192,219398,1,4,0:0:0:0:
256,192,219575,1,8,0:0:0:0:
256,192,219663,1,4,0:0:0:0:
256,192,219840,1,8,0:0:0:0:
256,192,219928,1,4,0:0:0:0:
256,192,220192,1,8,0:0:0:0:
256,192,220237,1,8,0:0:0:0:
256,192,220281,1,8,0:0:0:0:
256,192,220545,1,4,0:0:0:0:
256,192,220898,1,8,0:0:0:0:
256,192,221251,1,0,0:0:0:0:
256,192,221516,1,0,0:0:0:0:
256,192,221604,1,8,0:0:0:0:
256,192,221781,1,8,0:0:0:0:
256,192,221840,1,8,0:0:0:0:
256,192,221898,1,8,0:0:0:0:
256,192,221957,1,0,0:0:0:0:
256,192,222310,1,8,0:0:0:0:
256,192,222663,1,8,0:0:0:0:
256,192,222928,1,0,0:0:0:0:
256,192,223016,1,8,0:0:0:0:
256,192,223369,1,4,0:0:0:0:
256,192,223722,1,8,0:0:0:0:
256,192,223987,1,8,0:0:0:0:
256,192,224075,1,0,0:0:0:0:
256,192,224340,1,0,0:0:0:0:
256,192,224428,1,8,0:0:0:0:
256,192,224604,1,8,0:0:0:0:
256,192,224663,1,8,0:0:0:0:
256,192,224722,1,8,0:0:0:0:
256,192,224781,1,0,0:0:0:0:
256,192,225134,1,8,0:0:0:0:
256,192,225487,1,8,0:0:0:0:
256,192,225751,1,0,0:0:0:0:
256,192,225840,1,8,0:0:0:0:
256,192,226016,1,8,0:0:0:0:
256,192,226060,1,0,0:0:0:0:
256,192,226192,1,4,0:0:0:0:
256,192,226545,1,8,0:0:0:0:
256,192,226898,1,0,0:0:0:0:
256,192,227163,1,0,0:0:0:0:
256,192,227251,1,8,0:0:0:0:
256,192,227428,1,8,0:0:0:0:
256,192,227487,1,8,0:0:0:0:
256,192,227545,1,8,0:0:0:0:
256,192,227604,1,0,0:0:0:0:
256,192,227957,1,8,0:0:0:0:
256,192,228310,1,8,0:0:0:0:
256,192,228575,1,0,0:0:0:0:
256,192,228663,1,8,0:0:0:0:
256,192,229016,1,4,0:0:0:0:
256,192,229369,1,8,0:0:0:0:
256,192,229634,1,8,0:0:0:0:
256,192,229722,1,0,0:0:0:0:
256,192,229987,1,0,0:0:0:0:
256,192,230075,1,8,0:0:0:0:
256,192,230251,1,8,0:0:0:0:
256,192,230310,1,8,0:0:0:0:
256,192,230369,1,8,0:0:0:0:
256,192,230428,1,0,0:0:0:0:
256,192,230692,1,12,0:0:0:0:
256,192,230868,1,0,0:0:0:0:
256,192,230957,1,12,0:0:0:0:
256,192,231133,1,0,0:0:0:0:
256,192,231221,1,12,0:0:0:0:
256,192,231487,1,8,0:0:0:0:
256,192,231575,1,8,0:0:0:0:
256,192,231663,1,8,0:0:0:0:
256,192,231751,1,8,0:0:0:0:
256,192,231840,1,4,0:0:0:0:
256,192,232193,1,8,0:0:0:0:
256,192,232546,1,0,0:0:0:0:
256,192,232809,1,0,0:0:0:0:
256,192,232899,1,8,0:0:0:0:
256,192,233074,1,8,0:0:0:0:
256,192,233133,1,8,0:0:0:0:
256,192,233192,1,8,0:0:0:0:
256,192,233251,1,0,0:0:0:0:
256,192,233605,1,8,0:0:0:0:
256,192,233958,1,8,0:0:0:0:
256,192,234221,1,0,0:0:0:0:
256,192,234309,1,8,0:0:0:0:
256,192,234662,1,4,0:0:0:0:
256,192,235015,1,8,0:0:0:0:
256,192,235280,1,8,0:0:0:0:
256,192,235368,1,0,0:0:0:0:
256,192,235633,1,0,0:0:0:0:
256,192,235721,1,8,0:0:0:0:
256,192,235898,1,8,0:0:0:0:
256,192,235957,1,8,0:0:0:0:
256,192,236015,1,8,0:0:0:0:
256,192,236074,1,0,0:0:0:0:
256,192,236427,1,8,0:0:0:0:
256,192,236780,1,8,0:0:0:0:
256,192,237045,1,0,0:0:0:0:
256,192,237133,1,8,0:0:0:0:
256,192,237309,1,8,0:0:0:0:
256,192,237355,1,0,0:0:0:0:
256,192,237486,1,4,0:0:0:0:
256,192,237839,1,8,0:0:0:0:
256,192,238192,1,0,0:0:0:0:
256,192,238457,1,0,0:0:0:0:
256,192,238545,1,8,0:0:0:0:
256,192,238721,1,8,0:0:0:0:
256,192,238780,1,8,0:0:0:0:
256,192,238839,1,8,0:0:0:0:
256,192,238898,1,0,0:0:0:0:
256,192,239252,1,8,0:0:0:0:
256,192,239605,1,8,0:0:0:0:
256,192,239868,1,0,0:0:0:0:
256,192,239957,1,8,0:0:0:0:
256,192,240309,1,4,0:0:0:0:
256,192,240662,1,8,0:0:0:0:
256,192,240927,1,8,0:0:0:0:
256,192,241015,1,0,0:0:0:0:
256,192,241280,1,0,0:0:0:0:
256,192,241368,1,8,0:0:0:0:
256,192,241545,1,8,0:0:0:0:
256,192,241604,1,8,0:0:0:0:
256,192,241662,1,8,0:0:0:0:
256,192,241721,1,0,0:0:0:0:
256,192,241986,1,12,0:0:0:0:
256,192,242162,1,0,0:0:0:0:
256,192,242251,1,12,0:0:0:0:
256,192,242427,1,0,0:0:0:0:
256,192,242515,1,12,0:0:0:0:
256,192,242780,1,8,0:0:0:0:
256,192,243134,1,4,0:0:0:0:
