osu file format v14

[General]
AudioFilename: audio.mp3
AudioLeadIn: 0
PreviewTime: 44774
Countdown: 1
SampleSet: Normal
StackLeniency: 0.7
Mode: 1
LetterboxInBreaks: 0
WidescreenStoryboard: 1

[Editor]
DistanceSpacing: 0.9
BeatDivisor: 4
GridSize: 32
TimelineZoom: 1.9

[Metadata]
Title:sha
TitleUnicode:sha
Artist:sakuraburst
ArtistUnicode:sakuraburst
Creator:salchow
Version:futsuu
Source:osu!
Tags:instrumental experimental featured artist fa mappers' guild mg anticrystal ep drum bass orchestral glitch noise electronic edm idm
BeatmapID:2218427
BeatmapSetID:1057855

[Difficulty]
HPDrainRate:6.5
CircleSize:2
OverallDifficulty:4
ApproachRate:10
SliderMultiplier:1.4
SliderTickRate:1

[Events]
//Background and Video events
0,0,"black-and-white-black-and-white-feather-401413 (1).jpg",0,0
//Break Periods
2,510,5507
2,6157,11154
2,11804,16801
2,17451,21918
2,113452,118448
2,119098,129742
//Storyboard Layer 0 (Background)
//Storyboard Layer 1 (Fail)
//Storyboard Layer 2 (Pass)
//Storyboard Layer 3 (Foreground)
//Storyboard Layer 4 (Overlay)
//Storyboard Sound Samples

[TimingPoints]
310,352.941176470588,4,1,1,70,1,0
45486,-100,4,1,1,90,0,1
56427,-100,4,1,1,70,0,0
56780,-100,4,1,1,90,0,1
66662,-100,4,1,1,70,0,0
79368,-100,4,1,1,90,0,1
89251,-100,4,1,1,70,0,0
130192,-100,4,1,1,50,0,0
152251,-100,4,1,1,70,0,0
175368,-100,4,1,1,90,0,1
186309,-100,4,1,1,70,0,0
186662,-100,4,1,1,90,0,1
196545,-100,4,1,1,70,0,0
209251,-100,4,1,1,90,0,1
219133,-100,4,1,1,70,0,0

[HitObjects]
256,192,310,5,4,0:0:0:0:
256,192,5957,5,0,0:0:0:0:
256,192,11604,5,4,0:0:0:0:
256,192,17251,5,0,0:0:0:0:
256,192,22368,5,0,0:0:0:0:
256,192,22545,1,0,0:0:0:0:
256,192,22898,5,4,0:0:0:0:
256,192,23251,1,8,0:0:0:0:
256,192,23604,1,0,0:0:0:0:
256,192,23780,1,8,0:0:0:0:
256,192,24133,1,0,0:0:0:0:
256,192,24309,1,0,0:0:0:0:
256,192,24662,1,8,0:0:0:0:
256,192,25368,1,0,0:0:0:0:
256,192,25545,1,0,0:0:0:0:
256,192,25721,1,0,0:0:0:0:
256,192,26074,1,8,0:0:0:0:
256,192,26251,1,0,0:0:0:0:
256,192,26604,1,8,0:0:0:0:
256,192,26957,1,8,0:0:0:0:
256,192,27133,1,0,0:0:0:0:
256,192,27486,1,8,0:0:0:0:
256,192,28192,1,0,0:0:0:0:
256,192,28545,5,4,0:0:0:0:
256,192,28898,1,8,0:0:0:0:
256,192,29251,1,0,0:0:0:0:
256,192,29427,1,8,0:0:0:0:
256,192,29780,1,0,0:0:0:0:
256,192,29956,1,0,0:0:0:0:
256,192,30309,1,8,0:0:0:0:
256,192,31015,1,0,0:0:0:0:
256,192,31192,1,0,0:0:0:0:
256,192,31368,1,0,0:0:0:0:
256,192,31721,1,8,0:0:0:0:
256,192,31898,1,0,0:0:0:0:
256,192,32251,1,8,0:0:0:0:
256,192,32604,1,8,0:0:0:0:
256,192,32780,1,0,0:0:0:0:
256,192,33133,1,8,0:0:0:0:
256,192,33839,1,0,0:0:0:0:
256,192,34192,5,4,0:0:0:0:
256,192,34898,1,0,0:0:0:0:
256,192,35251,1,0,0:0:0:0:
256,192,35604,1,0,0:0:0:0:
256,192,35957,1,8,0:0:0:0:
256,192,36133,1,8,0:0:0:0:
256,192,36309,1,8,0:0:0:0:
256,192,36662,1,0,0:0:0:0:
256,192,37015,1,0,0:0:0:0:
256,192,37721,1,0,0:0:0:0:
256,192,38074,1,0,0:0:0:0:
256,192,38427,1,0,0:0:0:0:
256,192,38780,1,8,0:0:0:0:
256,192,38956,1,8,0:0:0:0:
256,192,39133,1,8,0:0:0:0:
256,192,39485,1,0,0:0:0:0:
256,192,39838,1,0,0:0:0:0:
256,192,40368,1,8,0:0:0:0:
256,192,40545,1,0,0:0:0:0:
256,192,40898,1,0,0:0:0:0:
256,192,41074,1,8,0:0:0:0:
256,192,41251,1,0,0:0:0:0:
256,192,41604,1,8,0:0:0:0:
256,192,41780,1,8,0:0:0:0:
256,192,41957,1,8,0:0:0:0:
256,192,42309,1,0,0:0:0:0:
256,192,42662,1,0,0:0:0:0:
256,192,43016,1,0,0:0:0:0:
256,192,43192,1,0,0:0:0:0:
256,192,43368,1,0,0:0:0:0:
256,192,43722,1,0,0:0:0:0:
256,192,43898,1,0,0:0:0:0:
256,192,44074,1,0,0:0:0:0:
256,192,44780,1,8,0:0:0:0:
256,192,45133,1,0,0:0:0:0:
256,192,45309,1,0,0:0:0:0:
256,192,45486,1,4,0:0:0:0:
256,192,45839,1,8,0:0:0:0:
256,192,46015,1,8,0:0:0:0:
256,192,46368,1,0,0:0:0:0:
256,192,46545,1,8,0:0:0:0:
256,192,46898,1,4,0:0:0:0:
256,192,47251,1,8,0:0:0:0:
256,192,47427,1,0,0:0:0:0:
256,192,47780,1,0,0:0:0:0:
256,192,47957,1,8,0:0:0:0:
256,192,48309,1,4,0:0:0:0:
256,192,48662,1,8,0:0:0:0:
256,192,48839,1,0,0:0:0:0:
256,192,49368,1,8,0:0:0:0:
256,192,49721,1,4,0:0:0:0:
256,192,50074,1,8,0:0:0:0:
256,192,50780,1,8,0:0:0:0:
256,192,51133,1,4,0:0:0:0:
256,192,51486,1,8,0:0:0:0:
256,192,51662,1,8,0:0:0:0:
256,192,52015,1,0,0:0:0:0:
256,192,52192,1,8,0:0:0:0:
256,192,52545,1,4,0:0:0:0:
256,192,52898,1,8,0:0:0:0:
256,192,53074,1,0,0:0:0:0:
256,192,53427,1,0,0:0:0:0:
256,192,53604,1,8,0:0:0:0:
256,192,53956,1,4,0:0:0:0:
256,192,54309,1,8,0:0:0:0:
256,192,54839,1,0,0:0:0:0:
256,192,55015,1,8,0:0:0:0:
256,192,55368,1,4,0:0:0:0:
256,192,55721,1,8,0:0:0:0:
256,192,56427,1,8,0:0:0:0:
256,192,56780,1,4,0:0:0:0:
256,192,57133,1,8,0:0:0:0:
256,192,57309,1,8,0:0:0:0:
256,192,57662,1,0,0:0:0:0:
256,192,57839,1,8,0:0:0:0:
256,192,58192,1,4,0:0:0:0:
256,192,58545,1,8,0:0:0:0:
256,192,58721,1,0,0:0:0:0:
256,192,59074,1,0,0:0:0:0:
256,192,59251,1,8,0:0:0:0:
256,192,59603,1,4,0:0:0:0:
256,192,59956,1,8,0:0:0:0:
256,192,60486,1,0,0:0:0:0:
256,192,60662,1,8,0:0:0:0:
256,192,61015,1,4,0:0:0:0:
256,192,61368,1,8,0:0:0:0:
256,192,62074,1,8,0:0:0:0:
256,192,62427,1,4,0:0:0:0:
256,192,62780,1,8,0:0:0:0:
256,192,62956,1,8,0:0:0:0:
256,192,63309,1,0,0:0:0:0:
256,192,63486,1,8,0:0:0:0:
256,192,63839,1,4,0:0:0:0:
256,192,64192,1,8,0:0:0:0:
256,192,64368,1,0,0:0:0:0:
256,192,64721,1,0,0:0:0:0:
256,192,64898,1,8,0:0:0:0:
256,192,65250,1,4,0:0:0:0:
256,192,65603,1,8,0:0:0:0:
256,192,66133,1,0,0:0:0:0:
256,192,66309,1,8,0:0:0:0:
256,192,66927,5,0,0:0:0:0:
256,192,67192,1,0,0:0:0:0:
256,192,67457,1,0,0:0:0:0:
256,192,67721,1,8,0:0:0:0:
256,192,68074,1,8,0:0:0:0:
256,192,68692,1,0,0:0:0:0:
256,192,69045,1,8,0:0:0:0:
256,192,69398,1,0,0:0:0:0:
256,192,69751,1,8,0:0:0:0:
256,192,70015,1,8,0:0:0:0:
256,192,70280,1,8,0:0:0:0:
256,192,70898,1,8,0:0:0:0:
256,192,71515,1,0,0:0:0:0:
256,192,71868,1,8,0:0:0:0:
256,192,72221,1,0,0:0:0:0:
256,192,72574,1,12,0:0:0:0:
256,192,73104,1,12,0:0:0:0:
256,192,73721,1,8,0:0:0:0:
256,192,74339,1,0,0:0:0:0:
256,192,74692,1,8,0:0:0:0:
256,192,75045,1,0,0:0:0:0:
256,192,75398,1,8,0:0:0:0:
256,192,75662,1,8,0:0:0:0:
256,192,75927,1,8,0:0:0:0:
256,192,76545,1,8,0:0:0:0:
256,192,77162,1,0,0:0:0:0:
256,192,77515,1,8,0:0:0:0:
256,192,77868,1,0,0:0:0:0:
256,192,78221,1,12,0:0:0:0:
256,192,78751,1,12,0:0:0:0:
256,192,79368,1,4,0:0:0:0:
256,192,79721,1,8,0:0:0:0:
256,192,79897,1,8,0:0:0:0:
256,192,80251,1,0,0:0:0:0:
256,192,80427,1,8,0:0:0:0:
256,192,80780,1,4,0:0:0:0:
256,192,81133,1,8,0:0:0:0:
256,192,81309,1,0,0:0:0:0:
256,192,81662,1,0,0:0:0:0:
256,192,81839,1,8,0:0:0:0:
256,192,82191,1,4,0:0:0:0:
256,192,82544,1,8,0:0:0:0:
256,192,83074,1,0,0:0:0:0:
256,192,83250,1,8,0:0:0:0:
256,192,83603,1,4,0:0:0:0:
256,192,83956,1,8,0:0:0:0:
256,192,84662,1,8,0:0:0:0:
256,192,85015,1,4,0:0:0:0:
256,192,85368,1,8,0:0:0:0:
256,192,85544,1,8,0:0:0:0:
256,192,85898,1,0,0:0:0:0:
256,192,86074,1,8,0:0:0:0:
256,192,86427,1,4,0:0:0:0:
256,192,86780,1,8,0:0:0:0:
256,192,86956,1,0,0:0:0:0:
256,192,87309,1,0,0:0:0:0:
256,192,87486,1,8,0:0:0:0:
256,192,87838,1,4,0:0:0:0:
256,192,88191,1,8,0:0:0:0:
256,192,88721,1,0,0:0:0:0:
256,192,88897,1,8,0:0:0:0:
256,192,89515,5,4,0:0:0:0:
256,192,90045,1,4,0:0:0:0:
256,192,90309,5,8,0:0:0:0:
256,192,90662,1,4,0:0:0:0:
256,192,91015,1,8,0:0:0:0:
256,192,91721,1,8,0:0:0:0:
256,192,92074,1,0,0:0:0:0:
256,192,92780,1,0,0:0:0:0:
256,192,93133,1,8,0:0:0:0:
256,192,93486,1,4,0:0:0:0:
256,192,93839,1,8,0:0:0:0:
256,192,94545,1,8,0:0:0:0:
256,192,94898,1,0,0:0:0:0:
256,192,95251,1,8,0:0:0:0:
256,192,95957,1,8,0:0:0:0:
256,192,96309,1,4,0:0:0:0:
256,192,96662,1,8,0:0:0:0:
256,192,97368,1,8,0:0:0:0:
256,192,97721,1,0,0:0:0:0:
256,192,98427,1,0,0:0:0:0:
256,192,98780,1,8,0:0:0:0:
256,192,99133,1,4,0:0:0:0:
256,192,99486,1,8,0:0:0:0:
256,192,100192,1,8,0:0:0:0:
256,192,100809,5,4,0:0:0:0:
256,192,101339,1,4,0:0:0:0:
256,192,101604,1,8,0:0:0:0:
256,192,101957,1,4,0:0:0:0:
256,192,102310,1,8,0:0:0:0:
256,192,103016,1,8,0:0:0:0:
256,192,103369,1,0,0:0:0:0:
256,192,104075,1,0,0:0:0:0:
256,192,104428,1,8,0:0:0:0:
256,192,104781,1,4,0:0:0:0:
256,192,105134,1,8,0:0:0:0:
256,192,105840,1,8,0:0:0:0:
256,192,106193,1,0,0:0:0:0:
256,192,106546,1,8,0:0:0:0:
256,192,107252,1,8,0:0:0:0:
256,192,107604,1,4,0:0:0:0:
256,192,107957,1,8,0:0:0:0:
256,192,108663,1,8,0:0:0:0:
256,192,109016,1,0,0:0:0:0:
256,192,109722,1,0,0:0:0:0:
256,192,110075,1,8,0:0:0:0:
256,192,110428,1,4,0:0:0:0:
256,192,110781,1,8,0:0:0:0:
256,192,111487,1,8,0:0:0:0:
256,192,112104,5,4,0:0:0:0:
256,192,112634,1,4,0:0:0:0:
256,192,112899,1,8,0:0:0:0:
256,192,113252,1,4,0:0:0:0:
256,192,118898,5,4,0:0:0:0:
256,192,130192,5,4,0:0:0:0:
256,192,130721,1,8,0:0:0:0:
256,192,131251,1,8,0:0:0:0:
256,192,131604,1,8,0:0:0:0:
256,192,132662,1,8,0:0:0:0:
256,192,133015,1,8,0:0:0:0:
256,192,134074,1,8,0:0:0:0:
256,192,134427,1,8,0:0:0:0:
256,192,134956,1,8,0:0:0:0:
256,192,135486,1,8,0:0:0:0:
256,192,135838,1,8,0:0:0:0:
256,192,136898,1,8,0:0:0:0:
256,192,137250,1,8,0:0:0:0:
256,192,138309,1,8,0:0:0:0:
256,192,138662,1,8,0:0:0:0:
256,192,139192,1,8,0:0:0:0:
256,192,139721,1,8,0:0:0:0:
256,192,140074,1,12,0:0:0:0:
256,192,140957,1,8,0:0:0:0:
256,192,141486,1,4,0:0:0:0:
256,192,142898,5,0,0:0:0:0:
256,192,144309,5,4,0:0:0:0:
256,192,145721,5,0,0:0:0:0:
256,192,147133,5,4,0:0:0:0:
256,192,148545,5,0,0:0:0:0:
256,192,149956,5,4,0:0:0:0:
256,192,151368,5,0,0:0:0:0:
256,192,152251,5,0,0:0:0:0:
256,192,152428,1,0,0:0:0:0:
256,192,152781,5,4,0:0:0:0:
256,192,153134,1,8,0:0:0:0:
256,192,153487,1,0,0:0:0:0:
256,192,153663,1,8,0:0:0:0:
256,192,154016,1,0,0:0:0:0:
256,192,154192,1,0,0:0:0:0:
256,192,154545,1,8,0:0:0:0:
256,192,155251,1,0,0:0:0:0:
256,192,155428,1,0,0:0:0:0:
256,192,155604,1,0,0:0:0:0:
256,192,155957,1,8,0:0:0:0:
256,192,156134,1,0,0:0:0:0:
256,192,156487,1,8,0:0:0:0:
256,192,156840,1,8,0:0:0:0:
256,192,157016,1,0,0:0:0:0:
256,192,157369,1,8,0:0:0:0:
256,192,158075,1,0,0:0:0:0:
256,192,158428,5,4,0:0:0:0:
256,192,158781,1,8,0:0:0:0:
256,192,159134,1,0,0:0:0:0:
256,192,159310,1,8,0:0:0:0:
256,192,159663,1,0,0:0:0:0:
256,192,159839,1,0,0:0:0:0:
256,192,160192,1,8,0:0:0:0:
256,192,160898,1,0,0:0:0:0:
256,192,161075,1,0,0:0:0:0:
256,192,161251,1,0,0:0:0:0:
256,192,161604,1,8,0:0:0:0:
256,192,161781,1,0,0:0:0:0:
256,192,162134,1,8,0:0:0:0:
256,192,162487,1,8,0:0:0:0:
256,192,162663,1,0,0:0:0:0:
256,192,163016,1,8,0:0:0:0:
256,192,163722,1,0,0:0:0:0:
256,192,164075,5,4,0:0:0:0:
256,192,164781,1,0,0:0:0:0:
256,192,165134,1,0,0:0:0:0:
256,192,165487,1,0,0:0:0:0:
256,192,165840,1,8,0:0:0:0:
256,192,166016,1,8,0:0:0:0:
256,192,166192,1,8,0:0:0:0:
256,192,166545,1,0,0:0:0:0:
256,192,166898,1,0,0:0:0:0:
256,192,167604,1,0,0:0:0:0:
256,192,167957,1,0,0:0:0:0:
256,192,168310,1,0,0:0:0:0:
256,192,168663,1,8,0:0:0:0:
256,192,168839,1,8,0:0:0:0:
256,192,169016,1,8,0:0:0:0:
256,192,169368,1,0,0:0:0:0:
256,192,169721,1,0,0:0:0:0:
256,192,170251,1,8,0:0:0:0:
256,192,170428,1,0,0:0:0:0:
256,192,170781,1,0,0:0:0:0:
256,192,170957,1,8,0:0:0:0:
256,192,171134,1,0,0:0:0:0:
256,192,171487,1,8,0:0:0:0:
256,192,171663,1,8,0:0:0:0:
256,192,171840,1,8,0:0:0:0:
256,192,172192,1,0,0:0:0:0:
256,192,172545,1,0,0:0:0:0:
256,192,172899,1,0,0:0:0:0:
256,192,173075,1,0,0:0:0:0:
256,192,173251,1,0,0:0:0:0:
256,192,173605,1,0,0:0:0:0:
256,192,173781,1,0,0:0:0:0:
256,192,173957,1,0,0:0:0:0:
256,192,174663,5,8,0:0:0:0:
256,192,175016,1,0,0:0:0:0:
256,192,175192,1,0,0:0:0:0:
256,192,175368,1,4,0:0:0:0:
256,192,175721,1,8,0:0:0:0:
256,192,175897,1,8,0:0:0:0:
256,192,176250,1,0,0:0:0:0:
256,192,176427,1,8,0:0:0:0:
256,192,176780,1,4,0:0:0:0:
256,192,177133,1,8,0:0:0:0:
256,192,177309,1,0,0:0:0:0:
256,192,177662,1,0,0:0:0:0:
256,192,177839,1,8,0:0:0:0:
256,192,178191,1,4,0:0:0:0:
256,192,178544,1,8,0:0:0:0:
256,192,178721,1,0,0:0:0:0:
256,192,179250,1,8,0:0:0:0:
256,192,179603,1,4,0:0:0:0:
256,192,179956,1,8,0:0:0:0:
256,192,180662,1,8,0:0:0:0:
256,192,181015,1,4,0:0:0:0:
256,192,181368,1,8,0:0:0:0:
256,192,181544,1,8,0:0:0:0:
256,192,181897,1,0,0:0:0:0:
256,192,182074,1,8,0:0:0:0:
256,192,182427,1,4,0:0:0:0:
256,192,182780,1,8,0:0:0:0:
256,192,182956,1,0,0:0:0:0:
256,192,183309,1,0,0:0:0:0:
256,192,183486,1,8,0:0:0:0:
256,192,183838,1,4,0:0:0:0:
256,192,184191,1,8,0:0:0:0:
256,192,184721,1,0,0:0:0:0:
256,192,184897,1,8,0:0:0:0:
256,192,185250,1,4,0:0:0:0:
256,192,185603,1,8,0:0:0:0:
256,192,186309,1,8,0:0:0:0:
256,192,186662,1,4,0:0:0:0:
256,192,187015,1,8,0:0:0:0:
256,192,187191,1,8,0:0:0:0:
256,192,187544,1,0,0:0:0:0:
256,192,187721,1,8,0:0:0:0:
256,192,188074,1,4,0:0:0:0:
256,192,188427,1,8,0:0:0:0:
256,192,188603,1,0,0:0:0:0:
256,192,188956,1,0,0:0:0:0:
256,192,189133,1,8,0:0:0:0:
256,192,189485,1,4,0:0:0:0:
256,192,189838,1,8,0:0:0:0:
256,192,190368,1,0,0:0:0:0:
256,192,190544,1,8,0:0:0:0:
256,192,190897,1,4,0:0:0:0:
256,192,191250,1,8,0:0:0:0:
256,192,191956,1,8,0:0:0:0:
256,192,192309,1,4,0:0:0:0:
256,192,192662,1,8,0:0:0:0:
256,192,192838,1,8,0:0:0:0:
256,192,193191,1,0,0:0:0:0:
256,192,193368,1,8,0:0:0:0:
256,192,193721,1,4,0:0:0:0:
256,192,194074,1,8,0:0:0:0:
256,192,194250,1,0,0:0:0:0:
256,192,194603,1,0,0:0:0:0:
256,192,194780,1,8,0:0:0:0:
256,192,195132,1,4,0:0:0:0:
256,192,195485,1,8,0:0:0:0:
256,192,196015,1,0,0:0:0:0:
256,192,196191,1,8,0:0:0:0:
256,192,196810,5,0,0:0:0:0:
256,192,197075,1,0,0:0:0:0:
256,192,197340,1,0,0:0:0:0:
256,192,197604,1,8,0:0:0:0:
256,192,197957,1,8,0:0:0:0:
256,192,198574,1,0,0:0:0:0:
256,192,198927,1,8,0:0:0:0:
256,192,199280,1,0,0:0:0:0:
256,192,199634,1,8,0:0:0:0:
256,192,199898,1,8,0:0:0:0:
256,192,200163,1,8,0:0:0:0:
256,192,200781,1,8,0:0:0:0:
256,192,201399,1,0,0:0:0:0:
256,192,201752,1,8,0:0:0:0:
256,192,202104,1,0,0:0:0:0:
256,192,202457,1,12,0:0:0:0:
256,192,202987,1,12,0:0:0:0:
256,192,203604,1,8,0:0:0:0:
256,192,204221,1,0,0:0:0:0:
256,192,204574,1,8,0:0:0:0:
256,192,204927,1,0,0:0:0:0:
256,192,205281,1,8,0:0:0:0:
256,192,205545,1,8,0:0:0:0:
256,192,205810,1,8,0:0:0:0:
256,192,206428,1,8,0:0:0:0:
256,192,207045,1,0,0:0:0:0:
256,192,207397,1,8,0:0:0:0:
256,192,207751,1,0,0:0:0:0:
256,192,208104,1,12,0:0:0:0:
256,192,208634,1,12,0:0:0:0:
256,192,209251,1,4,0:0:0:0:
256,192,209604,1,8,0:0:0:0:
256,192,209780,1,8,0:0:0:0:
256,192,210134,1,0,0:0:0:0:
256,192,210310,1,8,0:0:0:0:
256,192,210663,1,4,0:0:0:0:
256,192,211016,1,8,0:0:0:0:
256,192,211192,1,0,0:0:0:0:
256,192,211545,1,0,0:0:0:0:
256,192,211722,1,8,0:0:0:0:
256,192,212074,1,4,0:0:0:0:
256,192,212427,1,8,0:0:0:0:
256,192,212957,1,0,0:0:0:0:
256,192,213133,1,8,0:0:0:0:
256,192,213486,1,4,0:0:0:0:
256,192,213839,1,8,0:0:0:0:
256,192,214545,1,8,0:0:0:0:
256,192,214898,1,4,0:0:0:0:
256,192,215251,1,8,0:0:0:0:
256,192,215427,1,8,0:0:0:0:
256,192,215781,1,0,0:0:0:0:
256,192,215957,1,8,0:0:0:0:
256,192,216310,1,4,0:0:0:0:
256,192,216663,1,8,0:0:0:0:
256,192,216839,1,0,0:0:0:0:
256,192,217192,1,0,0:0:0:0:
256,192,217369,1,8,0:0:0:0:
256,192,217721,1,4,0:0:0:0:
256,192,218074,1,8,0:0:0:0:
256,192,218604,1,0,0:0:0:0:
256,192,218780,1,8,0:0:0:0:
256,192,219398,5,4,0:0:0:0:
256,192,219928,1,4,0:0:0:0:
256,192,220193,1,8,0:0:0:0:
256,192,220545,1,4,0:0:0:0:
256,192,220898,1,8,0:0:0:0:
256,192,221604,1,8,0:0:0:0:
256,192,221957,1,0,0:0:0:0:
256,192,222663,1,0,0:0:0:0:
256,192,223016,1,8,0:0:0:0:
256,192,223369,1,4,0:0:0:0:
256,192,223722,1,8,0:0:0:0:
256,192,224428,1,8,0:0:0:0:
256,192,224781,1,0,0:0:0:0:
256,192,225134,1,8,0:0:0:0:
256,192,225840,1,8,0:0:0:0:
256,192,226192,1,4,0:0:0:0:
256,192,226545,1,8,0:0:0:0:
256,192,227251,1,8,0:0:0:0:
256,192,227604,1,0,0:0:0:0:
256,192,228310,1,0,0:0:0:0:
256,192,228663,1,8,0:0:0:0:
256,192,229016,1,4,0:0:0:0:
256,192,229369,1,8,0:0:0:0:
256,192,230075,1,8,0:0:0:0:
256,192,230692,5,4,0:0:0:0:
256,192,231222,1,4,0:0:0:0:
256,192,231487,1,8,0:0:0:0:
256,192,231840,1,4,0:0:0:0:
256,192,232193,1,8,0:0:0:0:
256,192,232899,1,8,0:0:0:0:
256,192,233252,1,0,0:0:0:0:
256,192,233958,1,0,0:0:0:0:
256,192,234309,1,8,0:0:0:0:
256,192,234662,1,4,0:0:0:0:
256,192,235015,1,8,0:0:0:0:
256,192,235721,1,8,0:0:0:0:
256,192,236074,1,0,0:0:0:0:
256,192,236427,1,8,0:0:0:0:
256,192,237133,1,8,0:0:0:0:
256,192,237486,1,4,0:0:0:0:
256,192,237839,1,8,0:0:0:0:
256,192,238545,1,8,0:0:0:0:
256,192,238898,1,0,0:0:0:0:
256,192,239605,1,0,0:0:0:0:
256,192,239958,1,8,0:0:0:0:
256,192,240309,1,4,0:0:0:0:
256,192,240662,1,8,0:0:0:0:
256,192,241368,1,8,0:0:0:0:
256,192,241987,5,4,0:0:0:0:
256,192,242515,1,4,0:0:0:0:
256,192,242780,1,8,0:0:0:0:
256,192,243133,1,4,0:0:0:0:
