osu file format v14

[General]
AudioFilename: audio.mp3
AudioLeadIn: 0
PreviewTime: 44774
Countdown: 1
SampleSet: Soft
StackLeniency: 0.4
Mode: 0
LetterboxInBreaks: 0
WidescreenStoryboard: 0

[Editor]
Bookmarks: 22892,26745,27362,27598,27833,27892,28186,28245,28303,28362,28421,28480,28539,34186,42656,44068,44774,45480,45745,46009,46274,51127,56774,62421,66656,68068,73715,77951,79627,85009,89245,90656,100803,101068,101333,113245,130186,141480,152774,154421,154715,154951,164068,169715,173245,173951,175362,181009,186656,192303,196539
DistanceSpacing: 0.6
BeatDivisor: 4
GridSize: 32
TimelineZoom: 2.3

[Metadata]
Title:sha
TitleUnicode:sha
Artist:sakuraburst
ArtistUnicode:sakuraburst
Creator:QuiescentRabbit
Version:Crystalline
Source:
Tags:
BeatmapID:1594431
BeatmapSetID:757950

[Difficulty]
HPDrainRate:5
CircleSize:4.3
OverallDifficulty:8.3
ApproachRate:9.5
SliderMultiplier:2
SliderTickRate:1

[Events]
//Background and Video events
0,0,"background.jpg",0,0
//Break Periods
2,102239,118367
2,130033,152249
//Storyboard Layer 0 (Background)
//Storyboard Layer 1 (Fail)
//Storyboard Layer 2 (Pass)
//Storyboard Layer 3 (Foreground)
//Storyboard Sound Samples

[TimingPoints]
304,352.941176470588,4,2,0,40,1,0
304,-1000,4,2,0,40,0,0
404,-25,4,2,0,40,0,0
22892,-100,4,2,0,40,0,0
25715,-83.3333333333333,4,2,0,40,0,0
44774,-142.857142857143,4,2,0,40,0,1
45480,-58.8235294117647,4,2,0,40,0,1
45745,-133.333333333333,4,2,0,40,0,1
46539,-68.9655172413792,4,2,0,40,0,1
46892,-200,4,2,0,40,0,1
47156,-125,4,2,0,40,0,1
47951,-54.054054054054,4,2,0,40,0,1
48303,-50,4,2,0,40,0,1
48568,-117.647058823529,4,2,0,40,0,1
49362,-54.054054054054,4,2,0,40,0,1
49715,-200,4,2,0,40,0,1
49980,-111.111111111111,4,2,0,40,0,1
50774,-50,4,2,0,40,0,1
51127,-200,4,2,0,40,0,1
51392,-105.263157894737,4,2,0,40,0,1
52186,-51.2820512820513,4,2,0,40,0,1
52539,-200,4,2,0,40,0,1
52803,-100,4,2,0,40,0,1
53598,-43.4782608695652,4,2,0,40,0,1
53951,-52.6315789473684,4,2,0,40,0,1
54215,-95.2380952380952,4,2,0,40,0,1
55009,-51.2820512820513,4,2,0,40,0,1
55362,-250,4,2,0,40,0,1
55627,-90.9090909090909,4,2,0,40,0,1
56421,-38.4615384615385,4,2,0,40,0,1
56774,-250,4,2,0,40,0,1
57039,-86.9565217391304,4,2,0,40,0,1
57833,-45.4545454545455,4,2,0,40,0,1
58186,-285.714285714286,4,2,0,40,0,1
58451,-83.3333333333333,4,2,0,40,0,1
59245,-41.6666666666667,4,2,0,40,0,1
59598,-50,4,2,0,40,0,1
59862,-80,4,2,0,40,0,1
60656,-50,4,2,0,40,0,1
61009,-285.714285714286,4,2,0,40,0,1
61274,-76.9230769230769,4,2,0,40,0,1
62068,-50,4,2,0,40,0,1
62421,-333.333333333333,4,2,0,40,0,1
62686,-74.0740740740741,4,2,0,40,0,1
63392,-45.4545454545455,4,2,0,40,0,1
63833,-400,4,2,0,40,0,1
64098,-71.4285714285714,4,2,0,40,0,1
64892,-35.7142857142857,4,2,0,40,0,1
65245,-41.6666666666667,4,2,0,40,0,1
65509,-68.9655172413793,4,2,0,40,0,1
66303,-58.8235294117647,4,2,0,40,0,0
66921,-200,4,2,0,40,0,0
68068,-55.5555555555556,4,2,0,40,0,1
68421,-100,4,2,0,40,0,0
68686,-55.5555555555556,4,2,0,40,0,1
69127,-100,4,2,0,40,0,0
69392,-41.6666666666667,4,2,0,40,0,1
70009,-55.5555555555556,4,2,0,40,0,1
70539,-35.7142857142857,4,2,0,40,0,0
70892,-41.6666666666667,4,2,0,40,0,1
71245,-100,4,2,0,40,0,0
71509,-55.5555555555556,4,2,0,40,0,1
71951,-100,4,2,0,40,0,0
72568,-35.7142857142857,4,2,0,40,0,1
73362,-41.6666666666667,4,2,0,40,0,0
73715,-50,4,2,0,40,0,1
74068,-83.3333333333333,4,2,0,40,0,0
74333,-50,4,2,0,40,0,1
74774,-83.3333333333333,4,2,0,40,0,0
75039,-41.6666666666667,4,2,0,40,0,1
75656,-50,4,2,0,40,0,1
76186,-38.4615384615385,4,2,0,40,0,0
76539,-50,4,2,0,40,0,1
76892,-83.3333333333333,4,2,0,40,0,0
77156,-50,4,2,0,40,0,1
77598,-83.3333333333333,4,2,0,40,0,0
79009,-41.6666666666667,4,2,0,40,0,1
79362,-200,4,2,0,40,0,0
79627,-100,4,2,0,40,0,0
80421,-45.4545454545455,4,2,0,40,0,0
80774,-200,4,2,0,40,0,0
81039,-90.9090909090909,4,2,0,40,0,0
81833,-38.4615384615385,4,2,0,40,0,0
82186,-45.4545454545455,4,2,0,40,0,0
82451,-83.3333333333333,4,2,0,40,0,0
83245,-45.4545454545455,4,2,0,40,0,0
83598,-200,4,2,0,40,0,0
83862,-76.9230769230769,4,2,0,40,0,0
84656,-40,4,2,0,40,0,0
85009,-200,4,2,0,40,0,0
85274,-83.3333333333333,4,2,0,40,0,0
86068,-43.4782608695652,4,2,0,40,0,0
86421,-250,4,2,0,40,0,0
86686,-90.9090909090909,4,2,0,40,0,0
87480,-40,4,2,0,40,0,0
87833,-43.4782608695652,4,2,0,40,0,0
88098,-100,4,2,0,40,0,0
88892,-43.4782608695652,4,2,0,40,0,0
89509,-58.8235294117647,4,2,0,40,0,0
89774,-100,4,2,0,40,0,0
90039,-125,4,2,0,40,0,0
91715,-90.9090909090909,4,2,0,40,0,0
92068,-125,4,2,0,40,0,0
93127,-76.9230769230769,4,2,0,40,0,0
93480,-142.857142857143,4,2,0,40,0,0
93833,-125,4,2,0,40,0,0
94539,-90.9090909090909,4,2,0,40,0,0
95245,-125,4,2,0,40,0,0
95951,-66.6666666666667,4,2,0,40,0,0
96303,-142.857142857143,4,2,0,40,0,0
96656,-125,4,2,0,40,0,0
97362,-90.9090909090909,4,2,0,40,0,0
98068,-125,4,2,0,40,0,0
98774,-80,4,2,0,40,0,0
99127,-142.857142857143,4,2,0,40,0,0
99480,-125,4,2,0,40,0,0
100186,-90.9090909090909,4,2,0,40,0,0
100803,-76.9230769230769,4,2,0,40,0,0
118892,-1000,4,2,0,40,0,0
141480,-200,4,2,0,40,0,0
142980,-142.857142857143,4,2,0,40,0,0
152774,-83.3333333333333,4,2,0,40,0,0
155598,-166.666666666667,4,2,0,40,0,0
156127,-83.3333333333333,4,2,0,40,0,0
164774,-111.111111111111,4,2,0,40,0,0
175362,-33.3333333333333,4,2,0,40,0,1
176774,-111.111111111111,4,2,0,40,0,1
177039,-33.3333333333333,4,2,0,40,0,1
178186,-55.5555555555556,4,2,0,40,0,1
178451,-33.3333333333333,4,2,0,40,0,1
179598,-111.111111111111,4,2,0,40,0,1
179951,-33.3333333333333,4,2,0,40,0,1
181009,-83.3333333333333,4,2,0,40,0,1
181274,-32.258064516129,4,2,0,40,0,1
182421,-111.111111111111,4,2,0,40,0,1
182686,-32.258064516129,4,2,0,40,0,0

[HitObjects]
353,0,22892,6,0,P|442:25|445:119,1,200,0|0,0:0|0:0,0:0:0:0:
344,169,23421,1,0,0:0:0:0:
333,173,23509,1,0,0:0:0:0:
323,180,23598,2,0,P|305:221|326:262,1,50,0|0,0:0|0:0,0:0:0:0:
355,304,23774,1,0,0:0:0:0:
366,300,23862,1,0,0:0:0:0:
376,293,23951,2,0,P|394:252|373:211,1,50,0|0,0:0|0:0,0:0:0:0:
300,236,24127,1,0,0:0:0:0:
284,242,24215,1,0,0:0:0:0:
267,246,24303,2,0,P|207:232|179:203,1,100,0|0,0:0|0:0,0:0:0:0:
199,132,24539,6,0,L|142:64,1,66.6666666666667
165,292,24774,2,0,L|222:360,1,66.6666666666667,0|0,0:0|0:0,0:0:0:0:
180,205,25009,1,0,0:0:0:0:
199,132,25068,2,0,L|142:64,1,66.6666666666667,0|0,0:0|0:0,0:0:0:0:
165,292,25362,2,0,L|197:330,4,33.3333333333333,0|0|0|0|0,0:0|0:0|0:0|0:0|0:0,0:0:0:0:
227,53,25715,6,0,B|243:-5|243:-5|275:38|324:36|324:36|300:86|339:134,1,239.999992675781
471,105,26245,5,0,0:0:0:0:
465,100,26333,1,0,0:0:0:0:
460,96,26421,2,0,P|419:78|370:84,1,59.9999981689454
416,167,26598,1,0,0:0:0:0:
408,167,26686,1,0,0:0:0:0:
401,167,26774,2,0,P|358:179|324:215,1,59.9999981689454,0|0,0:0|0:0,0:0:0:0:
416,247,26951,1,0,0:0:0:0:
395,258,27039,1,0,0:0:0:0:
383,272,27127,2,0,P|361:311|363:360,1,59.9999981689454,0|0,0:0|0:0,0:0:0:0:
241,247,27362,6,0,L|199:140,1,79.9999975585938
199,27,27598,2,0,L|157:134,1,79.9999975585938,0|0,0:0|0:0,0:0:0:0:
88,251,27833,1,0,0:0:0:0:
88,251,27892,2,0,L|46:144,1,79.9999975585938,0|0,0:0|0:0,0:0:0:0:
259,109,28186,2,0,P|280:122|297:138,4,39.9999987792969,0|0|0|0|0,0:0|0:0|0:0|0:0|0:0,0:0:0:0:
170,248,28539,6,0,B|173:282|151:309|130:325|94:332|94:332|176:318|232:348,1,239.999992675781
454,271,29068,5,0,0:0:0:0:
448,266,29156,1,0,0:0:0:0:
443,262,29245,2,0,P|402:244|353:250,1,59.9999981689454,0|0,0:0|0:0,0:0:0:0:
275,189,29421,1,0,0:0:0:0:
281,184,29509,1,0,0:0:0:0:
286,180,29598,2,0,P|327:162|376:168,1,59.9999981689454,0|0,0:0|0:0,0:0:0:0:
474,119,29774,1,0,0:0:0:0:
468,114,29862,1,0,0:0:0:0:
463,110,29951,2,0,P|422:92|373:98,1,59.9999981689454,0|0,0:0|0:0,0:0:0:0:
380,322,30186,6,0,L|389:218,1,79.9999975585938
279,259,30421,2,0,L|285:179,1,79.9999975585938,0|0,0:0|0:0,0:0:0:0:
178,196,30656,1,0,0:0:0:0:
178,196,30715,2,0,L|184:116,1,79.9999975585938,0|0,0:0|0:0,0:0:0:0:
380,322,31009,2,0,L|413:344,4,39.9999987792969,0|0|0|0|0,0:0|0:0|0:0|0:0|0:0,0:0:0:0:
136,267,31362,6,0,B|100:243|88:205|91:181|109:150|109:150|36:180|-18:149,1,239.999992675781
177,47,31892,5,0,0:0:0:0:
182,53,31980,1,0,0:0:0:0:
186,58,32068,2,0,B|206:80|206:80|230:139,1,59.9999981689454,0|0,0:0|0:0,0:0:0:0:
363,103,32245,1,0,0:0:0:0:
357,98,32333,1,0,0:0:0:0:
352,94,32421,2,0,P|311:76|262:82,1,59.9999981689454,0|0,0:0|0:0,0:0:0:0:
182,186,32598,1,0,0:0:0:0:
182,186,32686,1,0,0:0:0:0:
182,186,32774,2,0,P|234:197|296:113,1,119.999996337891,0|0,0:0|0:0,0:0:0:0:
292,157,33009,6,0,L|314:244,1,79.9999975585938
171,374,33245,2,0,L|148:286,1,79.9999975585938,0|0,0:0|0:0,0:0:0:0:
292,157,33480,1,0,0:0:0:0:
292,157,33539,2,0,L|314:244,1,79.9999975585938,0|0,0:0|0:0,0:0:0:0:
99,144,33833,2,0,P|144:104|158:103,4,39.9999987792969,0|0|0|0|0,0:0|0:0|0:0|0:0|0:0,0:0:0:0:
371,286,34186,6,0,B|402:246|378:190|378:190|414:194|445:167|445:167|438:212|479:254,1,239.999992675781
382,110,34715,1,0,0:0:0:0:
382,110,34803,5,0,0:0:0:0:
382,110,34892,2,0,P|322:125|301:152,1,59.9999981689454,0|0,0:0|0:0,0:0:0:0:
164,189,35068,1,0,0:0:0:0:
164,189,35156,1,0,0:0:0:0:
164,189,35245,2,0,P|224:204|245:231,1,59.9999981689454,0|0,0:0|0:0,0:0:0:0:
371,286,35421,1,0,0:0:0:0:
371,286,35509,1,0,0:0:0:0:
371,286,35598,2,0,P|311:301|290:328,1,59.9999981689454,0|0,0:0|0:0,0:0:0:0:
180,362,35833,5,0,0:0:0:0:
91,250,35951,2,0,P|76:203|84:163,1,79.9999975585938,0|0,0:0|0:0,0:0:0:0:
170,109,36127,2,0,L|161:204,1,79.9999975585938,0|0,0:0|0:0,0:0:0:0:
259,96,36303,1,0,0:0:0:0:
259,96,36362,2,0,L|267:0,1,79.9999975585938,0|0,0:0|0:0,0:0:0:0:
358,1,36656,5,0,0:0:0:0:
358,1,36715,1,0,0:0:0:0:
358,1,36774,1,0,0:0:0:0:
358,1,36833,1,0,0:0:0:0:
358,1,36892,1,0,0:0:0:0:
346,93,37009,6,0,B|336:146|292:171|292:171|330:165|363:191|363:191|392:165|435:175,1,239.999992675781
311,252,37539,5,0,0:0:0:0:
311,252,37627,1,0,0:0:0:0:
311,252,37715,2,0,P|249:288|226:288,1,59.9999981689454,0|0,0:0|0:0,0:0:0:0:
231,358,37892,1,0,0:0:0:0:
231,358,37980,1,0,0:0:0:0:
231,358,38068,2,0,P|161:339|145:323,1,59.9999981689454,0|0,0:0|0:0,0:0:0:0:
98,363,38245,1,0,0:0:0:0:
98,363,38333,1,0,0:0:0:0:
98,363,38421,2,0,P|107:307|171:270,1,119.999996337891,0|0,0:0|0:0,0:0:0:0:
168,266,38656,5,0,0:0:0:0:
186,182,38774,2,0,L|176:281,1,79.9999975585938,0|0,0:0|0:0,0:0:0:0:
318,331,38951,2,0,L|308:231,1,79.9999975585938,0|0,0:0|0:0,0:0:0:0:
252,214,39127,1,0,0:0:0:0:
186,182,39186,2,0,L|176:281,1,79.9999975585938,0|0,0:0|0:0,0:0:0:0:
395,357,39480,5,0,0:0:0:0:
398,341,39539,1,0,0:0:0:0:
399,325,39598,1,0,0:0:0:0:
396,310,39656,1,0,0:0:0:0:
390,295,39715,1,0,0:0:0:0:
251,137,39833,6,0,B|216:106|176:99|176:99|186:32|114:14|114:14|131:48|117:85,1,239.999992675781
110,166,40362,5,0,0:0:0:0:
110,166,40451,1,0,0:0:0:0:
110,166,40539,2,0,P|83:190|44:197,1,59.9999981689454,0|0,0:0|0:0,0:0:0:0:
187,247,40715,1,0,0:0:0:0:
187,247,40803,1,0,0:0:0:0:
187,247,40892,2,0,P|214:271|253:278,1,59.9999981689454,0|0,0:0|0:0,0:0:0:0:
125,319,41068,1,0,0:0:0:0:
125,319,41156,1,0,0:0:0:0:
125,319,41245,2,0,P|76:362|8:347,1,119.999996337891,0|0,0:0|0:0,0:0:0:0:
20,354,41480,5,0,0:0:0:0:
60,196,41598,2,0,L|51:298,1,79.9999975585938,0|0,0:0|0:0,0:0:0:0:
199,151,41774,2,0,L|190:48,1,79.9999975585938,0|0,0:0|0:0,0:0:0:0:
130,174,41951,1,0,0:0:0:0:
60,196,42009,2,0,L|51:298,1,79.9999975585938,0|0,0:0|0:0,0:0:0:0:
222,224,42303,5,0,0:0:0:0:
248,209,42362,1,0,0:0:0:0:
266,186,42421,1,0,0:0:0:0:
275,157,42480,1,0,0:0:0:0:
272,128,42539,1,0,0:0:0:0:
272,128,42598,1,0,0:0:0:0:
272,128,42656,2,0,P|265:83|288:32,3,59.9999981689454,0|0|0|0,0:0|0:0|0:0|0:0,0:0:0:0:
371,12,43009,2,0,P|378:57|352:96,3,59.9999981689454
364,145,43362,5,0,0:0:0:0:
356,173,43451,1,0,0:0:0:0:
359,202,43539,1,0,0:0:0:0:
373,229,43627,1,0,0:0:0:0:
416,178,43715,1,0,0:0:0:0:
424,150,43804,1,0,0:0:0:0:
421,121,43892,1,0,0:0:0:0:
407,94,43980,1,0,0:0:0:0:
374,70,44068,6,0,P|306:101|290:131,1,59.9999981689454
3,140,44774,6,0,L|-2:202,1,34.9999989318848
65,79,44951,1,0,0:0:0:0:
65,79,45039,1,0,0:0:0:0:
94,60,45127,1,0,0:0:0:0:
121,58,45215,1,0,0:0:0:0:
144,62,45303,1,0,0:0:0:0:
162,72,45392,1,0,0:0:0:0:
216,127,45480,2,0,B|167:162|116:132|116:132|161:194|103:252,1,170.000003242493
136,233,45745,6,0,L|140:196,1,37.5000014305115
212,164,46009,2,0,L|216:127,1,37.5000014305115,0|0,0:0|0:0,0:0:0:0:
288,95,46274,2,0,L|292:58,1,37.5000014305115,0|0,0:0|0:0,0:0:0:0:
299,52,46451,1,0,0:0:0:0:
292,178,46539,2,0,B|254:196|211:165|211:165|258:247|229:325,1,217.500006637573
232,298,46892,2,0,P|226:250|234:240,1,50
288,95,47156,6,0,L|329:98,1,40
376,177,47421,2,0,L|416:180,1,40
461,245,47686,2,0,L|500:248,1,40,0|0,0:0|0:0,0:0:0:0:
404,333,47951,2,0,B|340:267|376:176|376:176|345:269|251:273,1,277.499998941422
329,108,48303,2,0,B|375:109|421:85|421:85|347:179|387:254,1,200
500,248,48568,6,0,L|458:244,1,42.5000008106232
417,181,48833,2,0,L|356:175,1,42.5000008106232
329,108,49098,2,0,L|278:103,1,42.5000008106232
166,96,49274,1,0,0:0:0:0:
96,179,49362,2,0,B|136:148|167:97|167:97|188:153|217:167|217:167|250:185|257:235,1,277.499998941422
252,239,49715,2,0,P|230:225|224:190,1,50,0|0,0:0|0:0,0:0:0:0:
51,183,49980,6,0,L|97:178,1,44.999998626709
166,96,50245,2,0,L|219:90,1,44.999998626709,0|0,0:0|0:0,0:0:0:0:
297,26,50509,2,0,L|344:21,1,44.999998626709,0|0,0:0|0:0,0:0:0:0:
398,130,50774,2,0,B|339:120|287:141|287:141|214:92|214:92|91:104,1,300
107,102,51127,2,0,P|116:62|107:42,1,50
29,47,51392,6,0,L|23:-2,1,47.4999987316132
113,150,51656,2,0,L|106:95,1,47.4999987316132,0|0,0:0|0:0,0:0:0:0:
203,256,51921,2,0,L|192:169,1,47.4999987316132,0|0,0:0|0:0,0:0:0:0:
298,311,52098,1,0,0:0:0:0:
290,208,52186,2,0,B|276:137|218:113|218:113|311:135|385:80,1,292.500001115799,0|0,0:0|0:0,0:0:0:0:
378,84,52539,2,0,P|352:86|325:100,1,50,0|0,0:0|0:0,0:0:0:0:
292,15,52803,6,0,L|341:8,1,50
170,121,53068,2,0,L|219:114,1,50,0|0,0:0|0:0,0:0:0:0:
41,221,53333,2,0,L|90:214,1,50,0|0,0:0|0:0,0:0:0:0:
216,200,53509,1,0,0:0:0:0:
216,200,53598,2,0,B|302:180|301:92|301:92|331:156|397:168|397:168|371:202|363:268,1,345.000006580353,0|0,0:0|0:0,0:0:0:0:
370,228,53951,2,0,B|330:341|330:341|422:271|464:333,1,189.999994926453
395,79,54215,6,0,L|449:71,1,52.4999983978272
215,199,54480,2,0,L|298:188,1,52.4999983978272
35,319,54745,2,0,L|88:311,1,52.4999983978272,0|0,0:0|0:0,0:0:0:0:
176,278,54921,1,0,0:0:0:0:
176,278,55009,2,0,B|148:261|106:189|149:136|190:119|190:119|89:135|82:91,1,292.500001115799,0|0,0:0|0:0,0:0:0:0:
89,109,55362,2,0,P|115:94|135:97,1,40,0|0,0:0|0:0,0:0:0:0:
176,278,55627,6,0,L|167:336,1,55.0000016784668
341,129,55892,2,0,L|332:200,1,55.0000016784668,0|0,0:0|0:0,0:0:0:0:
499,0,56156,2,0,L|490:58,1,55.0000016784668
416,297,56421,2,0,B|430:196|430:196|480:118|480:118|497:9,1,259.999988098145
334,183,56774,2,0,P|315:205|313:221,1,40
442,374,57039,6,0,L|384:365,1,57.5000010967255
313,215,57303,2,0,L|226:204,1,57.5000010967255
148,330,57568,2,0,L|88:320,1,57.5000010967255,0|0,0:0|0:0,0:0:0:0:
111,187,57745,1,0,0:0:0:0:
176,251,57833,2,0,B|219:272|231:299|234:344|224:372|224:372|265:221|317:214,1,330.000010070801
324,209,58186,2,0,P|291:229|285:229,1,34.9999989318848
32,330,58451,6,0,L|92:320,1,59.9999981689454
223,365,58715,2,0,L|284:357,1,59.9999981689454,0|0,0:0|0:0,0:0:0:0:
382,274,58980,2,0,L|443:265,1,59.9999981689454
502,365,59245,2,0,B|503:302|442:265|442:265|512:223|496:136|496:136|417:193|381:131,1,359.999989013672
412,162,59598,2,0,B|408:119|453:80|453:80|382:84|365:37,1,200,0|0,0:0|0:0,0:0:0:0:
212,0,59862,6,0,L|221:64,1,62.5
128,177,60127,2,0,L|136:252,1,62.5,0|0,0:0|0:0,0:0:0:0:
260,301,60392,2,0,L|270:379,1,62.5,0|0,0:0|0:0,0:0:0:0:
331,222,60568,1,0,0:0:0:0:
224,196,60656,2,0,B|180:156|128:177|128:177|153:127|139:78|139:78|183:96|237:48,1,300
227,54,61009,2,0,P|190:64|187:68,1,34.9999989318848,0|0,0:0|0:0,0:0:0:0:
0,109,61274,6,0,L|64:118,1,64.9999970245363
227,54,61539,2,0,L|301:68,1,64.9999970245363,0|0,0:0|0:0,0:0:0:0:
432,165,61803,2,0,L|507:176,1,64.9999970245363,0|0,0:0|0:0,0:0:0:0:
257,209,62068,2,0,B|200:146|127:177|127:177|89:124|89:124|-32:102,1,300,0|0,0:0|0:0,0:0:0:0:
126,176,62421,2,0,P|142:170|165:172,1,29.9999990844727,0|0,0:0|0:0,0:0:0:0:
265,308,62686,6,0,L|256:376,1,67.5000002574921
432,156,62951,2,0,L|422:228,1,67.5000002574921
294,0,63215,2,0,L|285:67,1,67.5000002574921,0|0,0:0|0:0,0:0:0:0:
228,117,63392,1,0,0:0:0:0:
306,143,63480,2,0,B|331:208|422:221|422:221|347:218|281:232|204:270,1,330.000010070801
242,256,63833,2,0,P|255:249|272:248,1,25
422,222,64098,6,0,L|498:212,1,69.9999978637696
226,327,64362,2,0,L|304:316,1,69.9999978637696,0|0,0:0|0:0,0:0:0:0:
15,285,64627,2,0,L|94:274,1,69.9999978637696,0|0,0:0|0:0,0:0:0:0:
181,108,64892,2,0,B|218:109|268:143|268:236|268:236|298:140|398:155|398:155|390:200|423:225,1,419.999987182618,0|0,0:0|0:0,0:0:0:0:
422,224,65245,2,0,B|464:232|487:191|487:191|546:306|488:387,1,239.999992675781,0|0,0:0|0:0,0:0:0:0:
364,275,65509,6,0,L|373:351,1,72.5000022125245
258,163,65774,2,0,L|268:241,1,72.5000022125245,0|0,0:0|0:0,0:0:0:0:
328,11,66039,2,0,L|338:90,1,72.5000022125245,0|0,0:0|0:0,0:0:0:0:
421,84,66303,2,0,B|414:138|346:186|279:150|256:101|256:101|258:164|258:164|176:128|146:169,1,340.000006484985
26,127,66921,6,0,L|50:131,1,25
179,253,67186,2,0,L|154:257,1,25
33,376,67451,2,0,L|57:371,1,25,0|0,0:0|0:0,0:0:0:0:
220,326,67715,5,0,0:0:0:0:
241,306,67803,1,0,0:0:0:0:
255,285,67891,1,0,0:0:0:0:
262,264,67980,1,0,0:0:0:0:
260,237,68068,2,0,P|230:132|255:60,1,179.999994506836
315,7,68421,2,0,P|336:77|320:121,1,100,0|0,0:0|0:0,0:0:0:0:
250,67,68686,2,0,P|204:118|95:74,1,179.999994506836
170,41,69039,1,0,0:0:0:0:
170,41,69127,2,0,P|71:19|45:36,1,100
105,92,69392,6,0,P|92:166|115:201,1,119.999996337891
125,309,69745,2,0,P|141:253|115:201,1,119.999996337891
114,200,70009,2,0,P|209:230|306:196,1,179.999994506836
284,210,70274,2,0,P|383:174|475:214,1,179.999994506836
375,318,70539,6,0,B|298:300|284:210|284:210|278:297|226:344|226:344|178:288|112:313,1,419.999987182618
114,200,70892,2,0,P|179:45|249:37,1,239.999992675781
253,120,71245,2,0,P|171:98|150:59,1,100
231,35,71509,2,0,P|329:80|349:168,1,179.999994506836
350,142,71774,1,0,0:0:0:0:
348,259,71951,2,0,B|381:201|352:144|352:144|404:160|443:110,1,200
405,333,72568,6,0,P|342:342|256:288,1,139.999995727539
23,221,72833,2,0,P|86:230|172:176,1,139.999995727539
427,126,73098,2,0,P|364:135|278:81,1,139.999995727539
129,32,73362,6,0,B|201:96|154:198|154:198|233:80|323:106|323:106,1,359.999989013672
296,103,73715,2,0,P|303:237|384:273,1,200
307,340,74068,2,0,P|384:344|427:311,1,119.999996337891
348,267,74333,2,0,P|241:208|141:315,1,200
112,188,74686,1,0,0:0:0:0:
112,188,74774,2,0,P|101:265|133:311,1,119.999996337891
177,235,75039,2,0,P|188:158|156:112,1,119.999996337891
179,9,75392,2,0,P|159:64|168:123,1,119.999996337891
354,93,75656,2,0,P|260:138|148:111,1,200
168,122,75921,2,0,P|61:121|2:193,1,200
113,190,76186,6,0,B|150:194|169:123|169:123|231:193|210:255|210:255|269:253|288:205|288:205|340:226|421:178,1,389.999982147218
393,92,76539,2,0,P|464:210|444:285,1,200,0|0,0:0|0:0,0:0:0:0:
338,210,76892,2,0,P|297:112|323:70,1,119.999996337891
454,264,77156,2,0,P|318:325|243:282,1,200
279,311,77421,1,0,0:0:0:0:
141,293,77598,2,0,B|206:267|281:313|281:313|208:273|211:210,1,239.999992675781
158,62,78215,5,0,0:0:0:0:
158,62,78303,2,0,P|158:148|154:157,1,59.9999981689454
215,244,78480,1,0,0:0:0:0:
215,244,78568,2,0,P|215:158|211:149,1,59.9999981689454
270,69,78745,1,0,0:0:0:0:
270,69,78833,2,0,P|270:155|266:164,1,59.9999981689454,0|0,0:0|0:0,0:0:0:0:
367,234,79009,2,0,B|295:273|214:244|214:244|188:317|188:317|113:296|56:362,1,359.999989013672
69,351,79362,2,0,P|117:325|123:313,1,50
100,237,79627,6,0,L|181:224,1,50
326,120,79892,2,0,L|276:127,1,50
71,89,80156,2,0,L|120:81,1,50,0|0,0:0|0:0,0:0:0:0:
187,40,80333,1,0,0:0:0:0:
257,0,80421,2,0,B|310:51|278:127|278:127|374:55|465:134,1,330.000010070801
454,125,80774,2,0,P|419:105|391:100,1,50
223,118,81039,6,0,L|304:131,1,55.0000016784668
452,237,81303,2,0,L|395:227,1,55.0000016784668,0|0,0:0|0:0,0:0:0:0:
208,253,81568,2,0,L|269:262,1,55.0000016784668,0|0,0:0|0:0,0:0:0:0:
370,362,81833,2,0,B|271:333|263:260|263:260|205:356|144:337|144:337|91:318|56:349,1,389.999982147218
67,340,82186,2,0,B|105:321|153:339|153:339|69:272|110:185,1,220.000006713867
152,15,82451,6,0,L|165:96,1,59.9999981689454
262,261,82715,2,0,L|250:187,1,59.9999981689454,0|0,0:0|0:0,0:0:0:0:
308,0,82980,2,0,L|317:61,1,59.9999981689454,0|0,0:0|0:0,0:0:0:0:
365,119,83156,1,0,0:0:0:0:
424,174,83245,2,0,B|396:212|337:203|337:203|319:253|262:257|262:257|316:325|264:395,1,330.000010070801,0|0,0:0|0:0,0:0:0:0:
272,384,83598,2,0,P|284:354|281:315,1,50,0|0,0:0|0:0,0:0:0:0:
259,178,83862,6,0,L|177:164,1,64.9999970245363
12,72,84127,2,0,L|77:82,1,64.9999970245363,0|0,0:0|0:0,0:0:0:0:
273,26,84392,2,0,L|207:16,1,64.9999970245363,0|0,0:0|0:0,0:0:0:0:
194,167,84656,2,0,B|260:178|260:178|312:222|312:222|394:188|454:250|454:250|414:296|328:297,1,375
399,217,85009,2,0,P|374:209|333:227,1,50
280,296,85274,6,0,L|290:355,1,59.9999981689454
194,167,85539,2,0,L|184:107,1,59.9999981689454,0|0,0:0|0:0,0:0:0:0:
150,317,85803,2,0,L|158:376,1,59.9999981689454,0|0,0:0|0:0,0:0:0:0:
74,210,85980,1,0,0:0:0:0:
74,210,86068,2,0,B|147:230|193:167|193:167|203:242|280:297|280:297|266:253|292:232,1,345.000006580353
278,249,86421,2,0,P|280:289|285:296,1,40
413,208,86686,6,0,L|472:199,1,55.0000016784668
253,157,86951,2,0,L|193:166,1,55.0000016784668,0|0,0:0|0:0,0:0:0:0:
386,58,87215,2,0,L|445:47,1,55.0000016784668,0|0,0:0|0:0,0:0:0:0:
265,58,87480,2,0,B|201:85|199:165|199:165|127:98|77:154|77:154|143:191|111:283,1,375
121,237,87833,2,0,B|117:310|75:345|75:345|-12:286|30:210,1,230.000004386902
77,154,88098,6,0,L|28:162,1,50
215,66,88362,2,0,L|264:57,1,50,0|0,0:0|0:0,0:0:0:0:
50,12,88627,2,0,L|0:19,1,50,0|0,0:0|0:0,0:0:0:0:
128,54,88803,1,0,0:0:0:0:
128,54,88892,2,0,B|155:155|247:139|247:139|201:168|195:223|195:223|151:218|107:247,1,345.000006580353,0|0,0:0|0:0,0:0:0:0:
128,54,89509,6,0,B|144:103|165:155|254:139,1,170.000003242493
251,139,89774,2,0,P|200:215|204:245,1,100,0|0,0:0|0:0,0:0:0:0:
199,218,90039,2,0,P|155:224|121:239,1,80,0|0,0:0|0:0,0:0:0:0:
122,238,90303,2,0,P|142:228|157:228,5,26.6666666666667,0|0|0|0|0|0,0:0|0:0|0:0|0:0|0:0|0:0,0:0:0:0:
187,298,90656,6,0,P|248:290|278:255,1,80
323,104,91009,2,0,L|227:150,1,80,0|0,0:0|0:0,0:0:0:0:
261,279,91362,1,0,0:0:0:0:
329,331,91539,1,0,0:0:0:0:
411,301,91715,2,0,B|437:258|413:215|413:215|449:172|425:119,1,165.000005035401,0|0,0:0|0:0,0:0:0:0:
433,146,92068,1,0,0:0:0:0:
95,12,92421,6,0,L|201:2,1,80
113,104,92774,1,0,0:0:0:0:
185,185,92951,1,0,0:0:0:0:
287,16,93127,2,0,B|297:67|258:97|258:97|324:108|336:190,1,194.999991073609
330,163,93480,2,0,P|295:111|251:96,1,104.999996795654,0|0,0:0|0:0,0:0:0:0:
257,96,93833,6,0,L|363:86,1,80
404,161,94186,1,0,0:0:0:0:
333,237,94362,1,0,0:0:0:0:
255,168,94539,2,0,B|223:212|242:270|242:270|179:240|142:268,1,165.000005035401,0|0,0:0|0:0,0:0:0:0:
186,254,94892,1,0,0:0:0:0:
3,0,95245,6,0,L|13:106,1,80
61,133,95598,1,0,0:0:0:0:
16,200,95774,1,0,0:0:0:0:
67,260,95951,2,0,B|108:313|168:286|168:286|232:259|278:324,1,225.000008583069,0|0,0:0|0:0,0:0:0:0:
267,310,96303,2,0,P|214:279|163:291,1,104.999996795654,0|0,0:0|0:0,0:0:0:0:
204,352,96656,6,0,L|214:246,1,80
249,210,97009,1,0,0:0:0:0:
324,210,97186,1,0,0:0:0:0:
374,273,97362,2,0,B|421:227|394:163|394:163|433:164|467:126,1,165.000005035401,0|0,0:0|0:0,0:0:0:0:
436,151,97715,1,0,0:0:0:0:
352,0,98068,6,0,L|458:10,1,80
374,78,98421,1,0,0:0:0:0:
289,41,98598,1,0,0:0:0:0:
241,115,98774,2,0,B|218:121|218:121|187:114|187:114|174:138|174:138|138:117|138:117|111:148|111:148|83:157|83:157,1,187.5
90,154,99127,2,0,B|111:149|111:149|138:117|138:117|174:138|174:138|191:117,1,104.999996795654
418,306,99480,6,0,L|524:296,1,80
348,266,99833,1,0,0:0:0:0:
295,322,100009,1,0,0:0:0:0:
238,276,100186,2,0,B|189:257|144:278|144:278|146:233|102:208,1,165.000005035401,0|0,0:0|0:0,0:0:0:0:
31,47,100803,6,0,B|85:69|115:8|177:55,1,129.999994049073
366,98,101068,2,0,B|312:76|282:137|220:90,1,129.999994049073,0|0,0:0|0:0,0:0:0:0:
15,150,101333,2,0,B|69:172|99:111|161:158,1,129.999994049073,0|0,0:0|0:0,0:0:0:0:
208,187,101598,5,0,0:0:0:0:
232,192,101686,1,0,0:0:0:0:
256,192,101774,1,0,0:0:0:0:
276,186,101862,1,0,0:0:0:0:
297,177,101951,2,0,P|291:258|273:274,1,64.9999970245363,0|0,0:0|0:0,0:0:0:0:
347,19,118892,6,0,P|383:39|405:38,1,60
493,0,120303,5,0,0:0:0:0:
493,0,120656,1,0,0:0:0:0:
493,0,121009,1,0,0:0:0:0:
493,0,121362,1,0,0:0:0:0:
512,92,121715,5,0,0:0:0:0:
512,92,122068,1,0,0:0:0:0:
512,92,122421,1,0,0:0:0:0:
512,92,122774,1,0,0:0:0:0:
493,184,123127,5,0,0:0:0:0:
493,184,123480,1,0,0:0:0:0:
493,184,123833,1,0,0:0:0:0:
493,184,124186,1,0,0:0:0:0:
512,276,124539,5,0,0:0:0:0:
512,276,124892,1,0,0:0:0:0:
512,276,125245,1,0,0:0:0:0:
512,276,125598,1,0,0:0:0:0:
493,368,125951,5,0,0:0:0:0:
493,368,126303,1,0,0:0:0:0:
493,368,126656,1,0,0:0:0:0:
493,368,127009,1,0,0:0:0:0:
401,349,127362,5,0,0:0:0:0:
401,349,127715,1,0,0:0:0:0:
401,349,128068,1,0,0:0:0:0:
401,349,128421,1,0,0:0:0:0:
309,368,128774,5,0,0:0:0:0:
309,368,129127,1,0,0:0:0:0:
309,368,129480,1,0,0:0:0:0:
309,368,129833,1,0,0:0:0:0:
180,247,152774,6,0,P|91:222|102:85,1,239.999992675781,0|0,0:0|0:0,0:0:0:0:
159,164,153304,5,0,0:0:0:0:
159,164,153392,1,0,0:0:0:0:
159,164,153481,2,0,P|109:197|100:236,1,59.9999981689454,0|0,0:0|0:0,0:0:0:0:
180,247,153656,1,0,0:0:0:0:
180,247,153744,1,0,0:0:0:0:
180,247,153833,2,0,P|233:273|271:262,1,59.9999981689454,0|0,0:0|0:0,0:0:0:0:
247,192,154009,1,0,0:0:0:0:
247,192,154097,1,0,0:0:0:0:
247,192,154186,2,0,P|243:132|180:77,1,119.999996337891,0|0,0:0|0:0,0:0:0:0:
205,87,154421,6,0,B|215:46|215:46|206:4,1,79.9999975585938
322,246,154656,2,0,B|312:287|312:287|320:328,1,79.9999975585938,0|0,0:0|0:0,0:0:0:0:
461,117,154892,1,0,0:0:0:0:
461,117,154951,2,0,B|471:76|471:76|462:34,1,79.9999975585938,0|0,0:0|0:0,0:0:0:0:
373,79,155245,1,0,0:0:0:0:
370,128,155303,1,0,0:0:0:0:
392,172,155362,1,0,0:0:0:0:
434,199,155421,1,0,0:0:0:0:
483,202,155480,1,0,0:0:0:0:
319,324,155598,6,0,P|231:336|182:313,1,119.999996337891
77,230,156127,5,0,0:0:0:0:
77,230,156215,1,0,0:0:0:0:
77,230,156304,2,0,P|64:171|86:137,1,59.9999981689454,0|0,0:0|0:0,0:0:0:0:
151,132,156480,1,0,0:0:0:0:
151,132,156568,1,0,0:0:0:0:
151,132,156657,2,0,P|184:81|223:73,1,59.9999981689454,0|0,0:0|0:0,0:0:0:0:
281,106,156833,1,0,0:0:0:0:
281,106,156921,1,0,0:0:0:0:
281,106,157010,2,0,P|339:93|401:144,1,119.999996337891,0|0,0:0|0:0,0:0:0:0:
325,174,157245,6,0,B|317:211|317:211|327:252,1,79.9999975585938
182,83,157480,2,0,B|192:42|192:42|183:0,1,79.9999975585938,0|0,0:0|0:0,0:0:0:0:
64,173,157716,1,0,0:0:0:0:
64,173,157775,2,0,B|54:214|54:214|62:255,1,79.9999975585938,0|0,0:0|0:0,0:0:0:0:
290,331,158068,1,0,0:0:0:0:
339,333,158126,1,0,0:0:0:0:
383,311,158185,1,0,0:0:0:0:
410,269,158244,1,0,0:0:0:0:
413,220,158303,1,0,0:0:0:0:
286,106,158421,6,0,P|234:155|344:245,1,239.999992675781
309,183,158951,5,0,0:0:0:0:
309,183,159039,1,0,0:0:0:0:
309,183,159128,2,0,P|250:170|216:192,1,59.9999981689454,0|0,0:0|0:0,0:0:0:0:
219,279,159303,1,0,0:0:0:0:
219,279,159391,1,0,0:0:0:0:
219,279,159480,2,0,P|160:291|126:269,1,59.9999981689454,0|0,0:0|0:0,0:0:0:0:
114,171,159656,1,0,0:0:0:0:
114,171,159744,1,0,0:0:0:0:
114,171,159833,2,0,P|55:158|-1:181,1,119.999996337891,0|0,0:0|0:0,0:0:0:0:
64,256,160068,6,0,B|71:293|71:293|61:334,1,79.9999975585938
252,169,160303,2,0,B|242:128|242:128|250:86,1,79.9999975585938,0|0,0:0|0:0,0:0:0:0:
455,254,160539,1,0,0:0:0:0:
455,254,160598,2,0,B|465:295|465:295|456:336,1,79.9999975585938,0|0,0:0|0:0,0:0:0:0:
275,265,160892,1,0,0:0:0:0:
226,262,160951,1,0,0:0:0:0:
184,235,161010,1,0,0:0:0:0:
162,191,161069,1,0,0:0:0:0:
165,142,161127,1,0,0:0:0:0:
252,170,161245,6,0,P|358:253|329:343,1,239.999992675781
127,248,161774,5,0,0:0:0:0:
127,248,161862,1,0,0:0:0:0:
127,248,161951,2,0,P|186:235|220:257,1,59.9999981689454
56,149,162127,1,0,0:0:0:0:
56,149,162215,1,0,0:0:0:0:
56,149,162304,2,0,P|-3:162|-37:140,1,59.9999981689454,0|0,0:0|0:0,0:0:0:0:
116,45,162480,1,0,0:0:0:0:
116,45,162568,1,0,0:0:0:0:
116,45,162657,2,0,P|175:32|236:74,1,119.999996337891,0|0,0:0|0:0,0:0:0:0:
401,160,162892,6,0,B|394:197|394:197|404:238,1,79.9999975585938
222,137,163127,2,0,B|232:96|232:96|224:54,1,79.9999975585938,0|0,0:0|0:0,0:0:0:0:
56,149,163363,1,0,0:0:0:0:
56,149,163422,2,0,B|46:190|46:190|55:231,1,79.9999975585938,0|0,0:0|0:0,0:0:0:0:
401,160,163715,5,0,0:0:0:0:
367,117,163773,1,0,0:0:0:0:
316,96,163832,1,0,0:0:0:0:
262,104,163891,1,0,0:0:0:0:
222,137,163950,1,0,0:0:0:0:
165,215,164068,6,0,P|275:205|297:55,1,239.999992675781
122,50,164598,5,0,0:0:0:0:
122,50,164686,1,0,0:0:0:0:
122,50,164774,2,0,P|118:88|134:122,1,44.999998626709
156,300,164951,5,0,0:0:0:0:
171,258,165039,1,0,0:0:0:0:
164,214,165127,1,0,0:0:0:0:
27,203,165303,5,0,0:0:0:0:
27,203,165391,1,0,0:0:0:0:
27,203,165479,2,0,P|51:232|86:245,1,44.999998626709
256,264,165656,5,0,0:0:0:0:
236,223,165744,1,0,0:0:0:0:
200,197,165832,1,0,0:0:0:0:
124,374,166009,5,0,0:0:0:0:
124,374,166097,1,0,0:0:0:0:
124,374,166185,2,0,P|162:378|196:362,1,44.999998626709
322,166,166362,5,0,0:0:0:0:
278,151,166450,1,0,0:0:0:0:
235,158,166538,1,0,0:0:0:0:
321,384,166715,5,0,0:0:0:0:
321,384,166803,1,0,0:0:0:0:
321,384,166891,2,0,P|350:359|363:324,1,44.999998626709
297,60,167068,5,0,0:0:0:0:
255,80,167156,1,0,0:0:0:0:
229,115,167244,1,0,0:0:0:0:
464,271,167421,5,0,0:0:0:0:
464,271,167509,1,0,0:0:0:0:
464,271,167597,2,0,P|468:233|452:199,1,44.999998626709
198,3,167774,5,0,0:0:0:0:
182,46,167862,1,0,0:0:0:0:
188,89,167950,1,0,0:0:0:0:
480,84,168127,5,0,0:0:0:0:
480,84,168215,1,0,0:0:0:0:
480,84,168303,2,0,P|455:54|420:41,1,44.999998626709
88,31,168480,5,0,0:0:0:0:
107,72,168568,1,0,0:0:0:0:
141,98,168656,1,0,0:0:0:0:
326,9,168833,5,0,0:0:0:0:
326,9,168921,1,0,0:0:0:0:
326,9,169009,2,0,P|288:5|254:20,1,44.999998626709
9,167,169186,5,8,0:0:0:0:
51,182,169274,1,8,0:0:0:0:
93,176,169362,1,8,0:0:0:0:
140,42,169539,5,0,3:0:0:0:
140,42,169627,1,0,3:0:0:0:
140,42,169715,2,0,P|110:66|97:101,1,44.999998626709,0|0,3:0|3:0,3:0:0:0:
275,132,169892,5,0,3:0:0:0:
275,132,169980,1,0,3:0:0:0:
275,132,170068,2,0,P|239:118|202:124,1,44.999998626709,0|0,3:0|3:0,3:0:0:0:
299,293,170245,5,0,3:0:0:0:
299,293,170333,1,0,3:0:0:0:
299,293,170421,2,0,P|293:255|268:226,1,44.999998626709,0|0,3:0|3:0,3:0:0:0:
153,373,170598,5,0,3:0:0:0:
153,373,170686,1,0,3:0:0:0:
153,373,170774,2,0,P|182:348|195:313,1,44.999998626709,0|0,3:0|3:0,3:0:0:0:
1,287,170951,5,0,3:0:0:0:
1,287,171039,1,0,3:0:0:0:
1,287,171127,2,0,P|36:300|73:294,1,44.999998626709,0|0,3:0|3:0,3:0:0:0:
0,106,171303,5,0,3:0:0:0:
0,106,171391,1,0,3:0:0:0:
0,106,171479,2,0,P|5:143|30:172,1,44.999998626709,0|0,3:0|3:0,3:0:0:0:
181,36,171656,5,0,3:0:0:0:
181,36,171744,1,0,3:0:0:0:
181,36,171832,2,0,P|143:41|114:66,1,44.999998626709,0|0,3:0|3:0,3:0:0:0:
354,196,172009,5,0,3:0:0:0:
354,196,172097,1,0,3:0:0:0:
354,196,172185,2,0,P|348:158|323:129,1,44.999998626709,0|0,3:0|3:0,3:0:0:0:
186,343,172362,5,0,3:0:0:0:
186,343,172450,1,0,3:0:0:0:
186,343,172538,2,0,P|223:337|252:312,1,44.999998626709,0|0,3:0|3:0,3:0:0:0:
23,191,172715,5,0,3:0:0:0:
23,191,172803,1,0,3:0:0:0:
23,191,172891,2,0,P|28:228|53:257,1,44.999998626709,0|0,3:0|3:0,3:0:0:0:
181,36,173068,5,0,3:0:0:0:
181,36,173156,1,0,3:0:0:0:
181,36,173244,2,0,P|144:41|115:66,1,44.999998626709,0|0,3:0|3:0,3:0:0:0:
48,36,173421,5,0,0:0:0:0:
53,72,173509,1,0,0:0:0:0:
71,104,173597,1,0,0:0:0:0:
101,127,173685,1,0,0:0:0:0:
137,136,173773,1,0,0:0:0:0:
174,130,173862,1,0,0:0:0:0:
206,110,173951,2,0,P|254:97|296:112,1,89.9999972534181
462,277,174656,6,0,L|457:215,1,34.9999989318848
407,342,174833,1,0,0:0:0:0:
407,342,174921,1,0,0:0:0:0:
374,349,175009,1,0,0:0:0:0:
347,351,175097,1,0,0:0:0:0:
324,347,175185,1,0,0:0:0:0:
306,337,175274,1,0,0:0:0:0:
231,287,175362,6,0,B|297:236|358:275|358:275|290:197|353:102,1,300.000011444092
339,124,175627,2,0,B|383:55|326:-11|326:-11|231:10|238:97,1,300.000011444092
238,94,175892,2,0,B|245:178|150:200|150:200|93:133|138:65,1,300.000011444092
238,94,176156,2,0,B|241:209|102:200|102:200|194:293|109:403,1,300.000011444092
148,284,176421,2,0,B|141:233|102:201|102:201|237:304|317:236|317:236|266:279|271:377,1,450.000017166138
271,337,176774,6,0,P|201:339|163:374,1,89.9999972534181
48,314,177039,2,0,B|3:245|60:178|60:178|155:200|148:287,1,300.000011444092
148,284,177303,2,0,B|212:229|160:147|160:147|73:154|56:233,1,300.000011444092
148,284,177568,2,0,B|213:226|158:147|158:147|265:182|336:91,1,300.000011444092
297,129,177833,2,0,P|292:309|447:147,1,450.000017166138
474,232,178186,6,0,P|386:257|359:342,1,179.999994506836
357,333,178451,2,0,B|401:264|344:197|344:197|249:219|256:306,1,300.000011444092
256,303,178715,2,0,B|218:375|132:359|132:359|103:266|182:229,1,300.000011444092
180,230,178980,2,0,B|105:270|134:365|134:365|99:272|-23:293,1,300.000011444092
23,289,179245,2,0,B|105:285|134:366|134:366|71:214|71:214|151:176|157:92,1,450.000017166138
163,99,179598,6,0,P|218:127|274:113,1,89.9999972534181
244,125,179951,2,0,B|323:141|330:229|330:229|248:281|191:214,1,300.000011444092
193,216,180215,2,0,B|164:296|250:341|250:341|323:291|298:214,1,300.000011444092
298,214,180480,2,0,P|239:342|216:348,1,150.000005722046
245,340,180656,2,0,B|164:273|89:319|89:319|126:239|196:217|196:217|142:225|34:249|15:110,1,450.000017166138
70,209,181009,2,0,P|140:226|216:204,1,119.999996337891
187,217,181274,2,0,B|186:137|244:76|244:76|177:126|86:115,1,310.000002365112
99,116,181539,2,0,B|165:156|187:220|187:220|176:151|253:69,1,310.000002365112
253,68,181803,6,0,B|188:122|187:219|187:219|293:193|326:295|326:295,1,310.000002365112
309,263,182068,2,0,B|261:205|187:215|187:215|208:342|321:314|321:314|306:207|454:127,1,465.000003547668
363,194,182421,2,0,P|330:254|329:296,1,89.9999972534181
363,194,182686,2,0,B|410:132|381:42|381:42|432:124|499:139,1,310.000002365112
493,138,182951,2,0,B|414:113|363:194|363:194|392:104|345:43,1,310.000002365112
347,46,183215,2,0,B|391:104|364:193|364:193|290:115|183:177,1,310.000002365112
221,158,183480,2,0,P|199:354|392:217,1,465.000003547668
