osu file format v14

[General]
AudioFilename: audio.mp3
AudioLeadIn: 0
PreviewTime: 78964
Countdown: 0
SampleSet: Normal
StackLeniency: 0.7
Mode: 1
LetterboxInBreaks: 0
WidescreenStoryboard: 0

[Editor]
Bookmarks: 141479,152773,164067
DistanceSpacing: 0.9
BeatDivisor: 4
GridSize: 32
TimelineZoom: 1.7

[Metadata]
Title:sha
TitleUnicode:sha
Artist:sakuraburst
ArtistUnicode:sakuraburst
Creator:Faputa
Version:Zeth's Inner Oni
Source:osu!
Tags:[Zeth] featured artist anticrystal EP neurofunk
BeatmapID:1943064
BeatmapSetID:866694

[Difficulty]
HPDrainRate:5.5
CircleSize:2
OverallDifficulty:6
ApproachRate:10
SliderMultiplier:1.4
SliderTickRate:1

[Events]
//Background and Video events
0,0,"nofurro.jpg",0,-80
//Break Periods
//Storyboard Layer 0 (Background)
//Storyboard Layer 1 (Fail)
//Storyboard Layer 2 (Pass)
//Storyboard Layer 3 (Foreground)
//Storyboard Sound Samples

[TimingPoints]
298,352.941176470588,4,1,0,100,1,0
1003,-133.333333333333,4,1,0,50,0,0
10533,-80,4,1,0,50,0,0
11592,-100,4,1,0,100,0,0
12297,-133.333333333333,4,1,0,50,0,0
21474,-80,4,1,0,50,0,0
22356,-133.333333333333,4,1,0,50,0,0
22415,-129.032258064516,4,1,0,50,0,0
22474,-125,4,1,0,50,0,0
22533,-121.212121212121,4,1,0,50,0,0
22886,-100,4,1,0,100,0,0
23239,-111.111111111111,4,1,0,80,0,0
33886,-109.170305676856,4,1,0,80,0,0
33945,-107.296137339056,4,1,0,80,0,0
34003,-105.263157894737,4,1,0,80,0,0
34092,-102.564102564103,4,1,0,80,0,0
34180,-100,4,1,0,80,0,0
40003,-98.0392156862745,4,1,0,80,0,0
40180,-96.1538461538461,4,1,0,80,0,0
40356,-94.3396226415094,4,1,0,80,0,0
40445,-93.4579439252336,4,1,0,80,0,0
40533,-92.5925925925926,4,1,0,80,0,0
40709,-90.9090909090909,4,1,0,80,0,0
40797,-90.0900900900901,4,1,0,80,0,0
40886,-89.2857142857143,4,1,0,80,0,0
41062,-87.719298245614,4,1,0,80,0,0
41150,-86.9565217391304,4,1,0,80,0,0
41239,-86.2068965517241,4,1,0,80,0,0
41415,-84.7457627118644,4,1,0,80,0,0
41503,-84.0336134453781,4,1,0,80,0,0
41680,-82.6446280991736,4,1,0,80,0,0
41768,-81.9672131147541,4,1,0,80,0,0
41945,-80.6451612903226,4,1,0,80,0,0
42033,-80,4,1,0,80,0,0
44768,-71.4285714285714,4,1,0,80,0,0
44945,-73.5294117647059,4,1,0,80,0,0
45033,-74.6268656716418,4,1,0,80,0,0
45121,-75.7575757575758,4,1,0,80,0,0
45209,-76.9230769230769,4,1,0,80,0,0
45297,-78.125,4,1,0,80,0,0
45386,-79.3650793650794,4,1,0,80,0,0
45474,-80,4,1,0,80,0,1
56415,-80,4,1,0,80,0,0
56768,-76.9230769230769,4,1,0,80,0,1
57033,-80,4,1,0,80,0,1
66650,-80,4,1,0,80,0,0
66915,-71.4285714285714,4,1,0,80,0,0
67709,-80,4,1,0,80,0,0
67797,-81.6326530612245,4,1,0,80,0,0
67886,-83.3333333333333,4,1,0,80,0,0
67974,-85.1063829787234,4,1,0,80,0,0
68062,-86.9565217391304,4,1,0,80,0,0
78209,-71.4285714285714,4,1,0,80,0,0
79003,-76.9230769230769,4,1,0,80,0,0
79356,-76.9230769230769,4,1,0,80,0,1
79533,-80,4,1,0,80,0,1
89239,-80,4,1,0,80,0,0
89503,-71.4285714285714,4,1,0,80,0,0
89768,-76.9230769230769,4,1,0,80,0,0
90033,-83.3333333333333,4,1,0,80,0,0
90297,-90.9090909090909,4,1,0,80,0,0
90650,-100,4,1,0,80,0,0
93121,-95.2380952380952,4,1,0,80,0,0
93474,-90.9090909090909,4,1,0,80,0,0
93827,-100,4,1,0,80,0,0
95945,-95.2380952380952,4,1,0,80,0,0
96121,-93.0232558139535,4,1,0,80,0,0
96297,-90.9090909090909,4,1,0,80,0,0
96650,-100,4,1,0,80,0,0
98768,-95.2380952380952,4,1,0,80,0,0
99121,-90.9090909090909,4,1,0,80,0,0
99474,-100,4,1,0,80,0,0
100797,-83.3333333333333,4,1,0,80,0,0
101592,-86.2068965517241,4,1,0,80,0,0
101680,-89.2857142857143,4,1,0,80,0,0
101768,-92.5925925925926,4,1,0,80,0,0
101856,-96.1538461538461,4,1,0,80,0,0
101945,-100,4,1,0,80,0,0
104415,-95.2380952380952,4,1,0,80,0,0
104768,-90.9090909090909,4,1,0,80,0,0
105121,-100,4,1,0,80,0,0
107239,-95.2380952380952,4,1,0,80,0,0
107415,-93.0232558139535,4,1,0,80,0,0
107592,-90.9090909090909,4,1,0,80,0,0
107945,-100,4,1,0,80,0,0
110062,-95.2380952380952,4,1,0,80,0,0
110415,-90.9090909090909,4,1,0,80,0,0
110768,-100,4,1,0,80,0,0
112092,-83.3333333333333,4,1,0,80,0,0
112356,-76.9230769230769,4,1,0,80,0,0
112621,-71.4285714285714,4,1,0,80,0,0
112886,-66.6666666666667,4,1,0,80,0,0
113239,-62.5,4,1,0,80,0,0
113415,-25,4,1,0,30,0,0
114650,-100,4,1,0,30,0,0
118886,-62.5,4,1,0,80,0,0
120297,-100,4,1,0,30,0,0
130180,-62.5,4,1,0,80,0,0
130533,-100,4,1,0,30,0,0
133003,-50,4,1,0,30,0,0
133533,-100,4,1,0,30,0,0
135827,-50,4,1,0,30,0,0
136356,-100,4,1,0,30,0,0
138650,-50,4,1,0,30,0,0
139180,-100,4,1,0,30,0,0
141474,-55.5555555555556,4,1,0,80,0,0
141562,-25,4,1,0,30,0,0
142886,-100,4,1,0,30,0,0
143150,-83.3333333333333,4,1,0,30,0,0
144297,-100,4,1,0,30,0,0
144386,-25,4,1,0,30,0,0
145709,-100,4,1,0,30,0,0
145797,-25,4,1,0,30,0,0
147121,-55.5555555555556,4,1,0,80,0,0
147209,-25,4,1,0,30,0,0
148533,-100,4,1,0,30,0,0
148797,-83.3333333333333,4,1,0,30,0,0
149945,-100,4,1,0,30,0,0
150033,-25,4,1,0,30,0,0
151356,-100,4,1,0,30,0,0
151445,-25,4,1,0,30,0,0
152239,-100,4,1,0,70,0,0
152297,-97.5609756097561,4,1,0,70,0,0
152356,-95.2380952380952,4,1,0,70,0,0
152415,-93.0232558139535,4,1,0,70,0,0
152768,-62.5,4,1,0,70,0,0
153121,-90.9090909090909,4,1,0,70,0,0
154445,-76.9230769230769,4,1,0,70,0,0
155239,-90.9090909090909,4,1,0,70,0,0
157268,-76.9230769230769,4,1,0,70,0,0
158062,-90.9090909090909,4,1,0,70,0,0
160092,-76.9230769230769,4,1,0,70,0,0
160886,-90.9090909090909,4,1,0,70,0,0
162915,-76.9230769230769,4,1,0,70,0,0
163709,-90.9090909090909,4,1,0,70,0,0
163797,-88.8888888888889,4,1,0,70,0,0
163886,-86.9565217391304,4,1,0,70,0,0
163974,-85.1063829787234,4,1,0,70,0,0
164062,-83.3333333333333,4,1,0,80,0,0
166797,-81.6326530612245,4,1,0,80,0,0
166886,-80,4,1,0,80,0,0
169621,-78.4313725490196,4,1,0,80,0,0
169709,-76.9230769230769,4,1,0,80,0,0
172445,-76.3358778625954,4,1,0,80,0,0
172533,-75.7575757575758,4,1,0,80,0,0
172709,-74.6268656716418,4,1,0,80,0,0
172886,-73.5294117647059,4,1,0,80,0,0
173062,-72.463768115942,4,1,0,80,0,0
174650,-71.4285714285714,4,1,0,80,0,0
174827,-73.5294117647059,4,1,0,80,0,0
174915,-74.6268656716418,4,1,0,80,0,0
175003,-75.7575757575758,4,1,0,80,0,0
175091,-76.9230769230769,4,1,0,80,0,0
175179,-78.125,4,1,0,80,0,0
175268,-79.3650793650794,4,1,0,80,0,0
175356,-80,4,1,0,80,0,1
196533,-80,4,1,0,80,0,0
196797,-71.4285714285714,4,1,0,80,0,0
197592,-80,4,1,0,80,0,0
197680,-81.6326530612245,4,1,0,80,0,0
197768,-83.3333333333333,4,1,0,80,0,0
197856,-85.1063829787234,4,1,0,80,0,0
197945,-86.9565217391304,4,1,0,80,0,0
208092,-71.4285714285714,4,1,0,80,0,0
208886,-76.9230769230769,4,1,0,80,0,0
209239,-76.9230769230769,4,1,0,80,0,1
209415,-80,4,1,0,80,0,1
219121,-80,4,1,0,80,0,0
219386,-71.4285714285714,4,1,0,80,0,0
219650,-76.9230769230769,4,1,0,80,0,0
219915,-83.3333333333333,4,1,0,80,0,0
220180,-90.9090909090909,4,1,0,80,0,0
220533,-100,4,1,0,80,0,0
223003,-95.2380952380952,4,1,0,80,0,0
223356,-90.9090909090909,4,1,0,80,0,0
223533,-100,4,1,0,80,0,0
225827,-95.2380952380952,4,1,0,80,0,0
226003,-93.0232558139535,4,1,0,80,0,0
226180,-90.9090909090909,4,1,0,80,0,0
226356,-100,4,1,0,80,0,0
228650,-95.2380952380952,4,1,0,80,0,0
229003,-90.9090909090909,4,1,0,80,0,0
229180,-100,4,1,0,80,0,0
230680,-83.3333333333333,4,1,0,80,0,0
231474,-86.2068965517241,4,1,0,80,0,0
231562,-89.2857142857143,4,1,0,80,0,0
231650,-92.5925925925926,4,1,0,80,0,0
231739,-96.1538461538461,4,1,0,80,0,0
231827,-100,4,1,0,80,0,0
234297,-95.2380952380952,4,1,0,80,0,0
234650,-90.9090909090909,4,1,0,80,0,0
234827,-100,4,1,0,80,0,0
237121,-95.2380952380952,4,1,0,80,0,0
237297,-93.0232558139535,4,1,0,80,0,0
237474,-90.9090909090909,4,1,0,80,0,0
237650,-100,4,1,0,80,0,0
239945,-95.2380952380952,4,1,0,80,0,0
240297,-90.9090909090909,4,1,0,80,0,0
240474,-100,4,1,0,80,0,0
241974,-83.3333333333333,4,1,0,80,0,0
242239,-76.9230769230769,4,1,0,80,0,0
242503,-71.4285714285714,4,1,0,80,0,0
242768,-66.6666666666667,4,1,0,80,0,0
243121,-62.5,4,1,0,80,0,0
243209,-25,4,1,0,30,0,0
244533,-100,4,1,0,30,0,0

[HitObjects]
256,192,298,5,4,0:0:0:0:
256,192,1003,1,2,0:0:0:0:
256,192,2415,1,2,0:0:0:0:
256,192,3827,5,2,0:0:0:0:
256,192,5239,1,2,0:0:0:0:
256,192,5945,5,0,0:0:0:0:
256,192,6650,1,2,0:0:0:0:
256,192,8062,1,2,0:0:0:0:
256,192,9474,5,2,0:0:0:0:
256,192,10533,12,0,11415,0:0:0:0:
256,192,11592,5,4,0:0:0:0:
256,160,12297,1,8,0:0:0:0:
256,160,13709,1,8,0:0:0:0:
256,160,15121,5,8,0:0:0:0:
256,160,16533,1,8,0:0:0:0:
256,160,17239,5,0,0:0:0:0:
256,160,17945,1,8,0:0:0:0:
256,160,19356,5,8,0:0:0:0:
256,160,20768,1,8,0:0:0:0:
256,192,21474,12,0,22180,0:0:0:0:
256,192,22356,5,2,0:0:0:0:
256,192,22415,1,2,0:0:0:0:
256,192,22474,1,2,0:0:0:0:
256,192,22533,1,0,0:0:0:0:
256,192,22886,1,4,0:0:0:0:
256,192,23239,1,0,0:0:0:0:
256,192,23415,1,2,0:0:0:0:
256,192,23503,1,2,0:0:0:0:
256,192,23592,1,0,0:0:0:0:
256,192,23768,1,2,0:0:0:0:
256,192,23856,1,2,0:0:0:0:
256,192,23945,1,0,0:0:0:0:
256,192,24121,1,2,0:0:0:0:
256,192,24209,1,2,0:0:0:0:
256,192,24297,1,0,0:0:0:0:
256,192,24474,1,0,0:0:0:0:
256,192,24562,1,2,0:0:0:0:
256,192,24739,1,0,0:0:0:0:
256,192,24827,1,2,0:0:0:0:
256,192,25003,1,0,0:0:0:0:
256,192,25092,1,2,0:0:0:0:
256,192,25356,1,2,0:0:0:0:
256,192,25415,1,2,0:0:0:0:
256,192,25474,1,2,0:0:0:0:
256,192,25533,1,0,0:0:0:0:
256,192,25621,1,0,0:0:0:0:
256,192,25709,1,0,0:0:0:0:
256,192,26062,1,0,0:0:0:0:
256,192,26239,1,2,0:0:0:0:
256,192,26327,1,2,0:0:0:0:
256,192,26415,1,0,0:0:0:0:
256,192,26592,1,2,0:0:0:0:
256,192,26680,1,2,0:0:0:0:
256,192,26768,1,0,0:0:0:0:
256,192,26945,1,2,0:0:0:0:
256,192,27033,1,2,0:0:0:0:
256,192,27121,1,0,0:0:0:0:
256,192,27297,1,0,0:0:0:0:
256,192,27386,1,2,0:0:0:0:
256,192,27562,1,0,0:0:0:0:
256,192,27650,1,2,0:0:0:0:
256,192,27827,1,0,0:0:0:0:
256,192,27915,1,2,0:0:0:0:
256,192,28180,1,2,0:0:0:0:
256,192,28239,1,2,0:0:0:0:
256,192,28297,1,2,0:0:0:0:
256,192,28356,1,0,0:0:0:0:
256,192,28445,1,0,0:0:0:0:
256,192,28533,1,0,0:0:0:0:
256,192,28886,1,0,0:0:0:0:
256,192,29063,1,2,0:0:0:0:
256,192,29151,1,2,0:0:0:0:
256,192,29239,1,0,0:0:0:0:
256,192,29416,1,2,0:0:0:0:
256,192,29504,1,2,0:0:0:0:
256,192,29592,1,0,0:0:0:0:
256,192,29769,1,2,0:0:0:0:
256,192,29857,1,2,0:0:0:0:
256,192,29945,1,0,0:0:0:0:
256,192,30121,1,0,0:0:0:0:
256,192,30210,1,2,0:0:0:0:
256,192,30386,1,0,0:0:0:0:
256,192,30474,1,2,0:0:0:0:
256,192,30651,1,0,0:0:0:0:
256,192,30739,1,2,0:0:0:0:
256,192,31004,1,2,0:0:0:0:
256,192,31063,1,2,0:0:0:0:
256,192,31121,1,2,0:0:0:0:
256,192,31180,1,0,0:0:0:0:
256,192,31269,1,0,0:0:0:0:
256,192,31357,1,0,0:0:0:0:
256,192,31709,1,0,0:0:0:0:
256,192,31886,1,2,0:0:0:0:
256,192,31974,1,2,0:0:0:0:
256,192,32062,1,0,0:0:0:0:
256,192,32239,1,2,0:0:0:0:
256,192,32327,1,2,0:0:0:0:
256,192,32415,1,0,0:0:0:0:
256,192,32592,1,2,0:0:0:0:
256,192,32680,1,2,0:0:0:0:
256,192,32768,1,0,0:0:0:0:
256,192,32944,1,0,0:0:0:0:
256,192,33033,1,2,0:0:0:0:
256,192,33209,1,0,0:0:0:0:
256,192,33297,1,2,0:0:0:0:
256,192,33474,1,0,0:0:0:0:
256,192,33562,1,2,0:0:0:0:
256,192,33827,1,2,0:0:0:0:
256,192,33886,1,2,0:0:0:0:
256,192,33944,1,2,0:0:0:0:
256,192,34003,1,0,0:0:0:0:
256,192,34092,1,0,0:0:0:0:
256,192,34180,1,0,0:0:0:0:
256,192,34533,1,0,0:0:0:0:
256,192,34709,1,2,0:0:0:0:
256,192,34797,1,0,0:0:0:0:
256,192,34886,1,0,0:0:0:0:
256,192,35062,1,2,0:0:0:0:
256,192,35150,1,0,0:0:0:0:
256,192,35239,1,0,0:0:0:0:
256,192,35415,1,2,0:0:0:0:
256,192,35503,1,0,0:0:0:0:
256,192,35592,1,0,0:0:0:0:
256,192,35768,1,0,0:0:0:0:
256,192,35856,1,2,0:0:0:0:
256,192,36033,1,0,0:0:0:0:
256,192,36121,1,2,0:0:0:0:
256,192,36297,1,0,0:0:0:0:
256,192,36386,1,2,0:0:0:0:
256,192,36650,1,0,0:0:0:0:
256,192,36709,1,2,0:0:0:0:
256,192,36768,1,2,0:0:0:0:
256,192,36827,1,0,0:0:0:0:
256,192,36915,1,0,0:0:0:0:
256,192,37003,1,0,0:0:0:0:
256,192,37356,1,0,0:0:0:0:
256,192,37532,1,2,0:0:0:0:
256,192,37620,1,0,0:0:0:0:
256,192,37709,1,0,0:0:0:0:
256,192,37885,1,2,0:0:0:0:
256,192,37973,1,0,0:0:0:0:
256,192,38062,1,0,0:0:0:0:
256,192,38238,1,2,0:0:0:0:
256,192,38326,1,0,0:0:0:0:
256,192,38415,1,0,0:0:0:0:
256,192,38591,1,0,0:0:0:0:
256,192,38679,1,2,0:0:0:0:
256,192,38856,1,0,0:0:0:0:
256,192,38944,1,2,0:0:0:0:
256,192,39120,1,0,0:0:0:0:
256,192,39209,1,2,0:0:0:0:
256,192,39473,1,0,0:0:0:0:
256,192,39532,1,2,0:0:0:0:
256,192,39591,1,2,0:0:0:0:
256,192,39650,1,0,0:0:0:0:
256,192,39738,1,0,0:0:0:0:
256,192,39826,1,0,0:0:0:0:
256,192,40003,1,0,0:0:0:0:
256,192,40180,1,0,0:0:0:0:
256,192,40356,1,0,0:0:0:0:
256,192,40445,1,2,0:0:0:0:
256,192,40533,1,0,0:0:0:0:
256,192,40709,1,0,0:0:0:0:
256,192,40797,1,2,0:0:0:0:
256,192,40886,1,0,0:0:0:0:
256,192,41062,1,0,0:0:0:0:
256,192,41150,1,2,0:0:0:0:
256,192,41239,1,0,0:0:0:0:
256,192,41415,1,0,0:0:0:0:
256,192,41503,1,2,0:0:0:0:
256,192,41680,1,0,0:0:0:0:
256,192,41768,1,2,0:0:0:0:
256,192,41945,1,0,0:0:0:0:
256,192,42033,1,2,0:0:0:0:
256,192,42209,1,2,0:0:0:0:
256,192,42297,1,0,0:0:0:0:
256,192,42356,1,2,0:0:0:0:
256,192,42415,1,2,0:0:0:0:
256,192,42474,1,0,0:0:0:0:
256,192,42562,1,0,0:0:0:0:
256,192,42650,1,2,0:0:0:0:
256,192,42739,1,0,0:0:0:0:
256,192,42827,1,0,0:0:0:0:
256,192,42915,1,0,0:0:0:0:
256,192,43003,1,2,0:0:0:0:
256,192,43092,1,2,0:0:0:0:
256,192,43180,1,0,0:0:0:0:
256,192,43268,1,0,0:0:0:0:
256,192,43356,1,2,0:0:0:0:
256,192,43445,1,0,0:0:0:0:
256,192,43533,1,0,0:0:0:0:
256,192,43621,1,0,0:0:0:0:
256,192,43709,1,2,0:0:0:0:
256,192,43797,1,2,0:0:0:0:
256,192,43886,1,0,0:0:0:0:
256,192,43974,1,0,0:0:0:0:
256,192,44062,1,2,0:0:0:0:
256,192,44768,1,6,0:0:0:0:
256,192,44945,1,2,0:0:0:0:
256,192,45033,1,2,0:0:0:0:
256,192,45121,1,2,0:0:0:0:
256,192,45209,1,0,0:0:0:0:
256,192,45297,1,0,0:0:0:0:
256,192,45386,1,2,0:0:0:0:
256,192,45474,1,4,0:0:0:0:
256,192,45739,1,2,0:0:0:0:
256,192,45827,1,0,0:0:0:0:
256,192,46003,1,2,0:0:0:0:
256,192,46092,1,0,0:0:0:0:
256,192,46268,1,2,0:0:0:0:
256,192,46445,1,2,0:0:0:0:
256,192,46533,1,0,0:0:0:0:
256,192,46709,1,2,0:0:0:0:
256,192,46768,1,2,0:0:0:0:
256,192,46827,1,2,0:0:0:0:
256,192,46886,1,0,0:0:0:0:
256,192,47062,1,0,0:0:0:0:
256,192,47150,1,2,0:0:0:0:
256,192,47327,1,0,0:0:0:0:
256,192,47415,1,2,0:0:0:0:
256,192,47592,1,0,0:0:0:0:
256,192,47680,1,2,0:0:0:0:
256,192,47856,1,0,0:0:0:0:
256,192,47945,1,2,0:0:0:0:
256,192,48003,1,2,0:0:0:0:
256,192,48062,1,2,0:0:0:0:
256,192,48121,1,2,0:0:0:0:
256,192,48180,1,2,0:0:0:0:
256,192,48239,1,2,0:0:0:0:
256,192,48297,1,0,0:0:0:0:
256,192,48562,1,2,0:0:0:0:
256,192,48650,1,0,0:0:0:0:
256,192,48827,1,2,0:0:0:0:
256,192,48915,1,0,0:0:0:0:
256,192,49092,1,2,0:0:0:0:
256,192,49268,1,2,0:0:0:0:
256,192,49356,1,0,0:0:0:0:
256,192,49533,1,2,0:0:0:0:
256,192,49592,1,2,0:0:0:0:
256,192,49650,1,2,0:0:0:0:
256,192,49709,1,0,0:0:0:0:
256,192,49886,1,0,0:0:0:0:
256,192,49974,1,2,0:0:0:0:
256,192,50150,1,0,0:0:0:0:
256,192,50239,1,2,0:0:0:0:
256,192,50415,1,0,0:0:0:0:
256,192,50503,1,2,0:0:0:0:
256,192,50680,1,2,0:0:0:0:
256,192,50768,1,0,0:0:0:0:
256,192,50812,1,0,0:0:0:0:
256,192,50945,1,2,0:0:0:0:
256,192,50989,1,2,0:0:0:0:
256,192,51121,1,4,0:0:0:0:
256,192,51386,1,2,0:0:0:0:
256,192,51474,1,0,0:0:0:0:
256,192,51650,1,2,0:0:0:0:
256,192,51739,1,0,0:0:0:0:
256,192,51915,1,2,0:0:0:0:
256,192,52092,1,2,0:0:0:0:
256,192,52180,1,0,0:0:0:0:
256,192,52356,1,2,0:0:0:0:
256,192,52415,1,2,0:0:0:0:
256,192,52474,1,2,0:0:0:0:
256,192,52533,1,0,0:0:0:0:
256,192,52709,1,0,0:0:0:0:
256,192,52797,1,2,0:0:0:0:
256,192,52974,1,0,0:0:0:0:
256,192,53062,1,2,0:0:0:0:
256,192,53239,1,0,0:0:0:0:
256,192,53327,1,2,0:0:0:0:
256,192,53503,1,0,0:0:0:0:
256,192,53592,1,2,0:0:0:0:
256,192,53650,1,2,0:0:0:0:
256,192,53709,1,2,0:0:0:0:
256,192,53768,1,2,0:0:0:0:
256,192,53827,1,2,0:0:0:0:
256,192,53886,1,2,0:0:0:0:
256,192,53944,1,0,0:0:0:0:
256,192,54209,1,2,0:0:0:0:
256,192,54297,1,0,0:0:0:0:
256,192,54473,1,2,0:0:0:0:
256,192,54562,1,0,0:0:0:0:
256,192,54738,1,2,0:0:0:0:
256,192,54915,1,2,0:0:0:0:
256,192,55003,1,0,0:0:0:0:
256,192,55179,1,2,0:0:0:0:
256,192,55238,1,2,0:0:0:0:
256,192,55297,1,2,0:0:0:0:
256,192,55356,1,0,0:0:0:0:
256,192,55532,1,0,0:0:0:0:
256,192,55620,1,2,0:0:0:0:
256,192,55797,1,0,0:0:0:0:
256,192,55885,1,2,0:0:0:0:
256,192,56062,1,0,0:0:0:0:
256,192,56150,1,2,0:0:0:0:
256,192,56326,1,0,0:0:0:0:
256,192,56415,1,2,0:0:0:0:
256,192,56459,1,2,0:0:0:0:
256,192,56768,1,4,0:0:0:0:
256,192,57033,1,2,0:0:0:0:
256,192,57121,1,0,0:0:0:0:
256,192,57297,1,2,0:0:0:0:
256,192,57386,1,0,0:0:0:0:
256,192,57562,1,2,0:0:0:0:
256,192,57739,1,2,0:0:0:0:
256,192,57827,1,0,0:0:0:0:
256,192,58003,1,2,0:0:0:0:
256,192,58062,1,2,0:0:0:0:
256,192,58121,1,2,0:0:0:0:
256,192,58180,1,0,0:0:0:0:
256,192,58356,1,0,0:0:0:0:
256,192,58444,1,2,0:0:0:0:
256,192,58621,1,0,0:0:0:0:
256,192,58709,1,2,0:0:0:0:
256,192,58886,1,0,0:0:0:0:
256,192,58974,1,2,0:0:0:0:
256,192,59150,1,0,0:0:0:0:
256,192,59239,1,2,0:0:0:0:
256,192,59297,1,2,0:0:0:0:
256,192,59356,1,2,0:0:0:0:
256,192,59415,1,2,0:0:0:0:
256,192,59474,1,2,0:0:0:0:
256,192,59533,1,2,0:0:0:0:
256,192,59591,1,0,0:0:0:0:
256,192,59856,1,2,0:0:0:0:
256,192,59944,1,0,0:0:0:0:
256,192,60120,1,2,0:0:0:0:
256,192,60209,1,0,0:0:0:0:
256,192,60385,1,2,0:0:0:0:
256,192,60562,1,2,0:0:0:0:
256,192,60650,1,0,0:0:0:0:
256,192,60826,1,2,0:0:0:0:
256,192,60885,1,2,0:0:0:0:
256,192,60944,1,2,0:0:0:0:
256,192,61003,1,0,0:0:0:0:
256,192,61179,1,0,0:0:0:0:
256,192,61267,1,2,0:0:0:0:
256,192,61444,1,0,0:0:0:0:
256,192,61532,1,2,0:0:0:0:
256,192,61709,1,0,0:0:0:0:
256,192,61797,1,2,0:0:0:0:
256,192,61973,1,2,0:0:0:0:
256,192,62062,1,0,0:0:0:0:
256,192,62106,1,0,0:0:0:0:
256,192,62239,1,2,0:0:0:0:
256,192,62283,1,2,0:0:0:0:
256,192,62415,1,4,0:0:0:0:
256,192,62680,1,2,0:0:0:0:
256,192,62768,1,0,0:0:0:0:
256,192,62944,1,2,0:0:0:0:
256,192,63033,1,0,0:0:0:0:
256,192,63209,1,2,0:0:0:0:
256,192,63386,1,2,0:0:0:0:
256,192,63474,1,0,0:0:0:0:
256,192,63650,1,2,0:0:0:0:
256,192,63709,1,2,0:0:0:0:
256,192,63768,1,2,0:0:0:0:
256,192,63827,1,0,0:0:0:0:
256,192,64003,1,0,0:0:0:0:
256,192,64091,1,2,0:0:0:0:
256,192,64268,1,0,0:0:0:0:
256,192,64356,1,2,0:0:0:0:
256,192,64533,1,0,0:0:0:0:
256,192,64621,1,2,0:0:0:0:
256,192,64797,1,0,0:0:0:0:
256,192,64886,1,2,0:0:0:0:
256,192,64944,1,2,0:0:0:0:
256,192,65003,1,2,0:0:0:0:
256,192,65062,1,2,0:0:0:0:
256,192,65121,1,2,0:0:0:0:
256,192,65180,1,2,0:0:0:0:
256,192,65238,1,0,0:0:0:0:
256,192,65503,1,2,0:0:0:0:
256,192,65591,1,0,0:0:0:0:
256,192,65767,1,2,0:0:0:0:
256,192,65856,1,0,0:0:0:0:
256,192,66032,1,2,0:0:0:0:
256,192,66209,1,2,0:0:0:0:
256,192,66297,1,0,0:0:0:0:
256,192,66474,1,2,0:0:0:0:
256,192,66533,1,2,0:0:0:0:
256,192,66592,1,2,0:0:0:0:
256,192,66915,1,6,0:0:0:0:
256,192,67180,1,6,0:0:0:0:
256,192,67445,1,6,0:0:0:0:
256,192,67709,1,2,0:0:0:0:
256,192,67797,1,2,0:0:0:0:
256,192,67886,1,0,0:0:0:0:
256,192,67974,1,2,0:0:0:0:
256,192,68062,1,4,0:0:0:0:
256,192,68415,1,2,0:0:0:0:
256,192,68680,1,0,0:0:0:0:
256,192,69033,1,0,0:0:0:0:
256,192,69121,1,2,0:0:0:0:
256,192,69386,1,2,0:0:0:0:
256,192,69474,1,0,0:0:0:0:
256,192,69739,1,2,0:0:0:0:
256,192,69827,1,0,0:0:0:0:
256,192,70003,1,2,0:0:0:0:
256,192,70092,1,0,0:0:0:0:
256,192,70268,1,2,0:0:0:0:
256,192,70445,1,2,0:0:0:0:
256,192,70533,1,0,0:0:0:0:
256,192,70709,1,2,0:0:0:0:
256,192,70886,1,4,0:0:0:0:
256,192,71239,1,2,0:0:0:0:
256,192,71504,1,0,0:0:0:0:
256,192,71768,1,2,0:0:0:0:
256,192,71857,1,0,0:0:0:0:
256,192,71945,1,2,0:0:0:0:
256,192,72210,1,2,0:0:0:0:
256,192,72298,1,0,0:0:0:0:
256,192,72562,1,0,0:0:0:0:
256,192,72650,1,2,0:0:0:0:
256,192,72826,1,0,0:0:0:0:
256,192,72915,1,2,0:0:0:0:
256,192,73091,1,0,0:0:0:0:
256,192,73268,1,0,0:0:0:0:
256,192,73356,1,2,0:0:0:0:
256,192,73532,1,0,0:0:0:0:
256,192,73709,1,4,0:0:0:0:
256,192,74062,1,2,0:0:0:0:
256,192,74327,1,0,0:0:0:0:
256,192,74680,1,0,0:0:0:0:
256,192,74768,1,2,0:0:0:0:
256,192,75033,1,2,0:0:0:0:
256,192,75121,1,0,0:0:0:0:
256,192,75386,1,2,0:0:0:0:
256,192,75474,1,0,0:0:0:0:
256,192,75651,1,2,0:0:0:0:
256,192,75739,1,0,0:0:0:0:
256,192,75916,1,2,0:0:0:0:
256,192,76092,1,2,0:0:0:0:
256,192,76180,1,0,0:0:0:0:
256,192,76356,1,2,0:0:0:0:
256,192,76533,1,4,0:0:0:0:
256,192,76886,1,2,0:0:0:0:
256,192,77151,1,0,0:0:0:0:
256,192,77415,1,2,0:0:0:0:
256,192,77504,1,0,0:0:0:0:
256,192,77592,1,2,0:0:0:0:
256,192,77857,1,2,0:0:0:0:
256,192,77945,1,0,0:0:0:0:
256,192,78209,1,2,0:0:0:0:
256,192,78253,1,2,0:0:0:0:
256,192,78474,1,2,0:0:0:0:
256,192,78518,1,2,0:0:0:0:
256,192,78739,1,2,0:0:0:0:
256,192,78783,1,2,0:0:0:0:
256,192,79003,1,2,0:0:0:0:
256,192,79092,1,2,0:0:0:0:
256,192,79180,1,0,0:0:0:0:
256,192,79356,1,4,0:0:0:0:
256,192,79621,1,2,0:0:0:0:
256,192,79709,1,0,0:0:0:0:
256,192,79885,1,2,0:0:0:0:
256,192,79974,1,0,0:0:0:0:
256,192,80150,1,2,0:0:0:0:
256,192,80327,1,2,0:0:0:0:
256,192,80415,1,0,0:0:0:0:
256,192,80591,1,2,0:0:0:0:
256,192,80650,1,2,0:0:0:0:
256,192,80709,1,2,0:0:0:0:
256,192,80768,1,0,0:0:0:0:
256,192,80944,1,0,0:0:0:0:
256,192,81032,1,2,0:0:0:0:
256,192,81209,1,0,0:0:0:0:
256,192,81297,1,2,0:0:0:0:
256,192,81474,1,0,0:0:0:0:
256,192,81562,1,2,0:0:0:0:
256,192,81738,1,0,0:0:0:0:
256,192,81827,1,2,0:0:0:0:
256,192,81885,1,2,0:0:0:0:
256,192,81944,1,2,0:0:0:0:
256,192,82003,1,2,0:0:0:0:
256,192,82062,1,2,0:0:0:0:
256,192,82121,1,2,0:0:0:0:
256,192,82179,1,0,0:0:0:0:
256,192,82444,1,2,0:0:0:0:
256,192,82532,1,0,0:0:0:0:
256,192,82709,1,2,0:0:0:0:
256,192,82797,1,0,0:0:0:0:
256,192,82974,1,2,0:0:0:0:
256,192,83150,1,2,0:0:0:0:
256,192,83238,1,0,0:0:0:0:
256,192,83415,1,2,0:0:0:0:
256,192,83474,1,2,0:0:0:0:
256,192,83532,1,2,0:0:0:0:
256,192,83591,1,0,0:0:0:0:
256,192,83768,1,0,0:0:0:0:
256,192,83856,1,2,0:0:0:0:
256,192,84032,1,0,0:0:0:0:
256,192,84121,1,2,0:0:0:0:
256,192,84297,1,0,0:0:0:0:
256,192,84385,1,2,0:0:0:0:
256,192,84562,1,2,0:0:0:0:
256,192,84650,1,0,0:0:0:0:
256,192,84694,1,0,0:0:0:0:
256,192,84827,1,2,0:0:0:0:
256,192,84871,1,2,0:0:0:0:
256,192,85003,1,4,0:0:0:0:
256,192,85268,1,2,0:0:0:0:
256,192,85356,1,0,0:0:0:0:
256,192,85532,1,2,0:0:0:0:
256,192,85621,1,0,0:0:0:0:
256,192,85797,1,2,0:0:0:0:
256,192,85974,1,2,0:0:0:0:
256,192,86062,1,0,0:0:0:0:
256,192,86238,1,2,0:0:0:0:
256,192,86297,1,2,0:0:0:0:
256,192,86356,1,2,0:0:0:0:
256,192,86415,1,0,0:0:0:0:
256,192,86591,1,0,0:0:0:0:
256,192,86679,1,2,0:0:0:0:
256,192,86856,1,0,0:0:0:0:
256,192,86944,1,2,0:0:0:0:
256,192,87121,1,0,0:0:0:0:
256,192,87209,1,2,0:0:0:0:
256,192,87385,1,0,0:0:0:0:
256,192,87474,1,2,0:0:0:0:
256,192,87532,1,2,0:0:0:0:
256,192,87591,1,2,0:0:0:0:
256,192,87650,1,2,0:0:0:0:
256,192,87709,1,2,0:0:0:0:
256,192,87768,1,2,0:0:0:0:
256,192,87826,1,0,0:0:0:0:
256,192,88092,1,2,0:0:0:0:
256,192,88180,1,0,0:0:0:0:
256,192,88356,1,2,0:0:0:0:
256,192,88445,1,0,0:0:0:0:
256,192,88621,1,2,0:0:0:0:
256,192,88798,1,2,0:0:0:0:
256,192,88886,1,0,0:0:0:0:
256,192,89062,1,2,0:0:0:0:
256,192,89121,1,2,0:0:0:0:
256,192,89180,1,2,0:0:0:0:
256,192,89503,1,6,0:0:0:0:
256,192,89768,1,6,0:0:0:0:
256,192,90033,1,6,0:0:0:0:
256,192,90297,2,4,L|192:128,1,77.0000023498536
256,192,90650,1,4,0:0:0:0:
256,192,91003,1,2,0:0:0:0:
256,192,91356,1,0,0:0:0:0:
256,192,91621,1,0,0:0:0:0:
256,192,91709,1,2,0:0:0:0:
256,192,91886,1,2,0:0:0:0:
256,192,91945,1,2,0:0:0:0:
256,192,92003,1,2,0:0:0:0:
256,192,92062,1,0,0:0:0:0:
256,192,92415,1,2,0:0:0:0:
256,192,92768,1,0,0:0:0:0:
256,192,93033,1,0,0:0:0:0:
256,192,93121,2,4,L|193:129,1,73.4999977569581
256,192,93474,1,4,0:0:0:0:
256,192,93827,1,2,0:0:0:0:
256,192,94180,1,0,0:0:0:0:
256,192,94445,1,0,0:0:0:0:
256,192,94533,1,2,0:0:0:0:
256,192,94709,1,2,0:0:0:0:
256,192,94768,1,2,0:0:0:0:
256,192,94827,1,2,0:0:0:0:
256,192,94886,1,0,0:0:0:0:
256,192,95239,1,2,0:0:0:0:
256,192,95592,1,0,0:0:0:0:
256,192,95856,1,2,0:0:0:0:
256,192,95945,1,0,0:0:0:0:
256,192,95989,1,0,0:0:0:0:
256,192,96121,1,2,0:0:0:0:
256,192,96165,1,2,0:0:0:0:
256,192,96297,1,4,0:0:0:0:
256,192,96650,1,2,0:0:0:0:
256,192,97003,1,0,0:0:0:0:
256,192,97268,1,0,0:0:0:0:
256,192,97356,1,2,0:0:0:0:
256,192,97533,1,2,0:0:0:0:
256,192,97592,1,2,0:0:0:0:
256,192,97650,1,2,0:0:0:0:
256,192,97709,1,0,0:0:0:0:
256,192,98062,1,2,0:0:0:0:
256,192,98415,1,0,0:0:0:0:
256,192,98680,1,0,0:0:0:0:
256,192,98768,2,4,L|198:129,1,73.4999977569581
256,192,99121,1,4,0:0:0:0:
256,192,99474,1,2,0:0:0:0:
256,192,99827,1,0,0:0:0:0:
256,192,100092,1,0,0:0:0:0:
256,192,100180,1,2,0:0:0:0:
256,192,100356,1,2,0:0:0:0:
256,192,100415,1,2,0:0:0:0:
256,192,100474,1,2,0:0:0:0:
256,192,100797,1,6,0:0:0:0:
256,192,101062,1,6,0:0:0:0:
256,192,101327,1,6,0:0:0:0:
256,192,101592,1,2,0:0:0:0:
256,192,101680,1,2,0:0:0:0:
256,192,101768,1,0,0:0:0:0:
256,192,101856,1,2,0:0:0:0:
256,192,101945,1,4,0:0:0:0:
256,192,102298,1,2,0:0:0:0:
256,192,102651,1,0,0:0:0:0:
256,192,102916,1,0,0:0:0:0:
256,192,103004,1,2,0:0:0:0:
256,192,103181,1,2,0:0:0:0:
256,192,103240,1,2,0:0:0:0:
256,192,103298,1,2,0:0:0:0:
256,192,103357,1,0,0:0:0:0:
256,192,103710,1,2,0:0:0:0:
256,192,104063,1,0,0:0:0:0:
256,192,104328,1,0,0:0:0:0:
256,192,104415,2,0,L|220:60,1,73.4999977569581
256,192,104769,1,4,0:0:0:0:
256,192,105122,1,2,0:0:0:0:
256,192,105475,1,0,0:0:0:0:
256,192,105740,1,0,0:0:0:0:
256,192,105828,1,2,0:0:0:0:
256,192,106004,1,2,0:0:0:0:
256,192,106063,1,2,0:0:0:0:
256,192,106122,1,2,0:0:0:0:
256,192,106181,1,0,0:0:0:0:
256,192,106534,1,2,0:0:0:0:
256,192,106887,1,0,0:0:0:0:
256,192,107151,1,2,0:0:0:0:
256,192,107240,1,0,0:0:0:0:
256,192,107284,1,0,0:0:0:0:
256,192,107416,1,2,0:0:0:0:
256,192,107459,1,2,0:0:0:0:
256,192,107592,1,4,0:0:0:0:
256,192,107945,1,2,0:0:0:0:
256,192,108298,1,0,0:0:0:0:
256,192,108563,1,0,0:0:0:0:
256,192,108651,1,2,0:0:0:0:
256,192,108828,1,2,0:0:0:0:
256,192,108887,1,2,0:0:0:0:
256,192,108945,1,2,0:0:0:0:
256,192,109004,1,0,0:0:0:0:
256,192,109357,1,2,0:0:0:0:
256,192,109710,1,0,0:0:0:0:
256,192,109975,1,0,0:0:0:0:
256,192,110062,2,0,L|313:153,1,73.4999977569581
256,192,110416,1,4,0:0:0:0:
256,192,110769,1,2,0:0:0:0:
256,192,111122,1,0,0:0:0:0:
256,192,111387,1,0,0:0:0:0:
256,192,111475,1,2,0:0:0:0:
256,192,111651,1,2,0:0:0:0:
256,192,111710,1,2,0:0:0:0:
256,192,111769,1,2,0:0:0:0:
256,192,112092,1,6,0:0:0:0:
256,192,112356,1,6,0:0:0:0:
256,192,112621,1,6,0:0:0:0:
256,192,112886,2,4,L|384:192,1,105.000004005432
256,192,113239,1,4,0:0:0:0:
256,192,113415,12,0,116062,0:0:0:0:
256,192,118886,5,4,0:0:0:0:
256,192,121709,1,0,0:0:0:0:
256,192,121768,1,2,0:0:0:0:
256,192,121827,1,2,0:0:0:0:
256,192,121886,1,2,0:0:0:0:
256,192,123121,1,0,0:0:0:0:
256,192,123180,1,0,0:0:0:0:
256,192,123239,1,2,0:0:0:0:
256,192,123297,1,2,0:0:0:0:
256,192,124533,1,0,0:0:0:0:
256,192,124592,1,0,0:0:0:0:
256,192,124650,1,2,0:0:0:0:
256,192,124709,1,2,0:0:0:0:
256,192,127356,1,0,0:0:0:0:
256,192,127415,1,2,0:0:0:0:
256,192,127474,1,2,0:0:0:0:
256,192,127533,1,2,0:0:0:0:
256,192,128768,1,0,0:0:0:0:
256,192,128827,1,0,0:0:0:0:
256,192,128886,1,2,0:0:0:0:
256,192,128945,1,2,0:0:0:0:
256,192,130180,5,4,0:0:0:0:
256,192,130709,1,2,0:0:0:0:
256,192,131239,1,2,0:0:0:0:
256,192,131592,1,6,0:0:0:0:
256,192,132121,1,2,0:0:0:0:
256,192,132650,1,2,0:0:0:0:
256,192,133003,2,4,L|194:130,2,70
256,192,133533,1,2,0:0:0:0:
256,192,134062,1,2,0:0:0:0:
256,192,134415,1,6,0:0:0:0:
256,192,134945,1,2,0:0:0:0:
256,192,135474,1,2,0:0:0:0:
256,192,135827,2,4,L|180:100,2,70
256,192,136356,1,2,0:0:0:0:
256,192,136886,1,2,0:0:0:0:
256,192,137239,1,6,0:0:0:0:
256,192,137768,1,2,0:0:0:0:
256,192,138297,1,2,0:0:0:0:
256,192,138650,2,4,L|194:130,2,70
256,192,139180,1,2,0:0:0:0:
256,192,139709,1,2,0:0:0:0:
256,192,140062,1,4,0:0:0:0:
256,192,140592,1,2,0:0:0:0:
256,192,140945,2,0,L|357:83,1,140
256,192,141474,1,4,0:0:0:0:
256,192,141562,12,0,142709,0:0:0:0:
256,192,142886,5,4,0:0:0:0:
256,192,143150,1,2,0:0:0:0:
256,192,143195,1,2,0:0:0:0:
256,192,143415,1,2,0:0:0:0:
256,192,143459,1,2,0:0:0:0:
256,192,143680,1,2,0:0:0:0:
256,192,143724,1,2,0:0:0:0:
256,192,143945,1,0,0:0:0:0:
256,192,143989,1,0,0:0:0:0:
256,192,144297,1,4,0:0:0:0:
256,192,144386,12,0,145533,0:0:0:0:
256,192,145709,5,4,0:0:0:0:
256,192,145797,12,0,146945,0:0:0:0:
256,192,147121,5,4,0:0:0:0:
256,192,147209,12,0,148356,0:0:0:0:
256,192,148533,5,4,0:0:0:0:
256,192,148797,1,2,0:0:0:0:
256,192,148842,1,2,0:0:0:0:
256,192,149062,1,2,0:0:0:0:
256,192,149106,1,2,0:0:0:0:
256,192,149327,1,2,0:0:0:0:
256,192,149371,1,2,0:0:0:0:
256,192,149592,1,0,0:0:0:0:
256,192,149636,1,0,0:0:0:0:
256,192,149945,1,4,0:0:0:0:
256,192,150033,12,0,151180,0:0:0:0:
256,192,151356,5,4,0:0:0:0:
256,192,151445,12,0,152062,0:0:0:0:
256,192,152239,5,2,0:0:0:0:
256,192,152298,1,2,0:0:0:0:
256,192,152357,1,2,0:0:0:0:
256,192,152416,1,0,0:0:0:0:
256,192,152768,1,4,0:0:0:0:
256,192,153121,1,0,0:0:0:0:
256,192,153297,1,2,0:0:0:0:
256,192,153386,1,2,0:0:0:0:
256,192,153474,1,0,0:0:0:0:
256,192,153650,1,2,0:0:0:0:
256,192,153739,1,2,0:0:0:0:
256,192,153827,1,0,0:0:0:0:
256,192,154003,1,2,0:0:0:0:
256,192,154092,1,2,0:0:0:0:
256,192,154180,1,0,0:0:0:0:
256,192,154445,1,2,0:0:0:0:
256,192,154489,1,2,0:0:0:0:
256,192,154709,1,2,0:0:0:0:
256,192,154753,1,2,0:0:0:0:
256,192,154974,1,2,0:0:0:0:
256,192,155018,1,2,0:0:0:0:
256,192,155239,1,2,0:0:0:0:
256,192,155327,1,2,0:0:0:0:
256,192,155415,1,0,0:0:0:0:
256,192,155503,1,0,0:0:0:0:
256,192,155592,1,0,0:0:0:0:
256,192,155945,1,0,0:0:0:0:
256,192,156121,1,2,0:0:0:0:
256,192,156209,1,2,0:0:0:0:
256,192,156297,1,0,0:0:0:0:
256,192,156474,1,2,0:0:0:0:
256,192,156562,1,2,0:0:0:0:
256,192,156650,1,0,0:0:0:0:
256,192,156827,1,2,0:0:0:0:
256,192,156915,1,2,0:0:0:0:
256,192,157003,1,0,0:0:0:0:
256,192,157268,1,0,0:0:0:0:
256,192,157312,1,0,0:0:0:0:
256,192,157533,1,0,0:0:0:0:
256,192,157577,1,0,0:0:0:0:
256,192,157797,1,0,0:0:0:0:
256,192,157842,1,0,0:0:0:0:
256,192,158062,1,2,0:0:0:0:
256,192,158150,1,2,0:0:0:0:
256,192,158239,1,0,0:0:0:0:
256,192,158327,1,0,0:0:0:0:
256,192,158415,1,0,0:0:0:0:
256,192,158768,1,0,0:0:0:0:
256,192,158944,1,2,0:0:0:0:
256,192,159032,1,2,0:0:0:0:
256,192,159120,1,0,0:0:0:0:
256,192,159297,1,2,0:0:0:0:
256,192,159385,1,2,0:0:0:0:
256,192,159473,1,0,0:0:0:0:
256,192,159650,1,2,0:0:0:0:
256,192,159738,1,2,0:0:0:0:
256,192,159826,1,0,0:0:0:0:
256,192,160092,1,2,0:0:0:0:
256,192,160135,1,2,0:0:0:0:
256,192,160356,1,2,0:0:0:0:
256,192,160400,1,2,0:0:0:0:
256,192,160620,1,2,0:0:0:0:
256,192,160665,1,2,0:0:0:0:
256,192,160886,1,2,0:0:0:0:
256,192,160973,1,2,0:0:0:0:
256,192,161062,1,0,0:0:0:0:
256,192,161150,1,0,0:0:0:0:
256,192,161238,1,0,0:0:0:0:
256,192,161592,1,0,0:0:0:0:
256,192,161768,1,2,0:0:0:0:
256,192,161856,1,2,0:0:0:0:
256,192,161944,1,0,0:0:0:0:
256,192,162121,1,2,0:0:0:0:
256,192,162209,1,2,0:0:0:0:
256,192,162297,1,0,0:0:0:0:
256,192,162474,1,2,0:0:0:0:
256,192,162562,1,2,0:0:0:0:
256,192,162650,1,0,0:0:0:0:
256,192,162915,1,0,0:0:0:0:
256,192,162959,1,0,0:0:0:0:
256,192,163180,1,0,0:0:0:0:
256,192,163224,1,0,0:0:0:0:
256,192,163444,1,0,0:0:0:0:
256,192,163489,1,0,0:0:0:0:
256,192,163709,1,2,0:0:0:0:
256,192,163797,1,2,0:0:0:0:
256,192,163886,1,0,0:0:0:0:
256,192,163974,1,0,0:0:0:0:
256,192,164062,1,0,0:0:0:0:
256,192,164415,1,2,0:0:0:0:
256,192,164592,1,0,0:0:0:0:
256,192,164680,1,0,0:0:0:0:
256,192,164768,1,2,0:0:0:0:
256,192,164945,1,0,0:0:0:0:
256,192,165033,1,0,0:0:0:0:
256,192,165121,1,2,0:0:0:0:
256,192,165297,1,0,0:0:0:0:
256,192,165386,1,0,0:0:0:0:
256,192,165474,1,2,0:0:0:0:
256,192,165739,1,2,0:0:0:0:
256,192,165827,1,0,0:0:0:0:
256,192,166003,1,2,0:0:0:0:
256,192,166180,1,2,0:0:0:0:
256,192,166268,1,0,0:0:0:0:
256,192,166356,1,0,0:0:0:0:
256,192,166533,1,2,0:0:0:0:
256,192,166592,1,0,0:0:0:0:
256,192,166650,1,0,0:0:0:0:
256,192,166709,1,2,0:0:0:0:
256,192,166797,1,0,0:0:0:0:
256,192,166886,1,2,0:0:0:0:
256,192,167239,1,2,0:0:0:0:
256,192,167416,1,0,0:0:0:0:
256,192,167504,1,0,0:0:0:0:
256,192,167592,1,2,0:0:0:0:
256,192,167769,1,0,0:0:0:0:
256,192,167857,1,0,0:0:0:0:
256,192,167945,1,2,0:0:0:0:
256,192,168121,1,0,0:0:0:0:
256,192,168210,1,0,0:0:0:0:
256,192,168298,1,2,0:0:0:0:
256,192,168563,1,2,0:0:0:0:
256,192,168651,1,0,0:0:0:0:
256,192,168827,1,2,0:0:0:0:
256,192,169004,1,2,0:0:0:0:
256,192,169092,1,0,0:0:0:0:
256,192,169180,1,0,0:0:0:0:
256,192,169357,1,2,0:0:0:0:
256,192,169416,1,0,0:0:0:0:
256,192,169474,1,0,0:0:0:0:
256,192,169533,1,2,0:0:0:0:
256,192,169621,1,0,0:0:0:0:
256,192,169710,1,2,0:0:0:0:
256,192,170062,1,2,0:0:0:0:
256,192,170239,1,0,0:0:0:0:
256,192,170327,1,0,0:0:0:0:
256,192,170415,1,2,0:0:0:0:
256,192,170592,1,0,0:0:0:0:
256,192,170680,1,0,0:0:0:0:
256,192,170768,1,2,0:0:0:0:
256,192,170944,1,0,0:0:0:0:
256,192,171033,1,0,0:0:0:0:
256,192,171121,1,2,0:0:0:0:
256,192,171386,1,2,0:0:0:0:
256,192,171474,1,0,0:0:0:0:
256,192,171650,1,2,0:0:0:0:
256,192,171827,1,2,0:0:0:0:
256,192,171915,1,0,0:0:0:0:
256,192,172003,1,0,0:0:0:0:
256,192,172180,1,2,0:0:0:0:
256,192,172239,1,0,0:0:0:0:
256,192,172297,1,0,0:0:0:0:
256,192,172356,1,2,0:0:0:0:
256,192,172444,1,0,0:0:0:0:
256,192,172533,1,2,0:0:0:0:
256,192,172709,1,0,0:0:0:0:
256,192,172886,1,2,0:0:0:0:
256,192,173062,1,0,0:0:0:0:
256,192,173150,1,0,0:0:0:0:
256,192,173239,1,2,0:0:0:0:
256,192,173327,1,0,0:0:0:0:
256,192,173415,1,0,0:0:0:0:
256,192,173503,1,0,0:0:0:0:
256,192,173592,1,2,0:0:0:0:
256,192,173680,1,0,0:0:0:0:
256,192,173768,1,0,0:0:0:0:
256,192,173856,1,0,0:0:0:0:
256,192,173945,1,2,0:0:0:0:
256,192,174650,1,6,0:0:0:0:
256,192,174827,1,2,0:0:0:0:
256,192,174915,1,2,0:0:0:0:
256,192,175003,1,2,0:0:0:0:
256,192,175091,1,0,0:0:0:0:
256,192,175179,1,0,0:0:0:0:
256,192,175268,1,2,0:0:0:0:
256,192,175356,1,4,0:0:0:0:
256,192,175621,1,2,0:0:0:0:
256,192,175709,1,0,0:0:0:0:
256,192,175885,1,2,0:0:0:0:
256,192,175974,1,0,0:0:0:0:
256,192,176150,1,0,0:0:0:0:
256,192,176239,1,2,0:0:0:0:
256,192,176327,1,2,0:0:0:0:
256,192,176591,1,2,0:0:0:0:
256,192,176650,1,2,0:0:0:0:
256,192,176709,1,2,0:0:0:0:
256,192,176768,1,0,0:0:0:0:
256,192,176945,1,0,0:0:0:0:
256,192,177033,1,2,0:0:0:0:
256,192,177210,1,0,0:0:0:0:
256,192,177298,1,2,0:0:0:0:
256,192,177475,1,0,0:0:0:0:
256,192,177563,1,2,0:0:0:0:
256,192,177650,1,2,0:0:0:0:
256,192,177828,1,2,0:0:0:0:
256,192,177886,1,2,0:0:0:0:
256,192,177945,1,2,0:0:0:0:
256,192,178004,1,2,0:0:0:0:
256,192,178063,1,2,0:0:0:0:
256,192,178122,1,2,0:0:0:0:
256,192,178180,1,0,0:0:0:0:
256,192,178445,1,2,0:0:0:0:
256,192,178533,1,0,0:0:0:0:
256,192,178709,1,2,0:0:0:0:
256,192,178798,1,0,0:0:0:0:
256,192,178974,1,0,0:0:0:0:
256,192,179063,1,2,0:0:0:0:
256,192,179151,1,2,0:0:0:0:
256,192,179415,1,2,0:0:0:0:
256,192,179474,1,2,0:0:0:0:
256,192,179533,1,2,0:0:0:0:
256,192,179592,1,0,0:0:0:0:
256,192,179769,1,0,0:0:0:0:
256,192,179857,1,2,0:0:0:0:
256,192,180034,1,0,0:0:0:0:
256,192,180122,1,2,0:0:0:0:
256,192,180297,1,0,0:0:0:0:
256,192,180386,1,2,0:0:0:0:
256,192,180474,1,2,0:0:0:0:
256,192,180650,1,0,0:0:0:0:
256,192,180695,1,0,0:0:0:0:
256,192,180827,1,2,0:0:0:0:
256,192,180871,1,2,0:0:0:0:
256,192,181003,1,4,0:0:0:0:
256,192,181268,1,2,0:0:0:0:
256,192,181356,1,0,0:0:0:0:
256,192,181532,1,2,0:0:0:0:
256,192,181621,1,0,0:0:0:0:
256,192,181797,1,0,0:0:0:0:
256,192,181886,1,2,0:0:0:0:
256,192,181974,1,2,0:0:0:0:
256,192,182238,1,2,0:0:0:0:
256,192,182297,1,2,0:0:0:0:
256,192,182356,1,2,0:0:0:0:
256,192,182415,1,0,0:0:0:0:
256,192,182592,1,0,0:0:0:0:
256,192,182680,1,2,0:0:0:0:
256,192,182857,1,0,0:0:0:0:
256,192,182945,1,2,0:0:0:0:
256,192,183122,1,0,0:0:0:0:
256,192,183210,1,2,0:0:0:0:
256,192,183297,1,2,0:0:0:0:
256,192,183475,1,2,0:0:0:0:
256,192,183533,1,2,0:0:0:0:
256,192,183592,1,2,0:0:0:0:
256,192,183651,1,2,0:0:0:0:
256,192,183710,1,2,0:0:0:0:
256,192,183769,1,2,0:0:0:0:
256,192,183827,1,0,0:0:0:0:
256,192,184092,1,2,0:0:0:0:
256,192,184180,1,0,0:0:0:0:
256,192,184356,1,2,0:0:0:0:
256,192,184445,1,0,0:0:0:0:
256,192,184621,1,0,0:0:0:0:
256,192,184710,1,2,0:0:0:0:
256,192,184798,1,2,0:0:0:0:
256,192,185062,1,2,0:0:0:0:
256,192,185121,1,2,0:0:0:0:
256,192,185180,1,2,0:0:0:0:
256,192,185239,1,0,0:0:0:0:
256,192,185416,1,0,0:0:0:0:
256,192,185504,1,2,0:0:0:0:
256,192,185681,1,0,0:0:0:0:
256,192,185769,1,2,0:0:0:0:
256,192,185946,1,0,0:0:0:0:
256,192,186034,1,2,0:0:0:0:
256,192,186121,1,2,0:0:0:0:
256,192,186297,1,2,0:0:0:0:
256,192,186342,1,2,0:0:0:0:
256,192,186474,1,0,0:0:0:0:
256,192,186562,1,2,0:0:0:0:
256,192,186650,1,4,0:0:0:0:
256,192,186915,1,2,0:0:0:0:
256,192,187003,1,0,0:0:0:0:
256,192,187179,1,2,0:0:0:0:
256,192,187268,1,0,0:0:0:0:
256,192,187444,1,0,0:0:0:0:
256,192,187533,1,2,0:0:0:0:
256,192,187621,1,2,0:0:0:0:
256,192,187885,1,2,0:0:0:0:
256,192,187944,1,2,0:0:0:0:
256,192,188003,1,2,0:0:0:0:
256,192,188062,1,0,0:0:0:0:
256,192,188239,1,0,0:0:0:0:
256,192,188327,1,2,0:0:0:0:
256,192,188504,1,0,0:0:0:0:
256,192,188592,1,2,0:0:0:0:
256,192,188769,1,0,0:0:0:0:
256,192,188857,1,2,0:0:0:0:
256,192,188944,1,2,0:0:0:0:
256,192,189122,1,2,0:0:0:0:
256,192,189180,1,2,0:0:0:0:
256,192,189239,1,2,0:0:0:0:
256,192,189298,1,2,0:0:0:0:
256,192,189357,1,2,0:0:0:0:
256,192,189416,1,2,0:0:0:0:
256,192,189474,1,0,0:0:0:0:
256,192,189739,1,2,0:0:0:0:
256,192,189827,1,0,0:0:0:0:
256,192,190003,1,2,0:0:0:0:
256,192,190092,1,0,0:0:0:0:
256,192,190268,1,0,0:0:0:0:
256,192,190357,1,2,0:0:0:0:
256,192,190445,1,2,0:0:0:0:
256,192,190709,1,2,0:0:0:0:
256,192,190768,1,2,0:0:0:0:
256,192,190827,1,2,0:0:0:0:
256,192,190886,1,0,0:0:0:0:
256,192,191063,1,0,0:0:0:0:
256,192,191151,1,2,0:0:0:0:
256,192,191328,1,0,0:0:0:0:
256,192,191416,1,2,0:0:0:0:
256,192,191593,1,0,0:0:0:0:
256,192,191681,1,2,0:0:0:0:
256,192,191768,1,2,0:0:0:0:
256,192,191944,1,0,0:0:0:0:
256,192,191988,1,0,0:0:0:0:
256,192,192120,1,2,0:0:0:0:
256,192,192165,1,2,0:0:0:0:
256,192,192297,1,4,0:0:0:0:
256,192,192562,1,2,0:0:0:0:
256,192,192650,1,0,0:0:0:0:
256,192,192826,1,2,0:0:0:0:
256,192,192915,1,0,0:0:0:0:
256,192,193091,1,0,0:0:0:0:
256,192,193180,1,2,0:0:0:0:
256,192,193268,1,2,0:0:0:0:
256,192,193532,1,2,0:0:0:0:
256,192,193591,1,2,0:0:0:0:
256,192,193650,1,2,0:0:0:0:
256,192,193709,1,0,0:0:0:0:
256,192,193886,1,0,0:0:0:0:
256,192,193974,1,2,0:0:0:0:
256,192,194151,1,0,0:0:0:0:
256,192,194239,1,2,0:0:0:0:
256,192,194416,1,0,0:0:0:0:
256,192,194504,1,2,0:0:0:0:
256,192,194591,1,2,0:0:0:0:
256,192,194769,1,2,0:0:0:0:
256,192,194827,1,2,0:0:0:0:
256,192,194886,1,2,0:0:0:0:
256,192,194945,1,2,0:0:0:0:
256,192,195004,1,2,0:0:0:0:
256,192,195063,1,2,0:0:0:0:
256,192,195121,1,0,0:0:0:0:
256,192,195386,1,2,0:0:0:0:
256,192,195474,1,0,0:0:0:0:
256,192,195650,1,2,0:0:0:0:
256,192,195739,1,0,0:0:0:0:
256,192,195915,1,0,0:0:0:0:
256,192,196004,1,2,0:0:0:0:
256,192,196092,1,2,0:0:0:0:
256,192,196356,1,2,0:0:0:0:
256,192,196415,1,2,0:0:0:0:
256,192,196474,1,2,0:0:0:0:
256,192,196797,1,6,0:0:0:0:
256,192,197062,1,6,0:0:0:0:
256,192,197327,1,6,0:0:0:0:
256,192,197592,1,2,0:0:0:0:
256,192,197680,1,2,0:0:0:0:
256,192,197768,1,0,0:0:0:0:
256,192,197856,1,2,0:0:0:0:
256,192,197945,1,4,0:0:0:0:
256,192,198297,1,2,0:0:0:0:
256,192,198562,1,0,0:0:0:0:
256,192,198915,1,0,0:0:0:0:
256,192,199003,1,2,0:0:0:0:
256,192,199268,1,2,0:0:0:0:
256,192,199356,1,0,0:0:0:0:
256,192,199621,1,2,0:0:0:0:
256,192,199709,1,0,0:0:0:0:
256,192,199885,1,2,0:0:0:0:
256,192,199974,1,0,0:0:0:0:
256,192,200150,1,2,0:0:0:0:
256,192,200327,1,2,0:0:0:0:
256,192,200415,1,0,0:0:0:0:
256,192,200591,1,2,0:0:0:0:
256,192,200768,1,4,0:0:0:0:
256,192,201121,1,2,0:0:0:0:
256,192,201386,1,0,0:0:0:0:
256,192,201650,1,2,0:0:0:0:
256,192,201739,1,0,0:0:0:0:
256,192,201827,1,2,0:0:0:0:
256,192,202092,1,2,0:0:0:0:
256,192,202180,1,0,0:0:0:0:
256,192,202444,1,0,0:0:0:0:
256,192,202532,1,2,0:0:0:0:
256,192,202708,1,0,0:0:0:0:
256,192,202797,1,2,0:0:0:0:
256,192,202973,1,0,0:0:0:0:
256,192,203150,1,0,0:0:0:0:
256,192,203238,1,2,0:0:0:0:
256,192,203414,1,0,0:0:0:0:
256,192,203591,1,4,0:0:0:0:
256,192,203945,1,2,0:0:0:0:
256,192,204210,1,0,0:0:0:0:
256,192,204563,1,0,0:0:0:0:
256,192,204651,1,2,0:0:0:0:
256,192,204916,1,2,0:0:0:0:
256,192,205004,1,0,0:0:0:0:
256,192,205269,1,2,0:0:0:0:
256,192,205357,1,0,0:0:0:0:
256,192,205533,1,2,0:0:0:0:
256,192,205622,1,0,0:0:0:0:
256,192,205798,1,2,0:0:0:0:
256,192,205975,1,2,0:0:0:0:
256,192,206063,1,0,0:0:0:0:
256,192,206239,1,2,0:0:0:0:
256,192,206416,1,4,0:0:0:0:
256,192,206769,1,2,0:0:0:0:
256,192,207034,1,0,0:0:0:0:
256,192,207298,1,2,0:0:0:0:
256,192,207387,1,0,0:0:0:0:
256,192,207475,1,2,0:0:0:0:
256,192,207740,1,2,0:0:0:0:
256,192,207828,1,0,0:0:0:0:
256,192,208092,1,2,0:0:0:0:
256,192,208136,1,2,0:0:0:0:
256,192,208356,1,2,0:0:0:0:
256,192,208400,1,2,0:0:0:0:
256,192,208621,1,2,0:0:0:0:
256,192,208665,1,2,0:0:0:0:
256,192,208886,1,2,0:0:0:0:
256,192,208974,1,2,0:0:0:0:
256,192,209062,1,0,0:0:0:0:
256,192,209239,1,4,0:0:0:0:
256,192,209503,1,2,0:0:0:0:
256,192,209591,1,0,0:0:0:0:
256,192,209767,1,2,0:0:0:0:
256,192,209856,1,0,0:0:0:0:
256,192,210032,1,2,0:0:0:0:
256,192,210209,1,2,0:0:0:0:
256,192,210297,1,0,0:0:0:0:
256,192,210473,1,2,0:0:0:0:
256,192,210532,1,2,0:0:0:0:
256,192,210591,1,2,0:0:0:0:
256,192,210650,1,0,0:0:0:0:
256,192,210826,1,0,0:0:0:0:
256,192,210914,1,2,0:0:0:0:
256,192,211091,1,0,0:0:0:0:
256,192,211179,1,2,0:0:0:0:
256,192,211356,1,0,0:0:0:0:
256,192,211444,1,2,0:0:0:0:
256,192,211620,1,0,0:0:0:0:
256,192,211709,1,2,0:0:0:0:
256,192,211767,1,2,0:0:0:0:
256,192,211826,1,2,0:0:0:0:
256,192,211885,1,2,0:0:0:0:
256,192,211944,1,2,0:0:0:0:
256,192,212003,1,2,0:0:0:0:
256,192,212061,1,0,0:0:0:0:
256,192,212327,1,2,0:0:0:0:
256,192,212415,1,0,0:0:0:0:
256,192,212591,1,2,0:0:0:0:
256,192,212680,1,0,0:0:0:0:
256,192,212856,1,2,0:0:0:0:
256,192,213033,1,2,0:0:0:0:
256,192,213121,1,0,0:0:0:0:
256,192,213297,1,2,0:0:0:0:
256,192,213356,1,2,0:0:0:0:
256,192,213415,1,2,0:0:0:0:
256,192,213474,1,0,0:0:0:0:
256,192,213650,1,0,0:0:0:0:
256,192,213738,1,2,0:0:0:0:
256,192,213915,1,0,0:0:0:0:
256,192,214003,1,2,0:0:0:0:
256,192,214180,1,0,0:0:0:0:
256,192,214268,1,2,0:0:0:0:
256,192,214445,1,2,0:0:0:0:
256,192,214533,1,0,0:0:0:0:
256,192,214577,1,0,0:0:0:0:
256,192,214709,1,2,0:0:0:0:
256,192,214753,1,2,0:0:0:0:
256,192,214886,1,4,0:0:0:0:
256,192,215150,1,2,0:0:0:0:
256,192,215238,1,0,0:0:0:0:
256,192,215414,1,2,0:0:0:0:
256,192,215503,1,0,0:0:0:0:
256,192,215679,1,2,0:0:0:0:
256,192,215856,1,2,0:0:0:0:
256,192,215944,1,0,0:0:0:0:
256,192,216120,1,2,0:0:0:0:
256,192,216179,1,2,0:0:0:0:
256,192,216238,1,2,0:0:0:0:
256,192,216297,1,0,0:0:0:0:
256,192,216473,1,0,0:0:0:0:
256,192,216561,1,2,0:0:0:0:
256,192,216738,1,0,0:0:0:0:
256,192,216826,1,2,0:0:0:0:
256,192,217003,1,0,0:0:0:0:
256,192,217091,1,2,0:0:0:0:
256,192,217267,1,0,0:0:0:0:
256,192,217356,1,2,0:0:0:0:
256,192,217414,1,2,0:0:0:0:
256,192,217473,1,2,0:0:0:0:
256,192,217532,1,2,0:0:0:0:
256,192,217591,1,2,0:0:0:0:
256,192,217650,1,2,0:0:0:0:
256,192,217708,1,0,0:0:0:0:
256,192,217974,1,2,0:0:0:0:
256,192,218062,1,0,0:0:0:0:
256,192,218238,1,2,0:0:0:0:
256,192,218327,1,0,0:0:0:0:
256,192,218503,1,2,0:0:0:0:
256,192,218680,1,2,0:0:0:0:
256,192,218768,1,0,0:0:0:0:
256,192,218944,1,2,0:0:0:0:
256,192,219003,1,2,0:0:0:0:
256,192,219062,1,2,0:0:0:0:
256,192,219386,1,6,0:0:0:0:
256,192,219650,1,6,0:0:0:0:
256,192,219915,1,6,0:0:0:0:
256,192,220180,2,4,L|192:128,1,77.0000023498536
256,192,220533,1,4,0:0:0:0:
256,192,220886,1,2,0:0:0:0:
256,192,221239,1,0,0:0:0:0:
256,192,221504,1,0,0:0:0:0:
256,192,221592,1,2,0:0:0:0:
256,192,221769,1,2,0:0:0:0:
256,192,221828,1,2,0:0:0:0:
256,192,221886,1,2,0:0:0:0:
256,192,221945,1,0,0:0:0:0:
256,192,222298,1,2,0:0:0:0:
256,192,222651,1,0,0:0:0:0:
256,192,222916,1,0,0:0:0:0:
256,192,223003,2,4,L|197:131,1,73.4999977569581
256,192,223357,1,4,0:0:0:0:
256,192,223709,1,2,0:0:0:0:
256,192,224062,1,0,0:0:0:0:
256,192,224327,1,0,0:0:0:0:
256,192,224415,1,2,0:0:0:0:
256,192,224592,1,2,0:0:0:0:
256,192,224651,1,2,0:0:0:0:
256,192,224709,1,2,0:0:0:0:
256,192,224768,1,0,0:0:0:0:
256,192,225121,1,2,0:0:0:0:
256,192,225474,1,0,0:0:0:0:
256,192,225739,1,2,0:0:0:0:
256,192,225827,1,0,0:0:0:0:
256,192,225871,1,0,0:0:0:0:
256,192,226003,1,2,0:0:0:0:
256,192,226047,1,2,0:0:0:0:
256,192,226180,1,4,0:0:0:0:
256,192,226533,1,2,0:0:0:0:
256,192,226886,1,0,0:0:0:0:
256,192,227151,1,0,0:0:0:0:
256,192,227239,1,2,0:0:0:0:
256,192,227416,1,2,0:0:0:0:
256,192,227475,1,2,0:0:0:0:
256,192,227533,1,2,0:0:0:0:
256,192,227592,1,0,0:0:0:0:
256,192,227945,1,2,0:0:0:0:
256,192,228298,1,0,0:0:0:0:
256,192,228563,1,0,0:0:0:0:
256,192,228650,2,4,L|201:130,1,73.4999977569581
256,192,229004,1,4,0:0:0:0:
256,192,229356,1,2,0:0:0:0:
256,192,229709,1,0,0:0:0:0:
256,192,229974,1,0,0:0:0:0:
256,192,230062,1,2,0:0:0:0:
256,192,230239,1,2,0:0:0:0:
256,192,230298,1,2,0:0:0:0:
256,192,230356,1,2,0:0:0:0:
256,192,230680,1,6,0:0:0:0:
256,192,230945,1,6,0:0:0:0:
256,192,231210,1,6,0:0:0:0:
256,192,231475,1,2,0:0:0:0:
256,192,231563,1,2,0:0:0:0:
256,192,231651,1,0,0:0:0:0:
256,192,231739,1,2,0:0:0:0:
256,192,231828,1,4,0:0:0:0:
256,192,232180,1,2,0:0:0:0:
256,192,232533,1,0,0:0:0:0:
256,192,232798,1,0,0:0:0:0:
256,192,232886,1,2,0:0:0:0:
256,192,233063,1,2,0:0:0:0:
256,192,233122,1,2,0:0:0:0:
256,192,233180,1,2,0:0:0:0:
256,192,233239,1,0,0:0:0:0:
256,192,233592,1,2,0:0:0:0:
256,192,233945,1,0,0:0:0:0:
256,192,234210,1,0,0:0:0:0:
256,192,234297,2,0,L|220:60,1,73.4999977569581
256,192,234651,1,4,0:0:0:0:
256,192,235003,1,2,0:0:0:0:
256,192,235356,1,0,0:0:0:0:
256,192,235621,1,0,0:0:0:0:
256,192,235709,1,2,0:0:0:0:
256,192,235886,1,2,0:0:0:0:
256,192,235945,1,2,0:0:0:0:
256,192,236003,1,2,0:0:0:0:
256,192,236062,1,0,0:0:0:0:
256,192,236415,1,2,0:0:0:0:
256,192,236768,1,0,0:0:0:0:
256,192,237033,1,2,0:0:0:0:
256,192,237121,1,0,0:0:0:0:
256,192,237165,1,0,0:0:0:0:
256,192,237297,1,2,0:0:0:0:
256,192,237341,1,2,0:0:0:0:
256,192,237474,1,4,0:0:0:0:
256,192,237827,1,2,0:0:0:0:
256,192,238180,1,0,0:0:0:0:
256,192,238445,1,0,0:0:0:0:
256,192,238533,1,2,0:0:0:0:
256,192,238710,1,2,0:0:0:0:
256,192,238769,1,2,0:0:0:0:
256,192,238827,1,2,0:0:0:0:
256,192,238886,1,0,0:0:0:0:
256,192,239239,1,2,0:0:0:0:
256,192,239592,1,0,0:0:0:0:
256,192,239857,1,0,0:0:0:0:
256,192,239945,2,0,L|299:152,1,73.4999977569581
256,192,240298,1,4,0:0:0:0:
256,192,240650,1,2,0:0:0:0:
256,192,241003,1,0,0:0:0:0:
256,192,241268,1,0,0:0:0:0:
256,192,241356,1,2,0:0:0:0:
256,192,241533,1,2,0:0:0:0:
256,192,241592,1,2,0:0:0:0:
256,192,241650,1,2,0:0:0:0:
256,192,241974,1,6,0:0:0:0:
256,192,242239,1,6,0:0:0:0:
256,192,242503,1,6,0:0:0:0:
256,192,242768,2,4,L|384:192,1,105.000004005432
256,192,243121,1,4,0:0:0:0:
256,192,243209,12,0,247356,0:0:0:0:
