osu file format v14

[General]
AudioFilename: audio.mp3
AudioLeadIn: 0
PreviewTime: 78964
Countdown: 0
SampleSet: Normal
StackLeniency: 0.7
Mode: 1
LetterboxInBreaks: 0
WidescreenStoryboard: 0

[Editor]
Bookmarks: 141479,152773,164067
DistanceSpacing: 0.9
BeatDivisor: 4
GridSize: 32
TimelineZoom: 1.7

[Metadata]
Title:sha
TitleUnicode:sha
Artist:sakuraburst
ArtistUnicode:sakuraburst
Creator:Faputa
Version:Ura Oni
Source:osu!
Tags:[Zeth] featured artist anticrystal EP neurofunk
BeatmapID:1811924
BeatmapSetID:866694

[Difficulty]
HPDrainRate:6
CircleSize:2
OverallDifficulty:6.5
ApproachRate:10
SliderMultiplier:1.4
SliderTickRate:1

[Events]
//Background and Video events
0,0,"nofurro.jpg",0,-80
//Break Periods
2,498,5495
2,6145,10083
2,11792,16789
2,17439,21024
2,113439,118436
2,119086,129730
//Storyboard Layer 0 (Background)
//Storyboard Layer 1 (Fail)
//Storyboard Layer 2 (Pass)
//Storyboard Layer 3 (Foreground)
//Storyboard Sound Samples

[TimingPoints]
298,352.941176470588,4,1,0,100,1,0
298,-133.333333333333,4,1,0,100,0,0
474,-133.333333333333,4,1,0,50,0,0
10533,-111.111111111111,4,1,0,50,0,0
11503,-133.333333333333,4,1,0,100,0,0
11768,-133.333333333333,4,1,0,50,0,0
21474,-111.111111111111,4,1,0,50,0,0
22797,-111.111111111111,4,1,0,80,0,0
23062,-111.111111111111,4,1,0,30,0,0
34136,-105.263157894737,4,1,0,80,0,0
34356,-105.263157894737,4,1,0,50,0,0
44768,-100,4,1,0,80,0,0
44945,-101.010101010101,4,1,0,80,0,0
45033,-102.040816326531,4,1,0,80,0,0
45121,-103.092783505155,4,1,0,80,0,0
45209,-104.166666666667,4,1,0,80,0,0
45297,-105.263157894737,4,1,0,80,0,0
45386,-106.382978723404,4,1,0,80,0,0
45474,-83.3333333333333,4,1,0,80,0,1
45739,-86.002344423909,4,1,0,80,0,1
45827,-86.9304426063485,4,1,0,80,0,1
46003,-88.8480582701105,4,1,0,80,0,1
46180,-90.8521018633766,4,1,0,80,0,1
46268,-91.8884547669893,4,1,0,80,0,1
46445,-94.0337468310627,4,1,0,80,0,1
46533,-95.1444006568769,4,1,0,80,0,1
46797,-83.3333333333333,4,1,0,80,0,1
47150,-86.2745030372939,4,1,0,80,0,1
47239,-87.301552658114,4,1,0,80,0,1
47415,-89.4308797673366,4,1,0,80,0,1
47592,-91.6666743055562,4,1,0,80,0,1
47680,-92.8269807189078,4,1,0,80,0,1
47856,-95.2380952380952,4,1,0,80,0,1
47945,-92.5925925925926,4,1,0,80,0,1
48033,-90.0900900900901,4,1,0,80,0,1
48121,-87.719298245614,4,1,0,80,0,1
48209,-85.4700854700855,4,1,0,80,0,1
48297,-83.3333333333333,4,1,0,80,0,1
48562,-86.002344423909,4,1,0,80,0,1
48650,-86.9304426063485,4,1,0,80,0,1
48827,-88.8480582701105,4,1,0,80,0,1
49003,-90.8521018633766,4,1,0,80,0,1
49092,-91.8884547669893,4,1,0,80,0,1
49268,-94.0337468310627,4,1,0,80,0,1
49356,-95.1444006568769,4,1,0,80,0,1
49621,-83.3333333333333,4,1,0,80,0,1
49974,-85.8085525384315,4,1,0,80,0,1
50062,-86.6666782222238,4,1,0,80,0,1
50239,-88.4353921976991,4,1,0,80,0,1
50415,-90.2778028549453,4,1,0,80,0,1
50503,-91.2280573715007,4,1,0,80,0,1
50680,-93.1899574774224,4,1,0,80,0,1
50768,-94.2029395085244,4,1,0,80,0,1
50856,-95.2380952380952,4,1,0,80,0,1
51121,-83.3333333333333,4,1,0,80,0,1
51386,-86.002344423909,4,1,0,80,0,1
51474,-86.9304426063485,4,1,0,80,0,1
51650,-88.8480582701105,4,1,0,80,0,1
51827,-90.8521018633766,4,1,0,80,0,1
51915,-91.8884547669893,4,1,0,80,0,1
52092,-94.0337468310627,4,1,0,80,0,1
52180,-95.1444006568769,4,1,0,80,0,1
52445,-83.3333333333333,4,1,0,80,0,1
52797,-86.2745030372939,4,1,0,80,0,1
52886,-87.301552658114,4,1,0,80,0,1
53062,-89.4308797673366,4,1,0,80,0,1
53239,-91.6666743055562,4,1,0,80,0,1
53327,-92.8269807189078,4,1,0,80,0,1
53503,-95.2380952380952,4,1,0,80,0,1
53592,-92.6347928871301,4,1,0,80,0,1
53680,-90.1700245983827,4,1,0,80,0,1
53768,-87.8329417448014,4,1,0,80,0,1
53856,-85.6140194669157,4,1,0,80,0,1
53945,-83.5044478644155,4,1,0,80,0,1
54209,-86.0215053763441,4,1,0,80,0,1
54297,-86.9565217391304,4,1,0,80,0,1
54474,-88.8888888888889,4,1,0,80,0,1
54650,-90.9090909090909,4,1,0,80,0,1
54739,-91.9540229885058,4,1,0,80,0,1
54915,-94.1176470588235,4,1,0,80,0,1
55003,-95.2380952380952,4,1,0,80,0,1
55268,-83.3333333333333,4,1,0,80,0,1
55621,-86.5384282544507,4,1,0,80,0,1
55709,-87.6623177390836,4,1,0,80,0,1
55886,-90.0000090000009,4,1,0,80,0,1
56062,-92.465794590936,4,1,0,80,0,1
56150,-93.7499707031342,4,1,0,80,0,1
56327,-96.4285748724491,4,1,0,80,0,1
56415,-97.826108223067,4,1,0,80,0,0
56503,-99.2647460261841,4,1,0,80,0,0
56547,-100,4,1,0,80,0,0
56768,-83.3333333333333,4,1,0,80,0,1
57033,-86.002344423909,4,1,0,80,0,1
57121,-86.9304426063485,4,1,0,80,0,1
57297,-88.8480582701105,4,1,0,80,0,1
57386,-89.8389457220042,4,1,0,80,0,1
57474,-90.8521018633766,4,1,0,80,0,1
57562,-91.8884547669893,4,1,0,80,0,1
57739,-94.0337468310627,4,1,0,80,0,1
57827,-95.1444006568769,4,1,0,80,0,1
58092,-83.3333333333333,4,1,0,80,0,1
58445,-86.2745030372939,4,1,0,80,0,1
58533,-87.301552658114,4,1,0,80,0,1
58709,-89.4308797673366,4,1,0,80,0,1
58797,-90.5350166810768,4,1,0,80,0,1
58886,-91.6666743055562,4,1,0,80,0,1
58974,-92.8269807189078,4,1,0,80,0,1
59150,-95.2380952380952,4,1,0,80,0,1
59239,-92.6347928871301,4,1,0,80,0,1
59327,-90.1700245983827,4,1,0,80,0,1
59415,-87.8329417448014,4,1,0,80,0,1
59503,-85.6140194669157,4,1,0,80,0,1
59592,-83.5044478644155,4,1,0,80,0,1
59856,-86.0215053763441,4,1,0,80,0,1
59945,-86.9565217391304,4,1,0,80,0,1
60121,-88.8888888888889,4,1,0,80,0,1
60209,-89.8876404494382,4,1,0,80,0,1
60297,-90.9090909090909,4,1,0,80,0,1
60386,-91.9540229885058,4,1,0,80,0,1
60562,-94.1176470588235,4,1,0,80,0,1
60650,-95.2380952380952,4,1,0,80,0,1
60915,-83.3333333333333,4,1,0,80,0,1
61268,-85.6129933127691,4,1,0,80,0,1
61356,-86.400851566793,4,1,0,80,0,1
61533,-88.0208081190393,4,1,0,80,0,1
61621,-88.8538212474366,4,1,0,80,0,1
61709,-89.7027519907283,4,1,0,80,0,1
61797,-90.568060992155,4,1,0,80,0,1
61974,-92.3497469616933,4,1,0,80,0,1
62062,-93.2671385362096,4,1,0,80,0,1
62150,-94.2029395085244,4,1,0,80,0,1
62195,-94.6778727396841,4,1,0,80,0,1
62239,-95.1576190802445,4,1,0,80,0,1
62415,-83.3333333333333,4,1,0,80,0,1
62680,-86.002344423909,4,1,0,80,0,1
62768,-86.9304426063485,4,1,0,80,0,1
62945,-88.8480582701105,4,1,0,80,0,1
63033,-89.8389457220042,4,1,0,80,0,1
63121,-90.8521018633766,4,1,0,80,0,1
63209,-91.8884547669893,4,1,0,80,0,1
63386,-94.0337468310627,4,1,0,80,0,1
63474,-95.1444006568769,4,1,0,80,0,1
63739,-83.3333333333333,4,1,0,80,0,1
64092,-86.2745030372939,4,1,0,80,0,1
64180,-87.301552658114,4,1,0,80,0,1
64356,-89.4308797673366,4,1,0,80,0,1
64445,-90.5350166810768,4,1,0,80,0,1
64533,-91.6666743055562,4,1,0,80,0,1
64621,-92.8269807189078,4,1,0,80,0,1
64797,-95.2380952380952,4,1,0,80,0,1
64886,-92.6347928871301,4,1,0,80,0,1
64974,-90.1700245983827,4,1,0,80,0,1
65062,-87.8329417448014,4,1,0,80,0,1
65150,-85.6140194669157,4,1,0,80,0,1
65239,-83.5044478644155,4,1,0,80,0,1
65503,-86.0215053763441,4,1,0,80,0,1
65592,-86.9565217391304,4,1,0,80,0,1
65768,-88.8888888888889,4,1,0,80,0,1
65856,-89.8876404494382,4,1,0,80,0,1
65945,-90.9090909090909,4,1,0,80,0,1
66033,-91.9540229885058,4,1,0,80,0,1
66209,-94.1176470588235,4,1,0,80,0,1
66297,-95.2380952380952,4,1,0,80,0,1
66562,-83.3333333333333,4,1,0,80,0,1
66650,-83.3333333333333,4,1,0,80,0,0
66915,-86.9565217391304,4,1,0,80,0,0
67180,-90.9090909090909,4,1,0,80,0,0
67445,-95.2380952380952,4,1,0,80,0,0
67709,-96.1538461538461,4,1,0,80,0,0
67797,-97.0873786407767,4,1,0,80,0,0
67886,-98.0392156862745,4,1,0,80,0,0
67974,-99.009900990099,4,1,0,80,0,0
68062,-100,4,1,0,80,0,0
68415,-98.5925907668039,4,1,0,80,0,0
68680,-97.5627840906319,4,1,0,80,0,0
69033,-96.2225897925152,4,1,0,80,0,0
69121,-95.8933665763671,4,1,0,80,0,0
69386,-94.9188064529601,4,1,0,80,0,0
69474,-94.5984296660675,4,1,0,80,0,0
69739,-93.6498824225726,4,1,0,80,0,0
69827,-93.338000233345,4,1,0,80,0,0
70003,-92.7202546469074,4,1,0,80,0,0
70180,-92.1106322381686,4,1,0,80,0,0
70268,-91.8089016074821,4,1,0,80,0,0
70445,-91.2111657060611,4,1,0,80,0,0
70533,-90.9152070230179,4,1,0,80,0,0
70797,-90.0388247412284,4,1,0,80,0,0
70842,-89.8944279837758,4,1,0,80,0,0
70886,-89.7504130762762,4,1,0,80,0,0
71239,-88.6150879593363,4,1,0,80,0,0
71503,-87.7822858858374,4,1,0,80,0,0
71592,-87.5081273173246,4,1,0,80,0,0
71856,-86.6959063060001,4,1,0,80,0,0
71945,-86.4284812960124,4,1,0,80,0,0
72209,-85.6360877324592,4,1,0,80,0,0
72253,-85.5053838464939,4,1,0,80,0,0
72297,-85.3751512207366,4,1,0,80,0,0
72562,-84.6018678400382,4,1,0,80,0,0
72650,-84.3471865152466,4,1,0,80,0,0
72827,-83.8423964169113,4,1,0,80,0,0
73092,-83.0965082847219,4,1,0,80,0,0
73356,-82.3637744352728,4,1,0,80,0,0
73445,-82.1223705443481,4,1,0,80,0,0
73489,-82.0021648571522,4,1,0,80,0,0
73533,-81.882377602222,4,1,0,80,0,0
73709,-81.406641642265,4,1,0,80,0,0
74062,-80.4714338480554,4,1,0,80,0,0
74327,-79.7840723864932,4,1,0,80,0,0
74415,-79.557532825438,4,1,0,80,0,0
74680,-78.8856300358614,4,1,0,80,0,0
74768,-78.6641567556384,4,1,0,80,0,0
75033,-78.0071969439901,4,1,0,80,0,0
75121,-77.7906218737894,4,1,0,80,0,0
75386,-77.1481120314024,4,1,0,80,0,0
75474,-76.9362744532331,4,1,0,80,0,0
75650,-76.5161288347971,4,1,0,80,0,0
75915,-75.894358089314,4,1,0,80,0,0
76092,-75.4854848961093,4,1,0,80,0,0
76180,-75.2826675961567,4,1,0,80,0,0
76445,-74.6807584279103,4,1,0,80,0,0
76489,-74.5813376610398,4,1,0,80,0,0
76533,-74.4822367313619,4,1,0,80,0,0
76886,-73.6986477035133,4,1,0,80,0,0
77150,-73.1216510283829,4,1,0,80,0,0
77592,-72.179860663997,4,1,0,80,0,0
77856,-71.6263625124809,4,1,0,80,0,0
77945,-71.4437277050917,4,1,0,80,0,0
78209,-76.9230769230769,4,1,0,80,0,0
78474,-83.3333333333333,4,1,0,80,0,0
78739,-90.9090909090909,4,1,0,80,0,0
79003,-92.5925925925926,4,1,0,80,0,0
79092,-94.3396226415094,4,1,0,80,0,0
79136,-95.2380952380952,4,1,0,80,0,0
79180,-96.1538461538461,4,1,0,80,0,0
79268,-98.0392156862745,4,1,0,80,0,0
79356,-83.3333333333333,4,1,0,80,0,1
79621,-86.002344423909,4,1,0,80,0,1
79709,-86.9304426063485,4,1,0,80,0,1
79886,-88.8480582701105,4,1,0,80,0,1
79974,-89.8389457220042,4,1,0,80,0,1
80062,-90.8521018633766,4,1,0,80,0,1
80150,-91.8884547669893,4,1,0,80,0,1
80327,-94.0337468310627,4,1,0,80,0,1
80415,-95.1444006568769,4,1,0,80,0,1
80680,-83.3333333333333,4,1,0,80,0,1
81033,-86.2516581881287,4,1,0,80,0,1
81121,-87.2703154385552,4,1,0,80,0,1
81297,-89.3817198294239,4,1,0,80,0,1
81386,-90.4762034013624,4,1,0,80,0,1
81474,-91.5978232693278,4,1,0,80,0,1
81562,-92.747601315161,4,1,0,80,0,1
81739,-95.1358921082875,4,1,0,80,0,1
81827,-92.5925925925926,4,1,0,80,0,1
81915,-90.0900900900901,4,1,0,80,0,1
82003,-87.719298245614,4,1,0,80,0,1
82092,-85.4700854700855,4,1,0,80,0,1
82180,-83.3333333333333,4,1,0,80,0,1
82445,-86.002344423909,4,1,0,80,0,1
82533,-86.9304426063485,4,1,0,80,0,1
82709,-88.8480582701105,4,1,0,80,0,1
82797,-89.8389457220042,4,1,0,80,0,1
82886,-90.8521018633766,4,1,0,80,0,1
82974,-91.8884547669893,4,1,0,80,0,1
83150,-94.0337468310627,4,1,0,80,0,1
83239,-95.1444006568769,4,1,0,80,0,1
83503,-83.3333333333333,4,1,0,80,0,1
83856,-85.6269217892259,4,1,0,80,0,1
83945,-86.4197424173157,4,1,0,80,0,1
84121,-88.0503366164369,4,1,0,80,0,1
84209,-88.8888888888889,4,1,0,80,0,1
84297,-89.7435667324188,4,1,0,80,0,1
84386,-90.6149219216525,4,1,0,80,0,1
84562,-92.4092287248543,4,1,0,80,0,1
84650,-93.3332960000149,4,1,0,80,0,1
84739,-94.2761196703353,4,1,0,80,0,1
84783,-94.7546659566384,4,1,0,80,0,1
84827,-95.2380952380952,4,1,0,80,0,1
85003,-83.3333333333333,4,1,0,80,0,1
85268,-86.002344423909,4,1,0,80,0,1
85356,-86.9304426063485,4,1,0,80,0,1
85533,-88.8480582701105,4,1,0,80,0,1
85621,-89.8389457220042,4,1,0,80,0,1
85709,-90.8521018633766,4,1,0,80,0,1
85797,-91.8884547669893,4,1,0,80,0,1
85974,-94.0337468310627,4,1,0,80,0,1
86062,-95.1444006568769,4,1,0,80,0,1
86327,-83.3333333333333,4,1,0,80,0,1
86680,-86.2516581881287,4,1,0,80,0,1
86768,-87.2703154385552,4,1,0,80,0,1
86945,-89.3817198294239,4,1,0,80,0,1
87033,-90.4762034013624,4,1,0,80,0,1
87121,-91.5978232693278,4,1,0,80,0,1
87209,-92.747601315161,4,1,0,80,0,1
87386,-95.1358921082875,4,1,0,80,0,1
87474,-92.5925925925926,4,1,0,80,0,1
87562,-90.0900900900901,4,1,0,80,0,1
87650,-87.719298245614,4,1,0,80,0,1
87739,-85.4700854700855,4,1,0,80,0,1
87827,-83.3333333333333,4,1,0,80,0,1
88092,-86.002344423909,4,1,0,80,0,1
88180,-86.9304426063485,4,1,0,80,0,1
88356,-88.8480582701105,4,1,0,80,0,1
88445,-89.8389457220042,4,1,0,80,0,1
88533,-90.8521018633766,4,1,0,80,0,1
88621,-91.8884547669893,4,1,0,80,0,1
88797,-94.0337468310627,4,1,0,80,0,1
88886,-95.1444006568769,4,1,0,80,0,1
89150,-83.3333333333333,4,1,0,80,0,1
89239,-83.3333333333333,4,1,0,80,0,0
89503,-86.9565217391304,4,1,0,80,0,0
89547,-87.3786747101649,4,1,0,80,0,0
89680,-88.6699332670082,4,1,0,80,0,0
89768,-89.5522120739665,4,1,0,80,0,0
89812,-90.0000090000009,4,1,0,80,0,0
89945,-91.3705954804449,4,1,0,80,0,0
90033,-92.3077207100679,4,1,0,80,0,0
90077,-92.7834860240235,4,1,0,80,0,0
90209,-94.2408475644867,4,1,0,80,0,0
90297,-95.2380952380952,4,1,0,80,0,0
90650,-100,4,1,0,80,0,0
100445,-101.010101010101,4,1,0,80,0,0
100489,-102.040816326531,4,1,0,80,0,0
100533,-103.092783505155,4,1,0,80,0,0
100577,-104.166666666667,4,1,0,80,0,0
100797,-86.9565217391304,4,1,0,80,0,0
100886,-87.8321702890118,4,1,0,80,0,0
100930,-88.2766023748172,4,1,0,80,0,0
101062,-89.6374612878214,4,1,0,80,0,0
101106,-90.1003988744658,4,1,0,80,0,0
101150,-90.5682250439256,4,1,0,80,0,0
101327,-92.4889706902452,4,1,0,80,0,0
101592,-95.5278630894666,4,1,0,80,0,0
101680,-96.585695658473,4,1,0,80,0,0
101768,-97.6672184864511,4,1,0,80,0,0
101856,-98.773236403864,4,1,0,80,0,0
101945,-99.9045911154847,4,1,0,80,0,0
111739,-101.010101010101,4,1,0,80,0,0
111783,-102.040816326531,4,1,0,80,0,0
111827,-103.092783505155,4,1,0,80,0,0
111871,-104.166666666667,4,1,0,80,0,0
112092,-86.9565217391304,4,1,0,80,0,0
112180,-87.837802227918,4,1,0,80,0,0
112224,-88.2852531844491,4,1,0,80,0,0
112356,-89.6551414982271,4,1,0,80,0,0
112445,-90.5923471208846,4,1,0,80,0,0
112489,-91.0682948463541,4,1,0,80,0,0
112621,-92.526710148052,4,1,0,80,0,0
112709,-93.5251596708288,4,1,0,80,0,0
112753,-94.0325089189835,4,1,0,80,0,0
112886,-95.5882212370263,4,1,0,80,0,0
112974,-96.6543110239074,4,1,0,80,0,0
113062,-97.7443535530561,4,1,0,80,0,0
113150,-98.8593606962862,4,1,0,80,0,0
113239,-100,4,1,0,80,0,0
118886,-133.333333333333,4,1,0,80,0,0
130092,-125,4,1,0,80,0,0
130356,-125,4,1,0,30,0,0
141386,-117.647058823529,4,1,0,80,0,0
141650,-117.647058823529,4,1,0,30,0,0
152680,-111.111111111111,4,1,0,70,0,0
163974,-105.263157894737,4,1,0,80,0,0
164415,-104.090117059746,4,1,0,80,0,0
164592,-103.51334649333,4,1,0,80,0,0
164680,-103.227298252568,4,1,0,80,0,0
164768,-102.942826583544,4,1,0,80,0,0
164945,-102.37866592408,4,1,0,80,0,0
165033,-102.098950218594,4,1,0,80,0,0
165121,-101.820655134459,4,1,0,80,0,0
165297,-101.268694200949,4,1,0,80,0,0
165386,-100.99490076746,4,1,0,80,0,0
165474,-100.722685266789,4,1,0,80,0,0
165650,-100.18253257435,4,1,0,80,0,0
165739,-99.9145730400508,4,1,0,80,0,0
165827,-99.6480431117294,4,1,0,80,0,0
165915,-99.383030148836,4,1,0,80,0,0
166003,-99.1193247991595,4,1,0,80,0,0
166092,-98.8571129175601,4,1,0,80,0,0
166180,-98.5961874826224,4,1,0,80,0,0
166445,-97.821706245329,4,1,0,80,0,0
166533,-97.5663060615995,4,1,0,80,0,0
166577,-97.4390104873607,4,1,0,80,0,0
166621,-97.3121413439391,4,1,0,80,0,0
166709,-97.0593916123215,4,1,0,80,0,0
166797,-96.8078577001938,4,1,0,80,0,0
166886,-96.5576241417234,4,1,0,80,0,0
167150,-95.8148091369002,4,1,0,80,0,0
167239,-95.569676506202,4,1,0,80,0,0
167415,-95.0832453813314,4,1,0,80,0,0
167503,-94.8418370105094,4,1,0,80,0,0
167592,-94.6017408612353,4,1,0,80,0,0
167768,-94.1250884775832,4,1,0,80,0,0
167856,-93.8885148996379,4,1,0,80,0,0
167945,-93.6531275461944,4,1,0,80,0,0
168121,-93.1859628393017,4,1,0,80,0,0
168209,-92.9541670888335,4,1,0,80,0,0
168297,-92.7234356629169,4,1,0,80,0,0
168562,-92.0381479715713,4,1,0,80,0,0
168650,-91.8120203969584,4,1,0,80,0,0
168827,-91.3629988990759,4,1,0,80,0,0
168915,-91.1400896089361,4,1,0,80,0,0
169003,-90.9183480499833,4,1,0,80,0,0
169047,-90.8077989370039,4,1,0,80,0,0
169092,-90.6976005949763,4,1,0,80,0,0
169356,-90.0418244274465,4,1,0,80,0,0
169533,-89.6099101391821,4,1,0,80,0,0
169709,-89.1821196984574,4,1,0,80,0,0
169886,-88.7583943251433,4,1,0,80,0,0
169974,-88.5479987709538,4,1,0,80,0,0
170062,-88.3386763509413,4,1,0,80,0,0
170239,-87.9228318889077,4,1,0,80,0,0
170327,-87.7164513081593,4,1,0,80,0,0
170415,-87.5109607478337,4,1,0,80,0,0
170592,-87.1029304038876,4,1,0,80,0,0
170680,-86.9003765393315,4,1,0,80,0,0
170768,-86.698687381873,4,1,0,80,0,0
170945,-86.2981791947172,4,1,0,80,0,0
171033,-86.0992724611477,4,1,0,80,0,0
171121,-85.9013543207522,4,1,0,80,0,0
171297,-85.5080890652256,4,1,0,80,0,0
171386,-85.3128764430673,4,1,0,80,0,0
171474,-85.1184806691674,4,1,0,80,0,0
171650,-84.7324065867584,4,1,0,80,0,0
171739,-84.5407156540661,4,1,0,80,0,0
171827,-84.3498189431136,4,1,0,80,0,0
171871,-84.2547290073024,4,1,0,80,0,0
172003,-83.9706707241295,4,1,0,80,0,0
172180,-83.5949157572236,4,1,0,80,0,0
172224,-83.5014495851648,4,1,0,80,0,0
172356,-83.2224394327891,4,1,0,80,0,0
172533,-82.8533363381477,4,1,0,80,0,0
172709,-82.4874928338991,4,1,0,80,0,0
172886,-82.1248659311564,4,1,0,80,0,0
173062,-81.7654133936653,4,1,0,80,0,0
173150,-81.5868312327444,4,1,0,80,0,0
173239,-81.4090937214051,4,1,0,80,0,0
173327,-81.2320629451009,4,1,0,80,0,0
173415,-81.055866134616,4,1,0,80,0,0
173503,-80.8803666145258,4,1,0,80,0,0
173592,-80.7056254242089,4,1,0,80,0,0
173680,-80.5317025126697,4,1,0,80,0,0
173768,-80.3584630318927,4,1,0,80,0,0
173856,-80.1860315932964,4,1,0,80,0,0
173945,-80.0142745465791,4,1,0,80,0,0
174650,-86.9565217391304,4,1,0,80,0,0
174827,-89.8563825437803,4,1,0,80,0,0
174915,-91.3801138596219,4,1,0,80,0,0
175003,-92.9564136671956,4,1,0,80,0,0
175092,-94.5880501240995,4,1,0,80,0,0
175180,-96.2778965205168,4,1,0,80,0,0
175268,-98.0293166474366,4,1,0,80,0,0
175356,-80,4,1,0,80,0,1
175621,-83.3093818860411,4,1,0,80,0,1
175709,-84.4742281800957,4,1,0,80,0,1
175886,-86.9043791116634,4,1,0,80,0,1
176062,-89.4785725662276,4,1,0,80,0,1
176150,-90.8237166154724,4,1,0,80,0,1
176239,-92.2098363920873,4,1,0,80,0,1
176327,-93.6390085127223,4,1,0,80,0,1
176415,-95.1131799284559,4,1,0,80,0,1
176680,-80,4,1,0,80,0,1
177033,-83.6214790130993,4,1,0,80,0,1
177121,-84.9026166986466,4,1,0,80,0,1
177297,-87.5864587831263,4,1,0,80,0,1
177474,-90.4454347214597,4,1,0,80,0,1
177562,-91.9460754656609,4,1,0,80,0,1
177650,-93.4973526224605,4,1,0,80,0,1
177739,-95.2380952380952,4,1,0,80,0,1
177827,-91.743119266055,4,1,0,80,0,1
177915,-88.495575221239,4,1,0,80,0,1
178003,-85.4700854700855,4,1,0,80,0,1
178092,-82.6446280991736,4,1,0,80,0,1
178180,-80,4,1,0,80,0,1
178445,-83.3093818860411,4,1,0,80,0,1
178533,-84.4742281800957,4,1,0,80,0,1
178709,-86.9043791116634,4,1,0,80,0,1
178886,-89.4785725662276,4,1,0,80,0,1
178974,-90.8237166154724,4,1,0,80,0,1
179062,-92.2098363920873,4,1,0,80,0,1
179150,-93.6390085127223,4,1,0,80,0,1
179239,-95.1131799284559,4,1,0,80,0,1
179503,-80,4,1,0,80,0,1
179856,-82.8402268828134,4,1,0,80,0,1
179945,-83.8323453691432,4,1,0,80,0,1
180121,-85.8895494749572,4,1,0,80,0,1
180297,-88.0503366164369,4,1,0,80,0,1
180386,-89.1719404438444,4,1,0,80,0,1
180562,-91.5032799350693,4,1,0,80,0,1
180650,-92.7152686285836,4,1,0,80,0,1
180739,-93.9597063195419,4,1,0,80,0,1
180783,-94.594581811543,4,1,0,80,0,1
180827,-95.2380952380952,4,1,0,80,0,1
181003,-80,4,1,0,80,0,1
181268,-83.3093818860411,4,1,0,80,0,1
181356,-84.4742281800957,4,1,0,80,0,1
181533,-86.9043791116634,4,1,0,80,0,1
181709,-89.4785725662276,4,1,0,80,0,1
181797,-90.8237166154724,4,1,0,80,0,1
181886,-92.2098363920873,4,1,0,80,0,1
181974,-93.6390085127223,4,1,0,80,0,1
182062,-95.1131799284559,4,1,0,80,0,1
182327,-80,4,1,0,80,0,1
182680,-83.6214790130993,4,1,0,80,0,1
182768,-84.9026166986466,4,1,0,80,0,1
182945,-87.5864587831263,4,1,0,80,0,1
183121,-90.4454347214597,4,1,0,80,0,1
183209,-91.9460754656609,4,1,0,80,0,1
183297,-93.4973526224605,4,1,0,80,0,1
183386,-95.1018731264931,4,1,0,80,0,1
183474,-91.743119266055,4,1,0,80,0,1
183562,-88.495575221239,4,1,0,80,0,1
183650,-85.4700854700855,4,1,0,80,0,1
183739,-82.6446280991736,4,1,0,80,0,1
183827,-80,4,1,0,80,0,1
184092,-83.3093818860411,4,1,0,80,0,1
184180,-84.4742281800957,4,1,0,80,0,1
184356,-86.9043791116634,4,1,0,80,0,1
184533,-89.4785725662276,4,1,0,80,0,1
184621,-90.8237166154724,4,1,0,80,0,1
184709,-92.2098363920873,4,1,0,80,0,1
184797,-93.6390085127223,4,1,0,80,0,1
184886,-95.1131799284559,4,1,0,80,0,1
185150,-80,4,1,0,80,0,1
185503,-83.7209613845438,4,1,0,80,0,1
185592,-85.0393647219298,4,1,0,80,0,1
185768,-87.8048694824518,4,1,0,80,0,1
185945,-90.756290318482,4,1,0,80,0,1
186033,-92.3077207100679,4,1,0,80,0,1
186121,-93.9130271455605,4,1,0,80,0,1
186209,-95.5752483044951,4,1,0,80,0,1
186297,-97.2972762600484,4,1,0,80,0,1
186386,-99.082594259749,4,1,0,80,0,1
186430,-100,4,1,0,80,0,1
186650,-80,4,1,0,80,0,1
186915,-83.3093818860411,4,1,0,80,0,1
187003,-84.4742281800957,4,1,0,80,0,1
187180,-86.9043791116634,4,1,0,80,0,1
187268,-88.1726915066773,4,1,0,80,0,1
187356,-89.4785725662276,4,1,0,80,0,1
187445,-90.8237166154724,4,1,0,80,0,1
187533,-92.2098363920873,4,1,0,80,0,1
187621,-93.6390085127223,4,1,0,80,0,1
187709,-95.1131799284559,4,1,0,80,0,1
187974,-80,4,1,0,80,0,1
188327,-83.6214790130993,4,1,0,80,0,1
188415,-84.9026166986466,4,1,0,80,0,1
188592,-87.5864587831263,4,1,0,80,0,1
188680,-88.9929909120358,4,1,0,80,0,1
188768,-90.4454347214597,4,1,0,80,0,1
188856,-91.9460754656609,4,1,0,80,0,1
188945,-93.4973526224605,4,1,0,80,0,1
189033,-95.1018731264931,4,1,0,80,0,1
189121,-91.743119266055,4,1,0,80,0,1
189209,-88.495575221239,4,1,0,80,0,1
189297,-85.4700854700855,4,1,0,80,0,1
189386,-82.6446280991736,4,1,0,80,0,1
189474,-80,4,1,0,80,0,1
189739,-83.3093818860411,4,1,0,80,0,1
189827,-84.4742281800957,4,1,0,80,0,1
190003,-86.9043791116634,4,1,0,80,0,1
190092,-88.1726915066773,4,1,0,80,0,1
190180,-89.4785725662276,4,1,0,80,0,1
190268,-90.8237166154724,4,1,0,80,0,1
190356,-92.2098363920873,4,1,0,80,0,1
190445,-93.6390085127223,4,1,0,80,0,1
190533,-95.1131799284559,4,1,0,80,0,1
190797,-80,4,1,0,80,0,1
191150,-82.8402268828134,4,1,0,80,0,1
191239,-83.8323453691432,4,1,0,80,0,1
191415,-85.8895494749572,4,1,0,80,0,1
191503,-86.9565217391304,4,1,0,80,0,1
191592,-88.0503366164369,4,1,0,80,0,1
191680,-89.1719404438444,4,1,0,80,0,1
191768,-90.3225689906363,4,1,0,80,0,1
191856,-91.5032799350693,4,1,0,80,0,1
191945,-92.7152686285836,4,1,0,80,0,1
192033,-93.9597063195419,4,1,0,80,0,1
192077,-94.594581811543,4,1,0,80,0,1
192121,-95.2380952380952,4,1,0,80,0,1
192297,-80,4,1,0,80,0,1
192562,-83.3093818860411,4,1,0,80,0,1
192650,-84.4742281800957,4,1,0,80,0,1
192827,-86.9043791116634,4,1,0,80,0,1
192915,-88.1726915066773,4,1,0,80,0,1
193003,-89.4785725662276,4,1,0,80,0,1
193092,-90.8237166154724,4,1,0,80,0,1
193180,-92.2098363920873,4,1,0,80,0,1
193268,-93.6390085127223,4,1,0,80,0,1
193356,-95.1131799284559,4,1,0,80,0,1
193621,-80,4,1,0,80,0,1
193974,-83.6214790130993,4,1,0,80,0,1
194062,-84.9026166986466,4,1,0,80,0,1
194239,-87.5864587831263,4,1,0,80,0,1
194327,-88.9929909120358,4,1,0,80,0,1
194415,-90.4454347214597,4,1,0,80,0,1
194503,-91.9460754656609,4,1,0,80,0,1
194592,-93.4973526224605,4,1,0,80,0,1
194680,-95.2380952380952,4,1,0,80,0,1
194768,-91.743119266055,4,1,0,80,0,1
194856,-88.495575221239,4,1,0,80,0,1
194945,-85.4700854700855,4,1,0,80,0,1
195033,-82.6446280991736,4,1,0,80,0,1
195121,-80,4,1,0,80,0,1
195386,-83.3093818860411,4,1,0,80,0,1
195474,-84.4742281800957,4,1,0,80,0,1
195650,-86.9043791116634,4,1,0,80,0,1
195739,-88.1726915066773,4,1,0,80,0,1
195827,-89.4785725662276,4,1,0,80,0,1
195915,-90.8237166154724,4,1,0,80,0,1
196003,-92.2098363920873,4,1,0,80,0,1
196092,-93.6390085127223,4,1,0,80,0,1
196180,-95.1131799284559,4,1,0,80,0,1
196445,-80,4,1,0,80,0,1
196533,-80,4,1,0,80,0,0
196797,-83.3333333333333,4,1,0,80,0,0
197062,-86.9565217391304,4,1,0,80,0,0
197327,-90.9090909090909,4,1,0,80,0,0
197592,-95.2380952380952,4,1,0,80,0,0
197680,-96.1538461538461,4,1,0,80,0,0
197768,-97.0873786407767,4,1,0,80,0,0
197856,-98.0392156862745,4,1,0,80,0,0
197945,-99.009900990099,4,1,0,80,0,0
198297,-97.6630215571587,4,1,0,80,0,0
198562,-96.6767371601208,4,1,0,80,0,0
198915,-95.3921763152673,4,1,0,80,0,0
199003,-95.0763748519185,4,1,0,80,0,0
199268,-94.1413928407354,4,1,0,80,0,0
199356,-93.8338053173741,4,1,0,80,0,0
199621,-92.9228990829439,4,1,0,80,0,0
199709,-92.6232097091353,4,1,0,80,0,0
199886,-92.0295930359366,4,1,0,80,0,0
200062,-91.4435368165396,4,1,0,80,0,0
200150,-91.1532157943,4,1,0,80,0,0
200327,-90.5782333259059,4,1,0,80,0,0
200415,-90.293453724605,4,1,0,80,0,0
200680,-89.4497587540006,4,1,0,80,0,0
200724,-89.3105936653782,4,1,0,80,0,0
200768,-89.1719404438444,4,1,0,80,0,0
201121,-88.0780230359262,4,1,0,80,0,0
201386,-87.274961511742,4,1,0,80,0,0
201474,-87.0105439377144,4,1,0,80,0,0
201739,-86.2268179200022,4,1,0,80,0,0
201827,-85.9687039530129,4,1,0,80,0,0
202092,-85.2034786876279,4,1,0,80,0,0
202136,-85.0772756895088,4,1,0,80,0,0
202180,-84.9514460010381,4,1,0,80,0,0
202445,-84.2042154314329,4,1,0,80,0,0
202533,-83.9580511992988,4,1,0,80,0,0
202709,-83.4699458113112,4,1,0,80,0,0
202974,-82.748439778168,4,1,0,80,0,0
203239,-82.0392328019105,4,1,0,80,0,0
203327,-81.8055465796692,4,1,0,80,0,0
203371,-81.6892019945236,4,1,0,80,0,0
203415,-81.5731878720247,4,1,0,80,0,0
203592,-81.1124080083903,4,1,0,80,0,0
203945,-80.2062262489313,4,1,0,80,0,0
204209,-79.5398144495209,4,1,0,80,0,0
204297,-79.3201312906813,4,1,0,80,0,0
204562,-78.6682410803982,4,1,0,80,0,0
204650,-78.4533394840751,4,1,0,80,0,0
204915,-77.8156221086633,4,1,0,80,0,0
205003,-77.6053473188517,4,1,0,80,0,0
205268,-76.9812273578965,4,1,0,80,0,0
205356,-76.7754318618042,4,1,0,80,0,0
205533,-76.3671242584752,4,1,0,80,0,0
205797,-75.7626839991484,4,1,0,80,0,0
205974,-75.3650494583137,4,1,0,80,0,0
206062,-75.1677933066087,4,1,0,80,0,0
206327,-74.5821164018007,4,1,0,80,0,0
206371,-74.4853989996611,4,1,0,80,0,0
206415,-74.3889321171239,4,1,0,80,0,0
206768,-73.6261001580016,4,1,0,80,0,0
207033,-73.0641115659758,4,1,0,80,0,0
207474,-72.1463763400288,4,1,0,80,0,0
207739,-71.6066674400187,4,1,0,80,0,0
207827,-71.4285714285714,4,1,0,80,0,0
208092,-76.9230769230769,4,1,0,80,0,0
208356,-83.3333333333333,4,1,0,80,0,0
208621,-90.9090909090909,4,1,0,80,0,0
208886,-92.5925925925926,4,1,0,80,0,0
208974,-94.3396226415094,4,1,0,80,0,0
209018,-95.2380952380952,4,1,0,80,0,0
209062,-96.1538461538461,4,1,0,80,0,0
209150,-98.0392156862745,4,1,0,80,0,0
209239,-83.3333333333333,4,1,0,80,0,1
209503,-86.002344423909,4,1,0,80,0,1
209591,-86.9304426063485,4,1,0,80,0,1
209768,-88.8480582701105,4,1,0,80,0,1
209856,-89.8389457220042,4,1,0,80,0,1
209944,-90.8521018633766,4,1,0,80,0,1
210032,-91.8884547669893,4,1,0,80,0,1
210209,-94.0337468310627,4,1,0,80,0,1
210297,-95.1444006568769,4,1,0,80,0,1
210562,-83.3333333333333,4,1,0,80,0,1
210915,-86.2516581881287,4,1,0,80,0,1
211003,-87.2703154385552,4,1,0,80,0,1
211179,-89.3817198294239,4,1,0,80,0,1
211268,-90.4762034013624,4,1,0,80,0,1
211356,-91.5978232693278,4,1,0,80,0,1
211444,-92.747601315161,4,1,0,80,0,1
211621,-95.1358921082875,4,1,0,80,0,1
211709,-92.5925925925926,4,1,0,80,0,1
211797,-90.0900900900901,4,1,0,80,0,1
211885,-87.719298245614,4,1,0,80,0,1
211974,-85.4700854700855,4,1,0,80,0,1
212062,-83.3333333333333,4,1,0,80,0,1
212327,-86.002344423909,4,1,0,80,0,1
212415,-86.9304426063485,4,1,0,80,0,1
212591,-88.8480582701105,4,1,0,80,0,1
212679,-89.8389457220042,4,1,0,80,0,1
212768,-90.8521018633766,4,1,0,80,0,1
212856,-91.8884547669893,4,1,0,80,0,1
213032,-94.0337468310627,4,1,0,80,0,1
213121,-95.1444006568769,4,1,0,80,0,1
213385,-83.3333333333333,4,1,0,80,0,1
213738,-85.6269217892259,4,1,0,80,0,1
213827,-86.4197424173157,4,1,0,80,0,1
214003,-88.0503366164369,4,1,0,80,0,1
214091,-88.8888888888889,4,1,0,80,0,1
214179,-89.7435667324188,4,1,0,80,0,1
214268,-90.6149219216525,4,1,0,80,0,1
214444,-92.4092287248543,4,1,0,80,0,1
214532,-93.3332960000149,4,1,0,80,0,1
214621,-94.2761196703353,4,1,0,80,0,1
214665,-94.7546659566384,4,1,0,80,0,1
214709,-95.2380952380952,4,1,0,80,0,1
214885,-83.3333333333333,4,1,0,80,0,1
215150,-86.002344423909,4,1,0,80,0,1
215238,-86.9304426063485,4,1,0,80,0,1
215415,-88.8480582701105,4,1,0,80,0,1
215503,-89.8389457220042,4,1,0,80,0,1
215591,-90.8521018633766,4,1,0,80,0,1
215679,-91.8884547669893,4,1,0,80,0,1
215856,-94.0337468310627,4,1,0,80,0,1
215944,-95.1444006568769,4,1,0,80,0,1
216209,-83.3333333333333,4,1,0,80,0,1
216562,-86.2516581881287,4,1,0,80,0,1
216650,-87.2703154385552,4,1,0,80,0,1
216827,-89.3817198294239,4,1,0,80,0,1
216915,-90.4762034013624,4,1,0,80,0,1
217003,-91.5978232693278,4,1,0,80,0,1
217091,-92.747601315161,4,1,0,80,0,1
217268,-95.1358921082875,4,1,0,80,0,1
217356,-92.5925925925926,4,1,0,80,0,1
217444,-90.0900900900901,4,1,0,80,0,1
217532,-87.719298245614,4,1,0,80,0,1
217621,-85.4700854700855,4,1,0,80,0,1
217709,-83.3333333333333,4,1,0,80,0,1
217974,-86.002344423909,4,1,0,80,0,1
218062,-86.9304426063485,4,1,0,80,0,1
218238,-88.8480582701105,4,1,0,80,0,1
218327,-89.8389457220042,4,1,0,80,0,1
218415,-90.8521018633766,4,1,0,80,0,1
218503,-91.8884547669893,4,1,0,80,0,1
218679,-94.0337468310627,4,1,0,80,0,1
218768,-95.1444006568769,4,1,0,80,0,1
219032,-83.3333333333333,4,1,0,80,0,1
219121,-83.3333333333333,4,1,0,80,0,0
219385,-86.9565217391304,4,1,0,80,0,0
219429,-87.3786747101649,4,1,0,80,0,0
219562,-88.6699332670082,4,1,0,80,0,0
219650,-89.5522120739665,4,1,0,80,0,0
219694,-90.0000090000009,4,1,0,80,0,0
219827,-91.3705954804449,4,1,0,80,0,0
219915,-92.3077207100679,4,1,0,80,0,0
219959,-92.7834860240235,4,1,0,80,0,0
220091,-94.2408475644867,4,1,0,80,0,0
220179,-95.2380952380952,4,1,0,80,0,0
220532,-100,4,1,0,80,0,0
230327,-101.010101010101,4,1,0,80,0,0
230371,-102.040816326531,4,1,0,80,0,0
230415,-103.092783505155,4,1,0,80,0,0
230459,-104.166666666667,4,1,0,80,0,0
230679,-86.9565217391304,4,1,0,80,0,0
230768,-87.8321702890118,4,1,0,80,0,0
230812,-88.2766023748172,4,1,0,80,0,0
230944,-89.6374612878214,4,1,0,80,0,0
230988,-90.1003988744658,4,1,0,80,0,0
231032,-90.5682250439256,4,1,0,80,0,0
231209,-92.4889706902452,4,1,0,80,0,0
231474,-95.5278630894666,4,1,0,80,0,0
231562,-96.585695658473,4,1,0,80,0,0
231650,-97.6672184864511,4,1,0,80,0,0
231738,-98.773236403864,4,1,0,80,0,0
231827,-99.9045911154847,4,1,0,80,0,0
241621,-101.010101010101,4,1,0,80,0,0
241665,-102.040816326531,4,1,0,80,0,0
241709,-103.092783505155,4,1,0,80,0,0
241753,-104.166666666667,4,1,0,80,0,0
241974,-86.9565217391304,4,1,0,80,0,0
242062,-87.837802227918,4,1,0,80,0,0
242106,-88.2852531844491,4,1,0,80,0,0
242238,-89.6551414982271,4,1,0,80,0,0
242327,-90.5923471208846,4,1,0,80,0,0
242371,-91.0682948463541,4,1,0,80,0,0
242503,-92.526710148052,4,1,0,80,0,0
242591,-93.5251596708288,4,1,0,80,0,0
242635,-94.0325089189835,4,1,0,80,0,0
242768,-95.5882212370263,4,1,0,80,0,0
242856,-96.6543110239074,4,1,0,80,0,0
242944,-97.7443535530561,4,1,0,80,0,0
243032,-98.8593606962862,4,1,0,80,0,0
243121,-100,4,1,0,80,0,0
243209,-100,4,1,0,30,0,0

[HitObjects]
256,192,298,5,4,0:0:0:0:
256,192,5945,5,0,0:0:0:0:
256,192,10533,12,0,11415,0:0:0:0:
256,192,11592,5,4,0:0:0:0:
256,192,17239,5,0,0:0:0:0:
256,192,21474,12,0,22180,0:0:0:0:
256,192,22356,5,8,0:0:0:0:
256,192,22400,1,8,0:0:0:0:
256,192,22445,1,8,0:0:0:0:
256,192,22533,1,0,0:0:0:0:
256,192,22886,1,4,0:0:0:0:
256,192,23239,1,8,0:0:0:0:
256,192,23415,1,8,0:0:0:0:
256,192,23503,1,8,0:0:0:0:
256,192,23592,1,0,0:0:0:0:
256,192,23768,1,8,0:0:0:0:
256,192,23856,1,0,0:0:0:0:
256,192,24121,1,8,0:0:0:0:
256,192,24209,1,8,0:0:0:0:
256,192,24297,1,0,0:0:0:0:
256,192,24430,1,0,0:0:0:0:
256,192,24562,1,8,0:0:0:0:
256,192,24650,1,0,0:0:0:0:
256,192,24827,1,8,0:0:0:0:
256,192,25003,1,0,0:0:0:0:
256,192,25092,1,8,0:0:0:0:
256,192,25356,1,8,0:0:0:0:
256,192,25400,1,8,0:0:0:0:
256,192,25445,1,8,0:0:0:0:
256,192,25533,1,0,0:0:0:0:
256,192,25621,1,0,0:0:0:0:
256,192,25709,1,12,0:0:0:0:
256,192,26062,1,8,0:0:0:0:
256,192,26239,1,8,0:0:0:0:
256,192,26327,1,8,0:0:0:0:
256,192,26415,1,0,0:0:0:0:
256,192,26592,1,0,0:0:0:0:
256,192,26680,1,8,0:0:0:0:
256,192,26768,1,0,0:0:0:0:
256,192,26945,1,0,0:0:0:0:
256,192,27033,1,8,0:0:0:0:
256,192,27121,1,8,0:0:0:0:
256,192,27253,1,0,0:0:0:0:
256,192,27386,1,8,0:0:0:0:
256,192,27474,1,0,0:0:0:0:
256,192,27650,1,8,0:0:0:0:
256,192,27827,1,0,0:0:0:0:
256,192,27915,1,8,0:0:0:0:
256,192,28180,1,8,0:0:0:0:
256,192,28224,1,8,0:0:0:0:
256,192,28268,1,8,0:0:0:0:
256,192,28356,1,0,0:0:0:0:
256,192,28445,1,0,0:0:0:0:
256,192,28533,1,12,0:0:0:0:
256,192,28709,1,0,0:0:0:0:
256,192,28886,1,8,0:0:0:0:
256,192,29062,1,8,0:0:0:0:
256,192,29150,1,8,0:0:0:0:
256,192,29239,1,0,0:0:0:0:
256,192,29415,1,0,0:0:0:0:
256,192,29503,1,8,0:0:0:0:
256,192,29592,1,8,0:0:0:0:
256,192,29768,1,0,0:0:0:0:
256,192,29856,1,8,0:0:0:0:
256,192,29945,1,0,0:0:0:0:
256,192,30077,1,0,0:0:0:0:
256,192,30209,1,8,0:0:0:0:
256,192,30297,1,0,0:0:0:0:
256,192,30474,1,8,0:0:0:0:
256,192,30650,1,0,0:0:0:0:
256,192,30739,1,8,0:0:0:0:
256,192,31003,1,8,0:0:0:0:
256,192,31047,1,8,0:0:0:0:
256,192,31092,1,8,0:0:0:0:
256,192,31180,1,0,0:0:0:0:
256,192,31268,1,0,0:0:0:0:
256,192,31356,1,12,0:0:0:0:
256,192,31709,1,8,0:0:0:0:
256,192,31886,1,0,0:0:0:0:
256,192,31974,1,0,0:0:0:0:
256,192,32062,1,8,0:0:0:0:
256,192,32239,1,0,0:0:0:0:
256,192,32327,1,8,0:0:0:0:
256,192,32415,1,0,0:0:0:0:
256,192,32592,1,0,0:0:0:0:
256,192,32680,1,8,0:0:0:0:
256,192,32768,1,8,0:0:0:0:
256,192,32900,1,0,0:0:0:0:
256,192,33033,1,8,0:0:0:0:
256,192,33121,1,0,0:0:0:0:
256,192,33297,1,8,0:0:0:0:
256,192,33474,1,0,0:0:0:0:
256,192,33562,1,8,0:0:0:0:
256,192,33827,1,0,0:0:0:0:
256,192,33871,1,8,0:0:0:0:
256,192,33915,1,8,0:0:0:0:
256,192,34003,1,0,0:0:0:0:
256,192,34092,1,0,0:0:0:0:
256,192,34180,1,12,0:0:0:0:
256,192,34533,1,0,0:0:0:0:
256,192,34709,1,8,0:0:0:0:
256,192,34797,1,8,0:0:0:0:
256,192,34886,1,0,0:0:0:0:
256,192,35150,1,8,0:0:0:0:
256,192,35239,1,0,0:0:0:0:
256,192,35415,1,8,0:0:0:0:
256,192,35503,1,8,0:0:0:0:
256,192,35592,1,0,0:0:0:0:
256,192,35724,1,0,0:0:0:0:
256,192,35856,1,8,0:0:0:0:
256,192,35945,1,0,0:0:0:0:
256,192,36121,1,8,0:0:0:0:
256,192,36297,1,0,0:0:0:0:
256,192,36386,1,8,0:0:0:0:
256,192,36562,1,8,0:0:0:0:
256,192,36650,1,0,0:0:0:0:
256,192,36695,1,0,0:0:0:0:
256,192,36739,1,8,0:0:0:0:
256,192,36827,1,0,0:0:0:0:
256,192,36915,1,0,0:0:0:0:
256,192,37003,1,12,0:0:0:0:
256,192,37356,1,0,0:0:0:0:
256,192,37533,1,8,0:0:0:0:
256,192,37621,1,8,0:0:0:0:
256,192,37709,1,0,0:0:0:0:
256,192,37886,1,8,0:0:0:0:
256,192,37974,1,0,0:0:0:0:
256,192,38062,1,0,0:0:0:0:
256,192,38239,1,8,0:0:0:0:
256,192,38327,1,8,0:0:0:0:
256,192,38415,1,0,0:0:0:0:
256,192,38547,1,0,0:0:0:0:
256,192,38680,1,8,0:0:0:0:
256,192,38768,1,0,0:0:0:0:
256,192,38945,1,8,0:0:0:0:
256,192,39121,1,0,0:0:0:0:
256,192,39209,1,8,0:0:0:0:
256,192,39386,1,8,0:0:0:0:
256,192,39474,1,0,0:0:0:0:
256,192,39518,1,0,0:0:0:0:
256,192,39562,1,8,0:0:0:0:
256,192,39650,1,0,0:0:0:0:
256,192,39739,1,0,0:0:0:0:
256,192,39827,1,12,0:0:0:0:
256,192,40003,1,0,0:0:0:0:
256,192,40180,1,8,0:0:0:0:
256,192,40356,1,0,0:0:0:0:
256,192,40445,1,8,0:0:0:0:
256,192,40533,1,0,0:0:0:0:
256,192,40709,1,8,0:0:0:0:
256,192,40797,1,0,0:0:0:0:
256,192,40886,1,8,0:0:0:0:
256,192,41062,1,0,0:0:0:0:
256,192,41150,1,8,0:0:0:0:
256,192,41239,1,0,0:0:0:0:
256,192,41371,1,0,0:0:0:0:
256,192,41503,1,8,0:0:0:0:
256,192,41592,1,0,0:0:0:0:
256,192,41768,1,8,0:0:0:0:
256,192,41945,1,0,0:0:0:0:
256,192,42033,1,8,0:0:0:0:
256,192,42121,1,8,0:0:0:0:
256,192,42297,1,0,0:0:0:0:
256,192,42342,1,0,0:0:0:0:
256,192,42386,1,0,0:0:0:0:
256,192,42474,1,8,0:0:0:0:
256,192,42562,1,8,0:0:0:0:
256,192,42650,1,0,0:0:0:0:
256,192,42739,1,0,0:0:0:0:
256,192,42827,1,8,0:0:0:0:
256,192,42915,1,8,0:0:0:0:
256,192,43003,1,0,0:0:0:0:
256,192,43092,1,8,0:0:0:0:
256,192,43180,1,0,0:0:0:0:
256,192,43268,1,0,0:0:0:0:
256,192,43356,1,8,0:0:0:0:
256,192,43445,1,8,0:0:0:0:
256,192,43533,1,0,0:0:0:0:
256,192,43621,1,0,0:0:0:0:
256,192,43709,1,8,0:0:0:0:
256,192,43797,1,0,0:0:0:0:
256,192,43886,1,8,0:0:0:0:
256,192,43974,1,8,0:0:0:0:
256,192,44062,1,0,0:0:0:0:
256,192,44768,1,8,0:0:0:0:
256,192,44945,1,8,0:0:0:0:
224,160,45033,1,8,0:0:0:0:
256,192,45121,1,0,0:0:0:0:
256,192,45209,1,0,0:0:0:0:
256,192,45297,1,0,0:0:0:0:
256,192,45386,1,0,0:0:0:0:
256,192,45474,1,12,0:0:0:0:
256,192,45739,1,0,0:0:0:0:
256,192,45827,1,8,0:0:0:0:
256,192,46003,1,0,0:0:0:0:
256,192,46180,1,8,0:0:0:0:
256,192,46268,1,0,0:0:0:0:
256,192,46445,1,0,0:0:0:0:
256,192,46533,1,8,0:0:0:0:
256,192,46797,1,8,0:0:0:0:
256,192,46842,1,8,0:0:0:0:
256,192,46886,1,0,0:0:0:0:
256,192,47150,1,0,0:0:0:0:
256,192,47239,1,8,0:0:0:0:
256,192,47415,1,0,0:0:0:0:
256,192,47592,1,8,0:0:0:0:
256,192,47680,1,0,0:0:0:0:
256,192,47856,1,0,0:0:0:0:
256,192,47945,1,8,0:0:0:0:
256,192,48033,1,8,0:0:0:0:
256,192,48121,1,8,0:0:0:0:
256,192,48209,1,8,0:0:0:0:
256,192,48297,1,4,0:0:0:0:
256,192,48562,1,0,0:0:0:0:
256,192,48650,1,8,0:0:0:0:
256,192,48827,1,0,0:0:0:0:
256,192,49003,1,8,0:0:0:0:
256,192,49092,1,0,0:0:0:0:
256,192,49268,1,0,0:0:0:0:
256,192,49356,1,8,0:0:0:0:
256,192,49621,1,8,0:0:0:0:
256,192,49665,1,8,0:0:0:0:
256,192,49709,1,0,0:0:0:0:
256,192,49974,1,0,0:0:0:0:
256,192,50062,1,8,0:0:0:0:
256,192,50239,1,0,0:0:0:0:
256,192,50415,1,8,0:0:0:0:
256,192,50503,1,0,0:0:0:0:
256,192,50680,1,0,0:0:0:0:
256,192,50768,1,8,0:0:0:0:
256,192,50856,1,0,0:0:0:0:
256,192,50900,1,0,0:0:0:0:
256,192,50945,1,0,0:0:0:0:
256,192,51121,1,12,0:0:0:0:
256,192,51386,1,0,0:0:0:0:
256,192,51474,1,8,0:0:0:0:
256,192,51650,1,0,0:0:0:0:
256,192,51827,1,8,0:0:0:0:
256,192,51915,1,8,0:0:0:0:
256,192,52092,1,0,0:0:0:0:
256,192,52180,1,8,0:0:0:0:
256,192,52445,1,8,0:0:0:0:
256,192,52489,1,8,0:0:0:0:
256,192,52533,1,0,0:0:0:0:
256,192,52797,1,0,0:0:0:0:
256,192,52886,1,8,0:0:0:0:
256,192,53062,1,0,0:0:0:0:
256,192,53239,1,8,0:0:0:0:
256,192,53327,1,0,0:0:0:0:
256,192,53503,1,0,0:0:0:0:
256,192,53592,1,8,0:0:0:0:
256,192,53680,1,8,0:0:0:0:
256,192,53768,1,8,0:0:0:0:
256,192,53856,1,8,0:0:0:0:
256,192,53945,1,4,0:0:0:0:
256,192,54209,1,0,0:0:0:0:
256,192,54297,1,8,0:0:0:0:
256,192,54474,1,0,0:0:0:0:
256,192,54650,1,8,0:0:0:0:
256,192,54739,1,8,0:0:0:0:
256,192,54915,1,0,0:0:0:0:
256,192,55003,1,8,0:0:0:0:
256,192,55268,1,8,0:0:0:0:
256,192,55312,1,8,0:0:0:0:
256,192,55356,1,0,0:0:0:0:
256,192,55621,1,0,0:0:0:0:
256,192,55709,1,8,0:0:0:0:
256,192,55886,1,0,0:0:0:0:
256,192,56062,1,8,0:0:0:0:
256,192,56150,1,8,0:0:0:0:
256,192,56327,1,0,0:0:0:0:
256,192,56415,1,8,0:0:0:0:
256,192,56503,1,0,0:0:0:0:
256,192,56547,1,0,0:0:0:0:
256,192,56768,1,4,0:0:0:0:
256,192,57033,1,0,0:0:0:0:
256,192,57121,1,8,0:0:0:0:
256,192,57297,1,0,0:0:0:0:
256,192,57386,1,0,0:0:0:0:
256,192,57474,1,8,0:0:0:0:
256,192,57562,1,0,0:0:0:0:
256,192,57739,1,0,0:0:0:0:
256,192,57827,1,8,0:0:0:0:
256,192,58092,1,8,0:0:0:0:
256,192,58136,1,8,0:0:0:0:
256,192,58180,1,0,0:0:0:0:
256,192,58445,1,0,0:0:0:0:
256,192,58533,1,8,0:0:0:0:
256,192,58709,1,0,0:0:0:0:
256,192,58797,1,0,0:0:0:0:
256,192,58886,1,8,0:0:0:0:
256,192,58974,1,8,0:0:0:0:
256,192,59150,1,0,0:0:0:0:
256,192,59239,1,8,0:0:0:0:
256,192,59327,1,8,0:0:0:0:
256,192,59415,1,8,0:0:0:0:
256,192,59503,1,8,0:0:0:0:
256,192,59592,1,4,0:0:0:0:
256,192,59856,1,0,0:0:0:0:
256,192,59945,1,8,0:0:0:0:
256,192,60121,1,0,0:0:0:0:
256,192,60209,1,0,0:0:0:0:
256,192,60297,1,8,0:0:0:0:
256,192,60386,1,0,0:0:0:0:
256,192,60562,1,0,0:0:0:0:
256,192,60650,1,8,0:0:0:0:
256,192,60915,1,8,0:0:0:0:
256,192,60959,1,8,0:0:0:0:
256,192,61003,1,0,0:0:0:0:
256,192,61268,1,0,0:0:0:0:
256,192,61356,1,8,0:0:0:0:
256,192,61533,1,0,0:0:0:0:
256,192,61621,1,0,0:0:0:0:
256,192,61709,1,8,0:0:0:0:
256,192,61797,1,8,0:0:0:0:
256,192,61974,1,0,0:0:0:0:
256,192,62062,1,8,0:0:0:0:
256,192,62150,1,0,0:0:0:0:
256,192,62195,1,0,0:0:0:0:
256,192,62239,1,0,0:0:0:0:
256,192,62415,1,12,0:0:0:0:
256,192,62680,1,0,0:0:0:0:
256,192,62768,1,8,0:0:0:0:
256,192,62945,1,0,0:0:0:0:
256,192,63033,1,0,0:0:0:0:
256,192,63121,1,8,0:0:0:0:
256,192,63209,1,0,0:0:0:0:
256,192,63386,1,0,0:0:0:0:
256,192,63474,1,8,0:0:0:0:
256,192,63739,1,8,0:0:0:0:
256,192,63783,1,8,0:0:0:0:
256,192,63827,1,0,0:0:0:0:
256,192,64092,1,0,0:0:0:0:
256,192,64180,1,8,0:0:0:0:
256,192,64356,1,0,0:0:0:0:
256,192,64445,1,0,0:0:0:0:
256,192,64533,1,8,0:0:0:0:
256,192,64621,1,8,0:0:0:0:
256,192,64797,1,0,0:0:0:0:
256,192,64886,1,8,0:0:0:0:
256,192,64974,1,8,0:0:0:0:
256,192,65062,1,8,0:0:0:0:
256,192,65150,1,8,0:0:0:0:
256,192,65239,1,4,0:0:0:0:
256,192,65503,1,0,0:0:0:0:
256,192,65592,1,8,0:0:0:0:
256,192,65768,1,0,0:0:0:0:
256,192,65856,1,0,0:0:0:0:
256,192,65945,1,8,0:0:0:0:
256,192,66033,1,0,0:0:0:0:
256,192,66209,1,0,0:0:0:0:
256,192,66297,1,8,0:0:0:0:
256,192,66562,1,8,0:0:0:0:
256,192,66606,1,8,0:0:0:0:
256,192,66650,1,8,0:0:0:0:
256,192,66695,1,0,0:0:0:0:
256,192,66915,1,8,0:0:0:0:
256,192,66959,1,0,0:0:0:0:
256,192,67180,1,8,0:0:0:0:
256,192,67224,1,0,0:0:0:0:
256,192,67445,1,8,0:0:0:0:
256,192,67489,1,0,0:0:0:0:
256,192,67709,1,8,0:0:0:0:
256,192,67797,1,8,0:0:0:0:
256,192,67886,1,0,0:0:0:0:
256,192,67974,1,0,0:0:0:0:
256,192,68062,1,8,0:0:0:0:
256,192,68415,1,4,0:0:0:0:
256,192,68680,1,8,0:0:0:0:
256,192,69033,1,8,0:0:0:0:
256,192,69121,1,4,0:0:0:0:
256,192,69386,1,8,0:0:0:0:
256,192,69474,1,4,0:0:0:0:
256,192,69739,1,8,0:0:0:0:
256,192,69827,1,0,0:0:0:0:
256,192,70003,1,8,0:0:0:0:
256,192,70180,1,0,0:0:0:0:
256,192,70268,1,8,0:0:0:0:
256,192,70445,1,8,0:0:0:0:
256,192,70533,1,4,0:0:0:0:
256,192,70797,1,0,0:0:0:0:
256,192,70842,1,0,0:0:0:0:
256,192,70886,1,8,0:0:0:0:
256,192,71239,1,4,0:0:0:0:
256,192,71503,1,8,0:0:0:0:
256,192,71592,1,4,0:0:0:0:
256,192,71856,1,8,0:0:0:0:
256,192,71945,1,4,0:0:0:0:
256,192,72209,1,8,0:0:0:0:
256,192,72253,1,8,0:0:0:0:
256,192,72297,1,0,0:0:0:0:
256,192,72562,1,0,0:0:0:0:
256,192,72650,1,12,0:0:0:0:
256,192,72827,1,4,0:0:0:0:
256,192,73092,1,4,0:0:0:0:
256,192,73356,1,8,0:0:0:0:
256,192,73445,1,0,0:0:0:0:
256,192,73489,1,0,0:0:0:0:
256,192,73533,1,0,0:0:0:0:
256,192,73709,1,8,0:0:0:0:
256,192,74062,1,4,0:0:0:0:
256,192,74327,1,8,0:0:0:0:
256,192,74415,1,4,0:0:0:0:
256,192,74680,1,0,0:0:0:0:
256,192,74768,1,8,0:0:0:0:
256,192,75033,1,8,0:0:0:0:
256,192,75121,1,0,0:0:0:0:
256,192,75386,1,0,0:0:0:0:
256,192,75474,1,8,0:0:0:0:
256,192,75650,1,4,0:0:0:0:
256,192,75915,1,4,0:0:0:0:
256,192,76092,1,0,0:0:0:0:
256,192,76180,1,8,0:0:0:0:
256,192,76445,1,0,0:0:0:0:
256,192,76489,1,0,0:0:0:0:
256,192,76533,1,8,0:0:0:0:
256,192,76886,1,4,0:0:0:0:
256,192,77150,1,8,0:0:0:0:
256,192,77592,1,4,0:0:0:0:
256,192,77856,1,8,0:0:0:0:
256,192,77945,1,4,0:0:0:0:
256,192,78209,1,8,0:0:0:0:
256,192,78253,1,8,0:0:0:0:
256,192,78474,1,8,0:0:0:0:
256,192,78518,1,8,0:0:0:0:
256,192,78739,1,8,0:0:0:0:
256,192,78783,1,8,0:0:0:0:
256,192,79003,1,8,0:0:0:0:
256,192,79092,1,0,0:0:0:0:
256,192,79136,1,0,0:0:0:0:
256,192,79180,1,0,0:0:0:0:
256,192,79268,1,8,0:0:0:0:
256,192,79356,1,4,0:0:0:0:
256,192,79621,1,0,0:0:0:0:
256,192,79709,1,8,0:0:0:0:
256,192,79886,1,0,0:0:0:0:
256,192,79974,1,0,0:0:0:0:
256,192,80062,1,8,0:0:0:0:
256,192,80150,1,0,0:0:0:0:
256,192,80327,1,0,0:0:0:0:
256,192,80415,1,8,0:0:0:0:
256,192,80680,1,8,0:0:0:0:
256,192,80724,1,8,0:0:0:0:
256,192,80768,1,0,0:0:0:0:
256,192,81033,1,0,0:0:0:0:
256,192,81121,1,8,0:0:0:0:
256,192,81297,1,0,0:0:0:0:
256,192,81386,1,0,0:0:0:0:
256,192,81474,1,8,0:0:0:0:
256,192,81562,1,8,0:0:0:0:
256,192,81739,1,0,0:0:0:0:
256,192,81827,1,8,0:0:0:0:
256,192,81915,1,8,0:0:0:0:
256,192,82003,1,8,0:0:0:0:
256,192,82092,1,8,0:0:0:0:
256,192,82180,1,4,0:0:0:0:
256,192,82445,1,0,0:0:0:0:
256,192,82533,1,8,0:0:0:0:
256,192,82709,1,0,0:0:0:0:
256,192,82797,1,0,0:0:0:0:
256,192,82886,1,8,0:0:0:0:
256,192,82974,1,0,0:0:0:0:
256,192,83150,1,0,0:0:0:0:
256,192,83239,1,8,0:0:0:0:
256,192,83503,1,8,0:0:0:0:
256,192,83547,1,8,0:0:0:0:
256,192,83592,1,0,0:0:0:0:
256,192,83856,1,0,0:0:0:0:
256,192,83945,1,8,0:0:0:0:
256,192,84121,1,0,0:0:0:0:
256,192,84209,1,0,0:0:0:0:
256,192,84297,1,8,0:0:0:0:
256,192,84386,1,8,0:0:0:0:
256,192,84562,1,0,0:0:0:0:
256,192,84650,1,8,0:0:0:0:
256,192,84739,1,0,0:0:0:0:
256,192,84783,1,0,0:0:0:0:
256,192,84827,1,0,0:0:0:0:
256,192,85003,1,12,0:0:0:0:
256,192,85268,1,0,0:0:0:0:
256,192,85356,1,8,0:0:0:0:
256,192,85533,1,0,0:0:0:0:
256,192,85621,1,0,0:0:0:0:
256,192,85709,1,8,0:0:0:0:
256,192,85797,1,0,0:0:0:0:
256,192,85974,1,0,0:0:0:0:
256,192,86062,1,8,0:0:0:0:
256,192,86327,1,8,0:0:0:0:
256,192,86371,1,8,0:0:0:0:
256,192,86415,1,0,0:0:0:0:
256,192,86680,1,0,0:0:0:0:
256,192,86768,1,8,0:0:0:0:
256,192,86945,1,0,0:0:0:0:
256,192,87033,1,0,0:0:0:0:
256,192,87121,1,8,0:0:0:0:
256,192,87209,1,8,0:0:0:0:
256,192,87386,1,0,0:0:0:0:
256,192,87474,1,8,0:0:0:0:
256,192,87562,1,8,0:0:0:0:
256,192,87650,1,8,0:0:0:0:
256,192,87739,1,8,0:0:0:0:
256,192,87827,1,4,0:0:0:0:
256,192,88092,1,0,0:0:0:0:
256,192,88180,1,8,0:0:0:0:
256,192,88356,1,0,0:0:0:0:
256,192,88445,1,0,0:0:0:0:
256,192,88533,1,8,0:0:0:0:
256,192,88621,1,0,0:0:0:0:
256,192,88797,1,0,0:0:0:0:
256,192,88886,1,8,0:0:0:0:
256,192,89150,1,8,0:0:0:0:
256,192,89195,1,8,0:0:0:0:
256,192,89239,1,8,0:0:0:0:
256,192,89283,1,0,0:0:0:0:
256,192,89503,1,8,0:0:0:0:
256,192,89547,1,8,0:0:0:0:
256,192,89680,1,0,0:0:0:0:
256,192,89768,1,8,0:0:0:0:
256,192,89812,1,8,0:0:0:0:
256,192,89945,1,0,0:0:0:0:
256,192,90033,1,8,0:0:0:0:
256,192,90077,1,8,0:0:0:0:
256,192,90209,1,0,0:0:0:0:
256,192,90297,1,12,0:0:0:0:
256,192,90650,1,4,0:0:0:0:
256,192,91003,1,8,0:0:0:0:
256,192,91356,1,0,0:0:0:0:
256,192,91621,1,0,0:0:0:0:
256,192,91709,1,8,0:0:0:0:
256,192,91974,1,8,0:0:0:0:
256,192,92018,1,8,0:0:0:0:
256,192,92062,1,0,0:0:0:0:
256,192,92415,1,8,0:0:0:0:
256,192,92768,1,0,0:0:0:0:
256,192,93033,1,0,0:0:0:0:
256,192,93121,1,8,0:0:0:0:
256,192,93209,1,8,0:0:0:0:
256,192,93297,1,8,0:0:0:0:
256,192,93386,1,8,0:0:0:0:
256,192,93474,1,4,0:0:0:0:
256,192,93827,1,8,0:0:0:0:
256,192,94180,1,8,0:0:0:0:
256,192,94445,1,0,0:0:0:0:
256,192,94533,1,8,0:0:0:0:
256,192,94797,1,8,0:0:0:0:
256,192,94842,1,8,0:0:0:0:
256,192,94886,1,0,0:0:0:0:
256,192,95239,1,8,0:0:0:0:
256,192,95592,1,8,0:0:0:0:
256,192,95856,1,0,0:0:0:0:
256,192,95945,1,8,0:0:0:0:
256,192,96033,1,0,0:0:0:0:
256,192,96077,1,0,0:0:0:0:
256,192,96121,1,0,0:0:0:0:
256,192,96297,1,12,0:0:0:0:
256,192,96650,1,8,0:0:0:0:
256,192,97003,1,0,0:0:0:0:
256,192,97268,1,0,0:0:0:0:
256,192,97356,1,8,0:0:0:0:
256,192,97621,1,8,0:0:0:0:
256,192,97665,1,8,0:0:0:0:
256,192,97709,1,0,0:0:0:0:
256,192,98062,1,8,0:0:0:0:
256,192,98415,1,0,0:0:0:0:
256,192,98680,1,0,0:0:0:0:
256,192,98768,1,8,0:0:0:0:
256,192,98856,1,8,0:0:0:0:
256,192,98945,1,8,0:0:0:0:
256,192,99033,1,8,0:0:0:0:
256,192,99121,1,4,0:0:0:0:
256,192,99474,1,8,0:0:0:0:
256,192,99827,1,8,0:0:0:0:
256,192,100092,1,0,0:0:0:0:
256,192,100180,1,8,0:0:0:0:
256,192,100445,1,8,0:0:0:0:
256,192,100489,1,8,0:0:0:0:
256,192,100533,1,8,0:0:0:0:
256,192,100577,1,0,0:0:0:0:
256,192,100797,1,8,0:0:0:0:
256,192,100886,1,0,0:0:0:0:
256,192,100930,1,0,0:0:0:0:
256,192,101062,1,8,0:0:0:0:
256,192,101106,1,0,0:0:0:0:
256,192,101150,1,0,0:0:0:0:
256,192,101327,1,8,0:0:0:0:
256,192,101592,1,8,0:0:0:0:
256,192,101680,1,8,0:0:0:0:
256,192,101768,1,0,0:0:0:0:
256,192,101856,1,0,0:0:0:0:
256,192,101945,1,12,0:0:0:0:
256,192,102297,1,8,0:0:0:0:
256,192,102650,1,0,0:0:0:0:
256,192,102915,1,0,0:0:0:0:
256,192,103003,1,8,0:0:0:0:
256,192,103268,1,8,0:0:0:0:
256,192,103312,1,8,0:0:0:0:
256,192,103356,1,0,0:0:0:0:
256,192,103709,1,8,0:0:0:0:
256,192,104062,1,0,0:0:0:0:
256,192,104327,1,0,0:0:0:0:
256,192,104415,1,8,0:0:0:0:
256,192,104503,1,8,0:0:0:0:
256,192,104592,1,8,0:0:0:0:
256,192,104680,1,8,0:0:0:0:
256,192,104768,1,4,0:0:0:0:
256,192,105121,1,8,0:0:0:0:
256,192,105474,1,8,0:0:0:0:
256,192,105739,1,0,0:0:0:0:
256,192,105827,1,8,0:0:0:0:
256,192,106092,1,8,0:0:0:0:
256,192,106136,1,8,0:0:0:0:
256,192,106180,1,0,0:0:0:0:
256,192,106533,1,8,0:0:0:0:
256,192,106886,1,8,0:0:0:0:
256,192,107150,1,0,0:0:0:0:
256,192,107239,1,8,0:0:0:0:
256,192,107327,1,0,0:0:0:0:
256,192,107371,1,0,0:0:0:0:
256,192,107415,1,0,0:0:0:0:
256,192,107592,1,12,0:0:0:0:
256,192,107945,1,8,0:0:0:0:
256,192,108297,1,0,0:0:0:0:
256,192,108562,1,0,0:0:0:0:
256,192,108650,1,8,0:0:0:0:
256,192,108915,1,8,0:0:0:0:
256,192,108959,1,8,0:0:0:0:
256,192,109003,1,0,0:0:0:0:
256,192,109356,1,8,0:0:0:0:
256,192,109709,1,0,0:0:0:0:
256,192,109974,1,0,0:0:0:0:
256,192,110062,1,8,0:0:0:0:
256,192,110150,1,8,0:0:0:0:
256,192,110239,1,8,0:0:0:0:
256,192,110327,1,8,0:0:0:0:
256,192,110415,1,4,0:0:0:0:
256,192,110768,1,8,0:0:0:0:
256,192,111121,1,8,0:0:0:0:
256,192,111386,1,0,0:0:0:0:
256,192,111474,1,8,0:0:0:0:
256,192,111739,1,8,0:0:0:0:
256,192,111783,1,8,0:0:0:0:
256,192,111827,1,8,0:0:0:0:
256,192,111871,1,0,0:0:0:0:
256,192,112092,1,8,0:0:0:0:
256,192,112180,1,0,0:0:0:0:
256,192,112224,1,0,0:0:0:0:
256,192,112356,1,8,0:0:0:0:
256,192,112445,1,0,0:0:0:0:
256,192,112489,1,0,0:0:0:0:
256,192,112621,1,8,0:0:0:0:
256,192,112709,1,0,0:0:0:0:
256,192,112753,1,0,0:0:0:0:
256,192,112886,1,8,0:0:0:0:
256,192,112974,1,8,0:0:0:0:
256,192,113062,1,8,0:0:0:0:
256,192,113150,1,8,0:0:0:0:
256,192,113239,1,4,0:0:0:0:
256,192,118886,5,4,0:0:0:0:
256,192,130180,5,4,0:0:0:0:
256,192,130709,1,0,0:0:0:0:
256,192,131239,1,0,0:0:0:0:
256,192,131592,1,8,0:0:0:0:
256,192,132121,1,0,0:0:0:0:
256,192,132650,1,0,0:0:0:0:
256,192,133003,1,8,0:0:0:0:
256,192,133092,1,8,0:0:0:0:
256,192,133180,1,8,0:0:0:0:
256,192,133533,1,0,0:0:0:0:
256,192,134062,1,0,0:0:0:0:
256,192,134415,1,8,0:0:0:0:
256,192,134945,1,0,0:0:0:0:
256,192,135474,1,0,0:0:0:0:
256,192,135827,1,8,0:0:0:0:
256,192,135915,1,8,0:0:0:0:
256,192,136003,1,8,0:0:0:0:
256,192,136356,1,0,0:0:0:0:
256,192,136886,1,0,0:0:0:0:
256,192,137239,1,8,0:0:0:0:
256,192,137592,1,0,0:0:0:0:
256,192,137768,1,0,0:0:0:0:
256,192,137945,1,8,0:0:0:0:
256,192,138121,1,8,0:0:0:0:
256,192,138297,1,0,0:0:0:0:
256,192,138650,1,8,0:0:0:0:
256,192,138739,1,8,0:0:0:0:
256,192,138827,1,8,0:0:0:0:
256,192,139180,1,0,0:0:0:0:
256,192,139709,1,0,0:0:0:0:
256,192,140062,1,12,0:0:0:0:
256,192,140239,12,0,141297,0:0:0:0:
256,192,141474,5,4,0:0:0:0:
256,192,141739,1,0,0:0:0:0:
256,192,142003,1,0,0:0:0:0:
256,192,142180,1,0,0:0:0:0:
256,192,142533,1,0,0:0:0:0:
256,192,142886,1,8,0:0:0:0:
256,192,143150,1,0,0:0:0:0:
256,192,143239,1,8,0:0:0:0:
256,192,143503,1,8,0:0:0:0:
256,192,143768,1,8,0:0:0:0:
256,192,144033,1,0,0:0:0:0:
256,192,144297,1,8,0:0:0:0:
256,192,144650,1,0,0:0:0:0:
256,192,144827,1,0,0:0:0:0:
256,192,145180,1,0,0:0:0:0:
256,192,145356,1,0,0:0:0:0:
256,192,145709,1,8,0:0:0:0:
256,192,145886,1,0,0:0:0:0:
256,192,146150,1,0,0:0:0:0:
256,192,146415,1,8,0:0:0:0:
256,192,146680,1,0,0:0:0:0:
256,192,146945,1,8,0:0:0:0:
256,192,147121,1,4,0:0:0:0:
256,192,147386,1,0,0:0:0:0:
256,192,147650,1,0,0:0:0:0:
256,192,147827,1,0,0:0:0:0:
256,192,148180,1,0,0:0:0:0:
256,192,148533,1,0,0:0:0:0:
256,192,148797,1,0,0:0:0:0:
256,192,148886,1,8,0:0:0:0:
256,192,149150,1,8,0:0:0:0:
256,192,149415,1,8,0:0:0:0:
256,192,149680,1,0,0:0:0:0:
256,192,149945,1,8,0:0:0:0:
256,192,150297,1,8,0:0:0:0:
256,192,150474,1,0,0:0:0:0:
256,192,150827,1,8,0:0:0:0:
256,192,151003,1,0,0:0:0:0:
256,192,151356,1,8,0:0:0:0:
256,192,151621,1,0,0:0:0:0:
256,192,151886,1,0,0:0:0:0:
256,192,152239,1,8,0:0:0:0:
256,192,152283,1,8,0:0:0:0:
256,192,152327,1,8,0:0:0:0:
256,192,152415,1,0,0:0:0:0:
256,192,152768,1,4,0:0:0:0:
256,192,153121,1,0,0:0:0:0:
256,192,153297,1,0,0:0:0:0:
256,192,153386,1,8,0:0:0:0:
256,192,153650,1,0,0:0:0:0:
256,192,153739,1,8,0:0:0:0:
256,192,154003,1,0,0:0:0:0:
256,192,154092,1,8,0:0:0:0:
256,192,154180,1,0,0:0:0:0:
256,192,154445,1,8,0:0:0:0:
256,192,154621,1,0,0:0:0:0:
256,192,154709,1,8,0:0:0:0:
256,192,154886,1,0,0:0:0:0:
256,192,154974,1,8,0:0:0:0:
256,192,155150,1,0,0:0:0:0:
256,192,155239,1,8,0:0:0:0:
256,192,155283,1,8,0:0:0:0:
256,192,155327,1,0,0:0:0:0:
256,192,155592,1,0,0:0:0:0:
256,192,155945,1,8,0:0:0:0:
256,192,156121,1,0,0:0:0:0:
256,192,156209,1,8,0:0:0:0:
256,192,156474,1,0,0:0:0:0:
256,192,156562,1,8,0:0:0:0:
256,192,156827,1,0,0:0:0:0:
256,192,156915,1,8,0:0:0:0:
256,192,157003,1,0,0:0:0:0:
256,192,157268,1,8,0:0:0:0:
256,192,157356,1,0,0:0:0:0:
256,192,157533,1,8,0:0:0:0:
256,192,157621,1,0,0:0:0:0:
256,192,157797,1,8,0:0:0:0:
256,192,157886,1,0,0:0:0:0:
256,192,158062,1,8,0:0:0:0:
256,192,158106,1,8,0:0:0:0:
256,192,158150,1,0,0:0:0:0:
256,192,158415,1,4,0:0:0:0:
256,192,158768,1,0,0:0:0:0:
256,192,158945,1,0,0:0:0:0:
256,192,159033,1,8,0:0:0:0:
256,192,159297,1,0,0:0:0:0:
256,192,159386,1,8,0:0:0:0:
256,192,159650,1,0,0:0:0:0:
256,192,159739,1,8,0:0:0:0:
256,192,159827,1,0,0:0:0:0:
256,192,160092,1,8,0:0:0:0:
256,192,160268,1,0,0:0:0:0:
256,192,160356,1,8,0:0:0:0:
256,192,160533,1,0,0:0:0:0:
256,192,160621,1,8,0:0:0:0:
256,192,160797,1,0,0:0:0:0:
256,192,160886,1,8,0:0:0:0:
256,192,160930,1,8,0:0:0:0:
256,192,160974,1,0,0:0:0:0:
256,192,161239,1,0,0:0:0:0:
256,192,161592,1,8,0:0:0:0:
256,192,161768,1,0,0:0:0:0:
256,192,161856,1,8,0:0:0:0:
256,192,162121,1,0,0:0:0:0:
256,192,162209,1,8,0:0:0:0:
256,192,162474,1,0,0:0:0:0:
256,192,162562,1,8,0:0:0:0:
256,192,162650,1,0,0:0:0:0:
256,192,162915,1,8,0:0:0:0:
256,192,163003,1,0,0:0:0:0:
256,192,163180,1,8,0:0:0:0:
256,192,163268,1,0,0:0:0:0:
256,192,163445,1,8,0:0:0:0:
256,192,163533,1,0,0:0:0:0:
256,192,163709,1,8,0:0:0:0:
256,192,163753,1,8,0:0:0:0:
256,192,163797,1,0,0:0:0:0:
256,192,164062,1,4,0:0:0:0:
256,192,164415,1,8,0:0:0:0:
256,192,164592,1,8,0:0:0:0:
256,192,164680,1,8,0:0:0:0:
256,192,164768,1,0,0:0:0:0:
256,192,164945,1,0,0:0:0:0:
256,192,165033,1,0,0:0:0:0:
256,192,165121,1,8,0:0:0:0:
256,192,165297,1,0,0:0:0:0:
256,192,165386,1,8,0:0:0:0:
256,192,165474,1,0,0:0:0:0:
256,192,165650,1,0,0:0:0:0:
256,192,165739,1,8,0:0:0:0:
256,192,165827,1,0,0:0:0:0:
256,192,165915,1,0,0:0:0:0:
256,192,166003,1,8,0:0:0:0:
256,192,166092,1,0,0:0:0:0:
256,192,166180,1,8,0:0:0:0:
256,192,166445,1,8,0:0:0:0:
256,192,166533,1,0,0:0:0:0:
256,192,166577,1,0,0:0:0:0:
256,192,166621,1,0,0:0:0:0:
256,192,166709,1,8,0:0:0:0:
256,192,166797,1,8,0:0:0:0:
256,192,166886,1,0,0:0:0:0:
256,192,167150,1,0,0:0:0:0:
256,192,167239,1,8,0:0:0:0:
256,192,167415,1,0,0:0:0:0:
256,192,167503,1,8,0:0:0:0:
256,192,167592,1,0,0:0:0:0:
256,192,167768,1,8,0:0:0:0:
256,192,167856,1,0,0:0:0:0:
256,192,167945,1,8,0:0:0:0:
256,192,168121,1,8,0:0:0:0:
256,192,168209,1,8,0:0:0:0:
256,192,168297,1,0,0:0:0:0:
256,192,168562,1,8,0:0:0:0:
224,192,168650,1,0,0:0:0:0:
256,192,168827,1,8,0:0:0:0:
256,192,168915,1,8,0:0:0:0:
256,192,169003,1,0,0:0:0:0:
256,192,169047,1,0,0:0:0:0:
256,192,169092,1,8,0:0:0:0:
256,192,169356,1,8,0:0:0:0:
256,192,169533,1,0,0:0:0:0:
256,192,169709,1,0,0:0:0:0:
256,192,169886,1,8,0:0:0:0:
256,192,169974,1,8,0:0:0:0:
256,192,170062,1,0,0:0:0:0:
256,192,170239,1,0,0:0:0:0:
256,192,170327,1,8,0:0:0:0:
256,192,170415,1,0,0:0:0:0:
256,192,170592,1,8,0:0:0:0:
256,192,170680,1,0,0:0:0:0:
256,192,170768,1,0,0:0:0:0:
256,192,170945,1,8,0:0:0:0:
256,192,171033,1,0,0:0:0:0:
256,192,171121,1,8,0:0:0:0:
256,192,171297,1,0,0:0:0:0:
256,192,171386,1,8,0:0:0:0:
256,192,171474,1,8,0:0:0:0:
256,192,171650,1,0,0:0:0:0:
256,192,171739,1,0,0:0:0:0:
256,192,171827,1,8,0:0:0:0:
256,192,171871,1,8,0:0:0:0:
256,192,172003,1,0,0:0:0:0:
256,192,172180,1,8,0:0:0:0:
256,192,172224,1,8,0:0:0:0:
256,192,172356,1,0,0:0:0:0:
256,192,172533,1,8,0:0:0:0:
256,192,172709,1,0,0:0:0:0:
256,192,172886,1,8,0:0:0:0:
256,192,173062,1,0,0:0:0:0:
256,192,173150,1,0,0:0:0:0:
256,192,173239,1,8,0:0:0:0:
256,192,173327,1,8,0:0:0:0:
256,192,173415,1,0,0:0:0:0:
256,192,173503,1,0,0:0:0:0:
256,192,173592,1,8,0:0:0:0:
256,192,173680,1,8,0:0:0:0:
256,192,173768,1,8,0:0:0:0:
256,192,173856,1,0,0:0:0:0:
256,192,173945,1,8,0:0:0:0:
256,192,174650,1,8,0:0:0:0:
256,192,174827,1,8,0:0:0:0:
256,192,174915,1,8,0:0:0:0:
256,192,175003,1,0,0:0:0:0:
256,192,175092,1,0,0:0:0:0:
256,192,175180,1,0,0:0:0:0:
256,192,175268,1,0,0:0:0:0:
256,192,175356,1,12,0:0:0:0:
256,192,175621,1,0,0:0:0:0:
256,192,175709,1,8,0:0:0:0:
256,192,175886,1,0,0:0:0:0:
256,192,176062,1,8,0:0:0:0:
256,192,176150,1,8,0:0:0:0:
256,192,176239,1,0,0:0:0:0:
256,192,176327,1,0,0:0:0:0:
256,192,176415,1,8,0:0:0:0:
256,192,176680,1,8,0:0:0:0:
256,192,176724,1,8,0:0:0:0:
256,192,176768,1,0,0:0:0:0:
256,192,177033,1,0,0:0:0:0:
256,192,177121,1,8,0:0:0:0:
256,192,177297,1,0,0:0:0:0:
256,192,177474,1,8,0:0:0:0:
256,192,177562,1,8,0:0:0:0:
262,194,177650,1,0,0:0:0:0:
256,192,177739,1,0,0:0:0:0:
256,192,177827,1,8,0:0:0:0:
256,192,177915,1,8,0:0:0:0:
256,192,178003,1,8,0:0:0:0:
256,192,178092,1,8,0:0:0:0:
256,192,178180,1,4,0:0:0:0:
256,192,178445,1,0,0:0:0:0:
256,192,178533,1,8,0:0:0:0:
256,192,178709,1,0,0:0:0:0:
256,192,178886,1,8,0:0:0:0:
256,192,178974,1,8,0:0:0:0:
256,192,179062,1,0,0:0:0:0:
256,192,179150,1,0,0:0:0:0:
256,192,179239,1,8,0:0:0:0:
256,192,179503,1,8,0:0:0:0:
256,192,179547,1,8,0:0:0:0:
256,192,179592,1,0,0:0:0:0:
256,192,179856,1,0,0:0:0:0:
256,192,179945,1,8,0:0:0:0:
256,192,180121,1,0,0:0:0:0:
256,192,180297,1,8,0:0:0:0:
256,192,180386,1,0,0:0:0:0:
256,192,180562,1,0,0:0:0:0:
256,192,180650,1,8,0:0:0:0:
256,192,180739,1,0,0:0:0:0:
256,192,180783,1,0,0:0:0:0:
256,192,180827,1,0,0:0:0:0:
256,192,181003,1,12,0:0:0:0:
256,192,181268,1,0,0:0:0:0:
256,192,181356,1,8,0:0:0:0:
256,192,181533,1,0,0:0:0:0:
256,192,181709,1,8,0:0:0:0:
256,192,181797,1,8,0:0:0:0:
256,192,181886,1,0,0:0:0:0:
256,192,181974,1,0,0:0:0:0:
256,192,182062,1,8,0:0:0:0:
256,192,182327,1,8,0:0:0:0:
256,192,182371,1,8,0:0:0:0:
256,192,182415,1,0,0:0:0:0:
256,192,182680,1,0,0:0:0:0:
256,192,182768,1,8,0:0:0:0:
256,192,182945,1,0,0:0:0:0:
256,192,183121,1,8,0:0:0:0:
257,199,183209,1,8,0:0:0:0:
257,199,183297,1,0,0:0:0:0:
256,192,183386,1,0,0:0:0:0:
256,192,183474,1,8,0:0:0:0:
256,192,183562,1,8,0:0:0:0:
256,192,183650,1,8,0:0:0:0:
256,192,183739,1,8,0:0:0:0:
256,192,183827,1,4,0:0:0:0:
256,192,184092,1,0,0:0:0:0:
256,192,184180,1,8,0:0:0:0:
256,192,184356,1,0,0:0:0:0:
256,192,184533,1,8,0:0:0:0:
256,192,184621,1,8,0:0:0:0:
257,199,184709,1,0,0:0:0:0:
256,192,184797,1,0,0:0:0:0:
256,192,184886,1,8,0:0:0:0:
256,192,185150,1,8,0:0:0:0:
256,192,185195,1,8,0:0:0:0:
256,192,185239,1,0,0:0:0:0:
256,192,185503,1,0,0:0:0:0:
256,192,185592,1,8,0:0:0:0:
256,192,185768,1,0,0:0:0:0:
256,192,185945,1,8,0:0:0:0:
256,192,186033,1,8,0:0:0:0:
256,192,186121,1,0,0:0:0:0:
256,192,186209,1,0,0:0:0:0:
256,192,186297,1,8,0:0:0:0:
256,192,186386,1,0,0:0:0:0:
256,192,186430,1,0,0:0:0:0:
256,192,186650,1,4,0:0:0:0:
256,192,186915,1,0,0:0:0:0:
256,192,187003,1,8,0:0:0:0:
256,192,187180,1,0,0:0:0:0:
256,192,187268,1,0,0:0:0:0:
256,192,187356,1,8,0:0:0:0:
256,192,187445,1,0,0:0:0:0:
256,192,187533,1,0,0:0:0:0:
256,192,187621,1,0,0:0:0:0:
256,192,187709,1,8,0:0:0:0:
256,192,187974,1,8,0:0:0:0:
256,192,188018,1,8,0:0:0:0:
256,192,188062,1,0,0:0:0:0:
256,192,188327,1,0,0:0:0:0:
256,192,188415,1,8,0:0:0:0:
256,192,188592,1,0,0:0:0:0:
256,192,188680,1,0,0:0:0:0:
256,192,188768,1,8,0:0:0:0:
256,192,188856,1,8,0:0:0:0:
256,192,188945,1,0,0:0:0:0:
256,192,189033,1,0,0:0:0:0:
256,192,189121,1,8,0:0:0:0:
256,192,189209,1,8,0:0:0:0:
256,192,189297,1,8,0:0:0:0:
256,192,189386,1,8,0:0:0:0:
256,192,189474,1,4,0:0:0:0:
256,192,189739,1,0,0:0:0:0:
256,192,189827,1,8,0:0:0:0:
256,192,190003,1,0,0:0:0:0:
256,192,190092,1,0,0:0:0:0:
256,192,190180,1,8,0:0:0:0:
256,192,190268,1,0,0:0:0:0:
256,192,190356,1,0,0:0:0:0:
256,192,190445,1,0,0:0:0:0:
256,192,190533,1,8,0:0:0:0:
256,192,190797,1,8,0:0:0:0:
256,192,190842,1,8,0:0:0:0:
256,192,190886,1,0,0:0:0:0:
256,192,191150,1,0,0:0:0:0:
256,192,191239,1,8,0:0:0:0:
256,192,191415,1,0,0:0:0:0:
256,192,191503,1,0,0:0:0:0:
256,192,191592,1,8,0:0:0:0:
256,192,191680,1,8,0:0:0:0:
256,192,191768,1,0,0:0:0:0:
256,192,191856,1,0,0:0:0:0:
256,192,191945,1,8,0:0:0:0:
256,192,192033,1,0,0:0:0:0:
256,192,192077,1,0,0:0:0:0:
256,192,192121,1,0,0:0:0:0:
256,192,192297,1,12,0:0:0:0:
256,192,192562,1,0,0:0:0:0:
256,192,192650,1,8,0:0:0:0:
256,192,192827,1,0,0:0:0:0:
256,192,192915,1,0,0:0:0:0:
256,192,193003,1,8,0:0:0:0:
256,192,193092,1,0,0:0:0:0:
256,192,193180,1,0,0:0:0:0:
256,192,193268,1,0,0:0:0:0:
256,192,193356,1,8,0:0:0:0:
256,192,193621,1,8,0:0:0:0:
256,192,193665,1,8,0:0:0:0:
256,192,193709,1,0,0:0:0:0:
256,192,193974,1,0,0:0:0:0:
256,192,194062,1,8,0:0:0:0:
256,192,194239,1,0,0:0:0:0:
256,192,194327,1,0,0:0:0:0:
256,192,194415,1,8,0:0:0:0:
256,192,194503,1,8,0:0:0:0:
256,192,194592,1,0,0:0:0:0:
256,192,194680,1,0,0:0:0:0:
256,192,194768,1,8,0:0:0:0:
256,192,194856,1,8,0:0:0:0:
256,192,194945,1,8,0:0:0:0:
256,192,195033,1,8,0:0:0:0:
256,192,195121,1,4,0:0:0:0:
256,192,195386,1,0,0:0:0:0:
256,192,195474,1,8,0:0:0:0:
256,192,195650,1,0,0:0:0:0:
256,192,195739,1,0,0:0:0:0:
256,192,195827,1,8,0:0:0:0:
256,192,195915,1,0,0:0:0:0:
256,192,196003,1,0,0:0:0:0:
256,192,196092,1,0,0:0:0:0:
256,192,196180,1,8,0:0:0:0:
256,192,196445,1,8,0:0:0:0:
256,192,196489,1,8,0:0:0:0:
256,192,196533,1,8,0:0:0:0:
256,192,196577,1,0,0:0:0:0:
256,192,196797,1,8,0:0:0:0:
256,192,196842,1,0,0:0:0:0:
256,192,197062,1,8,0:0:0:0:
256,192,197106,1,0,0:0:0:0:
256,192,197327,1,8,0:0:0:0:
256,192,197371,1,0,0:0:0:0:
256,192,197592,1,8,0:0:0:0:
256,192,197680,1,8,0:0:0:0:
256,192,197768,1,0,0:0:0:0:
256,192,197856,1,0,0:0:0:0:
256,192,197945,1,8,0:0:0:0:
256,192,198297,1,4,0:0:0:0:
256,192,198562,1,8,0:0:0:0:
256,192,198915,1,8,0:0:0:0:
256,192,199003,1,4,0:0:0:0:
256,192,199268,1,8,0:0:0:0:
256,192,199356,1,4,0:0:0:0:
256,192,199621,1,8,0:0:0:0:
256,192,199709,1,0,0:0:0:0:
256,192,199886,1,8,0:0:0:0:
256,192,200062,1,0,0:0:0:0:
256,192,200150,1,8,0:0:0:0:
256,192,200327,1,8,0:0:0:0:
256,192,200415,1,4,0:0:0:0:
256,192,200680,1,0,0:0:0:0:
256,192,200724,1,0,0:0:0:0:
256,192,200768,1,8,0:0:0:0:
256,192,201121,1,4,0:0:0:0:
256,192,201386,1,8,0:0:0:0:
256,192,201474,1,4,0:0:0:0:
256,192,201739,1,8,0:0:0:0:
256,192,201827,1,4,0:0:0:0:
256,192,202092,1,8,0:0:0:0:
256,192,202136,1,8,0:0:0:0:
256,192,202180,1,0,0:0:0:0:
256,192,202445,1,0,0:0:0:0:
256,192,202533,1,12,0:0:0:0:
256,192,202709,1,4,0:0:0:0:
256,192,202974,1,4,0:0:0:0:
256,192,203239,1,8,0:0:0:0:
256,192,203327,1,0,0:0:0:0:
256,192,203371,1,0,0:0:0:0:
256,192,203415,1,0,0:0:0:0:
256,192,203592,1,8,0:0:0:0:
256,192,203945,1,4,0:0:0:0:
256,192,204209,1,8,0:0:0:0:
256,192,204297,1,4,0:0:0:0:
256,192,204562,1,0,0:0:0:0:
256,192,204650,1,8,0:0:0:0:
256,192,204915,1,8,0:0:0:0:
256,192,205003,1,0,0:0:0:0:
256,192,205268,1,0,0:0:0:0:
256,192,205356,1,8,0:0:0:0:
256,192,205533,1,4,0:0:0:0:
256,192,205797,1,4,0:0:0:0:
256,192,205974,1,0,0:0:0:0:
256,192,206062,1,8,0:0:0:0:
256,192,206327,1,0,0:0:0:0:
256,192,206371,1,0,0:0:0:0:
256,192,206415,1,8,0:0:0:0:
256,192,206768,1,4,0:0:0:0:
256,192,207033,1,8,0:0:0:0:
256,192,207474,1,4,0:0:0:0:
256,192,207739,1,8,0:0:0:0:
256,192,207827,1,4,0:0:0:0:
256,192,208092,1,8,0:0:0:0:
256,192,208136,1,8,0:0:0:0:
256,192,208356,1,8,0:0:0:0:
256,192,208400,1,8,0:0:0:0:
256,192,208621,1,8,0:0:0:0:
256,192,208665,1,8,0:0:0:0:
256,192,208886,1,8,0:0:0:0:
256,192,208974,1,0,0:0:0:0:
256,192,209018,1,0,0:0:0:0:
256,192,209062,1,0,0:0:0:0:
256,192,209150,1,8,0:0:0:0:
256,192,209239,1,4,0:0:0:0:
256,192,209503,1,0,0:0:0:0:
256,192,209592,1,8,0:0:0:0:
256,192,209768,1,0,0:0:0:0:
256,192,209856,1,0,0:0:0:0:
256,192,209945,1,8,0:0:0:0:
256,192,210033,1,0,0:0:0:0:
256,192,210209,1,0,0:0:0:0:
256,192,210297,1,8,0:0:0:0:
256,192,210562,1,8,0:0:0:0:
256,192,210606,1,8,0:0:0:0:
256,192,210650,1,0,0:0:0:0:
256,192,210915,1,0,0:0:0:0:
256,192,211003,1,8,0:0:0:0:
256,192,211180,1,0,0:0:0:0:
256,192,211268,1,0,0:0:0:0:
256,192,211356,1,8,0:0:0:0:
256,192,211445,1,8,0:0:0:0:
256,192,211621,1,0,0:0:0:0:
256,192,211709,1,8,0:0:0:0:
256,192,211797,1,8,0:0:0:0:
256,192,211886,1,8,0:0:0:0:
256,192,211974,1,8,0:0:0:0:
256,192,212062,1,4,0:0:0:0:
256,192,212327,1,0,0:0:0:0:
256,192,212415,1,8,0:0:0:0:
256,192,212592,1,0,0:0:0:0:
256,192,212680,1,0,0:0:0:0:
256,192,212768,1,8,0:0:0:0:
256,192,212856,1,0,0:0:0:0:
256,192,213033,1,0,0:0:0:0:
256,192,213121,1,8,0:0:0:0:
256,192,213386,1,8,0:0:0:0:
256,192,213430,1,8,0:0:0:0:
256,192,213474,1,0,0:0:0:0:
256,192,213739,1,0,0:0:0:0:
256,192,213827,1,8,0:0:0:0:
256,192,214003,1,0,0:0:0:0:
256,192,214092,1,0,0:0:0:0:
256,192,214180,1,8,0:0:0:0:
256,192,214268,1,8,0:0:0:0:
256,192,214445,1,0,0:0:0:0:
256,192,214533,1,8,0:0:0:0:
256,192,214621,1,0,0:0:0:0:
256,192,214665,1,0,0:0:0:0:
256,192,214709,1,0,0:0:0:0:
256,192,214886,1,12,0:0:0:0:
256,192,215150,1,0,0:0:0:0:
256,192,215239,1,8,0:0:0:0:
256,192,215415,1,0,0:0:0:0:
256,192,215503,1,0,0:0:0:0:
256,192,215592,1,8,0:0:0:0:
256,192,215680,1,0,0:0:0:0:
256,192,215856,1,0,0:0:0:0:
256,192,215945,1,8,0:0:0:0:
256,192,216209,1,8,0:0:0:0:
256,192,216253,1,8,0:0:0:0:
256,192,216297,1,0,0:0:0:0:
256,192,216562,1,0,0:0:0:0:
256,192,216650,1,8,0:0:0:0:
256,192,216827,1,0,0:0:0:0:
256,192,216915,1,0,0:0:0:0:
256,192,217003,1,8,0:0:0:0:
256,192,217092,1,8,0:0:0:0:
256,192,217268,1,0,0:0:0:0:
256,192,217356,1,8,0:0:0:0:
256,192,217445,1,8,0:0:0:0:
256,192,217533,1,8,0:0:0:0:
256,192,217621,1,8,0:0:0:0:
256,192,217709,1,4,0:0:0:0:
256,192,217974,1,0,0:0:0:0:
256,192,218062,1,8,0:0:0:0:
256,192,218239,1,0,0:0:0:0:
256,192,218327,1,0,0:0:0:0:
256,192,218415,1,8,0:0:0:0:
256,192,218503,1,0,0:0:0:0:
256,192,218680,1,0,0:0:0:0:
256,192,218768,1,8,0:0:0:0:
256,192,219033,1,8,0:0:0:0:
256,192,219077,1,8,0:0:0:0:
256,192,219121,1,8,0:0:0:0:
256,192,219165,1,0,0:0:0:0:
256,192,219386,1,8,0:0:0:0:
256,192,219430,1,8,0:0:0:0:
256,192,219562,1,0,0:0:0:0:
256,192,219650,1,8,0:0:0:0:
256,192,219695,1,8,0:0:0:0:
256,192,219827,1,0,0:0:0:0:
256,192,219915,1,8,0:0:0:0:
256,192,219959,1,8,0:0:0:0:
256,192,220092,1,0,0:0:0:0:
256,192,220180,1,12,0:0:0:0:
256,192,220533,1,4,0:0:0:0:
256,192,220886,1,8,0:0:0:0:
256,192,221239,1,0,0:0:0:0:
256,192,221503,1,0,0:0:0:0:
256,192,221592,1,8,0:0:0:0:
256,192,221856,1,8,0:0:0:0:
256,192,221900,1,8,0:0:0:0:
256,192,221945,1,0,0:0:0:0:
256,192,222297,1,8,0:0:0:0:
256,192,222650,1,0,0:0:0:0:
256,192,222915,1,0,0:0:0:0:
256,192,223003,1,8,0:0:0:0:
256,192,223092,1,8,0:0:0:0:
256,192,223180,1,8,0:0:0:0:
256,192,223268,1,8,0:0:0:0:
256,192,223356,1,4,0:0:0:0:
256,192,223709,1,8,0:0:0:0:
256,192,224062,1,8,0:0:0:0:
256,192,224327,1,0,0:0:0:0:
256,192,224415,1,8,0:0:0:0:
256,192,224680,1,8,0:0:0:0:
256,192,224724,1,8,0:0:0:0:
256,192,224768,1,0,0:0:0:0:
256,192,225121,1,8,0:0:0:0:
256,192,225474,1,8,0:0:0:0:
256,192,225739,1,0,0:0:0:0:
256,192,225827,1,8,0:0:0:0:
256,192,225915,1,0,0:0:0:0:
256,192,225959,1,0,0:0:0:0:
256,192,226003,1,0,0:0:0:0:
256,192,226180,1,12,0:0:0:0:
256,192,226533,1,8,0:0:0:0:
256,192,226886,1,0,0:0:0:0:
256,192,227150,1,0,0:0:0:0:
256,192,227239,1,8,0:0:0:0:
256,192,227503,1,8,0:0:0:0:
256,192,227547,1,8,0:0:0:0:
256,192,227592,1,0,0:0:0:0:
256,192,227945,1,8,0:0:0:0:
256,192,228297,1,0,0:0:0:0:
256,192,228562,1,0,0:0:0:0:
256,192,228650,1,8,0:0:0:0:
256,192,228739,1,8,0:0:0:0:
256,192,228827,1,8,0:0:0:0:
256,192,228915,1,8,0:0:0:0:
256,192,229003,1,4,0:0:0:0:
256,192,229356,1,8,0:0:0:0:
256,192,229709,1,8,0:0:0:0:
256,192,229974,1,0,0:0:0:0:
256,192,230062,1,8,0:0:0:0:
256,192,230327,1,8,0:0:0:0:
256,192,230371,1,8,0:0:0:0:
256,192,230415,1,8,0:0:0:0:
256,192,230459,1,0,0:0:0:0:
256,192,230680,1,8,0:0:0:0:
256,192,230768,1,0,0:0:0:0:
256,192,230812,1,0,0:0:0:0:
256,192,230945,1,8,0:0:0:0:
256,192,230989,1,0,0:0:0:0:
256,192,231033,1,0,0:0:0:0:
256,192,231209,1,8,0:0:0:0:
256,192,231474,1,8,0:0:0:0:
256,192,231562,1,8,0:0:0:0:
256,192,231650,1,0,0:0:0:0:
256,192,231739,1,0,0:0:0:0:
256,192,231827,1,12,0:0:0:0:
256,192,232180,1,8,0:0:0:0:
256,192,232533,1,0,0:0:0:0:
256,192,232797,1,0,0:0:0:0:
256,192,232886,1,8,0:0:0:0:
256,192,233150,1,8,0:0:0:0:
256,192,233195,1,8,0:0:0:0:
256,192,233239,1,0,0:0:0:0:
256,192,233592,1,8,0:0:0:0:
256,192,233945,1,0,0:0:0:0:
256,192,234209,1,0,0:0:0:0:
256,192,234297,1,8,0:0:0:0:
256,192,234386,1,8,0:0:0:0:
256,192,234474,1,8,0:0:0:0:
256,192,234562,1,8,0:0:0:0:
256,192,234650,1,4,0:0:0:0:
256,192,235003,1,8,0:0:0:0:
256,192,235356,1,8,0:0:0:0:
256,192,235621,1,0,0:0:0:0:
256,192,235709,1,8,0:0:0:0:
256,192,235974,1,8,0:0:0:0:
256,192,236018,1,8,0:0:0:0:
256,192,236062,1,0,0:0:0:0:
256,192,236415,1,8,0:0:0:0:
256,192,236768,1,8,0:0:0:0:
256,192,237033,1,0,0:0:0:0:
256,192,237121,1,8,0:0:0:0:
256,192,237209,1,0,0:0:0:0:
256,192,237253,1,0,0:0:0:0:
256,192,237297,1,0,0:0:0:0:
256,192,237474,1,12,0:0:0:0:
256,192,237827,1,8,0:0:0:0:
256,192,238180,1,0,0:0:0:0:
256,192,238445,1,0,0:0:0:0:
256,192,238533,1,8,0:0:0:0:
256,192,238797,1,8,0:0:0:0:
256,192,238842,1,8,0:0:0:0:
256,192,238886,1,0,0:0:0:0:
256,192,239239,1,8,0:0:0:0:
256,192,239592,1,0,0:0:0:0:
256,192,239856,1,0,0:0:0:0:
256,192,239945,1,8,0:0:0:0:
256,192,240033,1,8,0:0:0:0:
256,192,240121,1,8,0:0:0:0:
256,192,240209,1,8,0:0:0:0:
256,192,240297,1,4,0:0:0:0:
256,192,240650,1,8,0:0:0:0:
256,192,241003,1,8,0:0:0:0:
256,192,241268,1,0,0:0:0:0:
256,192,241356,1,8,0:0:0:0:
256,192,241621,1,8,0:0:0:0:
256,192,241665,1,8,0:0:0:0:
256,192,241709,1,8,0:0:0:0:
256,192,241753,1,0,0:0:0:0:
256,192,241974,1,8,0:0:0:0:
256,192,242062,1,0,0:0:0:0:
256,192,242106,1,0,0:0:0:0:
256,192,242239,1,8,0:0:0:0:
256,192,242327,1,0,0:0:0:0:
256,192,242371,1,0,0:0:0:0:
256,192,242503,1,8,0:0:0:0:
256,192,242592,1,0,0:0:0:0:
256,192,242636,1,0,0:0:0:0:
256,192,242768,1,8,0:0:0:0:
256,192,242856,1,8,0:0:0:0:
256,192,242945,1,8,0:0:0:0:
256,192,243033,1,8,0:0:0:0:
256,192,243121,1,4,0:0:0:0:
256,192,243209,12,0,247356,0:0:0:0:
