osu file format v14

[General]
AudioFilename: audio.mp3
AudioLeadIn: 0
PreviewTime: 78964
Countdown: 0
SampleSet: Normal
StackLeniency: 0.7
Mode: 1
LetterboxInBreaks: 0
WidescreenStoryboard: 0

[Editor]
Bookmarks: 141479,152773,164067
DistanceSpacing: 0.9
BeatDivisor: 4
GridSize: 32
TimelineZoom: 1.7

[Metadata]
Title:sha
TitleUnicode:sha
Artist:sakuraburst
ArtistUnicode:sakuraburst
Creator:Faputa
Version:Muzukashii
Source:osu!
Tags:[Zeth] featured artist anticrystal EP neurofunk
BeatmapID:1815764
BeatmapSetID:866694

[Difficulty]
HPDrainRate:6
CircleSize:2
OverallDifficulty:5.5
ApproachRate:10
SliderMultiplier:1.4
SliderTickRate:1

[Events]
//Background and Video events
0,0,"nofurro.jpg",0,-80
//Break Periods
2,498,5495
2,6145,10083
2,11792,16789
2,17439,21024
2,113439,118436
2,119086,129730
//Storyboard Layer 0 (Background)
//Storyboard Layer 1 (Fail)
//Storyboard Layer 2 (Pass)
//Storyboard Layer 3 (Foreground)
//Storyboard Sound Samples

[TimingPoints]
298,352.941176470588,4,1,0,100,1,0
474,-100,4,1,0,50,0,0
11503,-100,4,1,0,100,0,0
11768,-100,4,1,0,50,0,0
22797,-100,4,1,0,80,0,0
23062,-100,4,1,0,30,0,0
34180,-100,4,1,0,80,0,0
34356,-100,4,1,0,50,0,0
45474,-100,4,1,0,80,0,1
56415,-100,4,1,0,80,0,0
56768,-100,4,1,0,80,0,1
66650,-100,4,1,0,80,0,0
79356,-100,4,1,0,80,0,1
89239,-100,4,1,0,80,0,0
130356,-100,4,1,0,30,0,0
141386,-100,4,1,0,80,0,0
141650,-100,4,1,0,30,0,0
147033,-100,4,1,0,80,0,0
147297,-100,4,1,0,30,0,0
152680,-100,4,1,0,70,0,0
163974,-100,4,1,0,80,0,0
175356,-100,4,1,0,80,0,1
196533,-100,4,1,0,80,0,0
209239,-100,4,1,0,80,0,1
219121,-100,4,1,0,80,0,0
243209,-100,4,1,0,30,0,0

[HitObjects]
256,192,298,5,4,0:0:0:0:
256,192,5945,5,0,0:0:0:0:
256,192,10533,12,0,11415,0:0:0:0:
256,192,11592,5,4,0:0:0:0:
256,192,17239,5,0,0:0:0:0:
256,192,21474,12,0,22180,0:0:0:0:
256,192,22356,5,8,0:0:0:0:
256,192,22533,1,0,0:0:0:0:
256,192,22886,1,4,0:0:0:0:
256,192,23239,1,8,0:0:0:0:
256,192,23415,1,8,0:0:0:0:
256,192,23592,1,0,0:0:0:0:
256,192,23856,1,0,0:0:0:0:
256,192,24121,1,8,0:0:0:0:
256,192,24297,1,0,0:0:0:0:
256,192,24562,1,0,0:0:0:0:
256,192,24827,1,8,0:0:0:0:
256,192,25003,1,0,0:0:0:0:
256,192,25356,1,0,0:0:0:0:
256,192,25445,1,0,0:0:0:0:
256,192,25533,1,0,0:0:0:0:
256,192,25709,1,12,0:0:0:0:
256,192,26062,1,8,0:0:0:0:
256,192,26239,1,8,0:0:0:0:
256,192,26415,1,0,0:0:0:0:
256,192,26680,1,8,0:0:0:0:
256,192,26945,1,0,0:0:0:0:
256,192,27121,1,8,0:0:0:0:
256,192,27386,1,0,0:0:0:0:
256,192,27650,1,8,0:0:0:0:
256,192,27827,1,0,0:0:0:0:
256,192,28180,1,0,0:0:0:0:
256,192,28268,1,0,0:0:0:0:
256,192,28356,1,0,0:0:0:0:
256,192,28533,1,12,0:0:0:0:
256,192,28886,1,8,0:0:0:0:
256,192,29062,1,8,0:0:0:0:
256,192,29239,1,0,0:0:0:0:
256,192,29503,1,8,0:0:0:0:
256,192,29768,1,8,0:0:0:0:
256,192,29945,1,0,0:0:0:0:
256,192,30209,1,8,0:0:0:0:
256,192,30474,1,8,0:0:0:0:
256,192,30650,1,0,0:0:0:0:
256,192,31003,1,0,0:0:0:0:
256,192,31092,1,0,0:0:0:0:
256,192,31180,1,0,0:0:0:0:
256,192,31356,1,12,0:0:0:0:
256,192,31709,1,8,0:0:0:0:
256,192,31886,1,0,0:0:0:0:
256,192,32062,1,8,0:0:0:0:
256,192,32327,1,8,0:0:0:0:
256,192,32592,1,8,0:0:0:0:
256,192,32768,1,0,0:0:0:0:
256,192,33033,1,8,0:0:0:0:
256,192,33297,1,8,0:0:0:0:
256,192,33474,1,0,0:0:0:0:
256,192,33827,1,0,0:0:0:0:
262,192,33915,1,0,0:0:0:0:
256,192,34003,1,0,0:0:0:0:
256,192,34180,1,12,0:0:0:0:
256,192,34533,1,0,0:0:0:0:
256,192,34709,1,8,0:0:0:0:
256,192,34886,1,0,0:0:0:0:
256,192,35150,1,8,0:0:0:0:
256,192,35415,1,0,0:0:0:0:
256,192,35592,1,0,0:0:0:0:
256,192,35856,1,8,0:0:0:0:
256,192,36121,1,0,0:0:0:0:
256,192,36297,1,0,0:0:0:0:
256,192,36650,1,8,0:0:0:0:
256,192,36739,1,8,0:0:0:0:
256,192,36827,1,8,0:0:0:0:
256,192,37003,1,12,0:0:0:0:
256,192,37356,1,0,0:0:0:0:
256,192,37533,1,8,0:0:0:0:
256,192,37709,1,0,0:0:0:0:
256,192,37974,1,8,0:0:0:0:
256,192,38239,1,0,0:0:0:0:
256,192,38415,1,0,0:0:0:0:
256,192,38680,1,8,0:0:0:0:
256,192,38945,1,0,0:0:0:0:
256,192,39121,1,8,0:0:0:0:
256,192,39474,1,8,0:0:0:0:
256,192,39562,1,8,0:0:0:0:
256,192,39650,1,8,0:0:0:0:
256,192,39827,1,12,0:0:0:0:
256,192,40180,1,8,0:0:0:0:
256,192,40356,1,0,0:0:0:0:
256,192,40533,1,0,0:0:0:0:
256,192,40797,1,8,0:0:0:0:
256,192,41062,1,0,0:0:0:0:
256,192,41239,1,0,0:0:0:0:
256,192,41503,1,8,0:0:0:0:
256,192,41768,1,8,0:0:0:0:
256,192,41945,1,0,0:0:0:0:
256,192,42297,1,8,0:0:0:0:
256,192,42386,1,8,0:0:0:0:
256,192,42474,1,8,0:0:0:0:
256,192,42650,1,0,0:0:0:0:
256,192,42827,1,8,0:0:0:0:
256,192,43003,1,8,0:0:0:0:
256,192,43180,1,0,0:0:0:0:
256,192,43268,1,0,0:0:0:0:
256,192,43356,1,0,0:0:0:0:
256,192,43533,1,8,0:0:0:0:
256,192,43709,1,8,0:0:0:0:
256,192,43886,1,0,0:0:0:0:
256,192,43974,1,0,0:0:0:0:
256,192,44062,1,0,0:0:0:0:
256,192,44768,1,8,0:0:0:0:
256,192,44945,1,0,0:0:0:0:
256,192,45033,1,0,0:0:0:0:
256,192,45121,1,0,0:0:0:0:
256,192,45474,1,12,0:0:0:0:
256,192,46003,1,0,0:0:0:0:
256,192,46268,1,0,0:0:0:0:
256,192,46445,1,8,0:0:0:0:
256,192,46533,1,8,0:0:0:0:
256,192,46886,1,0,0:0:0:0:
256,192,47239,1,8,0:0:0:0:
256,192,47415,1,0,0:0:0:0:
256,192,47680,1,0,0:0:0:0:
256,192,47856,1,8,0:0:0:0:
256,192,47945,1,8,0:0:0:0:
256,192,48297,1,4,0:0:0:0:
256,192,48562,1,0,0:0:0:0:
256,192,48650,1,8,0:0:0:0:
256,192,48827,1,0,0:0:0:0:
256,192,49092,1,0,0:0:0:0:
256,192,49268,1,8,0:0:0:0:
256,192,49356,1,8,0:0:0:0:
256,192,49709,1,0,0:0:0:0:
256,192,50062,1,8,0:0:0:0:
256,192,50239,1,0,0:0:0:0:
256,192,50503,1,0,0:0:0:0:
256,192,50680,1,8,0:0:0:0:
256,192,50768,1,8,0:0:0:0:
256,192,50945,1,0,0:0:0:0:
256,192,51121,1,12,0:0:0:0:
256,192,51650,1,0,0:0:0:0:
256,192,51915,1,8,0:0:0:0:
256,192,52092,1,8,0:0:0:0:
256,192,52180,1,8,0:0:0:0:
256,192,52533,1,0,0:0:0:0:
256,192,52797,1,0,0:0:0:0:
256,192,52886,1,8,0:0:0:0:
256,192,53062,1,0,0:0:0:0:
256,192,53327,1,0,0:0:0:0:
250,198,53503,1,8,0:0:0:0:
256,192,53592,1,8,0:0:0:0:
256,192,53945,1,4,0:0:0:0:
256,192,54209,1,0,0:0:0:0:
256,192,54297,1,8,0:0:0:0:
256,192,54474,1,0,0:0:0:0:
256,192,54739,1,8,0:0:0:0:
264,193,54915,1,8,0:0:0:0:
256,192,55003,1,8,0:0:0:0:
256,192,55356,1,0,0:0:0:0:
256,192,55621,1,0,0:0:0:0:
256,192,55709,1,8,0:0:0:0:
256,192,55886,1,0,0:0:0:0:
256,192,56150,1,8,0:0:0:0:
264,193,56327,1,0,0:0:0:0:
256,192,56415,1,0,0:0:0:0:
256,192,56768,1,4,0:0:0:0:
256,192,57297,1,0,0:0:0:0:
256,192,57562,1,0,0:0:0:0:
262,192,57739,1,8,0:0:0:0:
256,192,57827,1,8,0:0:0:0:
256,192,58180,1,0,0:0:0:0:
256,192,58445,1,0,0:0:0:0:
256,192,58533,1,8,0:0:0:0:
256,192,58709,1,0,0:0:0:0:
256,192,58974,1,8,0:0:0:0:
262,192,59150,1,8,0:0:0:0:
256,192,59239,1,8,0:0:0:0:
256,192,59592,1,4,0:0:0:0:
256,192,59856,1,0,0:0:0:0:
256,192,59945,1,8,0:0:0:0:
256,192,60121,1,8,0:0:0:0:
256,192,60386,1,0,0:0:0:0:
262,192,60562,1,8,0:0:0:0:
256,192,60650,1,8,0:0:0:0:
256,192,61003,1,0,0:0:0:0:
256,192,61268,1,0,0:0:0:0:
256,192,61356,1,8,0:0:0:0:
256,192,61533,1,0,0:0:0:0:
256,192,61797,1,8,0:0:0:0:
256,192,61974,1,0,0:0:0:0:
256,192,62062,1,8,0:0:0:0:
256,192,62415,1,12,0:0:0:0:
256,192,62945,1,0,0:0:0:0:
256,192,63209,1,0,0:0:0:0:
256,192,63386,1,8,0:0:0:0:
256,192,63474,1,8,0:0:0:0:
256,192,63827,1,0,0:0:0:0:
256,192,64092,1,0,0:0:0:0:
256,192,64180,1,8,0:0:0:0:
256,192,64356,1,0,0:0:0:0:
256,192,64621,1,8,0:0:0:0:
256,192,64797,1,8,0:0:0:0:
256,192,64886,1,8,0:0:0:0:
256,192,65239,1,4,0:0:0:0:
256,192,65503,1,0,0:0:0:0:
256,192,65592,1,8,0:0:0:0:
256,192,65768,1,8,0:0:0:0:
256,192,66033,1,0,0:0:0:0:
256,192,66209,1,8,0:0:0:0:
256,192,66297,1,8,0:0:0:0:
256,192,66562,1,8,0:0:0:0:
256,192,66650,1,0,0:0:0:0:
256,192,66915,1,8,0:0:0:0:
256,192,67180,1,8,0:0:0:0:
256,192,67445,1,8,0:0:0:0:
256,192,67709,1,0,0:0:0:0:
256,192,67797,1,0,0:0:0:0:
256,192,67886,1,0,0:0:0:0:
256,192,68062,1,8,0:0:0:0:
256,192,68680,1,8,0:0:0:0:
256,192,69033,1,8,0:0:0:0:
256,192,69386,1,8,0:0:0:0:
256,192,69739,1,8,0:0:0:0:
256,192,70003,1,8,0:0:0:0:
256,192,70268,1,8,0:0:0:0:
256,192,70886,1,8,0:0:0:0:
256,192,71503,1,8,0:0:0:0:
256,192,71856,1,8,0:0:0:0:
256,192,72562,1,8,0:0:0:0:
256,192,72827,1,0,0:0:0:0:
256,192,73092,1,0,0:0:0:0:
256,192,73356,1,0,0:0:0:0:
256,192,73445,1,0,0:0:0:0:
256,192,73533,1,0,0:0:0:0:
256,192,73709,1,8,0:0:0:0:
256,192,74327,1,8,0:0:0:0:
256,192,75033,1,8,0:0:0:0:
256,192,75386,1,8,0:0:0:0:
256,192,75650,1,0,0:0:0:0:
256,192,75915,1,0,0:0:0:0:
256,192,76533,1,8,0:0:0:0:
256,192,77150,1,8,0:0:0:0:
256,192,77856,1,8,0:0:0:0:
256,192,78209,1,8,0:0:0:0:
256,192,78474,1,0,0:0:0:0:
256,192,78739,1,8,0:0:0:0:
256,192,79003,1,8,0:0:0:0:
256,192,79092,1,8,0:0:0:0:
256,192,79180,1,8,0:0:0:0:
256,192,79356,1,4,0:0:0:0:
256,192,79886,1,0,0:0:0:0:
256,192,80150,1,0,0:0:0:0:
261,200,80327,1,8,0:0:0:0:
256,192,80415,1,8,0:0:0:0:
256,192,80768,1,0,0:0:0:0:
256,192,81033,1,0,0:0:0:0:
256,192,81121,1,8,0:0:0:0:
256,192,81297,1,0,0:0:0:0:
256,192,81562,1,8,0:0:0:0:
263,194,81739,1,8,0:0:0:0:
256,192,81827,1,8,0:0:0:0:
256,192,82180,1,4,0:0:0:0:
256,192,82445,1,0,0:0:0:0:
256,192,82533,1,8,0:0:0:0:
256,192,82709,1,8,0:0:0:0:
256,192,82974,1,0,0:0:0:0:
264,194,83150,1,8,0:0:0:0:
256,192,83239,1,8,0:0:0:0:
256,192,83592,1,0,0:0:0:0:
256,192,83856,1,0,0:0:0:0:
256,192,83945,1,8,0:0:0:0:
256,192,84121,1,0,0:0:0:0:
256,192,84386,1,8,0:0:0:0:
256,192,84562,1,0,0:0:0:0:
256,192,84650,1,8,0:0:0:0:
256,192,85003,1,12,0:0:0:0:
256,192,85533,1,0,0:0:0:0:
256,192,85797,1,0,0:0:0:0:
264,194,85974,1,8,0:0:0:0:
256,192,86062,1,8,0:0:0:0:
256,192,86415,1,0,0:0:0:0:
256,192,86680,1,0,0:0:0:0:
256,192,86768,1,8,0:0:0:0:
256,192,86945,1,0,0:0:0:0:
256,192,87209,1,8,0:0:0:0:
256,192,87474,1,8,0:0:0:0:
256,192,87827,1,4,0:0:0:0:
256,192,88092,1,0,0:0:0:0:
256,192,88180,1,8,0:0:0:0:
256,192,88356,1,8,0:0:0:0:
256,192,88621,1,0,0:0:0:0:
264,194,88797,1,8,0:0:0:0:
256,192,88886,1,8,0:0:0:0:
256,192,89150,1,8,0:0:0:0:
256,192,89239,1,0,0:0:0:0:
256,192,89503,1,8,0:0:0:0:
256,192,89768,1,8,0:0:0:0:
256,192,90033,1,8,0:0:0:0:
256,192,90297,1,12,0:0:0:0:
256,192,90650,1,4,0:0:0:0:
256,192,91356,1,0,0:0:0:0:
256,192,91621,1,8,0:0:0:0:
256,192,92062,1,0,0:0:0:0:
256,192,92415,1,8,0:0:0:0:
256,192,92768,1,0,0:0:0:0:
256,192,93121,1,8,0:0:0:0:
256,192,93297,1,0,0:0:0:0:
256,192,93474,1,4,0:0:0:0:
256,192,94180,1,8,0:0:0:0:
256,192,94445,1,0,0:0:0:0:
256,192,94886,1,0,0:0:0:0:
256,192,95239,1,8,0:0:0:0:
256,192,95592,1,8,0:0:0:0:
256,192,95945,1,0,0:0:0:0:
256,192,96121,1,8,0:0:0:0:
256,192,96297,1,12,0:0:0:0:
256,192,97003,1,0,0:0:0:0:
256,192,97268,1,8,0:0:0:0:
256,192,97709,1,0,0:0:0:0:
256,192,98062,1,8,0:0:0:0:
256,192,98415,1,0,0:0:0:0:
256,192,98768,1,8,0:0:0:0:
256,192,98945,1,0,0:0:0:0:
256,192,99121,1,4,0:0:0:0:
256,192,99827,1,8,0:0:0:0:
256,192,100092,1,0,0:0:0:0:
256,192,100533,1,0,0:0:0:0:
256,192,100797,1,8,0:0:0:0:
256,192,101062,1,8,0:0:0:0:
256,192,101327,1,8,0:0:0:0:
256,192,101592,1,0,0:0:0:0:
256,192,101680,1,0,0:0:0:0:
256,192,101768,1,0,0:0:0:0:
256,192,101945,1,12,0:0:0:0:
256,192,102650,1,0,0:0:0:0:
256,192,102915,1,8,0:0:0:0:
256,192,103356,1,0,0:0:0:0:
256,192,103709,1,8,0:0:0:0:
256,192,104062,1,0,0:0:0:0:
256,192,104415,1,8,0:0:0:0:
256,192,104592,1,0,0:0:0:0:
256,192,104768,1,4,0:0:0:0:
256,192,105474,1,8,0:0:0:0:
256,192,105739,1,0,0:0:0:0:
256,192,106180,1,0,0:0:0:0:
256,192,106533,1,8,0:0:0:0:
256,192,106886,1,0,0:0:0:0:
256,192,107239,1,8,0:0:0:0:
256,192,107415,1,8,0:0:0:0:
256,192,107592,1,12,0:0:0:0:
256,192,108297,1,0,0:0:0:0:
256,192,108562,1,8,0:0:0:0:
256,192,109003,1,0,0:0:0:0:
256,192,109356,1,8,0:0:0:0:
256,192,109709,1,0,0:0:0:0:
256,192,110062,1,8,0:0:0:0:
256,192,110239,1,0,0:0:0:0:
256,192,110415,1,4,0:0:0:0:
256,192,111121,1,8,0:0:0:0:
256,192,111386,1,0,0:0:0:0:
256,192,111827,1,0,0:0:0:0:
256,192,112092,1,8,0:0:0:0:
256,192,112356,1,8,0:0:0:0:
256,192,112621,1,8,0:0:0:0:
256,192,112886,1,12,0:0:0:0:
256,192,113239,1,4,0:0:0:0:
256,192,118886,5,4,0:0:0:0:
256,192,130180,5,4,0:0:0:0:
256,192,131592,1,8,0:0:0:0:
256,192,132650,1,0,0:0:0:0:
256,192,133003,1,8,0:0:0:0:
256,192,134415,1,8,0:0:0:0:
256,192,135474,1,0,0:0:0:0:
256,192,135827,1,8,0:0:0:0:
256,192,137239,1,8,0:0:0:0:
256,192,138297,1,0,0:0:0:0:
256,192,138650,1,8,0:0:0:0:
256,192,139709,1,0,0:0:0:0:
256,192,140062,1,12,0:0:0:0:
256,192,140239,8,0,141297,0:0:0:0:
256,192,141474,5,4,0:0:0:0:
256,192,142180,1,0,0:0:0:0:
256,192,142533,1,0,0:0:0:0:
256,192,142886,1,8,0:0:0:0:
256,192,144297,1,8,0:0:0:0:
256,192,145709,1,8,0:0:0:0:
256,192,146415,1,8,0:0:0:0:
256,192,147121,1,4,0:0:0:0:
256,192,147827,1,0,0:0:0:0:
256,192,148180,1,0,0:0:0:0:
256,192,148533,1,0,0:0:0:0:
256,192,149945,1,8,0:0:0:0:
256,192,151356,1,8,0:0:0:0:
256,192,152239,1,0,0:0:0:0:
256,192,152327,1,0,0:0:0:0:
256,192,152415,1,0,0:0:0:0:
256,192,152768,1,4,0:0:0:0:
256,192,153121,1,0,0:0:0:0:
256,192,153297,1,8,0:0:0:0:
256,192,153386,1,8,0:0:0:0:
256,192,153650,1,0,0:0:0:0:
256,192,154003,1,0,0:0:0:0:
256,192,154180,1,0,0:0:0:0:
256,192,155592,1,0,0:0:0:0:
256,192,155945,1,8,0:0:0:0:
256,192,156121,1,0,0:0:0:0:
256,192,156474,1,8,0:0:0:0:
256,192,156827,1,0,0:0:0:0:
256,192,157003,1,0,0:0:0:0:
256,192,158415,1,4,0:0:0:0:
256,192,158768,1,0,0:0:0:0:
256,192,158945,1,8,0:0:0:0:
256,192,159033,1,8,0:0:0:0:
256,192,159297,1,0,0:0:0:0:
256,192,159650,1,0,0:0:0:0:
256,192,159827,1,0,0:0:0:0:
256,192,161239,1,0,0:0:0:0:
256,192,161592,1,8,0:0:0:0:
256,192,161768,1,0,0:0:0:0:
256,192,161856,1,0,0:0:0:0:
256,192,162121,1,8,0:0:0:0:
256,192,162474,1,0,0:0:0:0:
256,192,162650,1,0,0:0:0:0:
256,192,164062,1,4,0:0:0:0:
256,192,164415,1,8,0:0:0:0:
256,192,164592,1,8,0:0:0:0:
256,192,164768,1,0,0:0:0:0:
256,192,165121,1,8,0:0:0:0:
256,192,165474,1,0,0:0:0:0:
256,192,165827,1,0,0:0:0:0:
256,192,166003,1,8,0:0:0:0:
256,192,166180,1,8,0:0:0:0:
256,192,166445,1,8,0:0:0:0:
256,192,166709,1,8,0:0:0:0:
256,192,166886,1,0,0:0:0:0:
256,192,167239,1,8,0:0:0:0:
256,192,167415,1,0,0:0:0:0:
256,192,167592,1,0,0:0:0:0:
256,192,167945,1,8,0:0:0:0:
256,192,168297,1,0,0:0:0:0:
224,192,168650,1,0,0:0:0:0:
256,192,168827,1,8,0:0:0:0:
256,192,169003,1,0,0:0:0:0:
256,192,169356,1,8,0:0:0:0:
256,192,169709,1,0,0:0:0:0:
256,192,170062,1,0,0:0:0:0:
256,192,170239,1,8,0:0:0:0:
256,192,170415,1,0,0:0:0:0:
256,192,170768,1,0,0:0:0:0:
256,192,171121,1,8,0:0:0:0:
256,192,171297,1,0,0:0:0:0:
256,192,171474,1,8,0:0:0:0:
256,192,171650,1,0,0:0:0:0:
256,192,171827,1,8,0:0:0:0:
256,192,172180,1,8,0:0:0:0:
256,192,172533,1,8,0:0:0:0:
256,192,172709,1,0,0:0:0:0:
256,192,172886,1,8,0:0:0:0:
256,192,173062,1,8,0:0:0:0:
256,192,173239,1,0,0:0:0:0:
256,192,173327,1,0,0:0:0:0:
256,192,173415,1,0,0:0:0:0:
256,192,173592,1,8,0:0:0:0:
256,192,173768,1,0,0:0:0:0:
256,192,173856,1,0,0:0:0:0:
256,192,173945,1,0,0:0:0:0:
256,192,174650,1,8,0:0:0:0:
256,192,174827,1,0,0:0:0:0:
256,192,174915,1,0,0:0:0:0:
256,192,175003,1,0,0:0:0:0:
256,192,175356,1,12,0:0:0:0:
256,192,175886,1,0,0:0:0:0:
256,192,176150,1,0,0:0:0:0:
252,184,176327,1,8,0:0:0:0:
256,192,176415,1,8,0:0:0:0:
256,192,176768,1,0,0:0:0:0:
256,192,177121,1,8,0:0:0:0:
256,192,177297,1,0,0:0:0:0:
256,192,177562,1,0,0:0:0:0:
256,192,177739,1,8,0:0:0:0:
256,192,177827,1,8,0:0:0:0:
256,192,178180,1,4,0:0:0:0:
256,192,178445,1,0,0:0:0:0:
256,192,178533,1,8,0:0:0:0:
256,192,178709,1,0,0:0:0:0:
256,192,178974,1,0,0:0:0:0:
256,192,179150,1,8,0:0:0:0:
256,192,179239,1,8,0:0:0:0:
256,192,179592,1,0,0:0:0:0:
256,192,179945,1,8,0:0:0:0:
256,192,180121,1,0,0:0:0:0:
256,192,180386,1,0,0:0:0:0:
256,192,180562,1,8,0:0:0:0:
256,192,180650,1,8,0:0:0:0:
256,192,180827,1,0,0:0:0:0:
256,192,181003,1,12,0:0:0:0:
256,192,181533,1,0,0:0:0:0:
256,192,181797,1,8,0:0:0:0:
256,192,181974,1,8,0:0:0:0:
256,192,182062,1,8,0:0:0:0:
256,192,182415,1,0,0:0:0:0:
256,192,182680,1,0,0:0:0:0:
256,192,182768,1,8,0:0:0:0:
256,192,182945,1,0,0:0:0:0:
256,192,183209,1,0,0:0:0:0:
256,192,183386,1,8,0:0:0:0:
256,192,183474,1,8,0:0:0:0:
256,192,183827,1,4,0:0:0:0:
256,192,184092,1,0,0:0:0:0:
256,192,184180,1,8,0:0:0:0:
256,192,184356,1,0,0:0:0:0:
256,192,184621,1,8,0:0:0:0:
256,192,184797,1,8,0:0:0:0:
256,192,184886,1,8,0:0:0:0:
256,192,185239,1,0,0:0:0:0:
256,192,185503,1,0,0:0:0:0:
256,192,185592,1,8,0:0:0:0:
256,192,185768,1,0,0:0:0:0:
256,192,186033,1,8,0:0:0:0:
256,192,186209,1,0,0:0:0:0:
256,192,186297,1,0,0:0:0:0:
256,192,186650,1,4,0:0:0:0:
256,192,187180,1,0,0:0:0:0:
256,192,187445,1,0,0:0:0:0:
260,186,187621,1,8,0:0:0:0:
256,192,187709,1,8,0:0:0:0:
256,192,188062,1,0,0:0:0:0:
256,192,188327,1,0,0:0:0:0:
256,192,188415,1,8,0:0:0:0:
256,192,188592,1,0,0:0:0:0:
256,192,188856,1,8,0:0:0:0:
260,186,189033,1,8,0:0:0:0:
256,192,189121,1,8,0:0:0:0:
256,192,189474,1,4,0:0:0:0:
256,192,189739,1,0,0:0:0:0:
256,192,189827,1,8,0:0:0:0:
256,192,190003,1,8,0:0:0:0:
256,192,190268,1,0,0:0:0:0:
260,186,190445,1,8,0:0:0:0:
256,192,190533,1,8,0:0:0:0:
256,192,190886,1,0,0:0:0:0:
256,192,191150,1,0,0:0:0:0:
256,192,191239,1,8,0:0:0:0:
256,192,191415,1,0,0:0:0:0:
256,192,191680,1,8,0:0:0:0:
256,192,191856,1,0,0:0:0:0:
256,192,191945,1,8,0:0:0:0:
256,192,192297,1,12,0:0:0:0:
256,192,192827,1,0,0:0:0:0:
256,192,193092,1,0,0:0:0:0:
260,186,193268,1,8,0:0:0:0:
256,192,193356,1,8,0:0:0:0:
256,192,193709,1,0,0:0:0:0:
256,192,193974,1,0,0:0:0:0:
256,192,194062,1,8,0:0:0:0:
256,192,194239,1,0,0:0:0:0:
256,192,194503,1,8,0:0:0:0:
260,186,194680,1,8,0:0:0:0:
256,192,194768,1,8,0:0:0:0:
256,192,195121,1,4,0:0:0:0:
256,192,195386,1,0,0:0:0:0:
256,192,195474,1,8,0:0:0:0:
256,192,195650,1,8,0:0:0:0:
256,192,195915,1,0,0:0:0:0:
260,186,196092,1,8,0:0:0:0:
256,192,196180,1,8,0:0:0:0:
256,192,196445,1,8,0:0:0:0:
256,192,196533,1,0,0:0:0:0:
256,192,196797,1,8,0:0:0:0:
256,192,197062,1,8,0:0:0:0:
256,192,197327,1,8,0:0:0:0:
256,192,197592,1,0,0:0:0:0:
256,192,197680,1,0,0:0:0:0:
256,192,197768,1,0,0:0:0:0:
256,192,197945,1,8,0:0:0:0:
256,192,198562,1,8,0:0:0:0:
256,192,198915,1,8,0:0:0:0:
256,192,199268,1,8,0:0:0:0:
256,192,199621,1,8,0:0:0:0:
256,192,199886,1,8,0:0:0:0:
256,192,200150,1,8,0:0:0:0:
256,192,200768,1,8,0:0:0:0:
256,192,201386,1,8,0:0:0:0:
256,192,201739,1,8,0:0:0:0:
256,192,202445,1,8,0:0:0:0:
256,192,202709,1,0,0:0:0:0:
256,192,202974,1,0,0:0:0:0:
256,192,203239,1,0,0:0:0:0:
256,192,203327,1,0,0:0:0:0:
256,192,203415,1,0,0:0:0:0:
256,192,203592,1,8,0:0:0:0:
256,192,204209,1,8,0:0:0:0:
256,192,204915,1,8,0:0:0:0:
256,192,205268,1,8,0:0:0:0:
256,192,205533,1,0,0:0:0:0:
256,192,205797,1,0,0:0:0:0:
256,192,206415,1,8,0:0:0:0:
256,192,207033,1,8,0:0:0:0:
256,192,207739,1,8,0:0:0:0:
256,192,208092,1,8,0:0:0:0:
256,192,208356,1,0,0:0:0:0:
256,192,208621,1,8,0:0:0:0:
256,192,208886,1,8,0:0:0:0:
256,192,208974,1,8,0:0:0:0:
256,192,209062,1,8,0:0:0:0:
256,192,209239,1,4,0:0:0:0:
256,192,209768,1,0,0:0:0:0:
256,192,210033,1,0,0:0:0:0:
264,184,210209,1,8,0:0:0:0:
256,192,210297,1,8,0:0:0:0:
256,192,210650,1,0,0:0:0:0:
256,192,210915,1,0,0:0:0:0:
256,192,211003,1,8,0:0:0:0:
256,192,211180,1,0,0:0:0:0:
256,192,211445,1,8,0:0:0:0:
256,192,211621,1,8,0:0:0:0:
256,192,211709,1,8,0:0:0:0:
256,192,212062,1,4,0:0:0:0:
256,192,212327,1,0,0:0:0:0:
256,192,212415,1,8,0:0:0:0:
256,192,212592,1,8,0:0:0:0:
256,192,212856,1,0,0:0:0:0:
256,192,213033,1,8,0:0:0:0:
256,192,213121,1,8,0:0:0:0:
256,192,213474,1,0,0:0:0:0:
256,192,213739,1,0,0:0:0:0:
256,192,213827,1,8,0:0:0:0:
256,192,214003,1,0,0:0:0:0:
256,192,214268,1,8,0:0:0:0:
256,192,214445,1,0,0:0:0:0:
256,192,214533,1,8,0:0:0:0:
256,192,214886,1,12,0:0:0:0:
256,192,215415,1,0,0:0:0:0:
256,192,215680,1,0,0:0:0:0:
256,192,215856,1,8,0:0:0:0:
256,192,215945,1,8,0:0:0:0:
256,192,216297,1,0,0:0:0:0:
256,192,216562,1,0,0:0:0:0:
256,192,216650,1,8,0:0:0:0:
256,192,216827,1,0,0:0:0:0:
256,192,217092,1,8,0:0:0:0:
256,192,217268,1,8,0:0:0:0:
256,192,217356,1,8,0:0:0:0:
256,192,217709,1,4,0:0:0:0:
256,192,217974,1,0,0:0:0:0:
256,192,218062,1,8,0:0:0:0:
256,192,218239,1,8,0:0:0:0:
256,192,218503,1,0,0:0:0:0:
256,192,218680,1,8,0:0:0:0:
256,192,218768,1,8,0:0:0:0:
256,192,219033,1,8,0:0:0:0:
256,192,219121,1,0,0:0:0:0:
256,192,219386,1,8,0:0:0:0:
256,192,219650,1,8,0:0:0:0:
256,192,219915,1,8,0:0:0:0:
256,192,220180,1,12,0:0:0:0:
256,192,220533,1,4,0:0:0:0:
256,192,221239,1,0,0:0:0:0:
256,192,221503,1,8,0:0:0:0:
256,192,221945,1,0,0:0:0:0:
256,192,222297,1,8,0:0:0:0:
256,192,222650,1,0,0:0:0:0:
256,192,223003,1,8,0:0:0:0:
256,192,223180,1,0,0:0:0:0:
256,192,223356,1,4,0:0:0:0:
256,192,224062,1,8,0:0:0:0:
256,192,224327,1,0,0:0:0:0:
256,192,224768,1,0,0:0:0:0:
256,192,225121,1,8,0:0:0:0:
256,192,225474,1,8,0:0:0:0:
256,192,225827,1,0,0:0:0:0:
256,192,226003,1,8,0:0:0:0:
256,192,226180,1,12,0:0:0:0:
256,192,226886,1,0,0:0:0:0:
256,192,227150,1,8,0:0:0:0:
256,192,227592,1,0,0:0:0:0:
256,192,227945,1,8,0:0:0:0:
256,192,228297,1,0,0:0:0:0:
256,192,228650,1,8,0:0:0:0:
256,192,228827,1,0,0:0:0:0:
256,192,229003,1,4,0:0:0:0:
256,192,229709,1,8,0:0:0:0:
256,192,229974,1,0,0:0:0:0:
256,192,230415,1,0,0:0:0:0:
256,192,230680,1,8,0:0:0:0:
256,192,230945,1,8,0:0:0:0:
256,192,231209,1,8,0:0:0:0:
256,192,231474,1,0,0:0:0:0:
256,192,231562,1,0,0:0:0:0:
256,192,231650,1,0,0:0:0:0:
256,192,231827,1,12,0:0:0:0:
256,192,232533,1,0,0:0:0:0:
256,192,232797,1,8,0:0:0:0:
256,192,233239,1,0,0:0:0:0:
256,192,233592,1,8,0:0:0:0:
256,192,233945,1,0,0:0:0:0:
256,192,234297,1,8,0:0:0:0:
256,192,234474,1,0,0:0:0:0:
256,192,234650,1,4,0:0:0:0:
256,192,235356,1,8,0:0:0:0:
256,192,235621,1,0,0:0:0:0:
256,192,236062,1,0,0:0:0:0:
256,192,236415,1,8,0:0:0:0:
256,192,236768,1,0,0:0:0:0:
256,192,237121,1,8,0:0:0:0:
256,192,237297,1,8,0:0:0:0:
256,192,237474,1,12,0:0:0:0:
256,192,238180,1,0,0:0:0:0:
256,192,238445,1,8,0:0:0:0:
256,192,238886,1,0,0:0:0:0:
256,192,239239,1,8,0:0:0:0:
256,192,239592,1,0,0:0:0:0:
256,192,239945,1,8,0:0:0:0:
256,192,240121,1,0,0:0:0:0:
256,192,240297,1,4,0:0:0:0:
256,192,241003,1,8,0:0:0:0:
256,192,241268,1,0,0:0:0:0:
256,192,241709,1,0,0:0:0:0:
256,192,241974,1,8,0:0:0:0:
256,192,242239,1,8,0:0:0:0:
256,192,242503,1,8,0:0:0:0:
256,192,242768,1,12,0:0:0:0:
256,192,243121,1,4,0:0:0:0:
256,192,243209,8,0,247356,0:0:0:0:
