osu file format v14

[General]
AudioFilename: audio.mp3
AudioLeadIn: 0
PreviewTime: 19287
Countdown: 0
SampleSet: Soft
StackLeniency: 0.3
Mode: 0
LetterboxInBreaks: 0
WidescreenStoryboard: 0

[Editor]
Bookmarks: 15052,19287,30582,41876,53170,64464,75758,106817,109640,120934,132229,143523,154817
DistanceSpacing: 1
BeatDivisor: 4
GridSize: 16
TimelineZoom: 1.78

[Metadata]
Title:serotonin
TitleUnicode:serotonin
Artist:sakuraburst
ArtistUnicode:sakuraburst
Creator:Kawashiro
Version:Normal
Source:osu!
Tags:Deconstructing Nature featured artist Experimental Mapper's Guild mg fa electronic instrumental
BeatmapID:2227245
BeatmapSetID:1063724

[Difficulty]
HPDrainRate:2
CircleSize:4
OverallDifficulty:4
ApproachRate:5
SliderMultiplier:0.8
SliderTickRate:1

[Events]
//Background and Video events
0,0,"BG.png",0,0
//Break Periods
2,64648,74542
2,98530,106801
//Storyboard Layer 0 (Background)
//Storyboard Layer 1 (Fail)
//Storyboard Layer 2 (Pass)
//Storyboard Layer 3 (Foreground)
//Storyboard Layer 4 (Overlay)
//Storyboard Sound Samples

[TimingPoints]
919,352.941176470588,4,2,0,10,1,0
18566,-100,4,2,0,50,0,0
75742,-100,4,2,0,20,0,0
109624,-100,4,2,0,50,0,0
154889,-100,4,2,0,10,0,0
160448,-100,4,2,0,20,0,0

[Colours]
Combo1 : 142,142,255
Combo2 : 188,188,188

[HitObjects]
256,192,15036,12,2,18566,0:3:0:0:
454,324,19271,6,0,L|366:313,1,80,4|0,0:3|0:0,0:0:0:0:
294,305,19977,1,2,1:3:0:0:
294,304,20683,2,0,P|298:227|239:177,1,160,4|2,0:3|1:3,0:0:0:0:
239,177,22095,6,0,L|151:188,1,80,4|0,0:3|0:0,0:0:0:0:
79,196,22801,1,2,1:3:0:0:
79,196,23507,2,0,P|120:226|140:329,1,160,4|2,0:3|1:3,0:0:0:0:
140,328,24918,6,0,L|228:317,1,80,4|0,0:3|0:0,0:0:0:0:
300,309,25624,1,2,1:3:0:0:
300,309,26330,2,0,B|305:239|305:239|320:225|320:225|324:155,1,160,4|2,0:3|1:3,0:0:0:0:
324,155,27742,6,0,L|236:144,1,80,4|0,0:3|0:0,0:0:0:0:
164,136,28448,1,2,1:3:0:0:
164,136,29154,2,0,P|169:116|159:81,2,40,4|4|4,0:3|0:3|0:3,0:0:0:0:
102,187,29860,1,2,1:3:0:0:
102,187,30566,6,0,L|97:270,1,80,0|4,0:0|0:3,0:0:0:0:
92,346,31271,1,2,1:3:0:0:
92,346,31977,2,0,P|110:324|240:308,1,160,4|2,0:3|1:3,0:0:0:0:
232,304,33389,6,0,L|237:221,1,80,4|0,0:3|0:0,0:0:0:0:
242,145,34094,1,2,1:3:0:0:
242,145,34801,2,0,P|304:95|397:107,1,160,4|2,0:3|1:3,0:0:0:0:
380,98,36213,6,0,L|385:181,1,80,4|0,0:3|0:0,0:0:0:0:
390,257,36918,1,2,1:3:0:0:
390,257,37624,2,0,B|352:244|314:267|314:267|277:289|236:276,1,160,4|2,0:3|1:3,0:0:0:0:
236,276,39036,6,0,L|231:193,1,80,4|0,0:3|0:0,0:0:0:0:
276,130,39741,1,2,1:3:0:0:
276,130,40448,2,0,P|259:118|232:117,2,40,4|4|4,0:3|0:3|0:3,0:0:0:0:
345,172,41154,2,0,L|405:163,2,60,2|0|0,1:3|3:0|3:0,0:0:0:0:
324,186,41860,6,0,P|337:218|332:264,1,80,4|0,0:3|0:0,0:0:0:0:
275,318,42566,1,2,1:3:0:0:
275,318,43271,2,0,B|342:312|342:312|365:328|365:328|430:324,1,160,4|2,0:3|1:3,0:0:0:0:
430,324,44683,6,0,P|417:292|422:246,1,80,4|0,0:3|0:0,0:0:0:0:
446,171,45389,1,2,1:3:0:0:
446,171,46095,2,0,B|416:182|382:174|382:174|359:158|359:158|327:149|294:163,1,160,4|2,0:3|1:3,0:0:0:0:
294,163,47507,6,0,P|262:176|216:171,1,80,4|0,0:3|0:0,0:0:0:0:
147,134,48213,1,2,1:3:0:0:
147,134,48918,2,0,L|145:295,1,160,4|2,0:3|1:3,0:0:0:0:
146,293,50330,6,0,P|177:309|223:309,1,80,4|0,0:3|0:0,0:0:0:0:
288,264,51036,1,2,1:3:0:0:
288,264,51742,2,0,L|291:215,2,40,4|4|4,0:3|0:3|0:3,0:0:0:0:
282,343,52448,1,2,1:3:0:0:
282,343,53154,6,0,P|248:359|204:353,1,80,0|4,0:0|0:3,0:0:0:0:
136,318,53860,1,2,1:3:0:0:
136,318,54566,2,0,L|130:149,1,160,4|2,0:3|1:3,0:0:0:0:
131,158,55977,6,0,P|165:174|209:168,1,80,4|0,0:3|0:0,0:0:0:0:
277,133,56683,1,2,1:3:0:0:
277,133,57389,2,0,L|441:124,1,160,4|2,0:3|1:3,0:0:0:0:
437,124,58801,6,0,P|421:158|427:202,1,80,4|0,0:3|0:0,0:0:0:0:
462,270,59507,1,2,1:3:0:0:
462,270,60213,2,0,B|377:273|377:273|333:278|329:320,1,160,4|2,0:3|1:3,0:0:0:0:
329,320,61624,6,0,P|306:290|302:246,1,80,4|0,0:3|0:0,0:0:0:0:
321,172,62330,1,2,1:3:0:0:
321,172,63036,2,0,L|314:119,2,40,4|4|4,3:0|3:0|3:0,0:0:0:0:
394,206,63742,2,0,P|431:194|466:198,2,60,2|0|0,1:3|3:0|3:0,0:0:0:0:
383,223,64448,1,4,0:1:0:0:
33,353,75742,6,0,L|25:300,1,40,2|2,0:0|0:0,0:0:0:0:
27,313,78213,1,2,0:0:0:0:
27,313,80683,1,2,0:0:0:0:
27,313,81389,6,0,L|120:315,1,80,2|2,0:0|0:0,0:0:0:0:
187,318,82095,1,2,0:0:0:0:
187,318,84213,1,2,0:0:0:0:
187,318,85624,1,2,0:0:0:0:
187,318,86330,2,0,P|205:293|207:236,1,80,2|2,0:0|0:0,0:0:0:0:
151,189,87036,6,0,L|105:194,1,40,2|2,0:0|0:0,0:0:0:0:
111,193,88448,2,0,P|123:163|111:103,1,80,2|2,0:0|0:0,0:0:0:0:
117,116,89860,1,2,0:0:0:0:
117,116,91271,2,0,P|77:121|32:107,2,80,2|2|2,0:0|0:0|0:0,0:0:0:0:
117,116,92683,6,0,L|122:60,2,40,2|0|2,0:0|0:0|0:0,0:0:0:0:
194,94,93389,2,0,L|199:38,2,40,2|0|2,0:0|0:0|0:0,0:0:0:0:
271,72,94095,2,0,L|276:16,1,40,2|2,0:0|0:0,0:0:0:0:
256,192,94448,12,0,98330,3:0:0:0:
298,340,109624,6,0,P|357:328|414:227,1,160,4|2,0:3|1:3,0:0:0:0:
412,250,111036,2,0,L|415:340,1,80,4|0,0:3|0:0,0:0:0:0:
484,369,111742,1,2,1:3:0:0:
484,369,112448,6,0,P|416:331|337:337,1,160,4|2,0:3|1:3,0:0:0:0:
336,337,113860,2,0,L|334:252,1,80,4|0,0:3|0:0,0:0:0:0:
331,175,114566,1,2,1:3:0:0:
331,175,115271,6,0,P|346:229|453:271,1,160,4|2,0:3|1:3,0:0:0:0:
433,274,116683,2,0,L|340:284,1,80,4|0,0:3|0:0,0:0:0:0:
273,291,117389,1,2,1:3:0:0:
273,291,118095,6,0,P|321:260|339:154,1,160,4|2,0:3|1:3,0:0:0:0:
342,164,119507,2,0,L|335:107,2,40,4|4|4,0:3|0:3|0:3,0:0:0:0:
418,188,120213,1,2,1:3:0:0:
418,188,120918,6,0,L|432:100,1,80,0|4,0:0|0:3,0:0:0:0:
443,29,121624,1,2,1:3:0:0:
443,29,122330,2,0,P|398:41|358:25,1,80,4|0,0:3|0:0,0:0:0:0:
290,6,123036,1,2,1:3:0:0:
290,6,123742,6,0,P|225:12|172:108,1,160,4|2,0:3|1:3,0:0:0:0:
172,84,125154,2,0,P|157:50|99:21,1,80,4|0,0:3|0:0,0:0:0:0:
42,15,125860,1,2,1:3:0:0:
42,15,126566,6,0,P|7:94|31:180,1,160,4|2,0:3|1:3,0:0:0:0:
21,163,127977,2,0,P|53:142|104:142,1,80,4|0,0:3|0:0,0:0:0:0:
161,182,128683,1,2,1:3:0:0:
161,182,129389,6,0,P|233:216|326:186,1,160,4|2,0:3|1:3,0:0:0:0:
308,198,130801,2,0,L|304:144,2,40,4|4|4,0:3|0:3|0:3,0:0:0:0:
384,221,131507,2,0,L|390:149,2,60,2|0|0,1:3|3:0|3:0,0:0:0:0:
383,243,132213,6,0,B|379:349|379:349|331:374,1,160,4|2,0:3|1:3,0:0:0:0:
331,373,133624,2,0,L|243:366,1,80,4|0,0:3|0:0,0:0:0:0:
171,358,134330,1,2,1:3:0:0:
171,358,135036,6,0,B|167:252|167:252|119:226,1,160,4|2,0:3|1:3,0:0:0:0:
119,226,136448,2,0,L|31:233,1,80,4|0,0:3|0:0,0:0:0:0:
5,159,137154,1,2,1:3:0:0:
5,159,137860,6,0,B|5:78|5:78|8:32|53:23,1,160,4|2,0:3|1:3,0:0:0:0:
52,23,139271,2,0,L|138:28,1,80,4|0,0:3|0:0,0:0:0:0:
211,31,139977,1,2,1:3:0:0:
211,31,140683,6,0,B|219:76|265:79|265:79|346:79,1,160,4|2,0:3|1:3,0:0:0:0:
345,79,142095,2,0,L|341:124,2,40,4|4|4,0:3|0:3|0:3,0:0:0:0:
419,50,142801,1,2,1:3:0:0:
419,50,143507,6,0,L|431:129,1,80,0|4,0:0|0:3,0:0:0:0:
445,208,144213,1,2,1:3:0:0:
445,208,144918,2,0,P|424:245|387:266,1,80,4|0,0:3|0:0,0:0:0:0:
314,292,145624,1,2,1:3:0:0:
314,292,146330,6,0,B|274:301|238:281|238:281|200:258|159:271,1,160,4|2,0:3|1:3,0:0:0:0:
159,270,147742,2,0,P|127:227|131:191,1,80,4|0,0:3|0:0,0:0:0:0:
157,128,148448,1,2,1:3:0:0:
157,128,149154,6,0,B|225:124|225:124|244:141|244:141|311:137,1,160,4|2,0:3|1:3,0:0:0:0:
310,137,150566,2,0,P|309:91|340:59,1,80,4|0,0:3|0:0,0:0:0:0:
405,42,151271,1,2,1:3:0:0:
405,42,151977,6,0,B|414:78|399:107|399:107|413:125|413:125|397:153|405:193,1,160,4|2,0:3|1:3,0:0:0:0:
405,193,153389,2,0,P|386:191|367:196,2,40,4|4|4,0:3|0:3|0:3,0:0:0:0:
452,257,154095,2,0,L|528:261,2,60,2|0|0,1:3|3:0|3:0,0:0:0:0:
436,274,154801,1,4,0:1:0:0:
256,192,154977,12,0,160448,3:0:0:0:
