osu file format v14

[General]
AudioFilename: audio.mp3
AudioLeadIn: 0
PreviewTime: 19287
Countdown: 0
SampleSet: Soft
StackLeniency: 0.3
Mode: 0
LetterboxInBreaks: 0
WidescreenStoryboard: 0

[Editor]
Bookmarks: 15052,19287,30582,41876,53170,64464,75758,106817,109640,120934,132229,143523,154817
DistanceSpacing: 1.2
BeatDivisor: 4
GridSize: 32
TimelineZoom: 2.28

[Metadata]
Title:serotonin
TitleUnicode:serotonin
Artist:sakuraburst
ArtistUnicode:sakuraburst
Creator:Kawashiro
Version:Hard
Source:osu!
Tags:Deconstructing Nature featured artist Experimental Mapper's Guild mg fa electronic instrumental
BeatmapID:2227243
BeatmapSetID:1063724

[Difficulty]
HPDrainRate:4
CircleSize:4.7
OverallDifficulty:6
ApproachRate:7.7
SliderMultiplier:1.2
SliderTickRate:1

[Events]
//Background and Video events
0,0,"BG.png",0,0
//Break Periods
2,64648,74947
2,98530,106801
//Storyboard Layer 0 (Background)
//Storyboard Layer 1 (Fail)
//Storyboard Layer 2 (Pass)
//Storyboard Layer 3 (Foreground)
//Storyboard Layer 4 (Overlay)
//Storyboard Sound Samples

[TimingPoints]
919,352.941176470588,4,2,0,10,1,0
18566,-100,4,2,0,50,0,0
75742,-100,4,2,0,20,0,0
109624,-100,4,2,0,50,0,0
154889,-100,4,2,0,10,0,0
160448,-100,4,2,0,20,0,0

[Colours]
Combo1 : 142,142,255
Combo2 : 188,188,188

[HitObjects]
256,192,15036,12,2,18566,0:3:0:0:
256,192,18918,5,2,0:3:0:0:
375,271,19271,6,0,P|381:300|373:328,1,60,4|0,0:3|0:0,0:0:0:0:
308,360,19624,2,0,L|233:363,1,60,0|0,0:0|0:0,0:0:0:0:
121,338,19977,1,2,1:3:0:0:
121,338,20154,2,0,P|169:321|197:253,1,120,2|0,3:2|0:0,0:0:0:0:
173,193,20683,5,4,0:3:0:0:
173,193,21389,1,2,1:3:0:0:
173,193,22095,6,0,L|111:198,1,60,4|0,0:3|0:0,0:0:0:0:
47,168,22448,2,0,P|39:131|57:98,1,60,0|0,0:0|0:0,0:0:0:0:
157,43,22801,1,2,1:3:0:0:
157,43,22977,2,0,P|205:76|263:73,1,120,2|0,3:2|0:0,0:0:0:0:
326,36,23507,6,0,P|391:32|334:65,1,180,4|0,0:3|0:0,0:0:0:0:
263,73,24213,1,2,1:3:0:0:
263,73,24918,6,0,P|261:104|285:141,1,60,4|0,0:3|0:0,0:0:0:0:
256,199,25271,2,0,P|283:216|326:214,1,60,0|0,0:0|0:0,0:0:0:0:
447,273,25624,1,2,1:3:0:0:
447,273,25801,2,0,P|397:286|363:356,1,120,2|0,3:2|0:0,0:0:0:0:
293,364,26330,5,4,0:3:0:0:
293,364,27036,2,2,P|226:290|129:312,1,210,2|0,1:3|0:0,0:0:0:0:
117,329,27742,6,0,L|111:251,1,60,4|0,0:3|0:0,0:0:0:0:
64,215,28095,2,0,L|70:137,1,60,0|0,0:0|0:0,0:0:0:0:
95,14,28448,1,2,1:3:0:0:
95,14,28624,2,0,P|116:85|169:108,1,120,2|0,3:2|0:0,0:0:0:0:
224,91,29154,5,4,0:3:0:0:
294,78,29330,2,0,L|367:83,2,60,4|4|0,0:3|0:3|0:0,0:0:0:0:
201,165,29860,2,0,P|214:191|238:209,1,60,2|0,1:3|0:0,0:0:0:0:
256,216,30095,2,0,P|257:231|252:243,2,20,0|0|0,3:0|3:0|3:0,0:0:0:0:
271,147,30389,1,0,3:0:0:0:
164,236,30566,6,2,P|120:230|87:201,1,89.9999999999999,0|0,0:0|0:0,0:0:0:0:
83,190,30918,2,0,L|82:249,1,60,4|0,0:3|0:0,0:0:0:0:
31,362,31271,1,2,1:3:0:0:
31,362,31448,2,0,P|57:331|147:337,1,120,2|0,3:2|0:0,0:0:0:0:
193,364,31977,5,4,0:3:0:0:
193,364,32683,1,2,1:3:0:0:
193,364,33389,6,0,L|263:355,1,60,4|0,0:3|0:0,0:0:0:0:
323,368,33742,2,0,P|339:337|331:298,1,60,0|0,0:0|0:0,0:0:0:0:
267,184,34095,1,2,1:3:0:0:
267,184,34271,2,0,P|246:239|268:293,1,120,2|0,3:2|0:0,0:0:0:0:
337,312,34801,6,0,P|398:315|336:292,1,180,4|0,0:3|0:0,0:0:0:0:
267,292,35507,1,2,1:3:0:0:
267,292,36213,6,0,P|253:266|255:237,1,60,4|0,0:3|0:0,0:0:0:0:
208,182,36566,2,0,P|223:156|249:143,1,60,0|0,0:0|0:0,0:0:0:0:
373,66,36918,1,2,1:3:0:0:
373,66,37095,2,0,L|369:192,1,120,2|0,3:2|0:0,0:0:0:0:
367,258,37624,6,2,P|461:220|489:122,1,210,4|0,0:3|0:0,0:0:0:0:
483,95,38330,5,2,1:3:0:0:
483,95,39036,6,0,L|415:91,1,60,4|0,0:3|0:0,0:0:0:0:
363,51,39389,2,0,L|303:54,1,60,0|0,0:0|0:0,0:0:0:0:
169,117,39742,1,2,1:3:0:0:
169,117,39918,2,0,P|185:60|235:29,1,120,2|0,3:2|0:0,0:0:0:0:
303,54,40448,5,4,0:3:0:0:
303,54,40624,1,4,0:3:0:0:
368,85,40801,2,0,L|403:82,2,30,4|0|0,0:3|0:0|0:0,0:0:0:0:
246,150,41154,2,0,P|213:121|169:117,2,90,2|0|0,1:3|3:0|3:0,0:0:0:0:
286,210,41860,6,0,P|313:197|353:202,1,60,4|0,0:3|0:0,0:0:0:0:
408,169,42213,2,0,L|416:239,1,60,0|0,0:0|0:0,0:0:0:0:
446,364,42566,1,2,1:3:0:0:
446,364,42742,2,0,P|426:322|351:300,1,120,2|0,3:2|0:0,0:0:0:0:
295,331,43271,5,4,0:3:0:0:
295,331,43977,1,2,1:3:0:0:
295,331,44683,6,0,L|215:323,1,60,4|0,0:3|0:0,0:0:0:0:
170,356,45036,2,0,P|162:327|167:298,1,60,0|0,0:0|0:0,0:0:0:0:
116,171,45389,1,2,1:3:0:0:
116,171,45566,2,0,P|147:211|224:218,1,120,2|0,3:2|0:0,0:0:0:0:
281,198,46095,6,0,P|325:149|263:170,1,180,4|0,0:3|0:0,0:0:0:0:
212,221,46801,1,2,1:3:0:0:
212,221,47507,6,0,P|203:261|181:280,1,60,4|0,0:3|0:0,0:0:0:0:
125,304,47860,2,0,P|85:295|66:273,1,60,0|0,0:0|0:0,0:0:0:0:
99,124,48213,1,2,1:3:0:0:
99,124,48389,2,0,P|124:148|114:240,1,120,2|0,3:2|0:0,0:0:0:0:
72,282,48918,5,4,0:3:0:0:
72,282,49624,2,2,P|6:205|22:105,1,210,2|0,1:3|0:0,0:0:0:0:
34,90,50330,6,0,L|107:95,1,60,4|0,0:3|0:0,0:0:0:0:
164,78,50683,2,0,L|237:83,1,60,0|0,0:0|0:0,0:0:0:0:
372,65,51036,1,2,1:3:0:0:
372,65,51213,2,0,P|306:91|286:155,1,120,2|0,3:2|0:0,0:0:0:0:
306,201,51742,5,4,0:3:0:0:
330,268,51918,2,0,L|325:334,2,60,4|4|0,0:3|0:3|0:0,0:0:0:0:
230,183,52448,2,0,P|207:165|177:161,1,60,0|0,1:3|0:0,0:0:0:0:
166,161,52683,2,0,L|162:123,2,20,0|0|0,3:0|3:0|3:0,0:0:0:0:
179,231,52977,1,0,3:0:0:0:
232,101,53154,6,2,P|247:69|220:4,1,90,0|0,0:0|0:0,0:0:0:0:
217,17,53507,2,0,L|145:22,1,60,4|0,0:3|0:0,0:0:0:0:
35,52,53860,1,2,1:3:0:0:
35,52,54036,2,0,P|80:64|109:135,1,120,2|0,3:2|0:0,0:0:0:0:
80,192,54566,5,4,0:3:0:0:
80,192,55271,1,2,1:3:0:0:
80,192,55977,6,0,L|85:261,1,60,4|0,0:3|0:0,0:0:0:0:
91,323,56330,2,0,P|121:349|153:349,1,60,0|0,0:0|0:0,0:0:0:0:
288,315,56683,1,2,1:3:0:0:
288,315,56860,2,0,P|228:289|217:228,1,120,2|0,3:2|0:0,0:0:0:0:
244,174,57389,6,0,P|233:107|218:169,1,180,4|0,0:3|0:0,0:0:0:0:
214,240,58095,1,2,1:3:0:0:
214,240,58801,6,0,P|240:268|270:273,1,60,4|0,0:3|0:0,0:0:0:0:
299,333,59154,2,0,P|327:307|332:277,1,60,0|0,0:0|0:0,0:0:0:0:
396,182,59507,1,2,1:3:0:0:
396,182,59683,2,0,L|407:308,1,120,2|0,3:2|0:0,0:0:0:0:
414,373,60213,6,2,P|499:319|500:218,1,210,4|0,0:3|0:0,0:0:0:0:
488,197,60918,5,2,1:3:0:0:
488,197,61624,6,0,L|479:126,1,60,4|4,0:3|0:3,0:0:0:0:
417,102,61977,2,0,L|408:31,1,60,0|0,0:0|0:0,0:0:0:0:
273,0,62330,1,2,1:3:0:0:
273,0,62507,2,0,P|293:55|370:75,1,120,2|0,3:2|0:0,0:0:0:0:
409,42,63036,5,4,3:0:0:0:
409,42,63213,1,4,3:0:0:0:
467,0,63389,2,0,P|483:0|497:6,2,30,4|0|0,3:0|0:0|0:0,0:0:0:0:
346,78,63742,2,0,L|254:73,2,90,2|0|0,1:3|3:0|3:0,0:0:0:0:
408,114,64448,1,4,0:1:0:0:
50,292,75742,5,2,0:0:0:0:
80,363,75919,1,2,0:0:0:0:
80,363,78213,5,2,0:0:0:0:
80,363,80683,1,2,0:0:0:0:
263,313,81389,6,0,P|259:286|233:255,1,60,2|0,0:0|0:0,0:0:0:0:
203,197,81742,2,0,P|181:213|167:251,1,60,2|0,0:0|0:0,0:0:0:0:
129,303,82095,1,2,0:0:0:0:
129,303,84213,1,2,0:0:0:0:
129,303,85624,2,0,P|120:262|-11:219,1,180,2|0,0:0|0:0,0:0:0:0:
66,135,86330,1,2,0:0:0:0:
69,128,86683,1,2,0:0:0:0:
72,123,87036,5,2,0:0:0:0:
102,194,87213,1,2,0:0:0:0:
102,194,88448,5,2,0:0:0:0:
81,18,88801,1,2,0:0:0:0:
81,18,89860,1,2,0:0:0:0:
81,18,91271,5,2,0:0:0:0:
41,139,91624,1,2,0:0:0:0:
166,114,91977,1,2,0:0:0:0:
166,114,92683,5,2,0:0:0:0:
180,103,92860,2,0,L|190:42,2,60,0|2|0,0:0|0:0|0:0,0:0:0:0:
108,174,93389,1,2,0:0:0:0:
93,162,93566,2,0,L|83:101,2,60,0|2|0,0:0|0:0|0:0,0:0:0:0:
156,252,94095,1,2,0:0:0:0:
151,269,94271,1,2,0:0:0:0:
256,192,94448,12,0,98330,3:0:0:0:
421,338,109624,6,0,P|484:297|410:309,1,210,4|0,0:3|0:0,0:0:0:0:
349,348,110330,2,0,B|299:361|255:322|255:322|213:283|154:299,1,210,2|0,1:3|0:0,0:0:0:0:
84,335,111036,5,4,0:3:0:0:
84,335,111742,1,2,1:3:0:0:
84,335,112448,6,0,B|94:180|94:180|130:228,1,210,4|0,0:3|0:0,0:0:0:0:
175,277,113154,2,0,P|217:278|294:145,1,210,2|0,1:3|0:0,0:0:0:0:
285,82,113860,6,0,P|272:23|262:97,1,210,4|0,0:3|0:0,0:0:0:0:
295,151,114566,1,2,1:3:0:0:
294,150,115271,6,0,P|225:79|127:103,1,210,4|0,0:3|0:0,0:0:0:0:
81,48,115977,2,0,L|86:259,1,210,2|0,1:3|0:0,0:0:0:0:
92,332,116683,5,4,0:3:0:0:
92,332,117389,2,2,B|135:343|181:333|181:333|199:315|199:315|240:300|292:316,1,210,2|0,1:3|0:0,0:0:0:0:
351,357,118095,6,0,B|401:373|442:340|442:340|412:281|449:233,1,210,4|0,0:3|0:0,0:0:0:0:
507,184,118801,2,0,P|407:172|366:80,1,210,2|0,1:3|0:0,0:0:0:0:
432,51,119507,5,4,0:3:0:0:
432,51,119683,2,0,P|465:51|495:31,2,60,4|4|0,0:3|0:3|0:0,0:0:0:0:
309,37,120213,2,0,L|239:38,1,60,2|0,1:3|0:0,0:0:0:0:
240,48,120448,2,0,L|243:76,2,20,0|0|0,0:0|3:0|3:0,0:0:0:0:
183,3,120742,1,0,3:0:0:0:
180,127,120918,6,2,P|202:166|243:183,1,90,0|0,0:0|0:0,0:0:0:0:
251,193,121271,2,0,P|277:179|307:178,1,60,4|0,0:3|0:0,0:0:0:0:
419,219,121624,2,0,B|395:160|395:160|353:321,1,210,2|0,1:3|0:0,0:0:0:0:
342,371,122330,5,4,0:3:0:0:
342,371,123036,1,2,1:3:0:0:
342,371,123742,6,0,B|330:328|283:329|283:329|152:336,1,210,4|0,0:3|0:0,0:0:0:0:
93,382,124448,2,0,B|62:332|98:283|98:283|130:233|97:185,1,210,2|0,1:3|0:0,0:0:0:0:
35,149,125154,6,0,P|1:79|64:124,1,210,4|0,0:3|0:0,0:0:0:0:
98,185,125860,1,2,1:3:0:0:
98,185,126566,6,0,L|318:177,1,210,4|0,0:3|0:0,0:0:0:0:
335,245,127271,2,0,B|370:235|379:197|379:197|379:255|418:289|463:294,1,210,2|0,1:3|0:0,0:0:0:0:
498,231,127977,6,2,B|491:142|491:142|512:118|512:118|506:30,1,210,4|0,0:3|0:0,0:0:0:0:
505,0,128683,1,2,1:3:0:0:
504,0,129389,6,0,P|431:69|331:53,1,210,4|0,0:3|0:0,0:0:0:0:
265,23,130095,2,0,P|164:6|91:76,1,210,2|0,1:3|0:0,0:0:0:0:
72,152,130801,5,4,0:3:0:0:
72,152,130977,1,4,0:3:0:0:
20,93,131154,2,0,L|23:61,2,30,4|0|0,0:3|0:0|0:0,0:0:0:0:
118,214,131507,2,0,L|109:311,2,90,2|0|0,1:3|3:0|3:0,0:0:0:0:
158,151,132213,6,0,P|260:170|354:126,1,210,4|0,0:3|0:0,0:0:0:0:
401,74,132918,2,0,L|388:299,1,210,2|0,1:3|0:0,0:0:0:0:
385,353,133624,5,4,0:3:0:0:
385,353,134330,1,2,1:3:0:0:
385,353,135036,6,0,B|340:218|340:218|318:290,1,210,4|0,0:3|0:0,0:0:0:0:
299,352,135742,2,0,P|201:326|164:232,1,210,2|0,1:3|0:0,0:0:0:0:
174,163,136448,6,0,P|187:104|197:178,1,210,4|0,0:3|0:0,0:0:0:0:
164,232,137154,1,2,1:3:0:0:
164,232,137860,6,0,B|210:209|250:239|250:239|271:228|271:228|312:260|360:238,1,210,4|0,0:3|0:0,0:0:0:0:
418,198,138566,2,0,B|445:201|459:211|468:231|468:231|481:62,1,210,2|0,1:3|0:0,0:0:0:0:
483,15,139271,5,4,0:3:0:0:
483,15,139977,2,2,B|475:54|437:62|437:62|403:57|403:57|374:69|374:69|337:73|315:33,1,210,2|0,1:3|0:0,0:0:0:0:
248,5,140683,6,0,L|259:220,1,210,4|0,0:3|0:0,0:0:0:0:
296,280,141389,2,0,B|334:269|336:243|336:243|294:222|232:227|190:258,1,210,2|0,1:3|0:0,0:0:0:0:
180,332,142095,5,4,0:3:0:0:
180,332,142271,2,0,P|209:331|237:315,2,60,4|4|0,0:3|0:3|0:0,0:0:0:0:
73,243,142801,2,0,L|9:237,1,60,2|0,1:3|0:0,0:0:0:0:
0,237,143036,2,0,L|5:204,2,20,0|0|0,0:0|3:0|3:0,0:0:0:0:
19,306,143330,1,0,3:0:0:0:
191,256,143507,6,2,P|230:234|247:193,1,90,0|0,0:0|0:0,0:0:0:0:
257,185,143860,2,0,P|255:157|242:129,1,60,4|0,0:3|0:0,0:0:0:0:
183,26,144213,2,0,B|148:53|148:53|319:60,1,210,2|0,1:3|0:0,0:0:0:0:
386,63,144918,5,4,0:3:0:0:
386,63,145624,1,2,1:3:0:0:
386,63,146330,6,0,B|411:46|417:22|417:22|440:184,1,210,4|0,0:3|0:0,0:0:0:0:
485,236,147036,2,0,P|478:297|349:332,1,210,2|0,1:3|0:0,0:0:0:0:
317,270,147742,6,0,P|252:227|288:297,1,210,4|0,0:3|0:0,0:0:0:0:
351,333,148448,1,2,1:3:0:0:
351,333,149154,6,0,L|345:108,1,210,4|0,0:3|0:0,0:0:0:0:
379,55,149860,2,0,P|302:120|201:104,1,210,2|0,1:3|0:0,0:0:0:0:
134,56,150566,6,2,B|113:97|127:145|127:145|147:165|147:165|161:206|143:253,1,210,4|0,0:3|0:0,0:0:0:0:
133,280,151272,1,2,1:3:0:0:
133,280,151977,5,4,0:3:0:0:
133,280,152154,2,0,P|203:277|252:212,1,150,4|0,0:3|0:0,0:0:0:0:
262,145,152683,1,2,1:3:0:0:
263,146,152860,2,0,P|307:88|380:84,1,150,4|0,0:3|0:0,0:0:0:0:
445,116,153389,5,4,0:3:0:0:
445,116,153566,1,4,0:3:0:0:
493,63,153742,2,0,L|497:26,2,30,4|0|0,0:3|0:0|0:0,0:0:0:0:
383,157,154095,2,0,L|387:252,2,90,2|0|0,1:3|3:0|3:0,0:0:0:0:
380,84,154801,1,4,0:1:0:0:
256,192,154977,12,0,160448,3:0:0:0:
