osu file format v14

[General]
AudioFilename: audio.mp3
AudioLeadIn: 0
PreviewTime: 80867
Countdown: 1
SampleSet: Normal
StackLeniency: 0.7
Mode: 1
LetterboxInBreaks: 0
WidescreenStoryboard: 1

[Editor]
Bookmarks: 41270,82560,123850,144496,165141,206431
DistanceSpacing: 0.9
BeatDivisor: 8
GridSize: 32
TimelineZoom: 3.299998

[Metadata]
Title:forest of the spirits
TitleUnicode:forest of the spirits
Artist:sakuraburst
ArtistUnicode:sakuraburst
Creator:radar
Version:radarism's muzukashii
Source:osu!
Tags:blood orange EP idealism fa featured artist mpg mg mappers guild electronic experimental instrumental
BeatmapID:2384138
BeatmapSetID:1141344

[Difficulty]
HPDrainRate:6
CircleSize:5
OverallDifficulty:4.5
ApproachRate:5
SliderMultiplier:1.4
SliderTickRate:1

[Events]
//Background and Video events
0,0,"hepatica-1393813_1920.jpg",0,0
//Break Periods
2,124050,143296
//Storyboard Layer 0 (Background)
//Storyboard Layer 1 (Fail)
//Storyboard Layer 2 (Pass)
//Storyboard Layer 3 (Foreground)
//Storyboard Layer 4 (Overlay)
//Storyboard Sound Samples

[TimingPoints]
-20,322.58064516129,4,1,0,100,1,0
-20,-133.333333333333,4,1,0,100,0,0
20625,-117.647058823529,4,1,0,100,0,0
41270,-133.333333333333,4,1,0,100,0,0
57641,-153.846153846154,4,1,0,100,0,0
61189,-181.818181818182,4,1,0,100,0,0
79979,-222.222222222222,4,1,0,100,0,0
82560,-100,4,1,0,100,0,0
123205,-83.3333333333333,4,1,0,100,0,0
123528,-90.9090909090909,4,1,0,100,0,0
124173,-166.666666666667,4,1,0,100,0,0
144496,-125,4,1,0,100,0,0
155060,-121.951219512195,4,1,0,100,0,0
155705,-119.047619047619,4,1,0,100,0,0
156350,-116.279069767442,4,1,0,100,0,0
156996,-113.636363636364,4,1,0,100,0,0
157641,-111.111111111111,4,1,0,100,0,0
158286,-108.695652173913,4,1,0,100,0,0
158931,-106.382978723404,4,1,0,100,0,0
159576,-104.166666666667,4,1,0,100,0,0
160221,-103.092783505155,4,1,0,100,0,0
160544,-102.040816326531,4,1,0,100,0,0
160867,-101.010101010101,4,1,0,100,0,0
161189,-100,4,1,0,100,0,0
161512,-99.009900990099,4,1,0,100,0,0
161834,-98.0392156862745,4,1,0,100,0,0
162157,-97.0873786407767,4,1,0,100,0,0
162479,-87.719298245614,4,1,0,100,0,0
162641,-166.666666666667,4,1,0,100,0,0
165141,-95.2380952380952,4,1,0,100,0,1
165463,-100,4,1,0,100,0,1
206431,-95.2380952380952,4,1,0,100,0,0

[HitObjects]
112,266,20,5,0,0:0:0:0:
117,256,625,1,8,0:0:0:0:
120,259,1270,1,8,0:0:0:0:
118,263,2560,1,0,0:0:0:0:
118,263,3205,1,8,0:0:0:0:
119,246,3850,1,8,0:0:0:0:
117,255,5141,1,0,0:0:0:0:
117,255,5786,1,8,0:0:0:0:
117,255,6431,1,8,0:0:0:0:
143,290,7721,1,0,0:0:0:0:
143,290,8367,1,8,0:0:0:0:
143,290,9012,1,8,0:0:0:0:
143,290,10302,1,0,0:0:0:0:
143,290,10947,1,8,0:0:0:0:
143,290,11592,1,8,0:0:0:0:
143,290,12883,1,0,0:0:0:0:
143,290,13528,1,8,0:0:0:0:
143,290,14173,1,8,0:0:0:0:
143,290,15463,1,0,0:0:0:0:
143,290,16109,1,8,0:0:0:0:
143,290,16754,1,8,0:0:0:0:
143,290,18044,1,0,0:0:0:0:
143,290,18689,1,8,0:0:0:0:
143,290,19334,1,8,0:0:0:0:
78,23,20625,1,12,0:0:0:0:
104,279,21592,1,0,0:0:0:0:
104,279,22560,1,0,0:0:0:0:
116,281,23528,1,0,0:0:0:0:
121,281,23850,1,8,0:0:0:0:
121,281,24173,1,0,0:0:0:0:
119,284,25141,1,0,0:0:0:0:
119,284,25786,1,8,0:0:0:0:
119,284,26754,1,8,0:0:0:0:
119,284,27721,1,8,0:0:0:0:
108,282,28689,1,0,0:0:0:0:
108,282,29334,1,8,0:0:0:0:
108,282,29979,1,8,0:0:0:0:
108,282,30302,1,0,0:0:0:0:
99,298,30947,1,8,0:0:0:0:
99,298,31915,1,0,0:0:0:0:
99,298,32883,1,0,0:0:0:0:
99,298,33850,1,0,0:0:0:0:
99,298,34173,1,8,0:0:0:0:
99,298,34496,1,0,0:0:0:0:
99,298,35463,1,0,0:0:0:0:
99,298,36109,1,8,0:0:0:0:
99,298,37076,1,8,0:0:0:0:
99,298,38044,1,8,0:0:0:0:
101,294,39012,1,0,0:0:0:0:
101,294,39657,1,8,0:0:0:0:
101,292,40625,1,8,0:0:0:0:
101,292,41270,1,0,0:0:0:0:
102,302,41915,1,8,0:0:0:0:
102,302,42560,1,8,0:0:0:0:
102,302,43205,1,0,0:0:0:0:
102,302,43528,1,8,0:0:0:0:
102,302,43850,1,0,0:0:0:0:
102,302,44496,1,8,0:0:0:0:
102,302,45141,1,8,0:0:0:0:
102,302,45786,1,0,0:0:0:0:
102,302,46109,1,8,0:0:0:0:
102,302,46431,1,0,0:0:0:0:
102,302,47076,1,8,0:0:0:0:
117,296,47721,1,8,0:0:0:0:
117,296,48367,1,0,0:0:0:0:
117,296,48689,1,8,0:0:0:0:
117,296,49012,1,0,0:0:0:0:
110,295,49657,1,8,0:0:0:0:
110,295,50302,1,8,0:0:0:0:
110,295,50947,1,8,0:0:0:0:
104,290,51270,1,0,0:0:0:0:
104,288,51592,1,8,0:0:0:0:
104,290,52560,1,8,0:0:0:0:
104,288,53528,1,8,0:0:0:0:
104,290,53850,1,0,0:0:0:0:
104,288,54173,1,8,0:0:0:0:
104,290,55141,1,8,0:0:0:0:
104,288,56109,1,8,0:0:0:0:
104,290,56431,1,8,0:0:0:0:
89,270,56754,1,8,0:0:0:0:
81,270,57721,1,0,0:0:0:0:
76,273,61270,1,8,0:0:0:0:
102,249,61915,2,0,L|189:249,1,77.0000023498536
80,275,62560,1,0,0:0:0:0:
71,279,65141,1,0,0:0:0:0:
71,279,67721,1,0,0:0:0:0:
71,279,70302,1,0,0:0:0:0:
75,278,72238,1,0,0:0:0:0:
75,278,72883,1,8,0:0:0:0:
74,278,74173,1,0,0:0:0:0:
74,278,75463,1,0,0:0:0:0:
74,278,76109,1,0,0:0:0:0:
74,278,78044,1,0,0:0:0:0:
71,278,79979,1,0,0:0:0:0:
98,44,82560,5,4,0:0:0:0:
104,285,82721,1,8,0:0:0:0:
104,285,82883,1,0,0:0:0:0:
104,285,83044,1,0,0:0:0:0:
104,285,83205,1,8,0:0:0:0:
104,285,83528,1,8,0:0:0:0:
104,285,83850,1,0,0:0:0:0:
104,285,84012,1,0,0:0:0:0:
104,285,84173,1,8,0:0:0:0:
104,285,84334,1,0,0:0:0:0:
104,285,84657,1,0,0:0:0:0:
104,285,84818,1,8,0:0:0:0:
104,285,84979,1,8,0:0:0:0:
104,285,85141,1,0,0:0:0:0:
104,285,85463,1,8,0:0:0:0:
104,285,85625,1,0,0:0:0:0:
100,302,85786,1,8,0:0:0:0:
109,293,86109,1,8,0:0:0:0:
109,293,86270,1,8,0:0:0:0:
109,293,86431,1,0,0:0:0:0:
109,293,86754,1,0,0:0:0:0:
109,293,86915,1,0,0:0:0:0:
103,57,87076,1,12,0:0:0:0:
109,293,87238,1,0,0:0:0:0:
109,293,87399,1,8,0:0:0:0:
109,293,87560,1,8,0:0:0:0:
109,293,87721,1,0,0:0:0:0:
109,293,88044,1,8,0:0:0:0:
109,293,88205,1,0,0:0:0:0:
109,293,88367,1,8,0:0:0:0:
109,293,88528,1,8,0:0:0:0:
109,293,88689,1,0,0:0:0:0:
109,293,89012,1,8,0:0:0:0:
109,293,89173,1,8,0:0:0:0:
109,293,89334,1,0,0:0:0:0:
113,290,89496,1,8,0:0:0:0:
113,290,89818,1,0,0:0:0:0:
113,290,89979,1,8,0:0:0:0:
113,290,90141,1,8,0:0:0:0:
113,290,90302,1,0,0:0:0:0:
113,290,90625,1,8,0:0:0:0:
113,290,90786,1,8,0:0:0:0:
113,290,90947,1,0,0:0:0:0:
113,290,91109,1,0,0:0:0:0:
113,290,91592,1,0,0:0:0:0:
106,294,91754,1,8,0:0:0:0:
113,290,92076,1,0,0:0:0:0:
106,294,92238,1,12,0:0:0:0:
115,300,92560,1,8,0:0:0:0:
115,300,92721,1,8,0:0:0:0:
129,35,92883,1,4,0:0:0:0:
110,292,93044,1,8,0:0:0:0:
110,293,93205,1,0,0:0:0:0:
110,293,93367,1,0,0:0:0:0:
110,292,93528,1,8,0:0:0:0:
110,293,93850,1,8,0:0:0:0:
110,292,94173,1,0,0:0:0:0:
110,293,94334,1,8,0:0:0:0:
110,293,94496,1,0,0:0:0:0:
114,283,94657,1,8,0:0:0:0:
114,283,94979,1,0,0:0:0:0:
114,282,95141,1,8,0:0:0:0:
120,279,95302,1,8,0:0:0:0:
119,279,95463,1,0,0:0:0:0:
119,279,95625,1,0,0:0:0:0:
119,279,95786,1,8,0:0:0:0:
119,279,96109,1,0,0:0:0:0:
119,279,96431,1,8,0:0:0:0:
119,279,96592,1,8,0:0:0:0:
119,279,96754,1,0,0:0:0:0:
119,279,97076,1,0,0:0:0:0:
119,279,97238,1,8,0:0:0:0:
100,54,97399,1,12,0:0:0:0:
119,279,97560,1,0,0:0:0:0:
119,279,97721,1,8,0:0:0:0:
119,279,97883,1,8,0:0:0:0:
119,279,98044,1,0,0:0:0:0:
119,279,98367,1,0,0:0:0:0:
119,279,98528,1,0,0:0:0:0:
119,279,98689,1,8,0:0:0:0:
119,279,98850,1,8,0:0:0:0:
123,286,99012,1,0,0:0:0:0:
119,279,99334,1,8,0:0:0:0:
119,279,99496,1,0,0:0:0:0:
119,255,99657,1,8,0:0:0:0:
128,274,99818,1,8,0:0:0:0:
121,272,100141,1,8,0:0:0:0:
121,272,100302,1,8,0:0:0:0:
121,272,100463,1,0,0:0:0:0:
121,272,100625,1,8,0:0:0:0:
123,267,100947,1,0,0:0:0:0:
120,263,101109,1,0,0:0:0:0:
123,273,101592,1,8,0:0:0:0:
123,273,101915,1,0,0:0:0:0:
123,273,102076,1,8,0:0:0:0:
123,273,102238,1,8,0:0:0:0:
123,273,102399,1,0,0:0:0:0:
131,15,102560,1,12,0:0:0:0:
121,31,103205,1,4,0:0:0:0:
131,292,103367,1,8,0:0:0:0:
131,292,103528,1,0,0:0:0:0:
131,292,103689,1,0,0:0:0:0:
131,292,103850,1,8,0:0:0:0:
131,292,104173,1,8,0:0:0:0:
131,292,104334,1,8,0:0:0:0:
131,292,104496,1,0,0:0:0:0:
131,292,104657,1,8,0:0:0:0:
131,292,104979,1,0,0:0:0:0:
131,292,105141,1,8,0:0:0:0:
131,292,105463,1,8,0:0:0:0:
131,292,105625,1,8,0:0:0:0:
131,292,105786,1,0,0:0:0:0:
131,292,106109,1,8,0:0:0:0:
131,292,106270,1,0,0:0:0:0:
131,292,106431,1,8,0:0:0:0:
131,292,106592,1,8,0:0:0:0:
131,292,106754,1,0,0:0:0:0:
131,292,107076,1,8,0:0:0:0:
125,289,107238,1,0,0:0:0:0:
135,289,107399,1,8,0:0:0:0:
135,289,107560,1,0,0:0:0:0:
91,17,107721,1,12,0:0:0:0:
135,289,107883,1,0,0:0:0:0:
135,289,108044,1,8,0:0:0:0:
135,289,108205,1,8,0:0:0:0:
135,289,108367,1,0,0:0:0:0:
129,308,108689,1,0,0:0:0:0:
129,308,108850,1,8,0:0:0:0:
129,308,109012,1,0,0:0:0:0:
129,308,109173,1,0,0:0:0:0:
129,308,109496,1,8,0:0:0:0:
129,308,109657,1,8,0:0:0:0:
143,329,109818,1,0,0:0:0:0:
143,329,109979,1,0,0:0:0:0:
138,325,110302,1,8,0:0:0:0:
138,325,110463,1,0,0:0:0:0:
138,325,110625,1,8,0:0:0:0:
138,325,110786,1,0,0:0:0:0:
138,325,110947,1,8,0:0:0:0:
138,325,111270,1,0,0:0:0:0:
138,325,111592,1,0,0:0:0:0:
133,322,111754,1,8,0:0:0:0:
133,322,112076,1,0,0:0:0:0:
133,322,112238,1,8,0:0:0:0:
133,322,112399,1,8,0:0:0:0:
133,322,112560,1,0,0:0:0:0:
133,322,112883,1,12,0:0:0:0:
133,322,113205,1,8,0:0:0:0:
133,322,113367,1,8,0:0:0:0:
89,0,113528,1,4,0:0:0:0:
128,312,114012,1,0,0:0:0:0:
138,324,114173,1,8,0:0:0:0:
138,324,114334,1,8,0:0:0:0:
138,324,114496,1,0,0:0:0:0:
138,324,114818,1,8,0:0:0:0:
145,308,114979,1,8,0:0:0:0:
145,308,115141,1,0,0:0:0:0:
145,308,115302,1,8,0:0:0:0:
145,308,115625,1,0,0:0:0:0:
145,308,115786,1,0,0:0:0:0:
145,308,115947,1,8,0:0:0:0:
145,308,116109,1,0,0:0:0:0:
145,308,116431,1,8,0:0:0:0:
145,308,116592,1,8,0:0:0:0:
145,308,116754,1,0,0:0:0:0:
145,308,116915,1,8,0:0:0:0:
145,308,117076,1,0,0:0:0:0:
145,308,117238,1,0,0:0:0:0:
145,308,117399,1,8,0:0:0:0:
145,308,117721,1,0,0:0:0:0:
145,308,117883,1,8,0:0:0:0:
145,308,118205,1,0,0:0:0:0:
145,308,118367,1,8,0:0:0:0:
145,308,118528,1,8,0:0:0:0:
145,308,118689,1,0,0:0:0:0:
145,308,119012,1,8,0:0:0:0:
145,308,119173,1,0,0:0:0:0:
145,308,119334,1,8,0:0:0:0:
151,314,119496,1,8,0:0:0:0:
145,308,119657,1,0,0:0:0:0:
145,308,119979,1,8,0:0:0:0:
145,308,120302,1,0,0:0:0:0:
145,308,120463,1,8,0:0:0:0:
145,308,120625,1,8,0:0:0:0:
145,308,120786,1,0,0:0:0:0:
145,308,120947,1,8,0:0:0:0:
123,297,121270,1,0,0:0:0:0:
106,311,122238,1,0,0:0:0:0:
256,192,122560,12,0,123044,0:0:0:0:
89,28,123205,5,12,0:0:0:0:
123,280,123528,1,8,0:0:0:0:
123,280,123609,1,8,0:0:0:0:
123,280,123689,1,8,0:0:0:0:
123,280,123850,1,0,0:0:0:0:
256,192,144496,5,4,0:0:0:0:
256,192,144818,1,0,0:0:0:0:
256,192,144979,1,0,0:0:0:0:
256,192,145141,1,8,0:0:0:0:
256,192,145463,1,8,0:0:0:0:
256,192,145625,1,8,0:0:0:0:
256,192,145786,1,0,0:0:0:0:
256,192,146109,1,0,0:0:0:0:
256,192,146270,1,8,0:0:0:0:
256,192,146592,1,0,0:0:0:0:
256,192,146754,1,8,0:0:0:0:
256,192,146915,1,0,0:0:0:0:
252,200,147238,1,8,0:0:0:0:
252,200,147399,1,0,0:0:0:0:
252,200,147560,1,0,0:0:0:0:
252,200,147721,1,8,0:0:0:0:
255,197,147883,1,8,0:0:0:0:
252,200,148044,1,0,0:0:0:0:
252,200,148367,1,0,0:0:0:0:
256,198,148689,1,0,0:0:0:0:
255,197,148850,1,8,0:0:0:0:
256,197,149173,1,0,0:0:0:0:
256,197,149334,1,8,0:0:0:0:
256,198,149496,1,8,0:0:0:0:
256,197,149979,1,8,0:0:0:0:
256,197,150141,1,0,0:0:0:0:
250,197,150302,1,8,0:0:0:0:
249,197,150463,1,8,0:0:0:0:
241,195,150625,1,0,0:0:0:0:
241,195,150786,1,8,0:0:0:0:
229,196,150947,1,0,0:0:0:0:
240,195,151270,1,0,0:0:0:0:
240,195,151431,1,8,0:0:0:0:
241,195,151754,1,0,0:0:0:0:
236,194,151915,1,8,0:0:0:0:
240,195,152076,1,0,0:0:0:0:
240,195,152399,1,8,0:0:0:0:
236,194,152560,1,0,0:0:0:0:
235,194,152721,1,0,0:0:0:0:
236,194,152883,1,8,0:0:0:0:
231,194,153044,1,8,0:0:0:0:
231,194,153205,1,0,0:0:0:0:
231,193,153528,1,0,0:0:0:0:
224,193,153850,1,0,0:0:0:0:
223,193,154012,1,8,0:0:0:0:
231,193,154334,1,0,0:0:0:0:
231,193,154496,1,8,0:0:0:0:
228,195,154657,1,0,0:0:0:0:
224,193,154818,1,4,0:0:0:0:
226,196,155302,1,0,0:0:0:0:
226,196,155463,1,8,0:0:0:0:
224,193,155786,1,8,0:0:0:0:
210,196,155947,1,8,0:0:0:0:
226,196,156109,1,0,0:0:0:0:
206,202,156431,1,0,0:0:0:0:
206,202,156592,1,8,0:0:0:0:
204,199,156915,1,0,0:0:0:0:
206,202,157076,1,8,0:0:0:0:
206,202,157238,1,0,0:0:0:0:
206,202,157399,1,4,0:0:0:0:
206,202,157883,1,0,0:0:0:0:
206,202,158044,1,8,0:0:0:0:
206,202,158367,1,8,0:0:0:0:
206,202,158528,1,8,0:0:0:0:
206,202,158689,1,0,0:0:0:0:
206,202,159012,1,0,0:0:0:0:
206,202,159173,1,8,0:0:0:0:
206,202,159496,1,0,0:0:0:0:
206,202,159657,1,8,0:0:0:0:
206,202,159818,1,0,0:0:0:0:
206,202,159979,1,4,0:0:0:0:
206,202,160302,1,8,0:0:0:0:
206,202,160625,1,0,0:0:0:0:
206,202,160947,1,8,0:0:0:0:
206,202,161270,1,0,0:0:0:0:
206,202,161592,1,8,0:0:0:0:
206,202,161915,1,0,0:0:0:0:
201,199,162238,1,8,0:0:0:0:
216,203,162560,1,4,0:0:0:0:
254,187,165141,5,4,0:0:0:0:
250,182,165463,1,0,0:0:0:0:
250,182,165625,1,0,0:0:0:0:
250,182,165786,1,8,0:0:0:0:
247,186,165947,1,0,0:0:0:0:
254,187,166109,1,8,0:0:0:0:
256,182,166270,1,0,0:0:0:0:
250,182,166754,1,0,0:0:0:0:
255,182,166915,1,0,0:0:0:0:
244,181,167076,1,8,0:0:0:0:
244,181,167238,1,0,0:0:0:0:
250,182,167399,1,8,0:0:0:0:
234,173,167479,1,8,0:0:0:0:
234,173,167560,1,8,0:0:0:0:
244,181,167721,1,0,0:0:0:0:
244,181,168044,1,0,0:0:0:0:
244,186,168205,1,0,0:0:0:0:
242,186,168367,1,8,0:0:0:0:
241,186,168528,1,0,0:0:0:0:
241,186,168689,1,8,0:0:0:0:
241,188,168850,1,0,0:0:0:0:
244,186,169173,1,0,0:0:0:0:
242,186,169334,1,8,0:0:0:0:
241,186,169496,1,0,0:0:0:0:
241,186,169576,1,0,0:0:0:0:
241,186,169657,1,0,0:0:0:0:
226,173,169979,1,8,0:0:0:0:
226,173,170141,1,8,0:0:0:0:
226,173,170302,1,4,0:0:0:0:
231,188,170625,1,0,0:0:0:0:
233,184,170786,1,0,0:0:0:0:
233,187,170947,1,8,0:0:0:0:
222,184,171109,1,0,0:0:0:0:
222,183,171270,1,8,0:0:0:0:
222,183,171431,1,0,0:0:0:0:
233,187,171915,1,0,0:0:0:0:
231,183,172076,1,0,0:0:0:0:
230,183,172238,1,8,0:0:0:0:
222,183,172399,1,0,0:0:0:0:
233,187,172560,1,8,0:0:0:0:
222,178,172883,1,0,0:0:0:0:
230,183,173205,1,0,0:0:0:0:
231,184,173367,1,0,0:0:0:0:
231,184,173528,1,8,0:0:0:0:
231,184,173689,1,0,0:0:0:0:
231,184,173850,1,8,0:0:0:0:
230,183,174012,1,0,0:0:0:0:
233,172,174092,1,0,0:0:0:0:
233,172,174173,1,0,0:0:0:0:
223,176,174334,1,0,0:0:0:0:
221,176,174496,1,0,0:0:0:0:
221,175,174657,1,0,0:0:0:0:
221,176,174818,1,12,0:0:0:0:
233,179,175463,1,4,0:0:0:0:
236,172,175786,1,0,0:0:0:0:
236,172,175947,1,0,0:0:0:0:
236,172,176109,1,8,0:0:0:0:
236,172,176270,1,0,0:0:0:0:
236,172,176431,1,8,0:0:0:0:
236,172,176592,1,0,0:0:0:0:
236,172,177076,1,0,0:0:0:0:
236,172,177238,1,0,0:0:0:0:
231,173,177399,1,8,0:0:0:0:
231,177,177560,1,0,0:0:0:0:
231,169,177721,1,8,0:0:0:0:
230,169,177802,1,8,0:0:0:0:
231,169,177883,1,8,0:0:0:0:
231,177,178044,1,0,0:0:0:0:
234,178,178367,1,0,0:0:0:0:
231,177,178528,1,0,0:0:0:0:
231,177,178689,1,8,0:0:0:0:
231,177,178850,1,0,0:0:0:0:
231,177,179012,1,8,0:0:0:0:
228,179,179173,1,0,0:0:0:0:
231,177,179496,1,0,0:0:0:0:
231,177,179657,1,8,0:0:0:0:
231,177,179818,1,0,0:0:0:0:
231,177,179899,1,0,0:0:0:0:
231,177,179979,1,0,0:0:0:0:
218,171,180302,1,8,0:0:0:0:
231,177,180463,1,8,0:0:0:0:
217,170,180625,1,4,0:0:0:0:
224,175,180947,1,0,0:0:0:0:
224,175,181109,1,0,0:0:0:0:
223,175,181270,1,8,0:0:0:0:
223,175,181431,1,0,0:0:0:0:
223,175,181592,1,8,0:0:0:0:
224,175,181754,1,0,0:0:0:0:
217,176,182238,1,8,0:0:0:0:
217,176,182399,1,0,0:0:0:0:
217,176,182560,1,8,0:0:0:0:
212,173,182721,1,8,0:0:0:0:
217,176,182883,1,0,0:0:0:0:
211,176,182963,1,0,0:0:0:0:
211,176,183044,1,0,0:0:0:0:
217,176,183205,1,0,0:0:0:0:
217,176,183528,1,0,0:0:0:0:
216,178,183689,1,0,0:0:0:0:
217,176,183850,1,8,0:0:0:0:
215,177,184012,1,0,0:0:0:0:
217,176,184173,1,8,0:0:0:0:
217,176,184334,1,0,0:0:0:0:
217,176,184415,1,0,0:0:0:0:
217,176,184496,1,0,0:0:0:0:
216,178,184657,1,0,0:0:0:0:
217,176,184818,1,0,0:0:0:0:
215,177,184979,1,0,0:0:0:0:
217,176,185141,1,12,0:0:0:0:
210,173,185463,1,12,0:0:0:0:
206,171,185786,1,4,0:0:0:0:
217,176,186109,1,0,0:0:0:0:
216,175,186270,1,8,0:0:0:0:
216,175,186350,1,8,0:0:0:0:
218,176,186431,1,8,0:0:0:0:
218,176,186592,1,0,0:0:0:0:
217,177,186754,1,8,0:0:0:0:
217,176,186915,1,0,0:0:0:0:
218,176,187399,1,8,0:0:0:0:
218,176,187560,1,0,0:0:0:0:
217,177,187721,1,8,0:0:0:0:
217,176,187883,1,8,0:0:0:0:
218,176,188044,1,0,0:0:0:0:
218,176,188125,1,0,0:0:0:0:
218,176,188205,1,0,0:0:0:0:
218,176,188367,1,8,0:0:0:0:
217,177,188689,1,0,0:0:0:0:
213,164,188850,1,8,0:0:0:0:
212,162,188931,1,8,0:0:0:0:
212,162,189012,1,8,0:0:0:0:
213,158,189173,1,0,0:0:0:0:
214,158,189334,1,8,0:0:0:0:
214,158,189496,1,0,0:0:0:0:
212,157,189818,1,0,0:0:0:0:
212,162,189979,1,8,0:0:0:0:
206,157,190141,1,0,0:0:0:0:
206,157,190221,1,0,0:0:0:0:
206,157,190302,1,0,0:0:0:0:
202,154,190463,1,0,0:0:0:0:
202,154,190625,1,8,0:0:0:0:
201,154,190786,1,8,0:0:0:0:
200,154,190947,1,4,0:0:0:0:
200,157,191270,1,0,0:0:0:0:
202,154,191431,1,8,0:0:0:0:
202,154,191512,1,8,0:0:0:0:
202,154,191592,1,8,0:0:0:0:
201,154,191754,1,0,0:0:0:0:
200,154,191915,1,8,0:0:0:0:
200,157,192076,1,0,0:0:0:0:
194,156,192560,1,8,0:0:0:0:
194,156,192721,1,0,0:0:0:0:
194,156,192802,1,0,0:0:0:0:
194,156,192883,1,0,0:0:0:0:
192,156,193044,1,0,0:0:0:0:
194,156,193205,1,8,0:0:0:0:
176,153,193367,1,8,0:0:0:0:
189,155,193528,1,0,0:0:0:0:
194,156,193850,1,0,0:0:0:0:
181,146,194012,1,8,0:0:0:0:
179,146,194092,1,8,0:0:0:0:
179,147,194173,1,8,0:0:0:0:
183,152,194334,1,0,0:0:0:0:
166,149,194496,1,8,0:0:0:0:
166,149,194657,1,0,0:0:0:0:
169,151,194818,1,0,0:0:0:0:
168,151,195141,1,0,0:0:0:0:
166,149,195463,1,12,0:0:0:0:
168,151,196109,1,4,0:0:0:0:
166,149,196431,1,0,0:0:0:0:
163,157,196592,1,8,0:0:0:0:
163,157,196673,1,8,0:0:0:0:
163,157,196754,1,8,0:0:0:0:
165,156,196915,1,0,0:0:0:0:
165,156,197076,1,8,0:0:0:0:
165,156,197238,1,0,0:0:0:0:
162,152,197560,1,0,0:0:0:0:
162,152,197721,1,8,0:0:0:0:
165,156,197883,1,0,0:0:0:0:
165,156,197963,1,0,0:0:0:0:
165,156,198044,1,0,0:0:0:0:
165,156,198205,1,0,0:0:0:0:
162,152,198367,1,8,0:0:0:0:
162,152,198528,1,8,0:0:0:0:
162,152,198689,1,0,0:0:0:0:
160,151,199012,1,0,0:0:0:0:
161,151,199173,1,8,0:0:0:0:
162,152,199254,1,8,0:0:0:0:
162,152,199334,1,8,0:0:0:0:
162,152,199496,1,0,0:0:0:0:
162,152,199657,1,8,0:0:0:0:
160,151,199818,1,0,0:0:0:0:
160,151,199979,1,0,0:0:0:0:
156,150,200302,1,0,0:0:0:0:
153,148,200463,1,8,0:0:0:0:
150,147,200544,1,8,0:0:0:0:
149,148,200625,1,8,0:0:0:0:
148,151,201270,1,4,0:0:0:0:
150,147,201592,1,0,0:0:0:0:
148,151,201754,1,8,0:0:0:0:
148,151,201834,1,8,0:0:0:0:
148,151,201915,1,8,0:0:0:0:
142,152,202076,1,0,0:0:0:0:
141,152,202238,1,8,0:0:0:0:
143,151,202399,1,0,0:0:0:0:
140,148,202721,1,0,0:0:0:0:
140,148,202883,1,8,0:0:0:0:
142,152,203044,1,0,0:0:0:0:
141,152,203125,1,0,0:0:0:0:
141,152,203205,1,0,0:0:0:0:
143,151,203367,1,0,0:0:0:0:
140,148,203528,1,8,0:0:0:0:
140,148,203850,1,0,0:0:0:0:
141,152,204173,1,0,0:0:0:0:
136,151,204334,1,0,0:0:0:0:
131,151,204496,1,8,0:0:0:0:
131,152,204657,1,0,0:0:0:0:
132,153,204818,1,8,0:0:0:0:
134,157,204899,1,8,0:0:0:0:
133,156,204979,1,8,0:0:0:0:
135,159,205141,1,0,0:0:0:0:
135,159,205463,1,0,0:0:0:0:
135,159,205786,1,12,0:0:0:0:
135,159,206431,1,4,0:0:0:0:
