osu file format v14

[General]
AudioFilename: audio.mp3
AudioLeadIn: 0
PreviewTime: 80867
Countdown: 1
SampleSet: Normal
StackLeniency: 0.7
Mode: 1
LetterboxInBreaks: 0
WidescreenStoryboard: 1

[Editor]
Bookmarks: 41270,82560,123850,144496,165141,206431
DistanceSpacing: 0.9
BeatDivisor: 8
GridSize: 32
TimelineZoom: 4.399998

[Metadata]
Title:forest of the spirits
TitleUnicode:forest of the spirits
Artist:sakuraburst
ArtistUnicode:sakuraburst
Creator:radar
Version:futsuu
Source:osu!
Tags:blood orange EP idealism fa featured artist mpg mg mappers guild electronic experimental instrumental
BeatmapID:2391112
BeatmapSetID:1141344

[Difficulty]
HPDrainRate:7
CircleSize:5
OverallDifficulty:3.5
ApproachRate:5
SliderMultiplier:1.4
SliderTickRate:1

[Events]
//Background and Video events
0,0,"hepatica-1393813_1920.jpg",0,0
//Break Periods
2,124050,143296
//Storyboard Layer 0 (Background)
//Storyboard Layer 1 (Fail)
//Storyboard Layer 2 (Pass)
//Storyboard Layer 3 (Foreground)
//Storyboard Layer 4 (Overlay)
//Storyboard Sound Samples

[TimingPoints]
-20,322.58064516129,4,1,0,100,1,0
-20,-133.333333333333,4,1,0,100,0,0
20625,-117.647058823529,4,1,0,100,0,0
41270,-133.333333333333,4,1,0,100,0,0
57641,-153.846153846154,4,1,0,100,0,0
61189,-181.818181818182,4,1,0,100,0,0
79979,-222.222222222222,4,1,0,100,0,0
82560,-100,4,1,0,100,0,0
123205,-83.3333333333333,4,1,0,100,0,0
123528,-90.9090909090909,4,1,0,100,0,0
124173,-166.666666666667,4,1,0,100,0,0
144496,-125,4,1,0,100,0,0
154818,-111.111111111111,4,1,0,100,0,0
162479,-100,4,1,0,100,0,0
162641,-166.666666666667,4,1,0,100,0,0
165141,-95.2380952380952,4,1,0,100,0,1
165463,-100,4,1,0,100,0,1
206431,-95.2380952380952,4,1,0,100,0,0

[HitObjects]
112,266,20,5,0,0:0:0:0:
117,256,625,1,8,0:0:0:0:
120,259,1270,1,8,0:0:0:0:
118,263,2560,1,0,0:0:0:0:
118,263,3205,1,8,0:0:0:0:
119,246,3850,1,8,0:0:0:0:
117,255,5141,1,0,0:0:0:0:
117,255,5786,1,8,0:0:0:0:
117,255,6431,1,8,0:0:0:0:
143,290,7721,1,0,0:0:0:0:
143,290,8367,1,8,0:0:0:0:
143,290,9012,1,8,0:0:0:0:
143,290,10302,1,0,0:0:0:0:
143,290,10947,1,8,0:0:0:0:
143,290,11592,1,8,0:0:0:0:
143,290,12883,1,0,0:0:0:0:
143,290,13528,1,8,0:0:0:0:
143,290,14173,1,8,0:0:0:0:
143,290,15463,1,0,0:0:0:0:
143,290,16109,1,8,0:0:0:0:
143,290,16754,1,8,0:0:0:0:
143,290,18044,1,0,0:0:0:0:
143,290,18689,1,8,0:0:0:0:
143,290,19334,1,8,0:0:0:0:
78,23,20625,1,12,0:0:0:0:
104,279,21592,1,0,0:0:0:0:
104,279,22560,1,0,0:0:0:0:
116,281,23528,1,0,0:0:0:0:
121,281,23850,1,8,0:0:0:0:
121,281,24173,1,0,0:0:0:0:
119,284,25141,1,0,0:0:0:0:
119,284,25786,1,8,0:0:0:0:
119,284,26754,1,8,0:0:0:0:
119,284,27721,1,8,0:0:0:0:
108,282,28689,1,0,0:0:0:0:
108,282,29334,1,8,0:0:0:0:
108,282,29979,1,8,0:0:0:0:
108,282,30302,1,0,0:0:0:0:
99,298,30947,1,8,0:0:0:0:
99,298,31915,1,0,0:0:0:0:
99,298,32883,1,0,0:0:0:0:
99,298,33850,1,0,0:0:0:0:
99,298,34173,1,8,0:0:0:0:
99,298,34496,1,0,0:0:0:0:
99,298,35463,1,0,0:0:0:0:
99,298,36109,1,8,0:0:0:0:
99,298,37076,1,8,0:0:0:0:
99,298,38044,1,8,0:0:0:0:
101,294,39012,1,0,0:0:0:0:
101,294,39657,1,8,0:0:0:0:
101,292,40625,1,8,0:0:0:0:
101,292,41270,1,0,0:0:0:0:
102,302,41915,1,8,0:0:0:0:
102,302,42560,1,8,0:0:0:0:
102,302,43205,1,0,0:0:0:0:
102,302,43528,1,8,0:0:0:0:
102,302,43850,1,0,0:0:0:0:
102,302,44496,1,8,0:0:0:0:
102,302,45141,1,8,0:0:0:0:
102,302,45786,1,0,0:0:0:0:
102,302,46109,1,8,0:0:0:0:
102,302,46431,1,0,0:0:0:0:
102,302,47076,1,8,0:0:0:0:
117,296,47721,1,8,0:0:0:0:
117,296,48367,1,0,0:0:0:0:
117,296,48689,1,8,0:0:0:0:
117,296,49012,1,0,0:0:0:0:
110,295,49657,1,8,0:0:0:0:
110,295,50302,1,8,0:0:0:0:
110,295,50947,1,8,0:0:0:0:
104,290,51270,1,0,0:0:0:0:
104,288,51592,1,8,0:0:0:0:
104,290,52560,1,8,0:0:0:0:
104,288,53528,1,0,0:0:0:0:
104,288,54173,1,8,0:0:0:0:
104,290,55141,1,8,0:0:0:0:
104,288,56109,1,8,0:0:0:0:
104,290,56431,1,8,0:0:0:0:
89,270,56754,1,8,0:0:0:0:
81,270,57721,1,0,0:0:0:0:
76,273,61270,1,8,0:0:0:0:
102,249,61915,2,0,L|189:249,1,77.0000023498536
80,275,62560,1,0,0:0:0:0:
71,279,65141,1,0,0:0:0:0:
71,279,67721,1,0,0:0:0:0:
71,279,70302,1,0,0:0:0:0:
75,278,72238,1,0,0:0:0:0:
75,278,72883,1,8,0:0:0:0:
74,278,74173,1,0,0:0:0:0:
74,278,75463,1,0,0:0:0:0:
74,278,76109,1,0,0:0:0:0:
74,278,78044,1,0,0:0:0:0:
71,278,79979,1,0,0:0:0:0:
98,44,82560,5,4,0:0:0:0:
104,285,82883,1,0,0:0:0:0:
104,285,83044,1,0,0:0:0:0:
104,285,83205,1,8,0:0:0:0:
104,285,83528,1,8,0:0:0:0:
104,285,83850,1,0,0:0:0:0:
104,285,84173,1,8,0:0:0:0:
104,285,84334,1,0,0:0:0:0:
104,285,84657,1,0,0:0:0:0:
104,285,84818,1,8,0:0:0:0:
104,285,85141,1,0,0:0:0:0:
104,285,85463,1,0,0:0:0:0:
100,302,85625,1,8,0:0:0:0:
104,285,85786,1,8,0:0:0:0:
109,293,86109,1,8,0:0:0:0:
109,293,86270,1,0,0:0:0:0:
109,293,86431,1,0,0:0:0:0:
109,293,86754,1,0,0:0:0:0:
109,293,86915,1,0,0:0:0:0:
108,0,87076,1,12,0:0:0:0:
109,293,87721,1,0,0:0:0:0:
109,293,88044,1,8,0:0:0:0:
109,293,88367,1,0,0:0:0:0:
109,293,88528,1,8,0:0:0:0:
109,293,88689,1,8,0:0:0:0:
109,293,89012,1,0,0:0:0:0:
109,293,89334,1,0,0:0:0:0:
113,290,89496,1,8,0:0:0:0:
113,290,89818,1,0,0:0:0:0:
113,290,89979,1,8,0:0:0:0:
113,290,90302,1,0,0:0:0:0:
113,290,90625,1,8,0:0:0:0:
113,290,90786,1,8,0:0:0:0:
113,290,90947,1,0,0:0:0:0:
113,290,91592,1,0,0:0:0:0:
113,290,92076,1,0,0:0:0:0:
71,79,92238,1,12,0:0:0:0:
115,300,92560,1,8,0:0:0:0:
115,300,92721,1,8,0:0:0:0:
129,35,92883,1,4,0:0:0:0:
110,293,93205,1,0,0:0:0:0:
110,293,93367,1,0,0:0:0:0:
110,292,93528,1,8,0:0:0:0:
110,293,93850,1,8,0:0:0:0:
110,292,94173,1,0,0:0:0:0:
110,293,94496,1,0,0:0:0:0:
114,283,94657,1,8,0:0:0:0:
114,283,94979,1,0,0:0:0:0:
114,282,95141,1,8,0:0:0:0:
119,279,95463,1,0,0:0:0:0:
119,279,95625,1,0,0:0:0:0:
119,279,95786,1,8,0:0:0:0:
119,279,96109,1,0,0:0:0:0:
119,279,96431,1,8,0:0:0:0:
119,279,96592,1,8,0:0:0:0:
119,279,96754,1,0,0:0:0:0:
119,279,97076,1,0,0:0:0:0:
119,279,97238,1,0,0:0:0:0:
113,25,97399,1,12,0:0:0:0:
119,279,98044,1,0,0:0:0:0:
119,279,98367,1,0,0:0:0:0:
119,279,98689,1,8,0:0:0:0:
119,279,98850,1,8,0:0:0:0:
123,286,99012,1,0,0:0:0:0:
119,279,99334,1,0,0:0:0:0:
119,255,99657,1,8,0:0:0:0:
119,279,99818,1,0,0:0:0:0:
121,272,100141,1,0,0:0:0:0:
121,272,100302,1,8,0:0:0:0:
123,266,100463,1,0,0:0:0:0:
121,272,100625,1,8,0:0:0:0:
123,267,100947,1,0,0:0:0:0:
120,263,101109,1,0,0:0:0:0:
123,273,101592,1,8,0:0:0:0:
123,273,101915,1,0,0:0:0:0:
123,273,102399,1,0,0:0:0:0:
116,32,102560,1,12,0:0:0:0:
121,31,103205,1,4,0:0:0:0:
131,292,103528,1,0,0:0:0:0:
131,292,103689,1,0,0:0:0:0:
131,292,103850,1,8,0:0:0:0:
131,292,104173,1,8,0:0:0:0:
131,292,104496,1,0,0:0:0:0:
131,292,104657,1,8,0:0:0:0:
131,292,104979,1,0,0:0:0:0:
131,292,105141,1,8,0:0:0:0:
131,292,105463,1,8,0:0:0:0:
131,292,105625,1,8,0:0:0:0:
131,292,105786,1,0,0:0:0:0:
131,292,106109,1,8,0:0:0:0:
131,292,106431,1,0,0:0:0:0:
131,292,106592,1,8,0:0:0:0:
131,292,106754,1,0,0:0:0:0:
131,292,107076,1,8,0:0:0:0:
135,289,107399,1,0,0:0:0:0:
135,289,107560,1,0,0:0:0:0:
132,0,107721,1,12,0:0:0:0:
135,289,108367,1,0,0:0:0:0:
129,308,108689,1,0,0:0:0:0:
129,308,109012,1,8,0:0:0:0:
129,308,109173,1,0,0:0:0:0:
129,308,109496,1,0,0:0:0:0:
129,308,109657,1,8,0:0:0:0:
143,329,109979,1,0,0:0:0:0:
138,325,110302,1,8,0:0:0:0:
138,325,110625,1,0,0:0:0:0:
138,325,110786,1,8,0:0:0:0:
138,325,110947,1,8,0:0:0:0:
138,325,111270,1,0,0:0:0:0:
138,325,111592,1,0,0:0:0:0:
133,322,111754,1,8,0:0:0:0:
133,322,112076,1,0,0:0:0:0:
133,322,112238,1,8,0:0:0:0:
133,322,112560,1,0,0:0:0:0:
114,0,112883,1,12,0:0:0:0:
133,322,113205,1,8,0:0:0:0:
133,322,113367,1,8,0:0:0:0:
89,0,113528,1,4,0:0:0:0:
138,324,114173,1,8,0:0:0:0:
138,324,114334,1,0,0:0:0:0:
145,304,114657,1,0,0:0:0:0:
138,324,114818,1,8,0:0:0:0:
145,308,115141,1,0,0:0:0:0:
155,296,115463,1,8,0:0:0:0:
145,308,115625,1,0,0:0:0:0:
145,308,115786,1,8,0:0:0:0:
145,308,116109,1,0,0:0:0:0:
145,308,116431,1,8,0:0:0:0:
145,308,116754,1,0,0:0:0:0:
145,308,116915,1,8,0:0:0:0:
145,308,117399,1,0,0:0:0:0:
145,308,117721,1,8,0:0:0:0:
137,306,117883,1,0,0:0:0:0:
166,0,118044,1,12,0:0:0:0:
145,308,118367,1,0,0:0:0:0:
145,308,118689,1,0,0:0:0:0:
145,308,119334,1,8,0:0:0:0:
151,314,119496,1,8,0:0:0:0:
145,308,119657,1,0,0:0:0:0:
145,308,119979,1,8,0:0:0:0:
145,308,120302,1,0,0:0:0:0:
145,308,120625,1,8,0:0:0:0:
145,308,120786,1,8,0:0:0:0:
145,308,120947,1,0,0:0:0:0:
123,297,121270,1,0,0:0:0:0:
106,311,122238,1,0,0:0:0:0:
256,192,122560,12,0,123044,0:0:0:0:
89,28,123205,5,12,0:0:0:0:
123,280,123528,1,8,0:0:0:0:
123,280,123689,1,8,0:0:0:0:
123,280,123850,1,0,0:0:0:0:
214,351,144496,5,4,0:0:0:0:
214,351,144818,1,0,0:0:0:0:
214,351,144979,1,0,0:0:0:0:
214,351,145141,1,8,0:0:0:0:
214,351,145463,1,8,0:0:0:0:
214,351,145786,1,0,0:0:0:0:
214,351,146109,1,0,0:0:0:0:
214,351,146270,1,8,0:0:0:0:
214,351,146592,1,0,0:0:0:0:
214,351,146754,1,8,0:0:0:0:
214,351,146915,1,0,0:0:0:0:
210,359,147238,1,8,0:0:0:0:
210,359,147399,1,0,0:0:0:0:
196,360,147721,1,0,0:0:0:0:
213,356,147883,1,0,0:0:0:0:
210,359,148044,1,8,0:0:0:0:
210,359,148367,1,0,0:0:0:0:
214,357,148850,1,0,0:0:0:0:
214,356,149334,1,8,0:0:0:0:
220,373,149657,1,0,0:0:0:0:
214,356,149979,1,8,0:0:0:0:
208,356,150302,1,8,0:0:0:0:
207,356,150463,1,8,0:0:0:0:
199,354,150625,1,0,0:0:0:0:
187,355,150947,1,8,0:0:0:0:
198,354,151270,1,0,0:0:0:0:
198,354,151431,1,8,0:0:0:0:
199,354,151754,1,0,0:0:0:0:
194,353,151915,1,8,0:0:0:0:
198,354,152076,1,0,0:0:0:0:
198,354,152399,1,8,0:0:0:0:
194,353,152560,1,0,0:0:0:0:
194,353,152883,1,8,0:0:0:0:
182,353,153044,1,8,0:0:0:0:
189,353,153205,1,0,0:0:0:0:
189,352,153528,1,8,0:0:0:0:
182,352,153850,1,0,0:0:0:0:
181,352,154012,1,8,0:0:0:0:
189,352,154334,1,0,0:0:0:0:
189,352,154496,1,8,0:0:0:0:
182,352,154818,1,4,0:0:0:0:
184,355,155463,1,8,0:0:0:0:
182,352,155786,1,8,0:0:0:0:
184,355,156109,1,0,0:0:0:0:
164,361,156431,1,0,0:0:0:0:
164,361,156592,1,8,0:0:0:0:
162,358,156915,1,0,0:0:0:0:
164,361,157076,1,8,0:0:0:0:
164,361,157238,1,8,0:0:0:0:
164,361,157399,1,4,0:0:0:0:
164,361,158044,1,8,0:0:0:0:
164,361,158367,1,8,0:0:0:0:
164,361,158689,1,0,0:0:0:0:
164,361,159012,1,0,0:0:0:0:
164,361,159173,1,8,0:0:0:0:
164,361,159496,1,0,0:0:0:0:
164,361,159657,1,8,0:0:0:0:
164,361,159818,1,8,0:0:0:0:
164,361,159979,1,4,0:0:0:0:
164,361,160302,1,0,0:0:0:0:
164,361,160625,1,0,0:0:0:0:
164,361,160947,1,0,0:0:0:0:
164,361,161270,1,0,0:0:0:0:
164,361,161592,1,0,0:0:0:0:
164,361,161915,1,0,0:0:0:0:
159,358,162238,1,0,0:0:0:0:
174,362,162560,1,4,0:0:0:0:
212,346,165141,1,4,0:0:0:0:
208,341,165463,1,0,0:0:0:0:
208,341,165625,1,0,0:0:0:0:
208,341,165786,1,8,0:0:0:0:
212,346,166109,1,8,0:0:0:0:
214,341,166270,1,0,0:0:0:0:
208,341,166754,1,0,0:0:0:0:
213,341,166915,1,0,0:0:0:0:
202,340,167076,1,8,0:0:0:0:
208,341,167399,1,8,0:0:0:0:
192,332,167560,1,8,0:0:0:0:
202,340,167721,1,0,0:0:0:0:
202,340,168044,1,0,0:0:0:0:
202,345,168205,1,0,0:0:0:0:
200,345,168367,1,8,0:0:0:0:
199,345,168689,1,8,0:0:0:0:
199,347,168850,1,0,0:0:0:0:
202,345,169173,1,0,0:0:0:0:
200,345,169334,1,8,0:0:0:0:
199,345,169496,1,0,0:0:0:0:
139,23,169657,1,12,0:0:0:0:
184,332,170302,1,4,0:0:0:0:
189,347,170625,1,0,0:0:0:0:
191,343,170786,1,0,0:0:0:0:
191,346,170947,1,8,0:0:0:0:
180,342,171270,1,8,0:0:0:0:
180,342,171431,1,0,0:0:0:0:
191,346,171915,1,0,0:0:0:0:
189,342,172076,1,0,0:0:0:0:
188,342,172238,1,8,0:0:0:0:
191,346,172560,1,8,0:0:0:0:
174,341,172721,1,8,0:0:0:0:
180,337,172883,1,0,0:0:0:0:
188,342,173205,1,0,0:0:0:0:
189,343,173367,1,0,0:0:0:0:
189,343,173528,1,8,0:0:0:0:
189,343,173850,1,8,0:0:0:0:
191,331,174173,1,0,0:0:0:0:
181,335,174334,1,0,0:0:0:0:
179,335,174496,1,0,0:0:0:0:
179,334,174657,1,0,0:0:0:0:
179,335,174818,1,12,0:0:0:0:
191,338,175463,1,4,0:0:0:0:
194,331,175786,1,0,0:0:0:0:
194,331,175947,1,0,0:0:0:0:
194,331,176109,1,8,0:0:0:0:
194,331,176431,1,8,0:0:0:0:
194,331,176592,1,0,0:0:0:0:
194,331,177076,1,0,0:0:0:0:
194,331,177238,1,0,0:0:0:0:
189,332,177399,1,8,0:0:0:0:
189,328,177721,1,8,0:0:0:0:
189,328,177883,1,8,0:0:0:0:
189,336,178044,1,0,0:0:0:0:
192,337,178367,1,0,0:0:0:0:
189,336,178528,1,0,0:0:0:0:
189,336,178689,1,8,0:0:0:0:
189,336,179012,1,8,0:0:0:0:
186,338,179173,1,0,0:0:0:0:
189,336,179496,1,0,0:0:0:0:
189,336,179657,1,8,0:0:0:0:
189,336,179818,1,0,0:0:0:0:
104,0,179979,1,12,0:0:0:0:
175,329,180625,1,4,0:0:0:0:
182,334,180947,1,0,0:0:0:0:
182,334,181109,1,0,0:0:0:0:
181,334,181270,1,8,0:0:0:0:
181,334,181592,1,8,0:0:0:0:
182,334,181754,1,0,0:0:0:0:
182,334,182238,1,8,0:0:0:0:
175,335,182399,1,0,0:0:0:0:
175,335,182560,1,8,0:0:0:0:
175,335,182883,1,8,0:0:0:0:
169,335,183044,1,8,0:0:0:0:
175,335,183205,1,0,0:0:0:0:
175,335,183528,1,0,0:0:0:0:
174,337,183689,1,0,0:0:0:0:
175,335,183850,1,8,0:0:0:0:
175,335,184173,1,8,0:0:0:0:
175,335,184496,1,0,0:0:0:0:
174,337,184657,1,0,0:0:0:0:
175,335,184818,1,0,0:0:0:0:
173,336,184979,1,0,0:0:0:0:
70,18,185141,1,12,0:0:0:0:
119,0,185463,1,12,0:0:0:0:
164,330,185786,1,4,0:0:0:0:
175,335,186109,1,0,0:0:0:0:
174,334,186270,1,8,0:0:0:0:
176,335,186431,1,8,0:0:0:0:
176,335,186592,1,0,0:0:0:0:
175,336,186754,1,8,0:0:0:0:
164,329,187076,1,0,0:0:0:0:
176,335,187399,1,8,0:0:0:0:
176,335,187560,1,0,0:0:0:0:
175,336,187721,1,8,0:0:0:0:
176,335,188044,1,0,0:0:0:0:
176,335,188205,1,0,0:0:0:0:
176,335,188367,1,8,0:0:0:0:
175,336,188689,1,0,0:0:0:0:
171,323,188850,1,8,0:0:0:0:
170,321,189012,1,8,0:0:0:0:
171,317,189173,1,0,0:0:0:0:
172,317,189334,1,8,0:0:0:0:
170,316,189657,1,0,0:0:0:0:
33,170,190302,1,12,0:0:0:0:
160,313,190625,1,8,0:0:0:0:
159,313,190786,1,8,0:0:0:0:
158,313,190947,1,4,0:0:0:0:
158,316,191270,1,0,0:0:0:0:
160,313,191431,1,8,0:0:0:0:
160,313,191592,1,8,0:0:0:0:
159,313,191754,1,0,0:0:0:0:
158,313,191915,1,8,0:0:0:0:
158,316,192238,1,0,0:0:0:0:
152,315,192560,1,8,0:0:0:0:
152,301,192721,1,0,0:0:0:0:
152,315,192883,1,8,0:0:0:0:
152,315,193205,1,8,0:0:0:0:
134,312,193367,1,8,0:0:0:0:
147,314,193528,1,0,0:0:0:0:
152,315,193850,1,0,0:0:0:0:
139,305,194012,1,8,0:0:0:0:
137,306,194173,1,8,0:0:0:0:
141,311,194334,1,0,0:0:0:0:
124,308,194496,1,8,0:0:0:0:
127,310,194818,1,0,0:0:0:0:
126,310,195141,1,0,0:0:0:0:
124,308,195463,1,12,0:0:0:0:
126,310,196109,1,4,0:0:0:0:
124,308,196431,1,0,0:0:0:0:
121,316,196592,1,8,0:0:0:0:
121,316,196754,1,8,0:0:0:0:
123,315,196915,1,0,0:0:0:0:
123,315,197076,1,8,0:0:0:0:
123,315,197399,1,0,0:0:0:0:
120,311,197721,1,8,0:0:0:0:
123,315,197883,1,0,0:0:0:0:
125,310,198044,1,8,0:0:0:0:
120,311,198367,1,8,0:0:0:0:
120,311,198528,1,8,0:0:0:0:
120,311,198689,1,0,0:0:0:0:
118,310,199012,1,0,0:0:0:0:
119,310,199173,1,8,0:0:0:0:
120,311,199334,1,8,0:0:0:0:
120,311,199496,1,0,0:0:0:0:
120,311,199657,1,8,0:0:0:0:
118,310,199979,1,0,0:0:0:0:
114,309,200302,1,0,0:0:0:0:
107,307,200625,1,12,0:0:0:0:
106,310,201270,1,4,0:0:0:0:
108,306,201592,1,0,0:0:0:0:
106,310,201754,1,8,0:0:0:0:
106,310,201915,1,8,0:0:0:0:
100,311,202076,1,0,0:0:0:0:
99,311,202238,1,8,0:0:0:0:
101,310,202560,1,0,0:0:0:0:
98,307,202883,1,8,0:0:0:0:
99,311,203205,1,0,0:0:0:0:
101,310,203367,1,0,0:0:0:0:
98,307,203528,1,8,0:0:0:0:
98,307,203850,1,0,0:0:0:0:
99,311,204173,1,0,0:0:0:0:
89,310,204496,1,8,0:0:0:0:
89,311,204657,1,0,0:0:0:0:
90,312,204818,1,8,0:0:0:0:
91,315,204979,1,8,0:0:0:0:
93,318,205141,1,0,0:0:0:0:
93,318,205463,1,0,0:0:0:0:
93,318,205786,1,12,0:0:0:0:
93,318,206431,1,4,0:0:0:0:
