osu file format v14

[General]
AudioFilename: audio.mp3
AudioLeadIn: 0
PreviewTime: -1
Countdown: 0
SampleSet: Soft
StackLeniency: 0.7
Mode: 3
LetterboxInBreaks: 0
SpecialStyle: 0
WidescreenStoryboard: 1

[Editor]
Bookmarks: 82560,190463,200786
DistanceSpacing: 0.5
BeatDivisor: 8
GridSize: 4
TimelineZoom: 2

[Metadata]
Title:forest of the spirits
TitleUnicode:forest of the spirits
Artist:sakuraburst
ArtistUnicode:sakuraburst
Creator:Nick Wilde
Version:spiritual exaltation.
Source:
Tags:
BeatmapID:1581546
BeatmapSetID:751180

[Difficulty]
HPDrainRate:5
CircleSize:4
OverallDifficulty:5
ApproachRate:5
SliderMultiplier:1.4
SliderTickRate:1

[Events]
//Background and Video events
0,0,"menu-background.jpg",0,0
//Break Periods
//Storyboard Layer 0 (Background)
//Storyboard Layer 1 (Fail)
//Storyboard Layer 2 (Pass)
//Storyboard Layer 3 (Foreground)
//Storyboard Sound Samples

[TimingPoints]
-20,322.58064516129,4,2,0,0,1,0
-19,-133.333333333333,4,2,0,0,0,0
39657,-133.333333333333,4,1,0,15,0,0
39690.6041666667,-131.687242798354,4,1,0,15,0,0
39724.2083333333,-130.081300813008,4,1,0,15,0,0
39757.8125,-128.5140562249,4,1,0,15,0,0
39791.4166666667,-126.984126984127,4,1,0,15,0,0
39825.0208333333,-125.490196078431,4,1,0,15,0,0
39858.625,-124.031007751938,4,1,0,15,0,0
39892.2291666667,-122.605363984674,4,1,0,15,0,0
39925.8333333333,-121.212121212121,4,1,0,15,0,0
39959.4375,-119.850187265918,4,1,0,15,0,0
39993.0416666667,-118.518518518519,4,1,0,15,0,0
40026.6458333333,-117.216117216117,4,1,0,15,0,0
40060.25,-115.942028985507,4,1,0,15,0,0
40093.8541666667,-114.695340501792,4,1,0,15,0,0
40127.4583333333,-113.475177304965,4,1,0,15,0,0
40161.0625,-112.280701754386,4,1,0,15,0,0
40194.6666666667,-111.111111111111,4,1,0,15,0,0
40228.2708333333,-109.965635738832,4,1,0,15,0,0
40261.875,-108.843537414966,4,1,0,15,0,0
40295.4791666667,-107.744107744108,4,1,0,15,0,0
40329.0833333333,-106.666666666667,4,1,0,15,0,0
40362.6875,-105.610561056106,4,1,0,15,0,0
40396.2916666667,-104.575163398693,4,1,0,15,0,0
40429.8958333333,-103.559870550162,4,1,0,15,0,0
40463.5,-102.564102564103,4,1,0,15,0,0
40497.1041666667,-101.587301587302,4,1,0,15,0,0
40530.7083333333,-100.62893081761,4,1,0,15,0,0
40564.3125,-99.6884735202492,4,1,0,15,0,0
40597.9166666667,-98.7654320987654,4,1,0,15,0,0
40631.5208333333,-97.8593272171254,4,1,0,15,0,0
40665.125,-96.969696969697,4,1,0,15,0,0
40698.7291666667,-96.0960960960961,4,1,0,15,0,0
40732.3333333333,-95.2380952380952,4,1,0,15,0,0
40765.9375,-94.3952802359882,4,1,0,15,0,0
40799.5416666667,-93.5672514619883,4,1,0,15,0,0
40833.1458333333,-92.7536231884058,4,1,0,15,0,0
40866.75,-91.9540229885058,4,1,0,15,0,0
40900.3541666667,-91.1680911680912,4,1,0,15,0,0
40933.9583333333,-90.3954802259887,4,1,0,15,0,0
40967.5625,-89.6358543417367,4,1,0,15,0,0
41001.1666666667,-88.8888888888889,4,1,0,15,0,0
41034.7708333333,-88.1542699724518,4,1,0,15,0,0
41068.375,-87.431693989071,4,1,0,15,0,0
41101.9791666667,-86.7208672086721,4,1,0,15,0,0
41135.5833333333,-86.0215053763441,4,1,0,15,0,0
41169.1875,-85.3333333333333,4,1,0,15,0,0
41202.7916666667,-84.6560846560847,4,1,0,15,0,0
41236.3958333333,-83.989501312336,4,1,0,15,0,0
41270,-133.333333333333,4,1,0,15,0,0
54173,-133.333333333333,4,1,0,15,0,0
54233.484375,-132.642487046632,4,1,0,15,0,0
54293.96875,-131.958762886598,4,1,0,15,0,0
54354.453125,-131.282051282051,4,1,0,15,0,0
54414.9375,-130.612244897959,4,1,0,15,0,0
54475.421875,-129.94923857868,4,1,0,15,0,0
54535.90625,-129.292929292929,4,1,0,15,0,0
54596.390625,-128.643216080402,4,1,0,15,0,0
54656.875,-128,4,1,0,15,0,0
54717.359375,-127.363184079602,4,1,0,15,0,0
54777.84375,-126.732673267327,4,1,0,15,0,0
54838.328125,-126.108374384236,4,1,0,15,0,0
54898.8125,-125.490196078431,4,1,0,15,0,0
54959.296875,-124.878048780488,4,1,0,15,0,0
55019.78125,-124.271844660194,4,1,0,15,0,0
55080.265625,-123.671497584541,4,1,0,15,0,0
55140.75,-123.076923076923,4,1,0,15,0,0
55201.234375,-122.488038277512,4,1,0,15,0,0
55261.71875,-121.904761904762,4,1,0,15,0,0
55322.203125,-121.327014218009,4,1,0,15,0,0
55382.6875,-120.754716981132,4,1,0,15,0,0
55443.171875,-120.18779342723,4,1,0,15,0,0
55503.65625,-119.626168224299,4,1,0,15,0,0
55564.140625,-119.06976744186,4,1,0,15,0,0
55624.625,-118.518518518519,4,1,0,15,0,0
55685.109375,-117.972350230415,4,1,0,15,0,0
55745.59375,-117.43119266055,4,1,0,15,0,0
55806.078125,-116.89497716895,4,1,0,15,0,0
55866.5625,-116.363636363636,4,1,0,15,0,0
55927.046875,-115.837104072398,4,1,0,15,0,0
55987.53125,-115.315315315315,4,1,0,15,0,0
56048.015625,-114.798206278027,4,1,0,15,0,0
56108.5,-114.285714285714,4,1,0,15,0,0
56168.984375,-113.777777777778,4,1,0,15,0,0
56229.46875,-113.274336283186,4,1,0,15,0,0
56289.953125,-112.775330396476,4,1,0,15,0,0
56350.4375,-112.280701754386,4,1,0,15,0,0
56410.921875,-111.7903930131,4,1,0,15,0,0
56471.40625,-111.304347826087,4,1,0,15,0,0
56531.890625,-110.822510822511,4,1,0,15,0,0
56592.375,-110.344827586207,4,1,0,15,0,0
56652.859375,-109.871244635193,4,1,0,15,0,0
56713.34375,-109.401709401709,4,1,0,15,0,0
56773.828125,-108.936170212766,4,1,0,15,0,0
56834.3125,-108.474576271186,4,1,0,15,0,0
56894.796875,-108.016877637131,4,1,0,15,0,0
56955.28125,-107.563025210084,4,1,0,15,0,0
57015.765625,-107.112970711297,4,1,0,15,0,0
57076.25,-106.666666666667,4,1,0,15,0,0
57136.734375,-106.224066390042,4,1,0,15,0,0
57197.21875,-105.785123966942,4,1,0,15,0,0
57257.703125,-105.349794238683,4,1,0,15,0,0
57318.1875,-104.918032786885,4,1,0,15,0,0
57378.671875,-104.489795918367,4,1,0,15,0,0
57439.15625,-104.065040650407,4,1,0,15,0,0
57499.640625,-103.643724696356,4,1,0,15,0,0
57560.125,-103.225806451613,4,1,0,15,0,0
57620.609375,-102.81124497992,4,1,0,15,0,0
57681.09375,-102.4,4,1,0,15,0,0
57741.578125,-101.99203187251,4,1,0,15,0,0
57802.0625,-101.587301587302,4,1,0,15,0,0
57862.546875,-101.185770750988,4,1,0,15,0,0
57923.03125,-100.787401574803,4,1,0,15,0,0
57983.515625,-100.392156862745,4,1,0,15,0,0
58044,-100,4,1,0,15,0,0
70786,-133.333333333333,4,1,0,15,0,0
70867,-100,4,1,0,15,0,0
71189,-133.333333333333,4,1,0,15,0,0
71229,-100,4,1,0,15,0,0
71270,-133.333333333333,4,1,0,15,0,0
71310,-100,4,1,0,15,0,0
71592,-133.333333333333,4,1,0,15,0,0
71673,-100,4,1,0,15,0,0
71915,-133.333333333333,4,1,0,15,0,0
72157,-117.647058823529,4,1,0,15,0,0
72197,-105.263157894737,4,1,0,15,0,0
72238,-100,4,1,0,15,0,0
79979,-10,4,2,0,0,0,0
79989,-500,4,2,0,0,0,0
82238,-500,4,1,0,15,0,0
82258.125,-372.093023255814,4,1,0,15,0,0
82278.25,-296.296296296296,4,1,0,15,0,0
82298.375,-246.153846153846,4,1,0,15,0,0
82318.5,-210.526315789474,4,1,0,15,0,0
82338.625,-183.908045977012,4,1,0,15,0,0
82358.75,-163.265306122449,4,1,0,15,0,0
82378.875,-146.788990825688,4,1,0,15,0,0
82399,-133.333333333333,4,1,0,15,0,0
82419.125,-122.137404580153,4,1,0,15,0,0
82439.25,-112.676056338028,4,1,0,15,0,0
82459.375,-104.575163398693,4,1,0,15,0,0
82479.5,-97.5609756097561,4,1,0,15,0,0
82499.625,-91.4285714285714,4,1,0,15,0,0
82519.75,-86.0215053763441,4,1,0,15,0,0
82539.875,-81.2182741116751,4,1,0,15,0,0
82560,-76.9230769230769,4,1,0,15,0,0
82570,-100,4,1,0,15,0,0
87076,-33.3333333333333,4,2,0,0,0,0
87086,-500,4,2,0,0,0,0
87096,-33.3333333333333,4,2,0,0,0,0
87106,-500,4,2,0,0,0,0
87117,-33.3333333333333,4,2,0,0,0,0
87127,-500,4,2,0,0,0,0
87137,-33.3333333333333,4,2,0,0,0,0
87147,-500,4,2,0,0,0,0
87157,-33.3333333333333,4,2,0,0,0,0
87167,-500,4,2,0,0,0,0
87177,-100,4,2,0,0,0,0
92721,-40,4,2,0,0,0,0
92731,-125,4,2,0,0,0,0
92775,-40,4,2,0,0,0,0
92785,-125,4,2,0,0,0,0
92829,-40,4,2,0,0,0,0
92839,-125,4,2,0,0,0,0
92883,-40,4,2,0,0,0,0
92893,-100,4,2,0,0,0,0
101270,-1000,4,2,0,0,0,0
101295,-100,4,2,0,0,0,0
101377,-25,4,2,0,0,0,0
101387,-300.0300030003,4,2,0,0,0,0
101431,-25,4,2,0,0,0,0
101441,-300.0300030003,4,2,0,0,0,0
101485,-25,4,2,0,0,0,0
101495,-300.0300030003,4,2,0,0,0,0
101539,-25,4,2,0,0,0,0
101549,-300.0300030003,4,2,0,0,0,0
101592,-25,4,2,0,0,0,0
101602,-300.0300030003,4,2,0,0,0,0
101646,-25,4,2,0,0,0,0
101656,-300.0300030003,4,2,0,0,0,0
101700,-25,4,2,0,0,0,0
101710,-300.0300030003,4,2,0,0,0,0
101754,-10000,4,2,0,0,0,0
101759,-10,4,2,0,0,0,0
101769,-100,4,2,0,0,0,0
101915,-50,4,2,0,0,0,0
101925,-100,4,2,0,0,0,0
102560,-12.5,4,2,0,0,0,0
102570,-100,4,2,0,0,0,0
113367,-40,4,2,0,0,0,0
113377,-125,4,2,0,0,0,0
113420,-40,4,2,0,0,0,0
113430,-125,4,2,0,0,0,0
113474,-40,4,2,0,0,0,0
113484,-125,4,2,0,0,0,0
113528,-40,4,2,0,0,0,0
113538,-100,4,2,0,0,0,0
154818,-16.6666666666667,4,2,0,0,0,0
154828,-100,4,2,0,0,0,0
155463,-16.6666666666667,4,2,0,0,0,0
155474,-100,4,2,0,0,0,0
156109,-16.6666666666667,4,2,0,0,0,0
156120,-100,4,2,0,0,0,0
156754,-16.6666666666667,4,2,0,0,0,0
156765,-100,4,2,0,0,0,0
157399,-16.6666666666667,4,2,0,0,0,0
157410,-100,4,2,0,0,0,0
158044,-16.6666666666667,4,2,0,0,0,0
158055,-100,4,2,0,0,0,0
158689,-16.6666666666667,4,2,0,0,0,0
158700,-100,4,2,0,0,0,0
159334,-16.6666666666667,4,2,0,0,0,0
159345,-100,4,2,0,0,0,0
159979,-16.6666666666667,4,2,0,0,0,0
159990,-100,4,2,0,0,0,0
160302,-16.6666666666667,4,2,0,0,0,0
160313,-100,4,2,0,0,0,0
160625,-16.6666666666667,4,2,0,0,0,0
160636,-100,4,2,0,0,0,0
160947,-16.6666666666667,4,2,0,0,0,0
160958,-100,4,2,0,0,0,0
161270,-16.6666666666667,4,2,0,0,0,0
161281,-100,4,2,0,0,0,0
161592,-16.6666666666667,4,2,0,0,0,0
161603,-100,4,2,0,0,0,0
161915,-16.6666666666667,4,2,0,0,0,0
161926,-100,4,2,0,0,0,0
162238,-16.6666666666667,4,2,0,0,0,0
162249,-100,4,2,0,0,0,0
169657,-10,4,2,0,0,0,0
169667,-1000,4,2,0,0,0,0
169979,-1000,4,1,0,15,0,0
169989.09375,-981.783317353787,4,1,0,15,0,0
169999.1875,-930.909090909091,4,1,0,15,0,0
170009.28125,-856.903765690377,4,1,0,15,0,0
170019.375,-771.084337349398,4,1,0,15,0,0
170029.46875,-683.122081387592,4,1,0,15,0,0
170039.5625,-599.531615925059,4,1,0,15,0,0
170049.65625,-523.785166240409,4,1,0,15,0,0
170059.75,-457.142857142857,4,1,0,15,0,0
170069.84375,-399.53179867343,4,1,0,15,0,0
170079.9375,-350.205198358413,4,1,0,15,0,0
170090.03125,-308.155281372254,4,1,0,15,0,0
170100.125,-272.340425531915,4,1,0,15,0,0
170110.21875,-241.794569067296,4,1,0,15,0,0
170120.3125,-215.669755686605,4,1,0,15,0,0
170130.40625,-193.244008303453,4,1,0,15,0,0
170140.5,-173.913043478261,4,1,0,15,0,0
170150.59375,-157.175748273216,4,1,0,15,0,0
170160.6875,-142.618384401114,4,1,0,15,0,0
170170.78125,-129.899784346061,4,1,0,15,0,0
170180.875,-118.73840445269,4,1,0,15,0,0
170190.96875,-108.901414442199,4,1,0,15,0,0
170201.0625,-100.195694716243,4,1,0,15,0,0
170211.15625,-92.4604966139955,4,1,0,15,0,0
170221.25,-85.5614973262032,4,1,0,15,0,0
170231.34375,-79.3859989146445,4,1,0,15,0,0
170241.4375,-73.8390539371214,4,1,0,15,0,0
170251.53125,-68.8403361344538,4,1,0,15,0,0
170261.625,-64.321608040201,4,1,0,15,0,0
170271.71875,-60.2246662353702,4,1,0,15,0,0
170281.8125,-56.4996689472523,4,1,0,15,0,0
170291.90625,-53.1037701602448,4,1,0,15,0,0
170302,-50,4,1,0,15,0,0
170322,-100,4,1,0,15,0,0
174818,-10,4,2,0,0,0,0
174838,-1000,4,2,0,0,0,0
174899,-66.6666666666667,4,2,0,0,0,0
174979,-20,4,2,0,0,0,0
174989,-1000,4,2,0,0,0,0
175141,-1000,4,1,0,15,0,0
175151.0625,-981.783317353787,4,1,0,15,0,0
175161.125,-930.909090909091,4,1,0,15,0,0
175171.1875,-856.903765690377,4,1,0,15,0,0
175181.25,-771.084337349398,4,1,0,15,0,0
175191.3125,-683.122081387592,4,1,0,15,0,0
175201.375,-599.531615925059,4,1,0,15,0,0
175211.4375,-523.785166240409,4,1,0,15,0,0
175221.5,-457.142857142857,4,1,0,15,0,0
175231.5625,-399.53179867343,4,1,0,15,0,0
175241.625,-350.205198358413,4,1,0,15,0,0
175251.6875,-308.155281372254,4,1,0,15,0,0
175261.75,-272.340425531915,4,1,0,15,0,0
175271.8125,-241.794569067296,4,1,0,15,0,0
175281.875,-215.669755686605,4,1,0,15,0,0
175291.9375,-193.244008303453,4,1,0,15,0,0
175302,-173.913043478261,4,1,0,15,0,0
175312.0625,-157.175748273216,4,1,0,15,0,0
175322.125,-142.618384401114,4,1,0,15,0,0
175332.1875,-129.899784346061,4,1,0,15,0,0
175342.25,-118.73840445269,4,1,0,15,0,0
175352.3125,-108.901414442199,4,1,0,15,0,0
175362.375,-100.195694716243,4,1,0,15,0,0
175372.4375,-92.4604966139955,4,1,0,15,0,0
175382.5,-85.5614973262032,4,1,0,15,0,0
175392.5625,-79.3859989146445,4,1,0,15,0,0
175402.625,-73.8390539371214,4,1,0,15,0,0
175412.6875,-68.8403361344538,4,1,0,15,0,0
175422.75,-64.321608040201,4,1,0,15,0,0
175432.8125,-60.2246662353702,4,1,0,15,0,0
175442.875,-56.4996689472523,4,1,0,15,0,0
175452.9375,-53.1037701602448,4,1,0,15,0,0
175463,-50,4,1,0,15,0,0
175484,-100,4,1,0,15,0,0
179979,-16.6666666666667,4,2,0,0,0,0
179989,-100,4,2,0,0,0,0
185141,-10,4,2,0,0,0,0
185221,-1000,4,2,0,0,0,0
185302,-66.6666666666667,4,2,0,0,0,0
185463,-10,4,2,0,0,0,0
185473,-1000,4,2,0,0,0,0
185544,-1000,4,1,0,15,0,0
185551.5625,-981.783317353787,4,1,0,15,0,0
185559.125,-930.909090909091,4,1,0,15,0,0
185566.6875,-856.903765690377,4,1,0,15,0,0
185574.25,-771.084337349398,4,1,0,15,0,0
185581.8125,-683.122081387592,4,1,0,15,0,0
185589.375,-599.531615925059,4,1,0,15,0,0
185596.9375,-523.785166240409,4,1,0,15,0,0
185604.5,-457.142857142857,4,1,0,15,0,0
185612.0625,-399.53179867343,4,1,0,15,0,0
185619.625,-350.205198358413,4,1,0,15,0,0
185627.1875,-308.155281372254,4,1,0,15,0,0
185634.75,-272.340425531915,4,1,0,15,0,0
185642.3125,-241.794569067296,4,1,0,15,0,0
185649.875,-215.669755686605,4,1,0,15,0,0
185657.4375,-193.244008303453,4,1,0,15,0,0
185665,-173.913043478261,4,1,0,15,0,0
185672.5625,-157.175748273216,4,1,0,15,0,0
185680.125,-142.618384401114,4,1,0,15,0,0
185687.6875,-129.899784346061,4,1,0,15,0,0
185695.25,-118.73840445269,4,1,0,15,0,0
185702.8125,-108.901414442199,4,1,0,15,0,0
185710.375,-100.195694716243,4,1,0,15,0,0
185717.9375,-92.4604966139955,4,1,0,15,0,0
185725.5,-85.5614973262032,4,1,0,15,0,0
185733.0625,-79.3859989146445,4,1,0,15,0,0
185740.625,-73.8390539371214,4,1,0,15,0,0
185748.1875,-68.8403361344538,4,1,0,15,0,0
185755.75,-64.321608040201,4,1,0,15,0,0
185763.3125,-60.2246662353702,4,1,0,15,0,0
185770.875,-56.4996689472523,4,1,0,15,0,0
185778.4375,-53.1037701602448,4,1,0,15,0,0
185786,-50,4,1,0,15,0,0
185806,-100,4,1,0,15,0,0
190302,-10,4,2,0,0,0,0
190312,-1000,4,2,0,0,0,0
190625,-1000,4,1,0,15,0,0
190635.094,-981.783,4,1,0,15,0,0
190645.188,-930.909,4,1,0,15,0,0
190655.281,-856.904,4,1,0,15,0,0
190665.375,-771.084,4,1,0,15,0,0
190675.469,-683.122,4,1,0,15,0,0
190685.563,-599.532,4,1,0,15,0,0
190695.656,-523.785,4,1,0,15,0,0
190705.75,-457.143,4,1,0,15,0,0
190715.844,-399.532,4,1,0,15,0,0
190725.938,-350.205,4,1,0,15,0,0
190736.031,-308.155,4,1,0,15,0,0
190746.125,-272.34,4,1,0,15,0,0
190756.219,-241.795,4,1,0,15,0,0
190766.313,-215.67,4,1,0,15,0,0
190776.406,-193.244,4,1,0,15,0,0
190786.5,-173.913,4,1,0,15,0,0
190796.594,-157.176,4,1,0,15,0,0
190806.688,-142.618,4,1,0,15,0,0
190816.781,-129.9,4,1,0,15,0,0
190826.875,-118.738,4,1,0,15,0,0
190836.969,-108.901,4,1,0,15,0,0
190847.063,-100.196,4,1,0,15,0,0
190857.156,-92.46,4,1,0,15,0,0
190867.25,-85.561,4,1,0,15,0,0
190877.344,-79.386,4,1,0,15,0,0
190887.438,-73.839,4,1,0,15,0,0
190897.531,-68.84,4,1,0,15,0,0
190907.625,-64.322,4,1,0,15,0,0
190917.719,-60.225,4,1,0,15,0,0
190927.813,-56.5,4,1,0,15,0,0
190937.906,-53.104,4,1,0,15,0,0
190948,-50,4,1,0,15,0,0
190968,-100,4,1,0,15,0,0
195463,-10,4,2,0,0,0,0
195483,-1000,4,2,0,0,0,0
195544,-66.6666666666667,4,2,0,0,0,0
195624,-20,4,2,0,0,0,0
195634,-1000,4,2,0,0,0,0
195786,-1000,4,1,0,15,0,0
195796.063,-981.783,4,1,0,15,0,0
195806.125,-930.909,4,1,0,15,0,0
195816.188,-856.904,4,1,0,15,0,0
195826.25,-771.084,4,1,0,15,0,0
195836.313,-683.122,4,1,0,15,0,0
195846.375,-599.532,4,1,0,15,0,0
195856.438,-523.785,4,1,0,15,0,0
195866.5,-457.143,4,1,0,15,0,0
195876.563,-399.532,4,1,0,15,0,0
195886.625,-350.205,4,1,0,15,0,0
195896.688,-308.155,4,1,0,15,0,0
195906.75,-272.34,4,1,0,15,0,0
195916.813,-241.795,4,1,0,15,0,0
195926.875,-215.67,4,1,0,15,0,0
195936.938,-193.244,4,1,0,15,0,0
195947,-173.913,4,1,0,15,0,0
195957.063,-157.176,4,1,0,15,0,0
195967.125,-142.618,4,1,0,15,0,0
195977.188,-129.9,4,1,0,15,0,0
195987.25,-118.738,4,1,0,15,0,0
195997.313,-108.901,4,1,0,15,0,0
196007.375,-100.196,4,1,0,15,0,0
196017.438,-92.46,4,1,0,15,0,0
196027.5,-85.561,4,1,0,15,0,0
196037.563,-79.386,4,1,0,15,0,0
196047.625,-73.839,4,1,0,15,0,0
196057.688,-68.84,4,1,0,15,0,0
196067.75,-64.322,4,1,0,15,0,0
196077.813,-60.225,4,1,0,15,0,0
196087.875,-56.5,4,1,0,15,0,0
196097.938,-53.104,4,1,0,15,0,0
196108,-50,4,1,0,15,0,0
196129,-100,4,1,0,15,0,0
200625,-16.6666666666667,4,2,0,0,0,0
200635,-100,4,2,0,0,0,0
205786,-10,4,2,0,0,0,0
205796,-1000,4,2,0,0,0,0
206200,-1000,4,1,0,15,0,0
206207.21875,-963.311382878645,4,1,0,15,0,0
206214.4375,-867.796610169491,4,1,0,15,0,0
206221.65625,-744.727272727273,4,1,0,15,0,0
206228.875,-621.359223300971,4,1,0,15,0,0
206236.09375,-512.256128064032,4,1,0,15,0,0
206243.3125,-421.74629324547,4,1,0,15,0,0
206250.53125,-348.892674616695,4,1,0,15,0,0
206257.75,-290.909090909091,4,1,0,15,0,0
206264.96875,-244.800382500598,4,1,0,15,0,0
206272.1875,-207.961007311129,4,1,0,15,0,0
206279.40625,-178.304022288003,4,1,0,15,0,0
206286.625,-154.21686746988,4,1,0,15,0,0
206293.84375,-134.471437951412,4,1,0,15,0,0
206301.0625,-118.135671435164,4,1,0,15,0,0
206308.28125,-104.500459230534,4,1,0,15,0,0
206315.5,-93.0232558139535,4,1,0,15,0,0
206322.71875,-83.2858885725905,4,1,0,15,0,0
206329.9375,-74.9633967789165,4,1,0,15,0,0
206337.15625,-67.8010991193803,4,1,0,15,0,0
206344.375,-61.5976900866217,4,1,0,15,0,0
206351.59375,-56.1927234813148,4,1,0,15,0,0
206358.8125,-51.4572864321608,4,1,0,15,0,0
206366.03125,-47.2870006926807,4,1,0,15,0,0
206373.25,-43.5967302452316,4,1,0,15,0,0
206380.46875,-40.3165478955864,4,1,0,15,0,0
206387.6875,-37.3886373594275,4,1,0,15,0,0
206394.90625,-34.7648956034629,4,1,0,15,0,0
206402.125,-32.4050632911392,4,1,0,15,0,0
206409.34375,-30.2752564822754,4,1,0,15,0,0
206416.5625,-28.3468054479017,4,1,0,15,0,0
206423.78125,-26.5953302340077,4,1,0,15,0,0
206431,-25,4,1,0,15,0,0

[HitObjects]
320,192,0,5,0,0:0:0:0:
64,192,302,1,0,0:0:0:0:
192,192,625,1,0,0:0:0:0:
320,192,947,1,0,0:0:0:0:
448,192,1270,1,0,0:0:0:0:
320,192,2560,1,0,0:0:0:0:
64,192,2883,1,0,0:0:0:0:
192,192,3205,1,0,0:0:0:0:
320,192,3528,1,0,0:0:0:0:
448,192,3850,1,0,0:0:0:0:
192,192,5141,1,0,0:0:0:0:
64,192,5463,1,0,0:0:0:0:
192,192,5786,1,0,0:0:0:0:
320,192,6109,1,0,0:0:0:0:
448,192,6431,1,0,0:0:0:0:
448,192,7721,1,0,0:0:0:0:
64,192,8044,1,0,0:0:0:0:
192,192,8367,1,0,0:0:0:0:
320,192,8689,1,0,0:0:0:0:
448,192,9012,1,0,0:0:0:0:
320,192,10302,1,0,0:0:0:0:
64,192,10625,1,0,0:0:0:0:
192,192,10947,1,0,0:0:0:0:
320,192,11270,1,0,0:0:0:0:
448,192,11592,1,0,0:0:0:0:
192,192,12883,1,0,0:0:0:0:
64,192,13205,1,0,0:0:0:0:
192,192,13528,1,0,0:0:0:0:
320,192,13850,1,0,0:0:0:0:
448,192,14173,1,0,0:0:0:0:
320,192,15463,1,0,0:0:0:0:
64,192,15786,1,0,0:0:0:0:
192,192,16109,1,0,0:0:0:0:
320,192,16431,1,0,0:0:0:0:
448,192,16754,1,0,0:0:0:0:
448,192,18044,1,0,0:0:0:0:
64,192,18367,1,0,0:0:0:0:
192,192,18689,1,0,0:0:0:0:
320,192,19012,1,0,0:0:0:0:
448,192,19334,1,0,0:0:0:0:
64,192,20625,1,0,0:0:0:0:
192,192,20625,1,0,0:0:0:0:
320,192,20645,1,0,0:0:0:0:
448,192,20652,1,0,0:0:0:0:
448,192,21592,1,0,0:0:0:0:
192,192,21592,1,0,0:0:0:0:
64,192,22560,1,0,0:0:0:0:
192,192,23528,1,0,0:0:0:0:
448,192,23528,1,0,0:0:0:0:
320,192,23548,1,0,0:0:0:0:
64,192,23555,1,0,0:0:0:0:
448,192,23850,1,0,0:0:0:0:
64,192,24173,1,0,0:0:0:0:
192,192,24193,1,0,0:0:0:0:
448,192,25141,1,0,0:0:0:0:
64,192,25141,1,0,0:0:0:0:
192,192,25463,1,0,0:0:0:0:
320,192,25786,1,0,0:0:0:0:
448,192,25806,1,0,0:0:0:0:
64,192,25813,1,0,0:0:0:0:
192,192,26431,1,0,0:0:0:0:
448,192,26754,1,0,0:0:0:0:
64,192,26754,1,0,0:0:0:0:
320,192,26774,1,0,0:0:0:0:
192,192,26781,1,0,0:0:0:0:
64,192,27721,1,0,0:0:0:0:
192,192,27782,1,0,0:0:0:0:
320,192,27822,1,0,0:0:0:0:
448,192,27829,1,0,0:0:0:0:
192,192,28689,1,0,0:0:0:0:
320,192,29012,1,0,0:0:0:0:
448,192,29334,1,0,0:0:0:0:
64,192,29334,1,0,0:0:0:0:
320,192,29354,1,0,0:0:0:0:
448,192,29979,1,0,0:0:0:0:
192,192,30302,1,0,0:0:0:0:
64,192,30322,1,0,0:0:0:0:
448,192,30947,1,0,0:0:0:0:
192,192,30967,1,0,0:0:0:0:
320,192,31915,1,0,0:0:0:0:
64,192,31915,1,0,0:0:0:0:
64,192,32883,1,0,0:0:0:0:
448,192,33850,1,0,0:0:0:0:
320,192,33871,1,0,0:0:0:0:
64,192,33904,1,0,0:0:0:0:
192,192,33931,1,0,0:0:0:0:
448,192,34173,1,0,0:0:0:0:
64,192,34496,1,0,0:0:0:0:
192,192,34496,1,0,0:0:0:0:
64,192,35463,1,0,0:0:0:0:
448,192,35463,1,0,0:0:0:0:
320,192,35786,1,0,0:0:0:0:
64,192,36109,1,0,0:0:0:0:
448,192,36109,1,0,0:0:0:0:
192,192,36129,1,0,0:0:0:0:
448,192,37076,1,0,0:0:0:0:
192,192,37076,1,0,0:0:0:0:
64,192,37096,1,0,0:0:0:0:
320,192,37103,1,0,0:0:0:0:
64,192,38044,1,0,0:0:0:0:
192,192,38098,1,0,0:0:0:0:
320,192,38145,1,0,0:0:0:0:
448,192,38152,1,0,0:0:0:0:
192,192,39012,1,0,0:0:0:0:
320,192,39334,1,0,0:0:0:0:
448,192,39657,1,0,0:0:0:0:
64,192,39657,1,0,0:0:0:0:
320,192,39677,1,0,0:0:0:0:
192,192,40625,1,0,0:0:0:0:
448,192,40645,1,0,0:0:0:0:
448,192,41270,1,0,0:0:0:0:
64,192,41270,1,0,0:0:0:0:
320,192,41592,1,0,0:0:0:0:
64,192,41915,1,0,0:0:0:0:
192,192,42238,1,0,0:0:0:0:
448,192,42560,1,0,0:0:0:0:
192,192,42883,1,0,0:0:0:0:
320,192,43205,1,0,0:0:0:0:
64,192,43528,1,0,0:0:0:0:
320,192,43850,1,0,0:0:0:0:
64,192,44173,1,0,0:0:0:0:
192,192,44496,1,0,0:0:0:0:
320,192,44818,1,0,0:0:0:0:
448,192,45141,1,0,0:0:0:0:
192,192,45463,1,0,0:0:0:0:
320,192,45786,1,0,0:0:0:0:
192,192,46109,1,0,0:0:0:0:
448,192,46431,1,0,0:0:0:0:
64,192,46754,1,0,0:0:0:0:
192,192,47076,1,0,0:0:0:0:
320,192,47399,1,0,0:0:0:0:
448,192,47721,1,0,0:0:0:0:
64,192,48044,1,0,0:0:0:0:
192,192,48367,1,0,0:0:0:0:
448,192,48689,1,0,0:0:0:0:
192,192,49012,1,0,0:0:0:0:
64,192,49334,1,0,0:0:0:0:
192,192,49657,1,0,0:0:0:0:
320,192,49979,1,0,0:0:0:0:
448,192,50302,1,0,0:0:0:0:
64,192,50322,1,0,0:0:0:0:
192,192,50329,1,0,0:0:0:0:
320,192,50625,1,0,0:0:0:0:
192,192,50947,1,0,0:0:0:0:
64,192,50967,1,0,0:0:0:0:
320,192,51270,1,0,0:0:0:0:
448,192,51592,1,0,0:0:0:0:
64,192,51613,1,0,0:0:0:0:
320,192,51915,1,0,0:0:0:0:
64,192,52238,1,0,0:0:0:0:
192,192,52560,1,0,0:0:0:0:
448,192,52580,1,0,0:0:0:0:
320,192,52883,1,0,0:0:0:0:
192,192,53205,1,0,0:0:0:0:
448,192,53528,1,0,0:0:0:0:
64,192,53850,1,0,0:0:0:0:
320,192,54173,1,0,0:0:0:0:
448,192,54193,1,0,0:0:0:0:
64,192,54496,1,0,0:0:0:0:
192,192,54818,1,0,0:0:0:0:
320,192,55141,1,0,0:0:0:0:
64,192,55161,1,0,0:0:0:0:
448,192,55463,1,0,0:0:0:0:
192,192,55786,1,0,0:0:0:0:
320,192,56109,1,0,0:0:0:0:
64,192,56431,1,0,0:0:0:0:
448,192,56754,1,0,0:0:0:0:
192,192,57076,1,0,0:0:0:0:
320,192,57399,1,0,0:0:0:0:
448,192,57721,1,0,0:0:0:0:
64,192,58044,1,0,0:0:0:0:
320,192,58367,1,0,0:0:0:0:
192,192,58689,1,0,0:0:0:0:
64,192,59012,1,0,0:0:0:0:
448,192,60625,128,0,60732:0:0:0:0:
192,192,60732,1,0,0:0:0:0:
448,192,60786,128,0,60893:0:0:0:0:
192,192,60893,1,0,0:0:0:0:
448,192,60947,128,0,61055:0:0:0:0:
192,192,61055,1,0,0:0:0:0:
448,192,61109,128,0,61216:0:0:0:0:
64,192,61270,1,0,0:0:0:0:
320,192,61290,1,0,0:0:0:0:
192,192,61297,1,0,0:0:0:0:
448,192,61592,1,0,0:0:0:0:
64,192,61915,128,0,62560:0:0:0:0:
320,192,61915,1,0,0:0:0:0:
192,192,62560,1,0,0:0:0:0:
192,192,63850,128,0,64496:0:0:0:0:
448,192,65141,1,0,0:0:0:0:
64,192,65141,1,0,0:0:0:0:
320,192,66431,128,0,67076:0:0:0:0:
64,192,67721,1,0,0:0:0:0:
192,192,69012,128,0,69657:0:0:0:0:
448,192,70302,1,0,0:0:0:0:
64,192,70302,1,0,0:0:0:0:
320,192,70786,128,0,70867:0:0:0:0:
64,192,71189,1,0,0:0:0:0:
192,192,71270,1,0,0:0:0:0:
448,192,71377,1,0,0:0:0:0:
320,192,71458,1,0,0:0:0:0:
192,192,71592,128,0,71673:0:0:0:0:
192,192,71915,128,0,72238:0:0:0:0:
448,192,72238,1,0,0:0:0:0:
64,192,72238,1,0,0:0:0:0:
320,192,72238,1,0,0:0:0:0:
64,192,72883,1,0,0:0:0:0:
192,192,72883,1,0,0:0:0:0:
192,192,75463,1,0,0:0:0:0:
64,192,75463,1,0,0:0:0:0:
192,192,78044,1,0,0:0:0:0:
64,192,78044,1,0,0:0:0:0:
192,192,79012,1,0,0:0:0:0:
448,192,79334,1,0,0:0:0:0:
320,192,79657,1,0,0:0:0:0:
192,192,79979,1,0,0:0:0:0:
64,192,79979,1,0,0:0:0:0:
448,192,79979,1,0,0:0:0:0:
192,192,82238,128,0,82560:0:0:0:0:
448,192,82560,1,0,0:0:0:0:
64,192,82560,1,0,0:0:0:0:
320,192,82560,1,0,0:0:0:0:
320,192,82721,1,0,0:0:0:0:
192,192,82883,1,0,0:0:0:0:
192,192,83044,1,0,0:0:0:0:
448,192,83205,1,0,0:0:0:0:
64,192,83205,1,0,0:0:0:0:
192,192,83367,1,0,0:0:0:0:
448,192,83528,1,0,0:0:0:0:
320,192,83528,1,0,0:0:0:0:
448,192,83689,1,0,0:0:0:0:
320,192,83689,1,0,0:0:0:0:
192,192,83850,1,0,0:0:0:0:
64,192,84012,1,0,0:0:0:0:
448,192,84173,1,0,0:0:0:0:
320,192,84173,1,0,0:0:0:0:
64,192,84334,1,0,0:0:0:0:
448,192,84334,1,0,0:0:0:0:
192,192,84496,1,0,0:0:0:0:
64,192,84496,1,0,0:0:0:0:
320,192,84657,1,0,0:0:0:0:
448,192,84818,1,0,0:0:0:0:
192,192,84979,1,0,0:0:0:0:
64,192,85141,1,0,0:0:0:0:
448,192,85141,1,0,0:0:0:0:
320,192,85302,1,0,0:0:0:0:
64,192,85463,1,0,0:0:0:0:
64,192,85625,1,0,0:0:0:0:
320,192,85786,1,0,0:0:0:0:
448,192,85786,1,0,0:0:0:0:
448,192,85947,1,0,0:0:0:0:
192,192,86109,1,0,0:0:0:0:
64,192,86270,1,0,0:0:0:0:
320,192,86431,1,0,0:0:0:0:
448,192,86431,1,0,0:0:0:0:
64,192,86592,1,0,0:0:0:0:
192,192,86754,1,0,0:0:0:0:
448,192,86915,1,0,0:0:0:0:
320,192,86915,1,0,0:0:0:0:
192,192,87076,1,0,0:0:0:0:
448,192,87076,128,0,87238:0:0:0:0:
64,192,87076,1,0,0:0:0:0:
64,192,87238,1,0,0:0:0:0:
320,192,87399,1,0,0:0:0:0:
448,192,87560,1,0,0:0:0:0:
64,192,87560,1,0,0:0:0:0:
192,192,87721,1,0,0:0:0:0:
64,192,87721,1,0,0:0:0:0:
320,192,87883,1,0,0:0:0:0:
448,192,88044,1,0,0:0:0:0:
192,192,88205,1,0,0:0:0:0:
448,192,88367,1,0,0:0:0:0:
64,192,88367,1,0,0:0:0:0:
320,192,88528,1,0,0:0:0:0:
64,192,88689,1,0,0:0:0:0:
192,192,88850,1,0,0:0:0:0:
448,192,89012,1,0,0:0:0:0:
64,192,89173,1,0,0:0:0:0:
448,192,89334,1,0,0:0:0:0:
320,192,89334,1,0,0:0:0:0:
320,192,89496,1,0,0:0:0:0:
192,192,89496,1,0,0:0:0:0:
64,192,89657,1,0,0:0:0:0:
448,192,89657,1,0,0:0:0:0:
64,192,89818,1,0,0:0:0:0:
448,192,89979,1,0,0:0:0:0:
320,192,90141,1,0,0:0:0:0:
192,192,90302,1,0,0:0:0:0:
64,192,90302,1,0,0:0:0:0:
448,192,90463,1,0,0:0:0:0:
64,192,90625,1,0,0:0:0:0:
192,192,90786,1,0,0:0:0:0:
64,192,90947,1,0,0:0:0:0:
320,192,90947,1,0,0:0:0:0:
448,192,91109,1,0,0:0:0:0:
64,192,91270,128,0,91592:0:0:0:0:
192,192,91431,128,0,91592:0:0:0:0:
448,192,91592,1,0,0:0:0:0:
320,192,91592,1,0,0:0:0:0:
64,192,91754,1,0,0:0:0:0:
192,192,91915,1,0,0:0:0:0:
448,192,92076,1,0,0:0:0:0:
320,192,92076,1,0,0:0:0:0:
64,192,92238,1,0,0:0:0:0:
448,192,92238,1,0,0:0:0:0:
320,192,92238,1,0,0:0:0:0:
192,192,92399,1,0,0:0:0:0:
448,192,92560,1,0,0:0:0:0:
64,192,92560,1,0,0:0:0:0:
320,192,92721,1,0,0:0:0:0:
448,192,92721,1,0,0:0:0:0:
64,192,92775,1,0,0:0:0:0:
192,192,92829,1,0,0:0:0:0:
448,192,92883,1,0,0:0:0:0:
320,192,92883,1,0,0:0:0:0:
320,192,93044,1,0,0:0:0:0:
64,192,93205,1,0,0:0:0:0:
64,192,93367,1,0,0:0:0:0:
448,192,93528,1,0,0:0:0:0:
320,192,93528,1,0,0:0:0:0:
64,192,93689,1,0,0:0:0:0:
448,192,93850,1,0,0:0:0:0:
320,192,94012,1,0,0:0:0:0:
192,192,94173,1,0,0:0:0:0:
64,192,94334,1,0,0:0:0:0:
448,192,94496,1,0,0:0:0:0:
320,192,94496,1,0,0:0:0:0:
192,192,94657,1,0,0:0:0:0:
64,192,94657,1,0,0:0:0:0:
448,192,94818,1,0,0:0:0:0:
64,192,94818,1,0,0:0:0:0:
192,192,94979,1,0,0:0:0:0:
448,192,95141,1,0,0:0:0:0:
320,192,95302,1,0,0:0:0:0:
192,192,95463,1,0,0:0:0:0:
64,192,95463,1,0,0:0:0:0:
192,192,95625,1,0,0:0:0:0:
64,192,95625,1,0,0:0:0:0:
320,192,95786,1,0,0:0:0:0:
448,192,95947,1,0,0:0:0:0:
64,192,96109,1,0,0:0:0:0:
192,192,96109,1,0,0:0:0:0:
320,192,96270,1,0,0:0:0:0:
448,192,96431,1,0,0:0:0:0:
320,192,96592,1,0,0:0:0:0:
192,192,96754,1,0,0:0:0:0:
64,192,96754,1,0,0:0:0:0:
320,192,96915,1,0,0:0:0:0:
448,192,97076,1,0,0:0:0:0:
192,192,97238,1,0,0:0:0:0:
64,192,97238,1,0,0:0:0:0:
448,192,97399,1,0,0:0:0:0:
320,192,97399,1,0,0:0:0:0:
64,192,97399,1,0,0:0:0:0:
192,192,97560,1,0,0:0:0:0:
320,192,97721,1,0,0:0:0:0:
448,192,97883,1,0,0:0:0:0:
64,192,97883,1,0,0:0:0:0:
448,192,98044,1,0,0:0:0:0:
320,192,98044,128,0,98205:0:0:0:0:
192,192,98205,1,0,0:0:0:0:
448,192,98367,1,0,0:0:0:0:
64,192,98528,1,0,0:0:0:0:
320,192,98689,1,0,0:0:0:0:
192,192,98689,128,0,98850:0:0:0:0:
448,192,98850,1,0,0:0:0:0:
64,192,99012,1,0,0:0:0:0:
192,192,99173,1,0,0:0:0:0:
448,192,99334,128,0,99496:0:0:0:0:
64,192,99496,1,0,0:0:0:0:
448,192,99657,1,0,0:0:0:0:
320,192,99657,1,0,0:0:0:0:
192,192,99818,1,0,0:0:0:0:
448,192,99818,1,0,0:0:0:0:
192,192,99979,1,0,0:0:0:0:
320,192,99979,128,0,100141:0:0:0:0:
64,192,100141,1,0,0:0:0:0:
448,192,100302,1,0,0:0:0:0:
320,192,100463,1,0,0:0:0:0:
192,192,100625,1,0,0:0:0:0:
64,192,100625,128,0,100786:0:0:0:0:
448,192,100786,1,0,0:0:0:0:
192,192,100947,1,0,0:0:0:0:
192,192,101109,1,0,0:0:0:0:
448,192,101270,128,0,101377:0:0:0:0:
64,192,101270,128,0,101377:0:0:0:0:
320,192,101377,1,0,0:0:0:0:
192,192,101431,1,0,0:0:0:0:
320,192,101485,1,0,0:0:0:0:
192,192,101539,1,0,0:0:0:0:
320,192,101592,1,0,0:0:0:0:
64,192,101646,1,0,0:0:0:0:
192,192,101700,1,0,0:0:0:0:
320,192,101754,1,0,0:0:0:0:
448,192,101754,128,0,101915:0:0:0:0:
192,192,101915,1,0,0:0:0:0:
64,192,101915,128,0,102479:0:0:0:0:
320,192,102076,1,0,0:0:0:0:
448,192,102238,1,0,0:0:0:0:
192,192,102238,128,0,102479:0:0:0:0:
320,192,102399,1,0,0:0:0:0:
320,192,102560,1,0,0:0:0:0:
448,192,102560,1,0,0:0:0:0:
192,192,102560,1,0,0:0:0:0:
64,192,102560,1,0,0:0:0:0:
448,192,102883,128,0,102963:0:0:0:0:
320,192,102883,128,0,102963:0:0:0:0:
192,192,102963,128,0,103044:0:0:0:0:
64,192,102963,128,0,103044:0:0:0:0:
320,192,103044,128,0,103125:0:0:0:0:
448,192,103044,128,0,103125:0:0:0:0:
64,192,103125,1,0,0:0:0:0:
192,192,103125,1,0,0:0:0:0:
448,192,103205,1,0,0:0:0:0:
320,192,103205,1,0,0:0:0:0:
64,192,103205,128,0,103367:0:0:0:0:
320,192,103367,1,0,0:0:0:0:
64,192,103528,1,0,0:0:0:0:
64,192,103689,1,0,0:0:0:0:
448,192,103850,128,0,104012:0:0:0:0:
192,192,103850,1,0,0:0:0:0:
320,192,104012,128,0,104173:0:0:0:0:
192,192,104173,1,0,0:0:0:0:
64,192,104334,128,0,104657:0:0:0:0:
320,192,104496,1,0,0:0:0:0:
192,192,104657,1,0,0:0:0:0:
64,192,104818,1,0,0:0:0:0:
448,192,104818,1,0,0:0:0:0:
320,192,104859,1,0,0:0:0:0:
192,192,104899,1,0,0:0:0:0:
64,192,104939,1,0,0:0:0:0:
448,192,104979,1,0,0:0:0:0:
320,192,104979,1,0,0:0:0:0:
192,192,105141,1,0,0:0:0:0:
64,192,105141,1,0,0:0:0:0:
320,192,105302,1,0,0:0:0:0:
448,192,105463,128,0,105786:0:0:0:0:
192,192,105625,1,0,0:0:0:0:
320,192,105786,1,0,0:0:0:0:
64,192,105786,128,0,105947:0:0:0:0:
192,192,105947,1,0,0:0:0:0:
448,192,106109,1,0,0:0:0:0:
320,192,106270,1,0,0:0:0:0:
192,192,106350,1,0,0:0:0:0:
448,192,106431,128,0,106592:0:0:0:0:
64,192,106431,1,0,0:0:0:0:
192,192,106592,128,0,106754:0:0:0:0:
448,192,106754,1,0,0:0:0:0:
320,192,106915,128,0,107238:0:0:0:0:
64,192,107076,1,0,0:0:0:0:
448,192,107076,1,0,0:0:0:0:
192,192,107157,1,0,0:0:0:0:
448,192,107238,1,0,0:0:0:0:
64,192,107399,1,0,0:0:0:0:
192,192,107439,1,0,0:0:0:0:
320,192,107479,1,0,0:0:0:0:
448,192,107520,1,0,0:0:0:0:
64,192,107560,1,0,0:0:0:0:
192,192,107560,1,0,0:0:0:0:
320,192,107641,1,0,0:0:0:0:
448,192,107721,1,0,0:0:0:0:
64,192,107721,1,0,0:0:0:0:
192,192,107721,1,0,0:0:0:0:
320,192,108044,128,0,108205:0:0:0:0:
448,192,108205,1,0,0:0:0:0:
64,192,108205,1,0,0:0:0:0:
448,192,108367,1,0,0:0:0:0:
64,192,108367,128,0,108528:0:0:0:0:
192,192,108528,1,0,0:0:0:0:
448,192,108689,1,0,0:0:0:0:
64,192,108850,1,0,0:0:0:0:
192,192,109012,1,0,0:0:0:0:
320,192,109012,128,0,109173:0:0:0:0:
64,192,109173,128,0,109334:0:0:0:0:
192,192,109334,1,0,0:0:0:0:
320,192,109496,128,0,109818:0:0:0:0:
64,192,109657,1,0,0:0:0:0:
192,192,109818,1,0,0:0:0:0:
448,192,109979,1,0,0:0:0:0:
64,192,109979,1,0,0:0:0:0:
320,192,110020,1,0,0:0:0:0:
192,192,110060,1,0,0:0:0:0:
64,192,110100,1,0,0:0:0:0:
448,192,110141,1,0,0:0:0:0:
320,192,110141,1,0,0:0:0:0:
320,192,110302,1,0,0:0:0:0:
192,192,110302,1,0,0:0:0:0:
64,192,110463,1,0,0:0:0:0:
448,192,110625,128,0,110947:0:0:0:0:
320,192,110786,1,0,0:0:0:0:
192,192,110947,1,0,0:0:0:0:
64,192,110947,128,0,111109:0:0:0:0:
320,192,111109,1,0,0:0:0:0:
448,192,111270,1,0,0:0:0:0:
64,192,111270,128,0,111431:0:0:0:0:
448,192,111431,1,0,0:0:0:0:
320,192,111512,1,0,0:0:0:0:
64,192,111592,1,0,0:0:0:0:
192,192,111592,128,0,111754:0:0:0:0:
320,192,111754,128,0,111915:0:0:0:0:
448,192,111915,1,0,0:0:0:0:
64,192,111915,1,0,0:0:0:0:
448,192,112076,1,0,0:0:0:0:
320,192,112076,1,0,0:0:0:0:
192,192,112238,1,0,0:0:0:0:
64,192,112238,128,0,112399:0:0:0:0:
320,192,112318,1,0,0:0:0:0:
448,192,112399,1,0,0:0:0:0:
64,192,112560,1,0,0:0:0:0:
192,192,112600,1,0,0:0:0:0:
320,192,112641,1,0,0:0:0:0:
448,192,112681,1,0,0:0:0:0:
192,192,112721,1,0,0:0:0:0:
64,192,112721,1,0,0:0:0:0:
320,192,112883,128,0,113044:0:0:0:0:
448,192,112883,1,0,0:0:0:0:
64,192,112883,1,0,0:0:0:0:
192,192,113044,1,0,0:0:0:0:
448,192,113205,1,0,0:0:0:0:
64,192,113205,128,0,113367:0:0:0:0:
192,192,113367,1,0,0:0:0:0:
320,192,113420,1,0,0:0:0:0:
448,192,113474,1,0,0:0:0:0:
192,192,113528,1,0,0:0:0:0:
64,192,113528,128,0,113689:0:0:0:0:
448,192,113689,1,0,0:0:0:0:
192,192,113850,1,0,0:0:0:0:
320,192,114012,1,0,0:0:0:0:
64,192,114173,1,0,0:0:0:0:
448,192,114173,128,0,114334:0:0:0:0:
320,192,114334,128,0,114496:0:0:0:0:
192,192,114496,1,0,0:0:0:0:
64,192,114657,128,0,114979:0:0:0:0:
320,192,114818,1,0,0:0:0:0:
192,192,114979,1,0,0:0:0:0:
64,192,115141,1,0,0:0:0:0:
448,192,115141,1,0,0:0:0:0:
320,192,115181,1,0,0:0:0:0:
192,192,115221,1,0,0:0:0:0:
64,192,115262,1,0,0:0:0:0:
448,192,115302,1,0,0:0:0:0:
320,192,115302,1,0,0:0:0:0:
192,192,115463,1,0,0:0:0:0:
64,192,115463,1,0,0:0:0:0:
192,192,115625,1,0,0:0:0:0:
448,192,115786,128,0,116109:0:0:0:0:
320,192,115947,1,0,0:0:0:0:
192,192,116109,1,0,0:0:0:0:
64,192,116109,128,0,116270:0:0:0:0:
448,192,116270,1,0,0:0:0:0:
64,192,116431,1,0,0:0:0:0:
320,192,116592,1,0,0:0:0:0:
192,192,116673,1,0,0:0:0:0:
448,192,116754,128,0,116915:0:0:0:0:
64,192,116754,1,0,0:0:0:0:
64,192,116915,128,0,117076:0:0:0:0:
320,192,117076,1,0,0:0:0:0:
192,192,117238,1,0,0:0:0:0:
64,192,117399,1,0,0:0:0:0:
448,192,117399,1,0,0:0:0:0:
320,192,117479,1,0,0:0:0:0:
192,192,117560,1,0,0:0:0:0:
64,192,117560,1,0,0:0:0:0:
448,192,117721,1,0,0:0:0:0:
320,192,117762,1,0,0:0:0:0:
64,192,117802,1,0,0:0:0:0:
192,192,117842,1,0,0:0:0:0:
320,192,117883,1,0,0:0:0:0:
448,192,117883,1,0,0:0:0:0:
64,192,117963,1,0,0:0:0:0:
192,192,118044,1,0,0:0:0:0:
448,192,118044,1,0,0:0:0:0:
320,192,118044,1,0,0:0:0:0:
64,192,118367,1,0,0:0:0:0:
192,192,118528,1,0,0:0:0:0:
448,192,118528,1,0,0:0:0:0:
320,192,118689,1,0,0:0:0:0:
448,192,118689,128,0,118850:0:0:0:0:
64,192,118850,1,0,0:0:0:0:
320,192,119012,1,0,0:0:0:0:
192,192,119173,1,0,0:0:0:0:
64,192,119334,1,0,0:0:0:0:
448,192,119334,1,0,0:0:0:0:
320,192,119496,1,0,0:0:0:0:
64,192,119657,1,0,0:0:0:0:
192,192,119818,1,0,0:0:0:0:
448,192,119979,1,0,0:0:0:0:
64,192,120141,1,0,0:0:0:0:
448,192,120302,1,0,0:0:0:0:
320,192,120302,1,0,0:0:0:0:
64,192,120342,1,0,0:0:0:0:
192,192,120383,1,0,0:0:0:0:
320,192,120423,1,0,0:0:0:0:
448,192,120463,1,0,0:0:0:0:
64,192,120463,1,0,0:0:0:0:
320,192,120625,1,0,0:0:0:0:
192,192,120625,1,0,0:0:0:0:
64,192,120786,1,0,0:0:0:0:
448,192,120947,1,0,0:0:0:0:
320,192,121109,1,0,0:0:0:0:
192,192,121270,128,0,122238:0:0:0:0:
448,192,121431,1,0,0:0:0:0:
448,192,121592,1,0,0:0:0:0:
448,192,121754,1,0,0:0:0:0:
448,192,121915,1,0,0:0:0:0:
448,192,122076,1,0,0:0:0:0:
64,192,122238,128,0,122560:0:0:0:0:
448,192,122560,128,0,123125:0:0:0:0:
320,192,122641,128,0,123125:0:0:0:0:
192,192,122721,128,0,123125:0:0:0:0:
448,192,123205,1,0,0:0:0:0:
192,192,123205,1,0,0:0:0:0:
64,192,123205,1,0,0:0:0:0:
320,192,123205,1,0,0:0:0:0:
64,192,123528,128,0,123609:0:0:0:0:
320,192,123528,128,0,123609:0:0:0:0:
192,192,123609,128,0,123689:0:0:0:0:
448,192,123609,128,0,123689:0:0:0:0:
320,192,123689,128,0,123770:0:0:0:0:
64,192,123689,128,0,123770:0:0:0:0:
192,192,123770,128,0,123850:0:0:0:0:
448,192,123770,128,0,123850:0:0:0:0:
320,192,123850,1,0,0:0:0:0:
64,192,123850,1,0,0:0:0:0:
64,192,126431,128,0,126754:0:0:0:0:
192,192,126592,128,0,126915:0:0:0:0:
320,192,126754,128,0,127238:0:0:0:0:
64,192,126915,128,0,127560:0:0:0:0:
192,192,127076,128,0,127399:0:0:0:0:
448,192,127238,128,0,128689:0:0:0:0:
320,192,127399,128,0,127721:0:0:0:0:
192,192,127560,128,0,127883:0:0:0:0:
64,192,127721,128,0,128367:0:0:0:0:
320,192,127883,128,0,128044:0:0:0:0:
192,192,128044,128,0,129012:0:0:0:0:
320,192,128205,128,0,128528:0:0:0:0:
64,192,128528,128,0,128850:0:0:0:0:
320,192,128689,128,0,129173:0:0:0:0:
448,192,128850,128,0,129657:0:0:0:0:
64,192,129012,128,0,130141:0:0:0:0:
192,192,129173,128,0,129334:0:0:0:0:
320,192,129334,128,0,129979:0:0:0:0:
192,192,129496,128,0,129818:0:0:0:0:
448,192,129818,128,0,131109:0:0:0:0:
192,192,129979,128,0,130463:0:0:0:0:
320,192,130141,128,0,130625:0:0:0:0:
64,192,130302,128,0,131754:0:0:0:0:
192,192,130625,128,0,130947:0:0:0:0:
320,192,130786,128,0,131270:0:0:0:0:
192,192,131109,128,0,131592:0:0:0:0:
448,192,131270,128,0,132238:0:0:0:0:
320,192,131431,128,0,132076:0:0:0:0:
192,192,131754,128,0,131915:0:0:0:0:
64,192,131915,128,0,132883:0:0:0:0:
192,192,132076,128,0,132721:0:0:0:0:
320,192,132238,128,0,132399:0:0:0:0:
448,192,132399,128,0,133205:0:0:0:0:
320,192,132560,128,0,133044:0:0:0:0:
192,192,132883,128,0,133367:0:0:0:0:
64,192,133044,128,0,134334:0:0:0:0:
320,192,133205,128,0,133528:0:0:0:0:
448,192,133367,128,0,133689:0:0:0:0:
192,192,133528,128,0,134496:0:0:0:0:
320,192,133689,128,0,133850:0:0:0:0:
448,192,133850,128,0,134657:0:0:0:0:
320,192,134012,128,0,134173:0:0:0:0:
320,192,134334,128,0,134818:0:0:0:0:
64,192,134496,128,0,134979:0:0:0:0:
192,192,134657,128,0,135141:0:0:0:0:
448,192,134818,128,0,136270:0:0:0:0:
320,192,134979,128,0,135302:0:0:0:0:
64,192,135141,128,0,136109:0:0:0:0:
192,192,135302,128,0,135625:0:0:0:0:
320,192,135463,128,0,135786:0:0:0:0:
192,192,135786,128,0,136431:0:0:0:0:
320,192,135947,128,0,137238:0:0:0:0:
64,192,136270,128,0,136915:0:0:0:0:
448,192,136431,128,0,137399:0:0:0:0:
192,192,136592,128,0,136754:0:0:0:0:
192,192,136915,128,0,137076:0:0:0:0:
64,192,137076,128,0,137883:0:0:0:0:
192,192,137238,128,0,137721:0:0:0:0:
320,192,137399,128,0,137560:0:0:0:0:
448,192,137560,128,0,138367:0:0:0:0:
320,192,137721,128,0,138044:0:0:0:0:
192,192,137883,128,0,138205:0:0:0:0:
64,192,138044,128,0,138689:0:0:0:0:
320,192,138205,128,0,138850:0:0:0:0:
192,192,138367,128,0,139173:0:0:0:0:
448,192,138528,128,0,139012:0:0:0:0:
64,192,138850,128,0,139012:0:0:0:0:
320,192,139012,128,0,139334:0:0:0:0:
448,192,139173,128,0,139334:0:0:0:0:
192,192,139334,1,0,0:0:0:0:
64,192,139334,1,0,0:0:0:0:
448,192,139657,128,0,139979:0:0:0:0:
192,192,139818,128,0,140141:0:0:0:0:
320,192,139979,128,0,140302:0:0:0:0:
448,192,140141,128,0,140947:0:0:0:0:
192,192,140302,128,0,140463:0:0:0:0:
320,192,140463,128,0,140786:0:0:0:0:
192,192,140625,128,0,141270:0:0:0:0:
64,192,140786,128,0,142076:0:0:0:0:
320,192,140947,128,0,141592:0:0:0:0:
448,192,141109,128,0,141431:0:0:0:0:
192,192,141431,128,0,142238:0:0:0:0:
448,192,141592,128,0,142560:0:0:0:0:
320,192,141754,128,0,141915:0:0:0:0:
320,192,142076,128,0,142399:0:0:0:0:
64,192,142238,128,0,143044:0:0:0:0:
192,192,142399,128,0,142721:0:0:0:0:
320,192,142560,128,0,143367:0:0:0:0:
448,192,142721,128,0,143528:0:0:0:0:
192,192,142883,128,0,143850:0:0:0:0:
64,192,143205,128,0,144012:0:0:0:0:
320,192,143528,128,0,144173:0:0:0:0:
448,192,143689,128,0,144012:0:0:0:0:
192,192,144012,128,0,144334:0:0:0:0:
448,192,144173,128,0,144334:0:0:0:0:
320,192,144334,128,0,144496:0:0:0:0:
448,192,144496,1,0,0:0:0:0:
64,192,144496,1,0,0:0:0:0:
448,192,144657,1,0,0:0:0:0:
192,192,144657,1,0,0:0:0:0:
192,192,144818,1,0,0:0:0:0:
64,192,144818,1,0,0:0:0:0:
320,192,144979,1,0,0:0:0:0:
192,192,144979,1,0,0:0:0:0:
448,192,145141,1,0,0:0:0:0:
320,192,145141,1,0,0:0:0:0:
192,192,145302,1,0,0:0:0:0:
64,192,145302,1,0,0:0:0:0:
448,192,145463,1,0,0:0:0:0:
64,192,145463,1,0,0:0:0:0:
320,192,145625,1,0,0:0:0:0:
192,192,145625,1,0,0:0:0:0:
320,192,145786,1,0,0:0:0:0:
64,192,145786,1,0,0:0:0:0:
192,192,145947,1,0,0:0:0:0:
64,192,145947,1,0,0:0:0:0:
448,192,146109,1,0,0:0:0:0:
192,192,146109,1,0,0:0:0:0:
448,192,146270,1,0,0:0:0:0:
320,192,146270,1,0,0:0:0:0:
192,192,146431,1,0,0:0:0:0:
64,192,146431,1,0,0:0:0:0:
448,192,146592,1,0,0:0:0:0:
64,192,146592,1,0,0:0:0:0:
320,192,146754,1,0,0:0:0:0:
448,192,146754,1,0,0:0:0:0:
320,192,146915,1,0,0:0:0:0:
192,192,146915,1,0,0:0:0:0:
448,192,147076,1,0,0:0:0:0:
64,192,147076,1,0,0:0:0:0:
192,192,147238,1,0,0:0:0:0:
448,192,147238,1,0,0:0:0:0:
64,192,147399,1,0,0:0:0:0:
320,192,147399,1,0,0:0:0:0:
320,192,147560,1,0,0:0:0:0:
192,192,147560,1,0,0:0:0:0:
448,192,147721,1,0,0:0:0:0:
192,192,147721,1,0,0:0:0:0:
448,192,147883,1,0,0:0:0:0:
320,192,147883,1,0,0:0:0:0:
320,192,148044,1,0,0:0:0:0:
192,192,148044,1,0,0:0:0:0:
64,192,148205,1,0,0:0:0:0:
448,192,148205,1,0,0:0:0:0:
448,192,148367,1,0,0:0:0:0:
192,192,148367,1,0,0:0:0:0:
192,192,148528,1,0,0:0:0:0:
64,192,148528,1,0,0:0:0:0:
320,192,148689,1,0,0:0:0:0:
192,192,148689,1,0,0:0:0:0:
448,192,148850,1,0,0:0:0:0:
320,192,148850,1,0,0:0:0:0:
192,192,149012,1,0,0:0:0:0:
64,192,149012,1,0,0:0:0:0:
448,192,149173,1,0,0:0:0:0:
64,192,149173,1,0,0:0:0:0:
448,192,149334,1,0,0:0:0:0:
192,192,149334,1,0,0:0:0:0:
448,192,149496,1,0,0:0:0:0:
320,192,149496,1,0,0:0:0:0:
64,192,149657,1,0,0:0:0:0:
192,192,149657,1,0,0:0:0:0:
320,192,149818,1,0,0:0:0:0:
64,192,149818,1,0,0:0:0:0:
448,192,149979,1,0,0:0:0:0:
320,192,149979,1,0,0:0:0:0:
192,192,150141,1,0,0:0:0:0:
448,192,150141,1,0,0:0:0:0:
320,192,150302,1,0,0:0:0:0:
64,192,150302,1,0,0:0:0:0:
448,192,150463,1,0,0:0:0:0:
320,192,150463,1,0,0:0:0:0:
64,192,150625,1,0,0:0:0:0:
448,192,150625,1,0,0:0:0:0:
320,192,150786,1,0,0:0:0:0:
64,192,150786,1,0,0:0:0:0:
448,192,150947,1,0,0:0:0:0:
192,192,150947,1,0,0:0:0:0:
192,192,151109,1,0,0:0:0:0:
64,192,151109,1,0,0:0:0:0:
448,192,151270,1,0,0:0:0:0:
64,192,151270,1,0,0:0:0:0:
448,192,151431,1,0,0:0:0:0:
192,192,151431,1,0,0:0:0:0:
192,192,151592,1,0,0:0:0:0:
64,192,151592,1,0,0:0:0:0:
448,192,151754,1,0,0:0:0:0:
64,192,151754,1,0,0:0:0:0:
448,192,151915,1,0,0:0:0:0:
320,192,151915,1,0,0:0:0:0:
320,192,152076,1,0,0:0:0:0:
192,192,152076,1,0,0:0:0:0:
192,192,152238,1,0,0:0:0:0:
64,192,152238,1,0,0:0:0:0:
448,192,152399,1,0,0:0:0:0:
320,192,152399,1,0,0:0:0:0:
192,192,152560,1,0,0:0:0:0:
448,192,152560,1,0,0:0:0:0:
320,192,152721,1,0,0:0:0:0:
64,192,152721,1,0,0:0:0:0:
448,192,152883,1,0,0:0:0:0:
64,192,152883,1,0,0:0:0:0:
448,192,153044,1,0,0:0:0:0:
320,192,153044,1,0,0:0:0:0:
320,192,153205,1,0,0:0:0:0:
192,192,153205,1,0,0:0:0:0:
192,192,153367,1,0,0:0:0:0:
64,192,153367,1,0,0:0:0:0:
448,192,153528,1,0,0:0:0:0:
320,192,153528,1,0,0:0:0:0:
192,192,153689,1,0,0:0:0:0:
64,192,153689,1,0,0:0:0:0:
448,192,153850,1,0,0:0:0:0:
64,192,153850,1,0,0:0:0:0:
448,192,154012,1,0,0:0:0:0:
192,192,154012,1,0,0:0:0:0:
192,192,154173,1,0,0:0:0:0:
64,192,154173,1,0,0:0:0:0:
320,192,154334,1,0,0:0:0:0:
192,192,154334,1,0,0:0:0:0:
448,192,154496,1,0,0:0:0:0:
320,192,154496,1,0,0:0:0:0:
448,192,154657,1,0,0:0:0:0:
64,192,154657,1,0,0:0:0:0:
192,192,154657,1,0,0:0:0:0:
448,192,154818,1,0,0:0:0:0:
64,192,154818,1,0,0:0:0:0:
192,192,154818,128,0,154979:0:0:0:0:
64,192,154979,128,0,155141:0:0:0:0:
320,192,155141,128,0,155302:0:0:0:0:
192,192,155302,128,0,155463:0:0:0:0:
64,192,155463,1,0,0:0:0:0:
448,192,155463,128,0,155625:0:0:0:0:
320,192,155625,128,0,155786:0:0:0:0:
64,192,155786,128,0,155947:0:0:0:0:
192,192,155947,128,0,156109:0:0:0:0:
64,192,156109,1,0,0:0:0:0:
448,192,156109,128,0,156270:0:0:0:0:
64,192,156270,128,0,156431:0:0:0:0:
192,192,156431,128,0,156592:0:0:0:0:
320,192,156592,128,0,156754:0:0:0:0:
448,192,156754,1,0,0:0:0:0:
64,192,156754,1,0,0:0:0:0:
64,192,156915,128,0,157076:0:0:0:0:
320,192,157076,128,0,157238:0:0:0:0:
192,192,157238,128,0,157399:0:0:0:0:
448,192,157399,1,0,0:0:0:0:
64,192,157399,1,0,0:0:0:0:
192,192,157560,128,0,157721:0:0:0:0:
64,192,157721,128,0,157883:0:0:0:0:
320,192,157883,128,0,158044:0:0:0:0:
64,192,158044,1,0,0:0:0:0:
448,192,158044,128,0,158205:0:0:0:0:
192,192,158205,128,0,158367:0:0:0:0:
320,192,158367,128,0,158528:0:0:0:0:
192,192,158528,128,0,158689:0:0:0:0:
448,192,158689,1,0,0:0:0:0:
64,192,158689,128,0,158850:0:0:0:0:
320,192,158850,128,0,159012:0:0:0:0:
192,192,159012,128,0,159173:0:0:0:0:
320,192,159173,128,0,159334:0:0:0:0:
448,192,159334,1,0,0:0:0:0:
64,192,159334,1,0,0:0:0:0:
192,192,159496,128,0,159657:0:0:0:0:
448,192,159657,128,0,159818:0:0:0:0:
320,192,159818,128,0,159979:0:0:0:0:
448,192,159979,128,0,160221:0:0:0:0:
64,192,159979,128,0,160221:0:0:0:0:
320,192,160302,128,0,160544:0:0:0:0:
448,192,160302,128,0,160544:0:0:0:0:
448,192,160625,128,0,160867:0:0:0:0:
64,192,160625,128,0,160867:0:0:0:0:
192,192,160947,128,0,161189:0:0:0:0:
64,192,160947,128,0,161189:0:0:0:0:
64,192,161270,128,0,161512:0:0:0:0:
448,192,161270,128,0,161512:0:0:0:0:
320,192,161592,128,0,161834:0:0:0:0:
448,192,161592,128,0,161834:0:0:0:0:
64,192,161915,128,0,162157:0:0:0:0:
448,192,161915,128,0,162157:0:0:0:0:
192,192,162238,128,0,162479:0:0:0:0:
64,192,162238,128,0,162479:0:0:0:0:
320,192,162560,128,0,162600:0:0:0:0:
192,192,162560,128,0,162600:0:0:0:0:
64,192,162560,128,0,162600:0:0:0:0:
448,192,162560,128,0,162600:0:0:0:0:
64,192,163850,128,0,165060:0:0:0:0:
192,192,163891,1,0,0:0:0:0:
320,192,163931,128,0,165060:0:0:0:0:
448,192,163971,1,0,0:0:0:0:
448,192,164818,128,0,165060:0:0:0:0:
320,192,165141,1,0,0:0:0:0:
192,192,165141,1,0,0:0:0:0:
64,192,165141,128,0,165383:0:0:0:0:
448,192,165141,128,0,165383:0:0:0:0:
192,192,165302,1,0,0:0:0:0:
320,192,165383,1,0,0:0:0:0:
448,192,165463,1,0,0:0:0:0:
64,192,165463,1,0,0:0:0:0:
192,192,165625,1,0,0:0:0:0:
64,192,165625,1,0,0:0:0:0:
320,192,165705,1,0,0:0:0:0:
192,192,165786,1,0,0:0:0:0:
64,192,165786,1,0,0:0:0:0:
448,192,165786,1,0,0:0:0:0:
448,192,165947,128,0,166109:0:0:0:0:
320,192,165988,128,0,166109:0:0:0:0:
64,192,166109,128,0,166350:0:0:0:0:
192,192,166149,128,0,166350:0:0:0:0:
320,192,166189,1,0,0:0:0:0:
448,192,166270,1,0,0:0:0:0:
320,192,166350,1,0,0:0:0:0:
64,192,166431,1,0,0:0:0:0:
448,192,166431,1,0,0:0:0:0:
320,192,166592,1,0,0:0:0:0:
192,192,166633,128,0,166754:0:0:0:0:
448,192,166754,128,0,166915:0:0:0:0:
64,192,166754,128,0,166915:0:0:0:0:
320,192,166834,1,0,0:0:0:0:
192,192,166915,1,0,0:0:0:0:
320,192,166996,128,0,167076:0:0:0:0:
448,192,167076,1,0,0:0:0:0:
192,192,167076,1,0,0:0:0:0:
64,192,167076,1,0,0:0:0:0:
448,192,167238,1,0,0:0:0:0:
320,192,167238,1,0,0:0:0:0:
64,192,167399,128,0,167641:0:0:0:0:
192,192,167439,128,0,167641:0:0:0:0:
320,192,167479,1,0,0:0:0:0:
448,192,167560,1,0,0:0:0:0:
64,192,167721,1,0,0:0:0:0:
192,192,167721,1,0,0:0:0:0:
320,192,167802,1,0,0:0:0:0:
448,192,167883,128,0,168044:0:0:0:0:
64,192,167923,128,0,168044:0:0:0:0:
192,192,168044,1,0,0:0:0:0:
320,192,168125,1,0,0:0:0:0:
448,192,168205,1,0,0:0:0:0:
192,192,168286,1,0,0:0:0:0:
320,192,168367,1,0,0:0:0:0:
448,192,168367,1,0,0:0:0:0:
64,192,168367,1,0,0:0:0:0:
192,192,168528,128,0,168689:0:0:0:0:
448,192,168689,128,0,168931:0:0:0:0:
320,192,168729,128,0,168931:0:0:0:0:
192,192,168770,1,0,0:0:0:0:
64,192,168850,1,0,0:0:0:0:
192,192,168931,1,0,0:0:0:0:
320,192,169012,1,0,0:0:0:0:
448,192,169012,1,0,0:0:0:0:
192,192,169092,1,0,0:0:0:0:
64,192,169173,128,0,169334:0:0:0:0:
448,192,169213,128,0,169496:0:0:0:0:
320,192,169334,128,0,169496:0:0:0:0:
64,192,169496,1,0,0:0:0:0:
192,192,169496,1,0,0:0:0:0:
448,192,169576,1,0,0:0:0:0:
320,192,169576,1,0,0:0:0:0:
64,192,169657,128,0,169697:0:0:0:0:
192,192,169657,128,0,169697:0:0:0:0:
320,192,169657,128,0,169697:0:0:0:0:
448,192,169657,128,0,169697:0:0:0:0:
64,192,170302,128,0,170544:0:0:0:0:
448,192,170302,128,0,170544:0:0:0:0:
320,192,170302,1,0,0:0:0:0:
192,192,170302,1,0,0:0:0:0:
320,192,170463,1,0,0:0:0:0:
192,192,170544,1,0,0:0:0:0:
64,192,170625,1,0,0:0:0:0:
448,192,170625,1,0,0:0:0:0:
320,192,170705,1,0,0:0:0:0:
64,192,170786,1,0,0:0:0:0:
448,192,170786,1,0,0:0:0:0:
192,192,170867,1,0,0:0:0:0:
320,192,170947,1,0,0:0:0:0:
448,192,170947,1,0,0:0:0:0:
64,192,170947,1,0,0:0:0:0:
64,192,171109,128,0,171270:0:0:0:0:
192,192,171149,128,0,171270:0:0:0:0:
448,192,171270,128,0,171512:0:0:0:0:
320,192,171310,128,0,171512:0:0:0:0:
192,192,171350,1,0,0:0:0:0:
64,192,171431,1,0,0:0:0:0:
192,192,171512,1,0,0:0:0:0:
448,192,171592,1,0,0:0:0:0:
64,192,171592,1,0,0:0:0:0:
320,192,171754,128,0,171915:0:0:0:0:
448,192,171794,128,0,171915:0:0:0:0:
192,192,171915,128,0,171996:0:0:0:0:
64,192,171915,128,0,171996:0:0:0:0:
320,192,172076,128,0,172157:0:0:0:0:
448,192,172076,128,0,172157:0:0:0:0:
64,192,172238,1,0,0:0:0:0:
192,192,172238,1,0,0:0:0:0:
320,192,172238,1,0,0:0:0:0:
448,192,172238,1,0,0:0:0:0:
192,192,172399,1,0,0:0:0:0:
64,192,172399,1,0,0:0:0:0:
448,192,172560,128,0,172802:0:0:0:0:
320,192,172600,1,0,0:0:0:0:
192,192,172641,128,0,172802:0:0:0:0:
64,192,172721,1,0,0:0:0:0:
448,192,172883,1,0,0:0:0:0:
64,192,172883,1,0,0:0:0:0:
192,192,172963,1,0,0:0:0:0:
448,192,173044,128,0,173205:0:0:0:0:
320,192,173084,128,0,173205:0:0:0:0:
64,192,173205,1,0,0:0:0:0:
192,192,173286,1,0,0:0:0:0:
320,192,173367,1,0,0:0:0:0:
192,192,173447,1,0,0:0:0:0:
448,192,173528,1,0,0:0:0:0:
64,192,173528,1,0,0:0:0:0:
320,192,173528,1,0,0:0:0:0:
320,192,173689,1,0,0:0:0:0:
192,192,173850,128,0,174092:0:0:0:0:
64,192,173891,128,0,174092:0:0:0:0:
448,192,173931,1,0,0:0:0:0:
320,192,174012,1,0,0:0:0:0:
448,192,174092,1,0,0:0:0:0:
64,192,174173,1,0,0:0:0:0:
192,192,174173,1,0,0:0:0:0:
320,192,174254,1,0,0:0:0:0:
448,192,174334,128,0,174415:0:0:0:0:
64,192,174334,128,0,174415:0:0:0:0:
192,192,174415,1,0,0:0:0:0:
320,192,174496,1,0,0:0:0:0:
448,192,174496,1,0,0:0:0:0:
192,192,174576,1,0,0:0:0:0:
448,192,174657,128,0,174738:0:0:0:0:
64,192,174657,128,0,174738:0:0:0:0:
320,192,174738,1,0,0:0:0:0:
192,192,174818,1,0,0:0:0:0:
64,192,174818,1,0,0:0:0:0:
448,192,174818,1,0,0:0:0:0:
192,192,174979,1,0,0:0:0:0:
64,192,174979,1,0,0:0:0:0:
320,192,175463,1,0,0:0:0:0:
448,192,175463,1,0,0:0:0:0:
64,192,175463,128,0,175705:0:0:0:0:
192,192,175463,128,0,175705:0:0:0:0:
448,192,175625,1,0,0:0:0:0:
320,192,175705,1,0,0:0:0:0:
192,192,175786,1,0,0:0:0:0:
64,192,175786,1,0,0:0:0:0:
448,192,175867,1,0,0:0:0:0:
320,192,175947,1,0,0:0:0:0:
64,192,175947,1,0,0:0:0:0:
192,192,176028,1,0,0:0:0:0:
448,192,176109,1,0,0:0:0:0:
320,192,176109,1,0,0:0:0:0:
64,192,176109,1,0,0:0:0:0:
448,192,176270,128,0,176431:0:0:0:0:
320,192,176310,128,0,176431:0:0:0:0:
64,192,176431,128,0,176673:0:0:0:0:
192,192,176471,128,0,176673:0:0:0:0:
448,192,176592,1,0,0:0:0:0:
320,192,176673,1,0,0:0:0:0:
192,192,176754,1,0,0:0:0:0:
64,192,176754,1,0,0:0:0:0:
192,192,176915,1,0,0:0:0:0:
64,192,176955,128,0,177076:0:0:0:0:
320,192,177076,128,0,177238:0:0:0:0:
448,192,177076,128,0,177238:0:0:0:0:
192,192,177157,1,0,0:0:0:0:
64,192,177238,1,0,0:0:0:0:
448,192,177318,128,0,177399:0:0:0:0:
320,192,177399,1,0,0:0:0:0:
192,192,177399,1,0,0:0:0:0:
64,192,177399,1,0,0:0:0:0:
192,192,177560,1,0,0:0:0:0:
64,192,177560,1,0,0:0:0:0:
448,192,177721,128,0,177963:0:0:0:0:
320,192,177762,1,0,0:0:0:0:
64,192,177802,128,0,177963:0:0:0:0:
192,192,177883,1,0,0:0:0:0:
448,192,178044,1,0,0:0:0:0:
64,192,178044,1,0,0:0:0:0:
192,192,178205,128,0,178367:0:0:0:0:
64,192,178246,128,0,178367:0:0:0:0:
320,192,178286,1,0,0:0:0:0:
448,192,178367,1,0,0:0:0:0:
192,192,178447,1,0,0:0:0:0:
320,192,178528,1,0,0:0:0:0:
192,192,178609,1,0,0:0:0:0:
320,192,178689,1,0,0:0:0:0:
448,192,178689,1,0,0:0:0:0:
64,192,178689,1,0,0:0:0:0:
64,192,178850,1,0,0:0:0:0:
320,192,179012,128,0,179254:0:0:0:0:
448,192,179052,128,0,179254:0:0:0:0:
64,192,179092,1,0,0:0:0:0:
192,192,179173,1,0,0:0:0:0:
64,192,179254,1,0,0:0:0:0:
448,192,179334,1,0,0:0:0:0:
320,192,179334,1,0,0:0:0:0:
192,192,179415,1,0,0:0:0:0:
64,192,179496,128,0,179657:0:0:0:0:
448,192,179536,128,0,179818:0:0:0:0:
320,192,179657,128,0,179818:0:0:0:0:
192,192,179818,1,0,0:0:0:0:
64,192,179818,1,0,0:0:0:0:
448,192,179899,1,0,0:0:0:0:
320,192,179899,1,0,0:0:0:0:
64,192,179979,1,0,0:0:0:0:
192,192,179979,1,0,0:0:0:0:
320,192,179979,1,0,0:0:0:0:
448,192,179979,1,0,0:0:0:0:
64,192,180141,128,0,180544:0:0:0:0:
192,192,180181,1,0,0:0:0:0:
320,192,180221,1,0,0:0:0:0:
448,192,180262,128,0,180544:0:0:0:0:
192,192,180625,1,0,0:0:0:0:
64,192,180625,1,0,0:0:0:0:
320,192,180625,128,0,180867:0:0:0:0:
448,192,180625,128,0,180867:0:0:0:0:
64,192,180786,1,0,0:0:0:0:
192,192,180867,1,0,0:0:0:0:
320,192,180947,1,0,0:0:0:0:
448,192,180947,1,0,0:0:0:0:
64,192,181028,1,0,0:0:0:0:
192,192,181109,1,0,0:0:0:0:
448,192,181109,1,0,0:0:0:0:
320,192,181189,1,0,0:0:0:0:
448,192,181270,1,0,0:0:0:0:
192,192,181270,1,0,0:0:0:0:
64,192,181270,1,0,0:0:0:0:
320,192,181431,128,0,181592:0:0:0:0:
64,192,181592,128,0,181834:0:0:0:0:
192,192,181633,128,0,181754:0:0:0:0:
320,192,181673,1,0,0:0:0:0:
448,192,181754,128,0,181834:0:0:0:0:
320,192,181834,1,0,0:0:0:0:
192,192,181915,1,0,0:0:0:0:
64,192,181915,1,0,0:0:0:0:
448,192,182076,128,0,182238:0:0:0:0:
320,192,182117,128,0,182238:0:0:0:0:
64,192,182238,1,0,0:0:0:0:
192,192,182318,1,0,0:0:0:0:
448,192,182399,1,0,0:0:0:0:
320,192,182479,1,0,0:0:0:0:
192,192,182560,1,0,0:0:0:0:
64,192,182560,1,0,0:0:0:0:
448,192,182560,1,0,0:0:0:0:
192,192,182721,1,0,0:0:0:0:
64,192,182721,1,0,0:0:0:0:
448,192,182883,128,0,183125:0:0:0:0:
320,192,182923,1,0,0:0:0:0:
64,192,182963,128,0,183125:0:0:0:0:
192,192,183044,1,0,0:0:0:0:
448,192,183205,1,0,0:0:0:0:
64,192,183205,1,0,0:0:0:0:
64,192,183367,128,0,183528:0:0:0:0:
320,192,183407,128,0,183528:0:0:0:0:
192,192,183528,1,0,0:0:0:0:
320,192,183609,1,0,0:0:0:0:
448,192,183689,1,0,0:0:0:0:
448,192,183850,1,0,0:0:0:0:
320,192,183850,1,0,0:0:0:0:
192,192,183850,1,0,0:0:0:0:
64,192,183850,1,0,0:0:0:0:
64,192,184012,1,0,0:0:0:0:
192,192,184092,1,0,0:0:0:0:
448,192,184173,128,0,184415:0:0:0:0:
320,192,184213,128,0,184415:0:0:0:0:
64,192,184334,1,0,0:0:0:0:
192,192,184415,1,0,0:0:0:0:
448,192,184496,1,0,0:0:0:0:
320,192,184496,1,0,0:0:0:0:
192,192,184576,1,0,0:0:0:0:
64,192,184657,128,0,184738:0:0:0:0:
448,192,184657,128,0,184738:0:0:0:0:
320,192,184738,1,0,0:0:0:0:
192,192,184818,1,0,0:0:0:0:
64,192,184818,1,0,0:0:0:0:
320,192,184899,1,0,0:0:0:0:
448,192,184979,128,0,185060:0:0:0:0:
64,192,184979,128,0,185060:0:0:0:0:
192,192,185060,1,0,0:0:0:0:
448,192,185141,1,0,0:0:0:0:
320,192,185141,1,0,0:0:0:0:
64,192,185141,1,0,0:0:0:0:
192,192,185463,1,0,0:0:0:0:
64,192,185463,1,0,0:0:0:0:
448,192,185463,1,0,0:0:0:0:
320,192,185786,1,0,0:0:0:0:
192,192,185786,1,0,0:0:0:0:
64,192,185786,128,0,186028:0:0:0:0:
448,192,185786,128,0,186028:0:0:0:0:
320,192,185947,1,0,0:0:0:0:
192,192,186028,1,0,0:0:0:0:
448,192,186109,1,0,0:0:0:0:
64,192,186109,1,0,0:0:0:0:
320,192,186270,1,0,0:0:0:0:
64,192,186270,1,0,0:0:0:0:
192,192,186350,1,0,0:0:0:0:
320,192,186431,1,0,0:0:0:0:
64,192,186431,1,0,0:0:0:0:
448,192,186431,1,0,0:0:0:0:
320,192,186592,128,0,186754:0:0:0:0:
448,192,186633,128,0,186754:0:0:0:0:
192,192,186754,128,0,186996:0:0:0:0:
64,192,186794,128,0,186996:0:0:0:0:
448,192,186834,1,0,0:0:0:0:
320,192,186915,1,0,0:0:0:0:
448,192,186996,1,0,0:0:0:0:
64,192,187076,1,0,0:0:0:0:
192,192,187076,1,0,0:0:0:0:
64,192,187238,1,0,0:0:0:0:
192,192,187278,128,0,187399:0:0:0:0:
320,192,187399,128,0,187560:0:0:0:0:
448,192,187399,128,0,187560:0:0:0:0:
64,192,187479,1,0,0:0:0:0:
192,192,187560,1,0,0:0:0:0:
448,192,187641,128,0,187721:0:0:0:0:
320,192,187721,1,0,0:0:0:0:
192,192,187721,1,0,0:0:0:0:
64,192,187721,1,0,0:0:0:0:
448,192,187883,1,0,0:0:0:0:
320,192,187883,1,0,0:0:0:0:
64,192,188044,128,0,188286:0:0:0:0:
192,192,188084,128,0,188286:0:0:0:0:
448,192,188125,1,0,0:0:0:0:
320,192,188205,1,0,0:0:0:0:
64,192,188367,1,0,0:0:0:0:
192,192,188367,1,0,0:0:0:0:
320,192,188447,1,0,0:0:0:0:
448,192,188528,128,0,188689:0:0:0:0:
320,192,188568,128,0,188689:0:0:0:0:
64,192,188689,1,0,0:0:0:0:
192,192,188770,1,0,0:0:0:0:
448,192,188850,1,0,0:0:0:0:
64,192,188931,1,0,0:0:0:0:
320,192,189012,1,0,0:0:0:0:
448,192,189012,1,0,0:0:0:0:
192,192,189012,1,0,0:0:0:0:
448,192,189173,128,0,189334:0:0:0:0:
64,192,189334,128,0,189576:0:0:0:0:
192,192,189375,128,0,189576:0:0:0:0:
320,192,189415,1,0,0:0:0:0:
448,192,189496,1,0,0:0:0:0:
320,192,189576,1,0,0:0:0:0:
192,192,189657,1,0,0:0:0:0:
64,192,189657,1,0,0:0:0:0:
320,192,189738,1,0,0:0:0:0:
192,192,189818,128,0,189979:0:0:0:0:
448,192,189859,128,0,190141:0:0:0:0:
64,192,189979,128,0,190141:0:0:0:0:
192,192,190141,1,0,0:0:0:0:
320,192,190141,1,0,0:0:0:0:
448,192,190221,1,0,0:0:0:0:
64,192,190221,1,0,0:0:0:0:
64,192,190302,128,0,190342:0:0:0:0:
192,192,190302,128,0,190342:0:0:0:0:
320,192,190302,128,0,190342:0:0:0:0:
448,192,190302,128,0,190342:0:0:0:0:
64,192,190947,128,0,191189:0:0:0:0:
192,192,190947,128,0,191189:0:0:0:0:
320,192,190947,1,0,0:0:0:0:
448,192,190947,1,0,0:0:0:0:
448,192,191109,1,0,0:0:0:0:
320,192,191189,1,0,0:0:0:0:
64,192,191270,1,0,0:0:0:0:
192,192,191270,1,0,0:0:0:0:
320,192,191350,1,0,0:0:0:0:
64,192,191431,1,0,0:0:0:0:
448,192,191431,1,0,0:0:0:0:
192,192,191512,1,0,0:0:0:0:
320,192,191592,1,0,0:0:0:0:
448,192,191592,1,0,0:0:0:0:
64,192,191592,1,0,0:0:0:0:
192,192,191754,128,0,191915:0:0:0:0:
64,192,191794,128,0,191915:0:0:0:0:
448,192,191915,128,0,192157:0:0:0:0:
320,192,191955,128,0,192157:0:0:0:0:
64,192,191996,1,0,0:0:0:0:
192,192,192076,1,0,0:0:0:0:
64,192,192157,1,0,0:0:0:0:
448,192,192238,1,0,0:0:0:0:
320,192,192238,1,0,0:0:0:0:
192,192,192399,128,0,192560:0:0:0:0:
448,192,192439,128,0,192560:0:0:0:0:
320,192,192560,128,0,192641:0:0:0:0:
64,192,192560,128,0,192641:0:0:0:0:
192,192,192721,128,0,192802:0:0:0:0:
448,192,192721,128,0,192802:0:0:0:0:
448,192,192883,1,0,0:0:0:0:
320,192,192883,1,0,0:0:0:0:
192,192,192883,1,0,0:0:0:0:
64,192,192883,1,0,0:0:0:0:
448,192,193044,1,0,0:0:0:0:
64,192,193044,1,0,0:0:0:0:
448,192,193205,128,0,193447:0:0:0:0:
320,192,193246,1,0,0:0:0:0:
64,192,193286,128,0,193447:0:0:0:0:
192,192,193367,1,0,0:0:0:0:
448,192,193528,1,0,0:0:0:0:
64,192,193528,1,0,0:0:0:0:
192,192,193609,1,0,0:0:0:0:
448,192,193689,128,0,193850:0:0:0:0:
320,192,193729,128,0,193850:0:0:0:0:
64,192,193850,1,0,0:0:0:0:
448,192,193931,1,0,0:0:0:0:
320,192,194012,1,0,0:0:0:0:
192,192,194092,1,0,0:0:0:0:
448,192,194173,1,0,0:0:0:0:
64,192,194173,1,0,0:0:0:0:
320,192,194173,1,0,0:0:0:0:
192,192,194334,1,0,0:0:0:0:
448,192,194496,128,0,194738:0:0:0:0:
320,192,194536,128,0,194738:0:0:0:0:
192,192,194576,1,0,0:0:0:0:
64,192,194657,1,0,0:0:0:0:
192,192,194738,1,0,0:0:0:0:
448,192,194818,1,0,0:0:0:0:
320,192,194818,1,0,0:0:0:0:
192,192,194899,1,0,0:0:0:0:
448,192,194979,128,0,195060:0:0:0:0:
64,192,194979,128,0,195060:0:0:0:0:
320,192,195060,1,0,0:0:0:0:
192,192,195141,1,0,0:0:0:0:
64,192,195141,1,0,0:0:0:0:
320,192,195221,1,0,0:0:0:0:
448,192,195302,128,0,195383:0:0:0:0:
64,192,195302,128,0,195383:0:0:0:0:
192,192,195383,1,0,0:0:0:0:
448,192,195463,1,0,0:0:0:0:
320,192,195463,1,0,0:0:0:0:
64,192,195463,1,0,0:0:0:0:
320,192,195625,1,0,0:0:0:0:
448,192,195625,1,0,0:0:0:0:
192,192,196109,1,0,0:0:0:0:
64,192,196109,1,0,0:0:0:0:
448,192,196109,128,0,196350:0:0:0:0:
320,192,196109,128,0,196350:0:0:0:0:
64,192,196270,1,0,0:0:0:0:
192,192,196350,1,0,0:0:0:0:
320,192,196431,1,0,0:0:0:0:
448,192,196431,1,0,0:0:0:0:
64,192,196512,1,0,0:0:0:0:
320,192,196592,1,0,0:0:0:0:
448,192,196592,1,0,0:0:0:0:
192,192,196673,1,0,0:0:0:0:
448,192,196754,1,0,0:0:0:0:
320,192,196754,1,0,0:0:0:0:
64,192,196754,1,0,0:0:0:0:
448,192,196915,128,0,197076:0:0:0:0:
192,192,196955,128,0,197076:0:0:0:0:
64,192,197076,128,0,197318:0:0:0:0:
320,192,197117,128,0,197318:0:0:0:0:
192,192,197238,1,0,0:0:0:0:
448,192,197318,1,0,0:0:0:0:
320,192,197399,1,0,0:0:0:0:
64,192,197399,1,0,0:0:0:0:
448,192,197560,1,0,0:0:0:0:
320,192,197600,128,0,197721:0:0:0:0:
64,192,197721,128,0,197883:0:0:0:0:
448,192,197721,128,0,197883:0:0:0:0:
192,192,197802,1,0,0:0:0:0:
320,192,197883,1,0,0:0:0:0:
448,192,197963,128,0,198044:0:0:0:0:
192,192,198044,1,0,0:0:0:0:
64,192,198044,1,0,0:0:0:0:
320,192,198044,1,0,0:0:0:0:
448,192,198205,1,0,0:0:0:0:
320,192,198205,1,0,0:0:0:0:
64,192,198367,128,0,198609:0:0:0:0:
192,192,198407,1,0,0:0:0:0:
320,192,198447,128,0,198609:0:0:0:0:
448,192,198528,1,0,0:0:0:0:
64,192,198689,1,0,0:0:0:0:
448,192,198689,1,0,0:0:0:0:
192,192,198850,128,0,199012:0:0:0:0:
64,192,198891,128,0,199012:0:0:0:0:
320,192,198931,1,0,0:0:0:0:
448,192,199012,1,0,0:0:0:0:
320,192,199092,1,0,0:0:0:0:
64,192,199173,1,0,0:0:0:0:
192,192,199254,1,0,0:0:0:0:
320,192,199334,1,0,0:0:0:0:
448,192,199334,1,0,0:0:0:0:
64,192,199334,1,0,0:0:0:0:
192,192,199496,1,0,0:0:0:0:
64,192,199657,128,0,199899:0:0:0:0:
448,192,199697,128,0,199899:0:0:0:0:
192,192,199738,1,0,0:0:0:0:
320,192,199818,1,0,0:0:0:0:
192,192,199899,1,0,0:0:0:0:
448,192,199979,1,0,0:0:0:0:
64,192,199979,1,0,0:0:0:0:
320,192,200060,1,0,0:0:0:0:
192,192,200141,128,0,200302:0:0:0:0:
448,192,200181,128,0,200463:0:0:0:0:
64,192,200302,128,0,200463:0:0:0:0:
320,192,200463,1,0,0:0:0:0:
192,192,200463,1,0,0:0:0:0:
448,192,200544,1,0,0:0:0:0:
64,192,200544,1,0,0:0:0:0:
448,192,200625,1,0,0:0:0:0:
320,192,200625,1,0,0:0:0:0:
192,192,200625,1,0,0:0:0:0:
64,192,200625,1,0,0:0:0:0:
448,192,200786,128,0,201189:0:0:0:0:
320,192,200826,1,0,0:0:0:0:
192,192,200867,1,0,0:0:0:0:
64,192,200907,128,0,201189:0:0:0:0:
192,192,201270,1,0,0:0:0:0:
320,192,201270,1,0,0:0:0:0:
64,192,201270,128,0,201512:0:0:0:0:
448,192,201270,128,0,201512:0:0:0:0:
320,192,201431,1,0,0:0:0:0:
192,192,201512,1,0,0:0:0:0:
64,192,201592,1,0,0:0:0:0:
448,192,201592,1,0,0:0:0:0:
320,192,201673,1,0,0:0:0:0:
192,192,201754,1,0,0:0:0:0:
64,192,201754,1,0,0:0:0:0:
448,192,201834,1,0,0:0:0:0:
320,192,201915,1,0,0:0:0:0:
192,192,201915,1,0,0:0:0:0:
64,192,201915,1,0,0:0:0:0:
192,192,202076,128,0,202238:0:0:0:0:
448,192,202238,128,0,202479:0:0:0:0:
320,192,202278,128,0,202399:0:0:0:0:
64,192,202318,1,0,0:0:0:0:
192,192,202399,1,0,0:0:0:0:
320,192,202479,1,0,0:0:0:0:
192,192,202560,1,0,0:0:0:0:
64,192,202560,1,0,0:0:0:0:
448,192,202560,1,0,0:0:0:0:
448,192,202721,128,0,202883:0:0:0:0:
320,192,202762,128,0,202883:0:0:0:0:
192,192,202883,1,0,0:0:0:0:
64,192,202963,1,0,0:0:0:0:
192,192,203044,1,0,0:0:0:0:
448,192,203125,1,0,0:0:0:0:
192,192,203205,1,0,0:0:0:0:
64,192,203205,1,0,0:0:0:0:
320,192,203205,1,0,0:0:0:0:
320,192,203367,1,0,0:0:0:0:
448,192,203367,1,0,0:0:0:0:
448,192,203528,128,0,203770:0:0:0:0:
64,192,203568,1,0,0:0:0:0:
192,192,203609,128,0,203770:0:0:0:0:
320,192,203689,1,0,0:0:0:0:
448,192,203850,1,0,0:0:0:0:
192,192,203850,1,0,0:0:0:0:
64,192,204012,128,0,204173:0:0:0:0:
448,192,204052,128,0,204173:0:0:0:0:
320,192,204173,1,0,0:0:0:0:
192,192,204254,1,0,0:0:0:0:
448,192,204334,1,0,0:0:0:0:
448,192,204496,1,0,0:0:0:0:
320,192,204496,1,0,0:0:0:0:
192,192,204496,1,0,0:0:0:0:
64,192,204496,1,0,0:0:0:0:
64,192,204657,1,0,0:0:0:0:
192,192,204738,1,0,0:0:0:0:
320,192,204818,128,0,205060:0:0:0:0:
448,192,204859,128,0,205060:0:0:0:0:
192,192,204979,1,0,0:0:0:0:
64,192,205060,1,0,0:0:0:0:
448,192,205141,1,0,0:0:0:0:
320,192,205141,1,0,0:0:0:0:
192,192,205221,1,0,0:0:0:0:
64,192,205302,1,0,0:0:0:0:
448,192,205302,1,0,0:0:0:0:
320,192,205383,1,0,0:0:0:0:
192,192,205463,1,0,0:0:0:0:
64,192,205463,1,0,0:0:0:0:
320,192,205544,1,0,0:0:0:0:
64,192,205625,1,0,0:0:0:0:
448,192,205625,1,0,0:0:0:0:
192,192,205705,1,0,0:0:0:0:
64,192,205786,128,0,205826:0:0:0:0:
320,192,205786,128,0,205826:0:0:0:0:
448,192,205786,128,0,205826:0:0:0:0:
448,192,206431,1,0,0:0:0:0:
320,192,206431,1,0,0:0:0:0:
64,192,206431,1,0,0:0:0:0:
192,192,206431,1,0,0:0:0:0:
