osu file format v14

[General]
AudioFilename: audio.mp3
AudioLeadIn: 0
PreviewTime: 82917
Countdown: 0
SampleSet: Soft
StackLeniency: 0.7
Mode: 1
LetterboxInBreaks: 0
WidescreenStoryboard: 0

[Editor]
Bookmarks: 144495
DistanceSpacing: 0.9
BeatDivisor: 16
GridSize: 32
TimelineZoom: 2.5

[Metadata]
Title:forest of the spirits
TitleUnicode:forest of the spirits
Artist:sakuraburst
ArtistUnicode:sakuraburst
Creator:[Zeth]
Version:tranquility
Source:osu!
Tags:blood orange EP experimental glitch dubstep glitch hop wub electronic instrumental mappers' guild mg featured artist fa salchow Aisha xfraczynho Nardoxyribonucleic Volta
BeatmapID:2252938
BeatmapSetID:1053433

[Difficulty]
HPDrainRate:5.5
CircleSize:5
OverallDifficulty:6.5
ApproachRate:10
SliderMultiplier:1.4
SliderTickRate:1

[Events]
//Background and Video events
0,0,"forest of the spirit(1).jpg",0,-80
//Break Periods
2,124730,144725
//Storyboard Layer 0 (Background)
//Storyboard Layer 1 (Fail)
//Storyboard Layer 2 (Pass)
//Storyboard Layer 3 (Foreground)
//Storyboard Layer 4 (Overlay)
//Storyboard Sound Samples

[TimingPoints]
660,645.161290322581,4,2,0,100,1,0
660,-125,4,2,0,100,0,0
21303,-100,4,2,0,100,0,0
41948,-90.9090909090909,4,2,0,100,0,0
42271,-100,4,2,0,100,0,0
58723,-100,4,2,0,25,0,0
61787,-111.111111111111,4,2,0,100,0,0
62271,-117.647058823529,4,2,0,100,0,0
62593,-125,4,2,0,100,0,0
65174,-111.111111111111,4,2,0,100,0,0
65819,-125,4,2,0,100,0,0
67755,-111.111111111111,4,2,0,100,0,0
68400,-125,4,2,0,100,0,0
70335,-111.111111111111,4,2,0,100,0,0
70980,-125,4,2,0,100,0,0
72916,-100,4,2,0,100,0,0
73561,-125,4,2,0,100,0,0
75819,-133.333333333333,4,2,0,100,0,0
78400,-142.857142857143,4,2,0,100,0,0
80658,-100,4,2,0,100,0,0
81948,-125,4,2,0,100,0,0
83240,322.58064516129,4,1,0,100,1,0
83399,-111.111111111111,4,1,0,100,0,0
87754,-100,4,1,0,100,0,0
87915,-111.111111111111,4,1,0,100,0,0
91947,-100,4,1,0,100,0,0
92270,-111.111111111111,4,1,0,100,0,0
92915,-90.9090909090909,4,1,0,100,0,0
93237,-100,4,1,0,100,0,0
93399,-105.263157894737,4,1,0,100,0,0
93479,-108.108108108108,4,1,0,100,0,0
93560,-111.111111111111,4,1,0,100,0,0
98076,-100,4,1,0,100,0,0
98238,-111.111111111111,4,1,0,100,0,0
101947,-94.3396226415094,4,1,0,100,0,0
102001,-96.1538461538461,4,1,0,100,0,0
102055,-98.0392156862745,4,1,0,100,0,0
102108,-100,4,1,0,100,0,0
102592,-111.111111111111,4,1,0,100,0,0
103237,-83.3333333333333,4,1,0,100,0,0
103560,-90.9090909090909,4,1,0,100,0,0
103641,-93.0232558139535,4,1,0,100,0,0
103721,-95.2380952380952,4,1,0,100,0,0
103802,-97.5609756097561,4,1,0,100,0,0
103883,-100,4,1,0,100,0,0
105496,-94.3396226415094,4,1,0,100,0,0
105549,-96.1538461538461,4,1,0,100,0,0
105603,-98.0392156862745,4,1,0,100,0,0
105657,-100,4,1,0,100,0,0
108076,-94.3396226415094,4,1,0,100,0,0
108130,-96.1538461538461,4,1,0,100,0,0
108184,-98.0392156862745,4,1,0,100,0,0
108237,-100,4,1,0,100,0,0
108399,-90.9090909090909,4,1,0,100,0,0
108560,-100,4,1,0,100,0,0
110657,-94.3396226415094,4,1,0,100,0,0
110711,-96.1538461538461,4,1,0,100,0,0
110764,-98.0392156862745,4,1,0,100,0,0
110818,-100,4,1,0,100,0,0
113237,-94.3396226415094,4,1,0,100,0,0
113291,-96.1538461538461,4,1,0,100,0,0
113345,-98.0392156862745,4,1,0,100,0,0
113399,-100,4,1,0,100,0,0
113560,-90.9090909090909,4,1,0,100,0,0
113721,-100,4,1,0,100,0,0
113963,-97.5609756097561,4,1,0,100,0,0
114044,-95.2380952380952,4,1,0,100,0,0
114125,-93.0232558139535,4,1,0,100,0,0
114205,-90.9090909090909,4,1,0,100,0,0
114367,-100,4,1,0,100,0,0
115818,-94.3396226415094,4,1,0,100,0,0
115872,-96.1538461538461,4,1,0,100,0,0
115926,-98.0392156862745,4,1,0,100,0,0
115979,-100,4,1,0,100,0,0
118399,-94.3396226415094,4,1,0,100,0,0
118453,-96.1538461538461,4,1,0,100,0,0
118506,-98.0392156862745,4,1,0,100,0,0
118560,-100,4,1,0,100,0,0
118721,-90.9090909090909,4,1,0,100,0,0
118883,-100,4,1,0,100,0,0
120979,-94.3396226415094,4,1,0,100,0,0
121033,-96.1538461538461,4,1,0,100,0,0
121087,-98.0392156862745,4,1,0,100,0,0
121141,-100,4,1,0,100,0,0
121786,-102.564102564103,4,1,0,100,0,0
121947,-105.263157894737,4,1,0,100,0,0
122915,-114.285714285714,4,1,0,100,0,0
123237,-117.647058823529,4,1,0,100,0,0
123883,-83.3333333333333,4,1,0,100,0,0
124044,-98.0392156862745,4,1,0,100,0,0
124125,-95.2380952380952,4,1,0,100,0,0
124205,-92.5925925925926,4,1,0,100,0,0
124286,-90.0900900900901,4,1,0,100,0,0
124367,-87.719298245614,4,1,0,100,0,0
124447,-85.4700854700855,4,1,0,100,0,0
124528,-83.3333333333333,4,1,0,100,0,0
125818,-85.1063829787234,4,1,0,100,0,0
127108,-86.9565217391304,4,1,0,100,0,0
128399,-88.8888888888889,4,1,0,100,0,0
129689,-90.9090909090909,4,1,0,100,0,0
130979,-93.0232558139535,4,1,0,100,0,0
132270,-95.2380952380952,4,1,0,100,0,0
133560,-97.5609756097561,4,1,0,100,0,0
134850,-100,4,1,0,100,0,0
136141,-102.564102564103,4,1,0,100,0,0
137431,-105.263157894737,4,1,0,100,0,0
138721,-108.108108108108,4,1,0,100,0,0
140012,-111.111111111111,4,1,0,100,0,0
141302,-114.285714285714,4,1,0,100,0,0
142592,-117.647058823529,4,1,0,100,0,0
143883,-121.212121212121,4,1,0,100,0,0
145173,-66.6666666666667,4,1,0,100,0,0
145334,-111.111111111111,4,1,0,100,0,0
155012,-108.108108108108,4,1,0,100,0,0
155173,-105.263157894737,4,1,0,100,0,0
155334,-102.564102564103,4,1,0,100,0,0
155496,-100,4,1,0,100,0,0
160657,-97.0873786407767,4,1,0,100,0,0
160818,-94.3396226415094,4,1,0,100,0,0
160979,-91.743119266055,4,1,0,100,0,0
161140,-89.2857142857143,4,1,0,100,0,0
161302,-86.9565217391304,4,1,0,100,0,0
161463,-84.7457627118644,4,1,0,100,0,0
161624,-82.6446280991736,4,1,0,100,0,0
161786,-80.6451612903226,4,1,0,100,0,0
161947,-78.7401574803149,4,1,0,100,0,0
162108,-76.9230769230769,4,1,0,100,0,0
162269,-75.187969924812,4,1,0,100,0,0
162431,-73.5294117647059,4,1,0,100,0,0
162592,-71.9424460431655,4,1,0,100,0,0
162753,-70.2370500438982,4,1,0,100,0,0
162915,-68.8764528626776,4,1,0,100,0,0
163076,-67.5675675675676,4,1,0,100,0,0
163237,-62.5,4,1,0,100,0,0
164528,-142.857142857143,4,1,0,100,0,0
165820,-66.6666666666667,4,1,0,100,0,1
166141,-76.9230769230769,4,1,0,100,0,1
166302,-80,4,1,0,100,0,1
166463,-83.3333333333333,4,1,0,100,0,1
166786,-79.3650793650794,4,1,0,100,0,1
166840,-80.6451612903226,4,1,0,100,0,1
166893,-81.9672131147541,4,1,0,100,0,1
166947,-83.3333333333333,4,1,0,100,0,1
167431,-79.3650793650794,4,1,0,100,0,1
167485,-80.6451612903226,4,1,0,100,0,1
167539,-81.9672131147541,4,1,0,100,0,1
167592,-83.3333333333333,4,1,0,100,0,1
168721,-79.3650793650794,4,1,0,100,0,1
168775,-80.6451612903226,4,1,0,100,0,1
168829,-81.9672131147541,4,1,0,100,0,1
168883,-83.3333333333333,4,1,0,100,0,1
169850,-79.3650793650794,4,1,0,100,0,1
169904,-80.6451612903226,4,1,0,100,0,1
169958,-81.9672131147541,4,1,0,100,0,1
170012,-83.3333333333333,4,1,0,100,0,1
170173,-80,4,1,0,100,0,1
170254,-76.9230769230769,4,1,0,100,0,1
170334,-74.0740740740741,4,1,0,100,0,1
170415,-40,4,1,0,100,0,1
170979,-83.3333333333333,4,1,0,100,0,1
171302,-76.9230769230769,4,1,0,100,0,1
171463,-80,4,1,0,100,0,1
171625,-83.3333333333333,4,1,0,100,0,1
171947,-79.3650793650794,4,1,0,100,0,1
172001,-80.6451612903226,4,1,0,100,0,1
172055,-81.9672131147541,4,1,0,100,0,1
172108,-83.3333333333333,4,1,0,100,0,1
172592,-79.3650793650794,4,1,0,100,0,1
172646,-80.6451612903226,4,1,0,100,0,1
172700,-81.9672131147541,4,1,0,100,0,1
172754,-83.3333333333333,4,1,0,100,0,1
173883,-79.3650793650794,4,1,0,100,0,1
173936,-80.6451612903226,4,1,0,100,0,1
173990,-81.9672131147541,4,1,0,100,0,1
174044,-83.3333333333333,4,1,0,100,0,1
175496,-76.9230769230769,4,1,0,100,0,1
175657,-83.3333333333333,4,1,0,100,0,1
175737,-40,4,1,0,100,0,1
176141,-66.6666666666667,4,1,0,100,0,1
176463,-76.9230769230769,4,1,0,100,0,1
176625,-80,4,1,0,100,0,1
176786,-83.3333333333333,4,1,0,100,0,1
177108,-79.3650793650794,4,1,0,100,0,1
177162,-80.6451612903226,4,1,0,100,0,1
177216,-81.9672131147541,4,1,0,100,0,1
177270,-83.3333333333333,4,1,0,100,0,1
177754,-79.3650793650794,4,1,0,100,0,1
177807,-80.6451612903226,4,1,0,100,0,1
177861,-81.9672131147541,4,1,0,100,0,1
177915,-83.3333333333333,4,1,0,100,0,1
179044,-79.3650793650794,4,1,0,100,0,1
179098,-80.6451612903226,4,1,0,100,0,1
179151,-81.9672131147541,4,1,0,100,0,1
179205,-83.3333333333333,4,1,0,100,0,1
180173,-79.3650793650794,4,1,0,100,0,1
180227,-80.6451612903226,4,1,0,100,0,1
180281,-81.9672131147541,4,1,0,100,0,1
180334,-83.3333333333333,4,1,0,100,0,1
180496,-80,4,1,0,100,0,1
180576,-76.9230769230769,4,1,0,100,0,1
180657,-74.0740740740741,4,1,0,100,0,1
180737,-40,4,1,0,100,0,1
181302,-83.3333333333333,4,1,0,100,0,1
181625,-76.9230769230769,4,1,0,100,0,1
181786,-80,4,1,0,100,0,1
181947,-83.3333333333333,4,1,0,100,0,1
182270,-79.3650793650794,4,1,0,100,0,1
182324,-80.6451612903226,4,1,0,100,0,1
182377,-81.9672131147541,4,1,0,100,0,1
182431,-83.3333333333333,4,1,0,100,0,1
182915,-79.3650793650794,4,1,0,100,0,1
182969,-80.6451612903226,4,1,0,100,0,1
183022,-81.9672131147541,4,1,0,100,0,1
183076,-83.3333333333333,4,1,0,100,0,1
184205,-79.3650793650794,4,1,0,100,0,1
184259,-80.6451612903226,4,1,0,100,0,1
184313,-81.9672131147541,4,1,0,100,0,1
184367,-83.3333333333333,4,1,0,100,0,1
185175,-83.3333333333333,4,1,0,100,0,0
185818,-76.9230769230769,4,1,0,100,0,0
185979,-83.3333333333333,4,1,0,100,0,0
186141,-76.9230769230769,4,1,0,100,0,0
186465,-66.6666666666667,4,1,0,100,0,1
186786,-76.9230769230769,4,1,0,100,0,1
186947,-80,4,1,0,100,0,1
187108,-83.3333333333333,4,1,0,100,0,1
187431,-79.3650793650794,4,1,0,100,0,1
187485,-80.6451612903226,4,1,0,100,0,1
187539,-81.9672131147541,4,1,0,100,0,1
187592,-83.3333333333333,4,1,0,100,0,1
188076,-79.3650793650794,4,1,0,100,0,1
188130,-80.6451612903226,4,1,0,100,0,1
188184,-81.9672131147541,4,1,0,100,0,1
188237,-83.3333333333333,4,1,0,100,0,1
188775,-81.9672131147541,4,1,0,100,0,1
188829,-80.6451612903226,4,1,0,100,0,1
188883,-79.3650793650794,4,1,0,100,0,1
189044,-83.3333333333333,4,1,0,100,0,1
189367,-79.3650793650794,4,1,0,100,0,1
189420,-80.6451612903226,4,1,0,100,0,1
189474,-81.9672131147541,4,1,0,100,0,1
189528,-83.3333333333333,4,1,0,100,0,1
190065,-81.9672131147541,4,1,0,100,0,1
190119,-80.6451612903226,4,1,0,100,0,1
190173,-79.3650793650794,4,1,0,100,0,1
190334,-83.3333333333333,4,1,0,100,0,1
190388,-81.3008130081301,4,1,0,100,0,1
190496,-79.3650793650794,4,1,0,100,0,1
190549,-80.6451612903226,4,1,0,100,0,1
190603,-81.9672131147541,4,1,0,100,0,1
190657,-83.3333333333333,4,1,0,100,0,1
190818,-80,4,1,0,100,0,1
190899,-76.9230769230769,4,1,0,100,0,1
190979,-74.0740740740741,4,1,0,100,0,1
191060,-40,4,1,0,100,0,1
191625,-83.3333333333333,4,1,0,100,0,1
191947,-76.9230769230769,4,1,0,100,0,1
192108,-80,4,1,0,100,0,1
192270,-83.3333333333333,4,1,0,100,0,1
192592,-79.3650793650794,4,1,0,100,0,1
192646,-80,4,1,0,100,0,1
192700,-80.6451612903226,4,1,0,100,0,1
192754,-81.3008130081301,4,1,0,100,0,1
192807,-81.9672131147541,4,1,0,100,0,1
192861,-82.6446280991736,4,1,0,100,0,1
192915,-83.3333333333333,4,1,0,100,0,1
193237,-79.3650793650794,4,1,0,100,0,1
193291,-80.6451612903226,4,1,0,100,0,1
193345,-81.9672131147541,4,1,0,100,0,1
193399,-83.3333333333333,4,1,0,100,0,1
193936,-81.9672131147541,4,1,0,100,0,1
193990,-80.6451612903226,4,1,0,100,0,1
194044,-79.3650793650794,4,1,0,100,0,1
194205,-83.3333333333333,4,1,0,100,0,1
194528,-79.3650793650794,4,1,0,100,0,1
194582,-80.6451612903226,4,1,0,100,0,1
194635,-81.9672131147541,4,1,0,100,0,1
194689,-83.3333333333333,4,1,0,100,0,1
195227,-81.9672131147541,4,1,0,100,0,1
195281,-80.6451612903226,4,1,0,100,0,1
195334,-79.3650793650794,4,1,0,100,0,1
195496,-83.3333333333333,4,1,0,100,0,1
196141,-76.9230769230769,4,1,0,100,0,1
196302,-83.3333333333333,4,1,0,100,0,1
196383,-40,4,1,0,100,0,1
196786,-66.6666666666667,4,1,0,100,0,1
197108,-76.9230769230769,4,1,0,100,0,1
197270,-80,4,1,0,100,0,1
197431,-83.3333333333333,4,1,0,100,0,1
197754,-79.3650793650794,4,1,0,100,0,1
197807,-80.6451612903226,4,1,0,100,0,1
197861,-81.9672131147541,4,1,0,100,0,1
197915,-83.3333333333333,4,1,0,100,0,1
198399,-79.3650793650794,4,1,0,100,0,1
198453,-80.6451612903226,4,1,0,100,0,1
198506,-81.9672131147541,4,1,0,100,0,1
198560,-83.3333333333333,4,1,0,100,0,1
199098,-81.9672131147541,4,1,0,100,0,1
199151,-80.6451612903226,4,1,0,100,0,1
199205,-79.3650793650794,4,1,0,100,0,1
199367,-83.3333333333333,4,1,0,100,0,1
199689,-79.3650793650794,4,1,0,100,0,1
199743,-80.6451612903226,4,1,0,100,0,1
199797,-81.9672131147541,4,1,0,100,0,1
199850,-83.3333333333333,4,1,0,100,0,1
200388,-81.9672131147541,4,1,0,100,0,1
200442,-80.6451612903226,4,1,0,100,0,1
200496,-79.3650793650794,4,1,0,100,0,1
200657,-83.3333333333333,4,1,0,100,0,1
200711,-81.3008130081301,4,1,0,100,0,1
200818,-79.3650793650794,4,1,0,100,0,1
200872,-80.6451612903226,4,1,0,100,0,1
200926,-81.9672131147541,4,1,0,100,0,1
200979,-83.3333333333333,4,1,0,100,0,1
201141,-80,4,1,0,100,0,1
201221,-76.9230769230769,4,1,0,100,0,1
201302,-74.0740740740741,4,1,0,100,0,1
201383,-40,4,1,0,100,0,1
201947,-83.3333333333333,4,1,0,100,0,1
202270,-76.9230769230769,4,1,0,100,0,1
202431,-80,4,1,0,100,0,1
202592,-83.3333333333333,4,1,0,100,0,1
202915,-79.3650793650794,4,1,0,100,0,1
202969,-80,4,1,0,100,0,1
203022,-80.6451612903226,4,1,0,100,0,1
203076,-81.3008130081301,4,1,0,100,0,1
203130,-81.9672131147541,4,1,0,100,0,1
203184,-82.6446280991736,4,1,0,100,0,1
203237,-83.3333333333333,4,1,0,100,0,1
203560,-79.3650793650794,4,1,0,100,0,1
203614,-80.6451612903226,4,1,0,100,0,1
203668,-81.9672131147541,4,1,0,100,0,1
203721,-83.3333333333333,4,1,0,100,0,1
204259,-81.9672131147541,4,1,0,100,0,1
204313,-80.6451612903226,4,1,0,100,0,1
204367,-79.3650793650794,4,1,0,100,0,1
204528,-83.3333333333333,4,1,0,100,0,1
204850,-79.3650793650794,4,1,0,100,0,1
204904,-80.6451612903226,4,1,0,100,0,1
204958,-81.9672131147541,4,1,0,100,0,1
205012,-83.3333333333333,4,1,0,100,0,1
205549,-81.9672131147541,4,1,0,100,0,1
205603,-80.6451612903226,4,1,0,100,0,1
205657,-79.3650793650794,4,1,0,100,0,1
205818,-83.3333333333333,4,1,0,100,0,1
205979,-80.6451612903226,4,1,0,100,0,1
206141,-78.125,4,1,0,100,0,1
206302,-75.7575757575758,4,1,0,100,0,1
206463,-73.5294117647059,4,1,0,100,0,1
207110,-50,4,1,0,100,0,0

[HitObjects]
256,192,660,5,0,0:0:0:0:
256,192,983,1,0,0:0:0:0:
256,192,1306,1,2,0:0:0:0:
256,192,1628,1,0,0:0:0:0:
256,192,1951,1,2,0:0:0:0:
256,192,3241,5,0,0:0:0:0:
256,192,3563,1,0,0:0:0:0:
256,192,3886,1,2,0:0:0:0:
256,192,4208,1,0,0:0:0:0:
256,192,4531,1,2,0:0:0:0:
256,192,5822,5,0,0:0:0:0:
256,192,6144,1,0,0:0:0:0:
256,192,6467,1,2,0:0:0:0:
256,192,6789,1,0,0:0:0:0:
256,192,7112,1,2,0:0:0:0:
256,192,8402,5,0,0:0:0:0:
256,192,8724,1,0,0:0:0:0:
256,192,9047,1,2,0:0:0:0:
256,192,9369,1,0,0:0:0:0:
256,192,9692,1,2,0:0:0:0:
256,192,10983,5,0,0:0:0:0:
256,192,11305,1,2,0:0:0:0:
256,192,11628,1,2,0:0:0:0:
256,192,11950,1,0,0:0:0:0:
256,192,12273,1,2,0:0:0:0:
256,192,13564,5,0,0:0:0:0:
256,192,13886,1,2,0:0:0:0:
256,192,14209,1,2,0:0:0:0:
256,192,14531,1,0,0:0:0:0:
256,192,14854,1,2,0:0:0:0:
256,192,16144,5,0,0:0:0:0:
256,192,16466,1,2,0:0:0:0:
256,192,16789,1,2,0:0:0:0:
256,192,17111,1,0,0:0:0:0:
256,192,17434,1,2,0:0:0:0:
256,192,18725,5,0,0:0:0:0:
256,192,19047,1,2,0:0:0:0:
256,192,19370,1,2,0:0:0:0:
256,192,19692,1,0,0:0:0:0:
256,192,20015,1,2,0:0:0:0:
256,192,21305,1,6,0:0:0:0:
256,192,22273,1,0,0:0:0:0:
256,192,24209,1,2,0:0:0:0:
256,192,24531,1,2,0:0:0:0:
256,192,24853,1,0,0:0:0:0:
256,192,25821,1,2,0:0:0:0:
256,192,26144,1,0,0:0:0:0:
256,192,26466,1,0,0:0:0:0:
256,192,27434,1,2,0:0:0:0:
256,192,28402,1,0,0:0:0:0:
256,192,28456,1,0,0:0:0:0:
256,192,28509,1,2,0:0:0:0:
256,192,29370,1,0,0:0:0:0:
256,192,29693,1,2,0:0:0:0:
256,192,30015,1,2,0:0:0:0:
256,192,30661,1,2,0:0:0:0:
256,192,30983,1,0,0:0:0:0:
256,192,31628,1,2,0:0:0:0:
256,192,32596,1,0,0:0:0:0:
256,192,34531,1,2,0:0:0:0:
256,192,34854,1,2,0:0:0:0:
256,192,35177,1,0,0:0:0:0:
256,192,36144,1,2,0:0:0:0:
256,192,36467,1,0,0:0:0:0:
256,192,36790,1,0,0:0:0:0:
256,192,37757,1,2,0:0:0:0:
256,192,38725,1,0,0:0:0:0:
256,192,38778,1,0,0:0:0:0:
256,192,38832,1,2,0:0:0:0:
256,192,39693,1,0,0:0:0:0:
256,192,40015,1,0,0:0:0:0:
256,192,40338,1,2,0:0:0:0:
256,192,41306,1,2,0:0:0:0:
256,192,41950,1,4,0:0:0:0:
256,192,42273,1,2,0:0:0:0:
256,192,42596,1,0,0:0:0:0:
256,192,42919,1,0,0:0:0:0:
256,192,43241,1,2,0:0:0:0:
256,192,43564,1,2,0:0:0:0:
256,192,43886,1,0,0:0:0:0:
256,192,44209,1,0,0:0:0:0:
256,192,44531,1,0,0:0:0:0:
256,192,44854,1,2,0:0:0:0:
256,192,45177,1,2,0:0:0:0:
256,192,45499,1,0,0:0:0:0:
256,192,45822,1,2,0:0:0:0:
256,192,46144,1,0,0:0:0:0:
256,192,46467,1,2,0:0:0:0:
256,192,46790,1,2,0:0:0:0:
256,192,47112,1,0,0:0:0:0:
256,192,47435,1,0,0:0:0:0:
256,192,47757,1,2,0:0:0:0:
256,192,48080,1,0,0:0:0:0:
256,192,48402,1,2,0:0:0:0:
256,192,48725,1,0,0:0:0:0:
256,192,49048,1,0,0:0:0:0:
256,192,49370,1,2,0:0:0:0:
256,192,49693,1,0,0:0:0:0:
256,192,50015,1,0,0:0:0:0:
256,192,50338,1,2,0:0:0:0:
256,192,50661,1,0,0:0:0:0:
256,192,50983,1,2,0:0:0:0:
256,192,51306,1,2,0:0:0:0:
256,192,51628,1,2,0:0:0:0:
256,192,51951,1,0,0:0:0:0:
256,192,52273,1,2,0:0:0:0:
256,192,52596,1,0,0:0:0:0:
256,192,52919,1,0,0:0:0:0:
256,192,53241,1,2,0:0:0:0:
256,192,53564,1,2,0:0:0:0:
256,192,53886,1,0,0:0:0:0:
256,192,54209,1,2,0:0:0:0:
256,192,54531,1,0,0:0:0:0:
256,192,54854,1,2,0:0:0:0:
256,192,55177,1,2,0:0:0:0:
256,192,55499,1,0,0:0:0:0:
256,192,55822,1,2,0:0:0:0:
256,192,56144,1,0,0:0:0:0:
256,192,56467,1,0,0:0:0:0:
256,192,56790,1,2,0:0:0:0:
256,192,57112,1,2,0:0:0:0:
256,192,57435,1,2,0:0:0:0:
256,192,58402,1,2,0:0:0:0:
256,192,58724,12,0,61627,0:0:0:0:
256,192,61950,5,0,0:0:0:0:
256,192,61991,1,2,0:0:0:0:
256,192,62273,1,2,0:0:0:0:
256,192,62595,1,6,0:0:0:0:
256,192,63241,1,0,0:0:0:0:
256,192,65821,1,0,0:0:0:0:
256,192,68402,1,0,0:0:0:0:
256,192,70982,1,0,0:0:0:0:
256,192,72918,1,4,0:0:0:0:
256,192,73563,1,0,0:0:0:0:
256,192,76144,1,0,0:0:0:0:
256,192,78725,1,0,0:0:0:0:
256,192,80660,1,4,0:0:0:0:
256,192,81950,1,2,0:0:0:0:
256,192,82004,1,2,0:0:0:0:
256,192,83240,1,4,0:0:0:0:
256,192,83401,1,2,0:0:0:0:
256,192,83562,1,2,0:0:0:0:
256,192,83723,1,0,0:0:0:0:
256,192,83885,1,2,0:0:0:0:
256,192,84207,1,2,0:0:0:0:
256,192,84369,1,0,0:0:0:0:
256,192,84691,1,2,0:0:0:0:
256,192,84852,1,0,0:0:0:0:
256,192,85014,1,2,0:0:0:0:
256,192,85336,1,0,0:0:0:0:
256,192,85498,1,2,0:0:0:0:
256,192,85659,1,0,0:0:0:0:
256,192,85820,1,0,0:0:0:0:
256,192,85981,1,2,0:0:0:0:
256,192,86143,1,0,0:0:0:0:
256,192,86304,1,0,0:0:0:0:
256,192,86465,1,2,0:0:0:0:
256,192,86627,1,2,0:0:0:0:
256,192,86788,1,0,0:0:0:0:
256,192,86949,1,0,0:0:0:0:
256,192,87272,1,0,0:0:0:0:
256,192,87433,1,2,0:0:0:0:
256,192,87594,1,0,0:0:0:0:
256,192,87756,1,6,0:0:0:0:
256,192,87917,1,0,0:0:0:0:
256,192,88078,1,2,0:0:0:0:
256,192,88240,1,2,0:0:0:0:
256,192,88401,1,0,0:0:0:0:
256,192,88562,1,0,0:0:0:0:
256,192,88723,1,2,0:0:0:0:
256,192,88885,1,0,0:0:0:0:
256,192,89046,1,2,0:0:0:0:
256,192,89207,1,2,0:0:0:0:
256,192,89369,1,0,0:0:0:0:
256,192,89530,1,2,0:0:0:0:
256,192,89852,1,0,0:0:0:0:
256,192,90014,1,0,0:0:0:0:
256,192,90175,1,2,0:0:0:0:
256,192,90498,1,0,0:0:0:0:
256,192,90659,1,2,0:0:0:0:
256,192,90820,1,0,0:0:0:0:
256,192,90981,1,0,0:0:0:0:
256,192,91143,1,2,0:0:0:0:
256,192,91304,1,0,0:0:0:0:
256,192,91465,1,0,0:0:0:0:
256,192,91627,1,2,0:0:0:0:
256,192,91788,1,2,0:0:0:0:
256,192,91949,2,0,L|352:192,1,70
256,192,92272,1,0,0:0:0:0:
256,192,92433,1,2,0:0:0:0:
256,192,92594,1,2,0:0:0:0:
256,192,92756,1,0,0:0:0:0:
256,192,92917,1,6,0:0:0:0:
256,192,93239,1,2,0:0:0:0:
256,192,93401,1,2,0:0:0:0:
256,192,93481,1,2,0:0:0:0:
256,192,93562,1,4,0:0:0:0:
256,192,93723,1,2,0:0:0:0:
256,192,93885,1,2,0:0:0:0:
256,192,94046,1,0,0:0:0:0:
256,192,94207,1,2,0:0:0:0:
256,192,94530,1,2,0:0:0:0:
256,192,94691,1,0,0:0:0:0:
256,192,95014,1,2,0:0:0:0:
256,192,95175,1,0,0:0:0:0:
256,192,95337,1,2,0:0:0:0:
256,192,95659,1,0,0:0:0:0:
256,192,95821,1,2,0:0:0:0:
256,192,95982,1,0,0:0:0:0:
256,192,96143,1,0,0:0:0:0:
256,192,96304,1,0,0:0:0:0:
256,192,96466,1,2,0:0:0:0:
256,192,96627,1,0,0:0:0:0:
256,192,96788,1,2,0:0:0:0:
256,192,96950,1,2,0:0:0:0:
256,192,97111,1,0,0:0:0:0:
256,192,97272,1,0,0:0:0:0:
256,192,97595,1,0,0:0:0:0:
256,192,97756,1,2,0:0:0:0:
256,192,97917,1,0,0:0:0:0:
256,192,98078,1,6,0:0:0:0:
256,192,98240,1,0,0:0:0:0:
256,192,98401,1,2,0:0:0:0:
256,192,98563,1,2,0:0:0:0:
256,192,98724,1,0,0:0:0:0:
256,192,98885,1,0,0:0:0:0:
256,192,99046,1,2,0:0:0:0:
256,192,99208,1,0,0:0:0:0:
256,192,99369,1,2,0:0:0:0:
256,192,99530,1,2,0:0:0:0:
256,192,99692,1,0,0:0:0:0:
256,192,99853,1,2,0:0:0:0:
256,192,100175,1,0,0:0:0:0:
256,192,100337,1,0,0:0:0:0:
256,192,100498,1,2,0:0:0:0:
256,192,100821,1,0,0:0:0:0:
256,192,100982,1,2,0:0:0:0:
256,192,101143,1,0,0:0:0:0:
256,192,101304,1,0,0:0:0:0:
256,192,101466,1,2,0:0:0:0:
256,192,101627,1,2,0:0:0:0:
256,192,101788,1,0,0:0:0:0:
256,192,101949,1,2,0:0:0:0:
256,192,102003,1,2,0:0:0:0:
256,192,102057,1,2,0:0:0:0:
256,192,102110,1,2,0:0:0:0:
256,192,102272,2,0,L|352:192,1,70
256,192,102594,1,0,0:0:0:0:
256,192,102756,1,2,0:0:0:0:
256,192,102917,1,0,0:0:0:0:
256,192,103078,1,0,0:0:0:0:
256,192,103239,1,6,0:0:0:0:
256,192,103562,1,2,0:0:0:0:
256,192,103643,1,2,0:0:0:0:
256,192,103723,1,2,0:0:0:0:
256,192,103804,1,2,0:0:0:0:
256,192,103885,1,4,0:0:0:0:
256,192,104046,1,0,0:0:0:0:
256,192,104127,1,0,0:0:0:0:
256,192,104207,1,2,0:0:0:0:
256,192,104369,1,0,0:0:0:0:
256,192,104530,1,2,0:0:0:0:
256,192,104691,1,2,0:0:0:0:
256,192,105014,1,2,0:0:0:0:
256,192,105175,1,0,0:0:0:0:
256,192,105336,1,0,0:0:0:0:
256,192,105498,1,2,0:0:0:0:
256,192,105551,1,2,0:0:0:0:
256,192,105605,1,2,0:0:0:0:
256,192,105659,1,0,0:0:0:0:
256,192,105820,1,2,0:0:0:0:
256,192,105981,1,0,0:0:0:0:
256,192,106062,1,0,0:0:0:0:
256,192,106143,1,2,0:0:0:0:
256,192,106465,1,0,0:0:0:0:
256,192,106627,1,2,0:0:0:0:
256,192,106707,1,2,0:0:0:0:
256,192,106788,1,0,0:0:0:0:
256,192,106949,1,0,0:0:0:0:
256,192,107030,1,0,0:0:0:0:
256,192,107110,1,2,0:0:0:0:
256,192,107272,1,2,0:0:0:0:
256,192,107594,1,2,0:0:0:0:
256,192,107756,1,0,0:0:0:0:
256,192,107836,1,0,0:0:0:0:
256,192,107917,1,0,0:0:0:0:
256,192,108078,1,2,0:0:0:0:
256,192,108132,1,2,0:0:0:0:
256,192,108186,1,2,0:0:0:0:
256,192,108239,1,0,0:0:0:0:
256,192,108401,1,6,0:0:0:0:
256,192,108562,1,0,0:0:0:0:
256,192,108643,1,0,0:0:0:0:
256,192,108723,1,2,0:0:0:0:
256,192,108885,1,2,0:0:0:0:
256,192,109046,1,0,0:0:0:0:
256,192,109207,1,0,0:0:0:0:
256,192,109288,1,0,0:0:0:0:
256,192,109369,1,2,0:0:0:0:
256,192,109530,1,0,0:0:0:0:
256,192,109691,1,2,0:0:0:0:
256,192,109852,1,2,0:0:0:0:
256,192,110175,1,2,0:0:0:0:
256,192,110336,1,0,0:0:0:0:
256,192,110498,1,0,0:0:0:0:
256,192,110659,1,2,0:0:0:0:
256,192,110713,1,2,0:0:0:0:
256,192,110766,1,2,0:0:0:0:
256,192,110820,1,0,0:0:0:0:
256,192,110981,1,2,0:0:0:0:
256,192,111143,1,0,0:0:0:0:
256,192,111223,1,0,0:0:0:0:
256,192,111304,1,2,0:0:0:0:
256,192,111627,1,0,0:0:0:0:
256,192,111788,1,2,0:0:0:0:
256,192,111949,1,0,0:0:0:0:
256,192,112110,1,2,0:0:0:0:
256,192,112191,1,0,0:0:0:0:
256,192,112272,1,2,0:0:0:0:
256,192,112433,1,2,0:0:0:0:
256,192,112594,1,0,0:0:0:0:
256,192,112756,1,2,0:0:0:0:
256,192,112917,1,0,0:0:0:0:
256,192,112998,1,0,0:0:0:0:
256,192,113078,1,0,0:0:0:0:
256,192,113239,1,2,0:0:0:0:
256,192,113293,1,2,0:0:0:0:
256,192,113347,1,2,0:0:0:0:
256,192,113401,1,0,0:0:0:0:
256,192,113562,1,6,0:0:0:0:
256,192,113723,1,0,0:0:0:0:
256,192,113885,1,2,0:0:0:0:
256,192,113965,1,2,0:0:0:0:
256,192,114046,1,2,0:0:0:0:
256,192,114127,1,2,0:0:0:0:
256,192,114207,1,4,0:0:0:0:
256,192,114369,1,0,0:0:0:0:
256,192,114530,1,2,0:0:0:0:
256,192,114610,1,2,0:0:0:0:
256,192,114691,1,0,0:0:0:0:
256,192,114772,1,0,0:0:0:0:
256,192,114852,1,2,0:0:0:0:
256,192,115014,1,0,0:0:0:0:
256,192,115336,1,2,0:0:0:0:
256,192,115498,1,0,0:0:0:0:
256,192,115659,1,0,0:0:0:0:
256,192,115820,1,2,0:0:0:0:
256,192,115874,1,2,0:0:0:0:
256,192,115928,1,2,0:0:0:0:
256,192,115981,1,0,0:0:0:0:
256,192,116143,1,2,0:0:0:0:
256,192,116304,1,0,0:0:0:0:
256,192,116385,1,0,0:0:0:0:
256,192,116465,1,2,0:0:0:0:
256,192,116788,1,0,0:0:0:0:
256,192,116949,1,2,0:0:0:0:
256,192,117030,1,2,0:0:0:0:
256,192,117110,1,0,0:0:0:0:
256,192,117272,1,0,0:0:0:0:
256,192,117352,1,0,0:0:0:0:
256,192,117433,1,2,0:0:0:0:
256,192,117594,1,0,0:0:0:0:
256,192,117917,1,2,0:0:0:0:
256,192,118078,1,0,0:0:0:0:
256,192,118159,1,0,0:0:0:0:
256,192,118239,1,0,0:0:0:0:
256,192,118401,1,2,0:0:0:0:
256,192,118455,1,2,0:0:0:0:
256,192,118508,1,2,0:0:0:0:
256,192,118562,1,0,0:0:0:0:
256,192,118723,1,6,0:0:0:0:
256,192,118885,1,0,0:0:0:0:
256,192,118965,1,0,0:0:0:0:
256,192,119046,1,2,0:0:0:0:
256,192,119369,1,0,0:0:0:0:
256,192,119530,1,0,0:0:0:0:
256,192,119691,1,2,0:0:0:0:
256,192,119772,1,2,0:0:0:0:
256,192,119852,1,0,0:0:0:0:
256,192,119933,1,0,0:0:0:0:
256,192,120014,1,2,0:0:0:0:
256,192,120175,1,2,0:0:0:0:
256,192,120498,1,2,0:0:0:0:
256,192,120659,1,0,0:0:0:0:
256,192,120820,1,0,0:0:0:0:
256,192,120981,1,2,0:0:0:0:
256,192,121035,1,2,0:0:0:0:
256,192,121089,1,2,0:0:0:0:
256,192,121143,1,0,0:0:0:0:
256,192,121304,1,2,0:0:0:0:
256,192,121465,1,0,0:0:0:0:
256,192,121546,1,0,0:0:0:0:
256,192,121627,1,2,0:0:0:0:
256,192,121788,1,2,0:0:0:0:
256,192,121949,1,0,0:0:0:0:
256,192,122917,1,0,0:0:0:0:
256,192,123885,1,6,0:0:0:0:
256,192,124046,1,0,0:0:0:0:
256,192,124127,1,0,0:0:0:0:
256,192,124207,1,2,0:0:0:0:
256,192,124288,1,2,0:0:0:0:
256,192,124369,1,2,0:0:0:0:
256,192,124449,1,2,0:0:0:0:
256,192,124530,1,4,0:0:0:0:
256,192,145175,5,6,0:0:0:0:
256,192,145498,1,0,0:0:0:0:
256,192,145659,1,0,0:0:0:0:
256,192,145820,1,2,0:0:0:0:
256,192,145981,1,0,0:0:0:0:
256,192,146143,1,2,0:0:0:0:
256,192,146304,1,0,0:0:0:0:
256,192,146465,1,2,0:0:0:0:
256,192,146627,1,0,0:0:0:0:
256,192,146788,1,0,0:0:0:0:
256,192,146949,1,2,0:0:0:0:
256,192,147110,1,0,0:0:0:0:
256,192,147272,1,0,0:0:0:0:
256,192,147433,1,2,0:0:0:0:
256,192,147594,1,2,0:0:0:0:
256,192,147756,1,0,0:0:0:0:
256,192,147917,1,2,0:0:0:0:
256,192,148078,1,0,0:0:0:0:
256,192,148239,1,0,0:0:0:0:
256,192,148401,1,2,0:0:0:0:
256,192,148562,1,2,0:0:0:0:
256,192,148723,1,0,0:0:0:0:
256,192,148885,1,0,0:0:0:0:
256,192,149046,1,2,0:0:0:0:
256,192,149207,1,0,0:0:0:0:
256,192,149369,1,2,0:0:0:0:
256,192,149530,1,2,0:0:0:0:
256,192,149691,1,0,0:0:0:0:
256,192,149852,1,0,0:0:0:0:
256,192,150014,1,2,0:0:0:0:
256,192,150175,1,2,0:0:0:0:
256,192,150336,1,0,0:0:0:0:
256,192,150498,1,0,0:0:0:0:
256,192,150659,1,2,0:0:0:0:
256,192,150820,1,0,0:0:0:0:
256,192,150981,1,0,0:0:0:0:
256,192,151143,1,2,0:0:0:0:
256,192,151304,1,0,0:0:0:0:
256,192,151465,1,2,0:0:0:0:
256,192,151626,1,0,0:0:0:0:
256,192,151788,1,0,0:0:0:0:
256,192,151949,1,2,0:0:0:0:
256,192,152110,1,2,0:0:0:0:
256,192,152271,1,0,0:0:0:0:
256,192,152433,1,0,0:0:0:0:
256,192,152594,1,2,0:0:0:0:
256,192,152755,1,0,0:0:0:0:
256,192,152917,1,0,0:0:0:0:
256,192,153078,1,2,0:0:0:0:
256,192,153239,1,0,0:0:0:0:
256,192,153400,1,0,0:0:0:0:
256,192,153562,1,2,0:0:0:0:
256,192,153723,1,2,0:0:0:0:
256,192,153884,1,0,0:0:0:0:
256,192,154046,1,0,0:0:0:0:
256,192,154207,1,2,0:0:0:0:
256,192,154368,1,0,0:0:0:0:
256,192,154530,1,2,0:0:0:0:
256,192,154691,1,2,0:0:0:0:
256,192,154852,1,0,0:0:0:0:
256,192,155014,1,0,0:0:0:0:
256,192,155175,1,2,0:0:0:0:
256,192,155336,1,0,0:0:0:0:
256,192,155498,1,0,0:0:0:0:
256,192,155659,1,2,0:0:0:0:
256,192,155820,1,0,0:0:0:0:
256,192,155981,1,0,0:0:0:0:
256,192,156142,1,2,0:0:0:0:
256,192,156303,1,0,0:0:0:0:
256,192,156465,1,2,0:0:0:0:
256,192,156626,1,0,0:0:0:0:
256,192,156787,1,2,0:0:0:0:
256,192,156949,1,0,0:0:0:0:
256,192,157110,1,0,0:0:0:0:
256,192,157271,1,2,0:0:0:0:
256,192,157432,1,0,0:0:0:0:
256,192,157594,1,0,0:0:0:0:
256,192,157755,1,2,0:0:0:0:
256,192,157916,1,2,0:0:0:0:
256,192,158078,1,0,0:0:0:0:
256,192,158239,1,2,0:0:0:0:
256,192,158400,1,0,0:0:0:0:
256,192,158561,1,0,0:0:0:0:
256,192,158723,1,2,0:0:0:0:
256,192,158884,1,2,0:0:0:0:
256,192,159045,1,0,0:0:0:0:
256,192,159207,1,0,0:0:0:0:
256,192,159368,1,2,0:0:0:0:
256,192,159529,1,0,0:0:0:0:
256,192,159691,1,2,0:0:0:0:
256,192,159852,1,2,0:0:0:0:
256,192,160013,1,0,0:0:0:0:
256,192,160174,1,0,0:0:0:0:
256,192,160336,1,2,0:0:0:0:
256,192,160497,1,2,0:0:0:0:
256,192,160659,1,0,0:0:0:0:
256,192,160820,1,0,0:0:0:0:
256,192,160981,1,2,0:0:0:0:
256,192,161143,1,0,0:0:0:0:
256,192,161304,1,2,0:0:0:0:
256,192,161465,1,2,0:0:0:0:
256,192,161627,1,0,0:0:0:0:
256,192,161788,1,0,0:0:0:0:
256,192,161949,1,0,0:0:0:0:
256,192,162110,1,2,0:0:0:0:
256,192,162272,1,0,0:0:0:0:
256,192,162433,1,0,0:0:0:0:
256,192,162594,1,2,0:0:0:0:
256,192,162756,1,0,0:0:0:0:
256,192,162917,1,2,0:0:0:0:
256,192,163078,1,2,0:0:0:0:
256,192,163239,5,4,0:0:0:0:
256,192,164530,1,2,0:0:0:0:
256,192,164584,1,2,0:0:0:0:
256,192,165498,2,0,L|320:192,1,48.9999985046387
256,192,165820,1,4,0:0:0:0:
256,192,166143,1,2,0:0:0:0:
256,192,166183,1,2,0:0:0:0:
256,192,166304,1,0,0:0:0:0:
256,192,166344,1,0,0:0:0:0:
256,192,166465,1,2,0:0:0:0:
256,192,166627,1,0,0:0:0:0:
256,192,166788,1,2,0:0:0:0:
256,192,166842,1,2,0:0:0:0:
256,192,166895,1,2,0:0:0:0:
256,192,166949,1,0,0:0:0:0:
256,192,167110,1,0,0:0:0:0:
256,192,167433,1,0,0:0:0:0:
256,192,167487,1,2,0:0:0:0:
256,192,167541,1,2,0:0:0:0:
256,192,167594,1,0,0:0:0:0:
256,192,167756,1,2,0:0:0:0:
256,192,167917,1,0,0:0:0:0:
256,192,168078,2,0,L|352:192,1,83.9999974365235
256,192,168401,1,0,0:0:0:0:
256,192,168723,1,2,0:0:0:0:
256,192,168777,1,2,0:0:0:0:
256,192,168831,1,0,0:0:0:0:
256,192,168885,1,0,0:0:0:0:
256,192,169046,1,2,0:0:0:0:
256,192,169207,1,0,0:0:0:0:
256,192,169369,2,0,L|352:192,1,83.9999974365235
256,192,169691,1,0,0:0:0:0:
256,192,169852,1,2,0:0:0:0:
256,192,169906,1,2,0:0:0:0:
256,192,169960,1,2,0:0:0:0:
256,192,170014,1,0,0:0:0:0:
256,192,170175,1,0,0:0:0:0:
256,192,170256,1,0,0:0:0:0:
256,192,170336,1,6,0:0:0:0:
256,192,170417,12,0,170820,0:0:0:0:
256,192,170981,5,0,0:0:0:0:
256,192,171304,1,2,0:0:0:0:
256,192,171344,1,2,0:0:0:0:
256,192,171465,1,0,0:0:0:0:
256,192,171506,1,0,0:0:0:0:
256,192,171627,1,2,0:0:0:0:
256,192,171788,1,0,0:0:0:0:
256,192,171949,1,2,0:0:0:0:
256,192,172003,1,2,0:0:0:0:
256,192,172057,1,2,0:0:0:0:
256,192,172110,1,2,0:0:0:0:
256,192,172272,1,0,0:0:0:0:
256,192,172594,1,0,0:0:0:0:
256,192,172648,1,2,0:0:0:0:
256,192,172702,1,2,0:0:0:0:
256,192,172756,1,0,0:0:0:0:
256,192,172917,1,2,0:0:0:0:
256,192,173078,1,0,0:0:0:0:
256,192,173239,2,0,L|352:192,1,83.9999974365235
256,192,173562,1,0,0:0:0:0:
256,192,173885,1,2,0:0:0:0:
256,192,173938,1,2,0:0:0:0:
256,192,173992,1,0,0:0:0:0:
256,192,174046,1,0,0:0:0:0:
256,192,174207,1,2,0:0:0:0:
256,192,174369,1,0,0:0:0:0:
256,192,174530,2,0,L|352:192,1,83.9999974365235
256,192,174852,1,0,0:0:0:0:
256,192,175014,1,2,0:0:0:0:
256,192,175175,1,0,0:0:0:0:
256,192,175336,1,0,0:0:0:0:
256,192,175498,1,6,0:0:0:0:
256,192,175659,1,0,0:0:0:0:
256,192,175739,12,0,175981,0:0:0:0:
256,192,176143,5,4,0:0:0:0:
256,192,176465,1,2,0:0:0:0:
256,192,176506,1,2,0:0:0:0:
256,192,176627,1,0,0:0:0:0:
256,192,176667,1,0,0:0:0:0:
256,192,176788,1,2,0:0:0:0:
256,192,176949,1,0,0:0:0:0:
256,192,177110,1,2,0:0:0:0:
256,192,177164,1,2,0:0:0:0:
256,192,177218,1,2,0:0:0:0:
256,192,177272,1,0,0:0:0:0:
256,192,177433,1,0,0:0:0:0:
256,192,177756,1,0,0:0:0:0:
256,192,177809,1,2,0:0:0:0:
256,192,177863,1,2,0:0:0:0:
256,192,177917,1,0,0:0:0:0:
256,192,178078,1,2,0:0:0:0:
256,192,178239,1,0,0:0:0:0:
256,192,178401,2,0,L|352:192,1,83.9999974365235
256,192,178723,1,0,0:0:0:0:
256,192,179046,1,2,0:0:0:0:
256,192,179100,1,2,0:0:0:0:
256,192,179153,1,2,0:0:0:0:
256,192,179207,1,0,0:0:0:0:
256,192,179369,1,2,0:0:0:0:
256,192,179530,1,0,0:0:0:0:
256,192,179691,2,0,L|352:192,1,83.9999974365235
256,192,180014,1,0,0:0:0:0:
256,192,180175,1,2,0:0:0:0:
256,192,180229,1,2,0:0:0:0:
256,192,180283,1,0,0:0:0:0:
256,192,180336,1,0,0:0:0:0:
256,192,180498,1,0,0:0:0:0:
256,192,180578,1,0,0:0:0:0:
256,192,180659,1,6,0:0:0:0:
256,192,180739,12,0,181143,0:0:0:0:
256,192,181304,5,0,0:0:0:0:
256,192,181627,1,2,0:0:0:0:
256,192,181667,1,2,0:0:0:0:
256,192,181788,1,0,0:0:0:0:
256,192,181828,1,0,0:0:0:0:
256,192,181949,1,2,0:0:0:0:
256,192,182110,1,0,0:0:0:0:
256,192,182272,1,2,0:0:0:0:
256,192,182326,1,2,0:0:0:0:
256,192,182379,1,2,0:0:0:0:
256,192,182433,1,2,0:0:0:0:
256,192,182594,1,0,0:0:0:0:
256,192,182917,1,0,0:0:0:0:
256,192,182971,1,2,0:0:0:0:
256,192,183024,1,2,0:0:0:0:
256,192,183078,1,0,0:0:0:0:
256,192,183239,1,2,0:0:0:0:
256,192,183401,1,0,0:0:0:0:
256,192,183562,2,2,L|352:192,1,83.9999974365235
256,192,183885,1,0,0:0:0:0:
256,192,184207,1,2,0:0:0:0:
256,192,184261,1,2,0:0:0:0:
256,192,184315,1,2,0:0:0:0:
256,192,184369,1,0,0:0:0:0:
256,192,184530,1,2,0:0:0:0:
256,192,184691,1,0,0:0:0:0:
256,192,184852,2,0,L|352:192,1,83.9999974365235
256,192,185175,1,0,0:0:0:0:
256,192,185336,1,2,0:0:0:0:
256,192,185498,1,0,0:0:0:0:
256,192,185659,1,0,0:0:0:0:
256,192,185820,1,6,0:0:0:0:
256,192,185981,1,0,0:0:0:0:
256,192,186143,1,6,0:0:0:0:
256,192,186465,1,4,0:0:0:0:
256,192,186788,1,2,0:0:0:0:
256,192,186828,1,2,0:0:0:0:
256,192,186949,1,0,0:0:0:0:
256,192,186989,1,0,0:0:0:0:
256,192,187110,1,2,0:0:0:0:
256,192,187272,1,0,0:0:0:0:
256,192,187433,1,2,0:0:0:0:
256,192,187487,1,2,0:0:0:0:
256,192,187541,1,2,0:0:0:0:
256,192,187594,1,0,0:0:0:0:
256,192,187756,1,0,0:0:0:0:
256,192,187836,1,0,0:0:0:0:
256,192,187917,1,0,0:0:0:0:
256,192,188078,1,2,0:0:0:0:
256,192,188132,1,0,0:0:0:0:
256,192,188186,1,0,0:0:0:0:
256,192,188239,1,2,0:0:0:0:
256,192,188401,1,2,0:0:0:0:
256,192,188562,1,0,0:0:0:0:
256,192,188723,1,0,0:0:0:0:
256,192,188777,1,0,0:0:0:0:
256,192,188831,1,0,0:0:0:0:
256,192,188885,1,2,0:0:0:0:
256,192,189046,1,0,0:0:0:0:
256,192,189127,1,0,0:0:0:0:
256,192,189207,1,0,0:0:0:0:
256,192,189369,1,2,0:0:0:0:
256,192,189422,1,2,0:0:0:0:
256,192,189476,1,2,0:0:0:0:
256,192,189530,1,0,0:0:0:0:
256,192,189691,1,2,0:0:0:0:
256,192,189852,1,0,0:0:0:0:
256,192,190014,1,0,0:0:0:0:
256,192,190067,1,0,0:0:0:0:
256,192,190121,1,2,0:0:0:0:
256,192,190175,1,2,0:0:0:0:
256,192,190336,1,0,0:0:0:0:
256,192,190417,1,0,0:0:0:0:
256,192,190498,1,2,0:0:0:0:
256,192,190551,1,2,0:0:0:0:
256,192,190605,1,2,0:0:0:0:
256,192,190659,1,0,0:0:0:0:
256,192,190820,1,0,0:0:0:0:
256,192,190901,1,0,0:0:0:0:
256,192,190981,1,6,0:0:0:0:
256,192,191062,12,0,191465,0:0:0:0:
256,192,191627,5,0,0:0:0:0:
256,192,191949,1,2,0:0:0:0:
256,192,191989,1,2,0:0:0:0:
256,192,192110,1,0,0:0:0:0:
256,192,192151,1,0,0:0:0:0:
256,192,192272,1,2,0:0:0:0:
256,192,192433,1,0,0:0:0:0:
256,192,192594,1,2,0:0:0:0:
256,192,192648,1,2,0:0:0:0:
256,192,192702,1,2,0:0:0:0:
256,192,192756,1,2,0:0:0:0:
256,192,192809,1,2,0:0:0:0:
256,192,192863,1,2,0:0:0:0:
256,192,192917,1,0,0:0:0:0:
256,192,192998,1,0,0:0:0:0:
256,192,193078,1,0,0:0:0:0:
256,192,193239,1,2,0:0:0:0:
256,192,193293,1,2,0:0:0:0:
256,192,193347,1,0,0:0:0:0:
256,192,193401,1,0,0:0:0:0:
256,192,193562,1,2,0:0:0:0:
256,192,193723,1,0,0:0:0:0:
256,192,193885,1,0,0:0:0:0:
256,192,193938,1,0,0:0:0:0:
256,192,193992,1,0,0:0:0:0:
256,192,194046,1,2,0:0:0:0:
256,192,194207,1,0,0:0:0:0:
256,192,194288,1,0,0:0:0:0:
256,192,194369,1,0,0:0:0:0:
256,192,194530,1,2,0:0:0:0:
256,192,194584,1,0,0:0:0:0:
256,192,194637,1,0,0:0:0:0:
256,192,194691,1,2,0:0:0:0:
256,192,194852,1,2,0:0:0:0:
256,192,195014,1,0,0:0:0:0:
256,192,195175,1,0,0:0:0:0:
256,192,195229,1,0,0:0:0:0:
256,192,195283,1,2,0:0:0:0:
256,192,195336,1,2,0:0:0:0:
256,192,195498,1,0,0:0:0:0:
256,192,195659,1,2,0:0:0:0:
256,192,195820,1,0,0:0:0:0:
256,192,195981,1,0,0:0:0:0:
256,192,196143,1,6,0:0:0:0:
256,192,196304,1,0,0:0:0:0:
256,192,196385,12,0,196627,0:0:0:0:
256,192,196788,5,4,0:0:0:0:
256,192,197110,1,2,0:0:0:0:
256,192,197151,1,2,0:0:0:0:
256,192,197272,1,0,0:0:0:0:
256,192,197312,1,0,0:0:0:0:
256,192,197433,1,2,0:0:0:0:
256,192,197594,1,0,0:0:0:0:
256,192,197756,1,2,0:0:0:0:
256,192,197809,1,2,0:0:0:0:
256,192,197863,1,2,0:0:0:0:
256,192,197917,1,0,0:0:0:0:
256,192,198078,1,0,0:0:0:0:
256,192,198159,1,0,0:0:0:0:
256,192,198239,1,0,0:0:0:0:
256,192,198401,1,2,0:0:0:0:
256,192,198455,1,0,0:0:0:0:
256,192,198508,1,0,0:0:0:0:
256,192,198562,1,2,0:0:0:0:
256,192,198723,1,2,0:0:0:0:
256,192,198885,1,0,0:0:0:0:
256,192,199046,1,0,0:0:0:0:
256,192,199100,1,0,0:0:0:0:
256,192,199153,1,0,0:0:0:0:
256,192,199207,1,2,0:0:0:0:
256,192,199369,1,0,0:0:0:0:
256,192,199449,1,0,0:0:0:0:
256,192,199530,1,0,0:0:0:0:
256,192,199691,1,2,0:0:0:0:
256,192,199745,1,2,0:0:0:0:
256,192,199799,1,2,0:0:0:0:
256,192,199852,1,0,0:0:0:0:
256,192,200014,1,2,0:0:0:0:
256,192,200175,1,0,0:0:0:0:
256,192,200336,1,0,0:0:0:0:
256,192,200390,1,0,0:0:0:0:
256,192,200444,1,2,0:0:0:0:
256,192,200498,1,2,0:0:0:0:
256,192,200659,1,0,0:0:0:0:
256,192,200739,1,0,0:0:0:0:
256,192,200820,1,2,0:0:0:0:
256,192,200874,1,2,0:0:0:0:
256,192,200928,1,2,0:0:0:0:
256,192,200981,1,0,0:0:0:0:
256,192,201143,1,0,0:0:0:0:
256,192,201223,1,0,0:0:0:0:
256,192,201304,1,6,0:0:0:0:
256,192,201385,12,0,201788,0:0:0:0:
256,192,201949,5,0,0:0:0:0:
256,192,202272,1,2,0:0:0:0:
256,192,202312,1,2,0:0:0:0:
256,192,202433,1,0,0:0:0:0:
256,192,202473,1,0,0:0:0:0:
256,192,202594,1,2,0:0:0:0:
256,192,202756,1,0,0:0:0:0:
256,192,202917,1,2,0:0:0:0:
256,192,202971,1,2,0:0:0:0:
256,192,203024,1,2,0:0:0:0:
256,192,203078,1,2,0:0:0:0:
256,192,203132,1,2,0:0:0:0:
256,192,203186,1,2,0:0:0:0:
256,192,203239,1,0,0:0:0:0:
256,192,203320,1,0,0:0:0:0:
256,192,203401,1,0,0:0:0:0:
256,192,203562,1,2,0:0:0:0:
256,192,203616,1,2,0:0:0:0:
256,192,203670,1,0,0:0:0:0:
256,192,203723,1,0,0:0:0:0:
256,192,203885,1,2,0:0:0:0:
256,192,204046,1,0,0:0:0:0:
256,192,204207,1,0,0:0:0:0:
256,192,204261,1,0,0:0:0:0:
256,192,204315,1,2,0:0:0:0:
256,192,204369,1,2,0:0:0:0:
256,192,204530,1,0,0:0:0:0:
256,192,204610,1,0,0:0:0:0:
256,192,204691,1,0,0:0:0:0:
256,192,204852,1,2,0:0:0:0:
256,192,204906,1,0,0:0:0:0:
256,192,204960,1,0,0:0:0:0:
256,192,205014,1,2,0:0:0:0:
256,192,205175,1,2,0:0:0:0:
256,192,205336,1,0,0:0:0:0:
256,192,205498,1,0,0:0:0:0:
256,192,205551,1,0,0:0:0:0:
256,192,205605,1,0,0:0:0:0:
256,192,205659,1,2,0:0:0:0:
256,192,205820,1,0,0:0:0:0:
224,192,205981,1,2,0:0:0:0:
256,192,206143,1,0,0:0:0:0:
256,192,206304,1,0,0:0:0:0:
256,192,206465,1,6,0:0:0:0:
256,192,207110,1,4,0:0:0:0:
