osu file format v14

[General]
AudioFilename: audio.mp3
AudioLeadIn: 0
PreviewTime: 82917
Countdown: 0
SampleSet: Soft
StackLeniency: 0.7
Mode: 1
LetterboxInBreaks: 0
WidescreenStoryboard: 0

[Editor]
Bookmarks: 82560,103205,121270,123850,144496,154818,162560,165141,196109
DistanceSpacing: 0.9
BeatDivisor: 16
GridSize: 32
TimelineZoom: 2.599999

[Metadata]
Title:forest of the spirits
TitleUnicode:forest of the spirits
Artist:sakuraburst
ArtistUnicode:sakuraburst
Creator:[Zeth]
Version:salchow's ura oni
Source:osu!
Tags:blood orange EP experimental glitch dubstep glitch hop wub electronic instrumental mappers' guild mg featured artist fa salchow Aisha xfraczynho Nardoxyribonucleic Volta
BeatmapID:2277852
BeatmapSetID:1053433

[Difficulty]
HPDrainRate:5
CircleSize:5
OverallDifficulty:6
ApproachRate:10
SliderMultiplier:1.4
SliderTickRate:1

[Events]
//Background and Video events
0,0,"forest of the spirit(2).jpg",0,-80
//Break Periods
2,62795,80209
2,124730,144726
2,163440,165048
//Storyboard Layer 0 (Background)
//Storyboard Layer 1 (Fail)
//Storyboard Layer 2 (Pass)
//Storyboard Layer 3 (Foreground)
//Storyboard Layer 4 (Overlay)
//Storyboard Sound Samples

[TimingPoints]
660,645.161290322581,4,2,0,40,1,0
660,-153.846153846153,4,2,0,40,0,0
21300,-100,4,2,0,100,0,0
42590,-117.647058823529,4,2,0,40,0,0
61945,-100,4,2,0,100,0,0
61986,-90.9090909090909,4,2,0,100,0,0
62590,-133.333333333333,4,2,0,100,0,0
62913,-200,4,2,0,100,0,0
80655,-200,4,2,0,60,0,0
81945,-147.058823529412,4,2,0,100,0,0
83134,-147.058823529412,4,1,0,70,0,0
83240,322.58064516129,4,1,0,70,1,0
122912,-111.111111111111,4,1,0,70,0,0
123880,-125,4,1,0,70,0,0
124202,-142.857142857143,4,1,0,70,0,0
124283,-147.058823529412,4,1,0,70,0,0
124364,-151.515151515152,4,1,0,70,0,0
124444,-156.25,4,1,0,70,0,0
124525,-161.290322580645,4,1,0,70,0,0
145173,-142.857142857143,4,1,0,70,0,0
145335,-161.290322580645,4,1,0,70,0,0
145416,-160.497671178791,4,1,0,70,0,0
145496,-159.712517468557,4,1,0,70,0,0
145658,-158.165282720443,4,1,0,70,0,0
145819,-156.647738398277,4,1,0,70,0,0
145899,-155.899955880312,4,1,0,70,0,0
145980,-155.159038013964,4,1,0,70,0,0
146141,-153.698366954851,4,1,0,70,0,0
146222,-152.978413216111,4,1,0,70,0,0
146303,-152.265172843811,4,1,0,70,0,0
146383,-151.558322673731,4,1,0,70,0,0
146464,-150.858232484605,4,1,0,70,0,0
146625,-149.477054524745,4,1,0,70,0,0
146787,-148.120937783281,4,1,0,70,0,0
146867,-147.451956466284,4,1,0,70,0,0
146948,-146.789206296083,4,1,0,70,0,0
147028,-146.132173628403,4,1,0,70,0,0
147109,-145.481208192338,4,1,0,70,0,0
147270,-144.196314630591,4,1,0,70,0,0
147432,-142.933918790665,4,1,0,70,0,0
147512,-142.311074932473,4,1,0,70,0,0
147593,-141.69343491808,4,1,0,70,0,0
147754,-140.474297417801,4,1,0,70,0,0
147916,-139.275959994373,4,1,0,70,0,0
147996,-138.684521836571,4,1,0,70,0,0
148077,-138.097894835691,4,1,0,70,0,0
148158,-137.516398830561,4,1,0,70,0,0
148238,-136.939779362627,4,1,0,70,0,0
148399,-135.800742286857,4,1,0,70,0,0
148480,-135.238208580594,4,1,0,70,0,0
148561,-134.680497455885,4,1,0,70,0,0
148722,-133.578583612847,4,1,0,70,0,0
148883,-132.494554473811,4,1,0,70,0,0
149045,-131.427978125127,4,1,0,70,0,0
149125,-130.901017886315,4,1,0,70,0,0
149206,-130.378436449639,4,1,0,70,0,0
149367,-129.345524580177,4,1,0,70,0,0
149448,-128.835264788678,4,1,0,70,0,0
149528,-128.328850378827,4,1,0,70,0,0
149609,-127.826564916721,4,1,0,70,0,0
149690,-127.328033940561,4,1,0,70,0,0
149851,-126.342707119917,4,1,0,70,0,0
149932,-125.855819573097,4,1,0,70,0,0
150012,-125.372513079487,4,1,0,70,0,0
150174,-124.417260655405,4,1,0,70,0,0
150335,-123.476302428038,4,1,0,70,0,0
150496,-122.549470157366,4,1,0,70,0,0
150577,-122.0911776915,4,1,0,70,0,0
150658,-121.636448118406,4,1,0,70,0,0
150819,-120.736929925493,4,1,0,70,0,0
150980,-119.850618189489,4,1,0,70,0,0
151061,-119.412252891269,4,1,0,70,0,0
151141,-118.977224189973,4,1,0,70,0,0
151303,-118.116467561675,4,1,0,70,0,0
151383,-117.69081211368,4,1,0,70,0,0
151464,-117.268075994404,4,1,0,70,0,0
151545,-116.848502411169,4,1,0,70,0,0
151625,-116.431784945836,4,1,0,70,0,0
151787,-115.607337366488,4,1,0,70,0,0
151948,-114.794483436304,4,1,0,70,0,0
152028,-114.392393363411,4,1,0,70,0,0
152109,-113.993110256416,4,1,0,70,0,0
152190,-113.596475782935,4,1,0,70,0,0
152270,-113.202720034957,4,1,0,70,0,0
152432,-112.423214944193,4,1,0,70,0,0
152593,-111.654371659441,4,1,0,70,0,0
152674,-111.273818160777,4,1,0,70,0,0
152754,-110.895972923639,4,1,0,70,0,0
152916,-110.147807342673,4,1,0,70,0,0
153077,-109.409669188924,4,1,0,70,0,0
153158,-109.044357063566,4,1,0,70,0,0
153238,-108.68135821267,4,1,0,70,0,0
153319,-108.320885458246,4,1,0,70,0,0
153399,-107.962679460964,4,1,0,70,0,0
153561,-107.253443103657,4,1,0,70,0,0
153641,-106.902365001021,4,1,0,70,0,0
153722,-106.55346426623,4,1,0,70,0,0
153883,-105.86256286913,4,1,0,70,0,0
154045,-105.18067410294,4,1,0,70,0,0
154206,-104.507404349598,4,1,0,70,0,0
154287,-104.173937139363,4,1,0,70,0,0
154367,-103.842699079434,4,1,0,70,0,0
154528,-103.186395905564,4,1,0,70,0,0
154609,-102.861292575575,4,1,0,70,0,0
154690,-102.538336520567,4,1,0,70,0,0
154770,-102.217297619972,4,1,0,70,0,0
154851,-101.898366569184,4,1,0,70,0,0
155012,-101.266335525749,4,1,0,70,0,0
155093,-100.953302031079,4,1,0,70,0,0
155174,-100.642096576156,4,1,0,70,0,0
155335,-100.025506504159,4,1,0,70,0,0
155496,-100,4,1,0,70,0,0
156458,-98.0392156862745,4,1,0,80,0,0
156620,-99.009900990099,4,1,0,80,0,0
156781,-100,4,1,0,80,0,0
157103,-96.1538461538461,4,1,0,80,0,0
157265,-98.0392156862745,4,1,0,80,0,0
157426,-100,4,1,0,80,0,0
157749,-94.3396226415094,4,1,0,80,0,0
158071,-100,4,1,0,80,0,0
158394,-92.5925925925926,4,1,0,80,0,0
158555,-96.1538461538461,4,1,0,80,0,0
158716,-100,4,1,0,80,0,0
159039,-90.9090909090909,4,1,0,80,0,0
159200,-95.2380952380952,4,1,0,80,0,0
159362,-100,4,1,0,80,0,0
159684,-89.2857142857143,4,1,0,80,0,0
159845,-94.3396226415094,4,1,0,80,0,0
160007,-100,4,1,0,80,0,0
160329,-87.719298245614,4,1,0,80,0,0
160654,-100,4,1,0,80,0,0
160976,-95.2380952380952,4,1,0,80,0,0
161299,-86.9565217391304,4,1,0,80,0,0
161622,-76.9230769230769,4,1,0,80,0,0
161944,-68.9655172413793,4,1,0,80,0,0
162267,-62.5,4,1,0,80,0,0
162589,-55.5555555555556,4,1,0,80,0,0
162912,-47.6190476190476,4,1,0,80,0,0
163234,-40,4,1,0,80,0,0
164525,-100,4,1,0,80,0,0
165493,-200,4,1,0,80,0,0
165820,-66.6666666666667,4,1,0,95,0,1
165976,-67.7966101694915,4,1,0,95,0,1
166057,-68.3760683760684,4,1,0,95,0,1
166138,-68.9655172413793,4,1,0,95,0,1
166299,-70.1754385964912,4,1,0,95,0,1
166460,-71.4285714285714,4,1,0,95,0,1
166541,-72.7272727272727,4,1,0,95,0,1
166622,-74.0740740740741,4,1,0,95,0,1
166783,-74.0740740740741,4,1,0,95,0,1
166837,-71.4285714285714,4,1,0,95,0,1
166890,-68.9655172413793,4,1,0,95,0,1
166944,-66.6666666666667,4,1,0,95,0,1
167105,-66.6666666666667,4,1,0,95,0,1
167267,-81.6326530612245,4,1,0,95,0,1
167347,-83.3333333333333,4,1,0,95,0,1
167428,-85.1063829787234,4,1,0,95,0,1
167509,-86.9565217391304,4,1,0,95,0,1
167589,-88.8888888888889,4,1,0,95,0,1
167751,-93.0232558139535,4,1,0,95,0,1
167912,-95.2380952380952,4,1,0,95,0,1
168073,-97.5609756097561,4,1,0,95,0,1
168401,-66.6666666666667,4,1,0,95,0,1
168557,-67.7966101694915,4,1,0,95,0,1
168638,-68.3760683760684,4,1,0,95,0,1
168719,-68.9655172413793,4,1,0,95,0,1
168880,-70.1754385964912,4,1,0,95,0,1
169041,-71.4285714285714,4,1,0,95,0,1
169203,-74.0740740740741,4,1,0,95,0,1
169364,-76.9230769230769,4,1,0,95,0,1
169418,-78.125,4,1,0,95,0,1
169471,-79.3650793650794,4,1,0,95,0,1
169525,-80.6451612903226,4,1,0,95,0,1
169691,-83.3333333333333,4,1,0,95,0,1
169767,-81.3008130081301,4,1,0,95,0,1
169847,-79.3650793650794,4,1,0,95,0,1
170009,-75.7575757575758,4,1,0,95,0,1
170170,-72.463768115942,4,1,0,95,0,1
170251,-70.4225352112676,4,1,0,95,0,1
170331,-68.0272108843537,4,1,0,95,0,1
170654,-62.5,4,1,0,95,0,1
170981,-66.6666666666667,4,1,0,95,0,1
171137,-67.7966101694915,4,1,0,95,0,1
171218,-68.3760683760684,4,1,0,95,0,1
171299,-68.9655172413793,4,1,0,95,0,1
171460,-70.1754385964912,4,1,0,95,0,1
171621,-71.4285714285714,4,1,0,95,0,1
171702,-72.7272727272727,4,1,0,95,0,1
171783,-74.0740740740741,4,1,0,95,0,1
171944,-74.0740740740741,4,1,0,95,0,1
171998,-71.4285714285714,4,1,0,95,0,1
172051,-68.9655172413793,4,1,0,95,0,1
172105,-66.6666666666667,4,1,0,95,0,1
172266,-66.6666666666667,4,1,0,95,0,1
172433,-81.6326530612245,4,1,0,95,0,1
172513,-83.3333333333333,4,1,0,95,0,1
172594,-85.1063829787234,4,1,0,95,0,1
172675,-86.9565217391304,4,1,0,95,0,1
172755,-88.8888888888889,4,1,0,95,0,1
172917,-93.0232558139535,4,1,0,95,0,1
173078,-95.2380952380952,4,1,0,95,0,1
173239,-97.5609756097561,4,1,0,95,0,1
173562,-66.6666666666667,4,1,0,95,0,1
173718,-67.7966101694915,4,1,0,95,0,1
173799,-68.3760683760684,4,1,0,95,0,1
173880,-68.9655172413793,4,1,0,95,0,1
174041,-70.1754385964912,4,1,0,95,0,1
174202,-71.4285714285714,4,1,0,95,0,1
174364,-74.0740740740741,4,1,0,95,0,1
174525,-76.9230769230769,4,1,0,95,0,1
174579,-78.125,4,1,0,95,0,1
174632,-79.3650793650794,4,1,0,95,0,1
174686,-80.6451612903226,4,1,0,95,0,1
174852,-83.3333333333333,4,1,0,95,0,1
175009,-80,4,1,0,95,0,1
175170,-83.3333333333333,4,1,0,95,0,1
175331,-80,4,1,0,95,0,1
175493,-83.3333333333333,4,1,0,95,0,1
175573,-80,4,1,0,95,0,1
175654,-76.9230769230769,4,1,0,95,0,1
175815,-71.4285714285714,4,1,0,95,0,1
176139,-66.6666666666667,4,1,0,95,0,1
176300,-67.7966101694915,4,1,0,95,0,1
176381,-68.3760683760684,4,1,0,95,0,1
176462,-68.9655172413793,4,1,0,95,0,1
176623,-70.1754385964912,4,1,0,95,0,1
176784,-71.4285714285714,4,1,0,95,0,1
176865,-72.7272727272727,4,1,0,95,0,1
176946,-74.0740740740741,4,1,0,95,0,1
177107,-74.0740740740741,4,1,0,95,0,1
177161,-71.4285714285714,4,1,0,95,0,1
177214,-68.9655172413793,4,1,0,95,0,1
177268,-66.6666666666667,4,1,0,95,0,1
177429,-66.6666666666667,4,1,0,95,0,1
177591,-81.6326530612245,4,1,0,95,0,1
177671,-83.3333333333333,4,1,0,95,0,1
177752,-85.1063829787234,4,1,0,95,0,1
177833,-86.9565217391304,4,1,0,95,0,1
177913,-88.8888888888889,4,1,0,95,0,1
178075,-93.0232558139535,4,1,0,95,0,1
178236,-95.2380952380952,4,1,0,95,0,1
178397,-97.5609756097561,4,1,0,95,0,1
178723,-66.6666666666667,4,1,0,95,0,1
178879,-67.7966101694915,4,1,0,95,0,1
178960,-68.3760683760684,4,1,0,95,0,1
179041,-68.9655172413793,4,1,0,95,0,1
179202,-70.1754385964912,4,1,0,95,0,1
179363,-71.4285714285714,4,1,0,95,0,1
179525,-74.0740740740741,4,1,0,95,0,1
179686,-76.9230769230769,4,1,0,95,0,1
179772,-78.4313725490196,4,1,0,95,0,1
179852,-80,4,1,0,95,0,1
180013,-83.3333333333333,4,1,0,95,0,1
180089,-81.3008130081301,4,1,0,95,0,1
180169,-79.3650793650794,4,1,0,95,0,1
180331,-75.7575757575758,4,1,0,95,0,1
180492,-72.463768115942,4,1,0,95,0,1
180573,-70.4225352112676,4,1,0,95,0,1
180653,-68.0272108843537,4,1,0,95,0,1
180976,-62.5,4,1,0,95,0,1
181303,-66.6666666666667,4,1,0,95,0,1
181459,-67.7966101694915,4,1,0,95,0,1
181540,-68.3760683760684,4,1,0,95,0,1
181621,-68.9655172413793,4,1,0,95,0,1
181782,-70.1754385964912,4,1,0,95,0,1
181943,-71.4285714285714,4,1,0,95,0,1
182024,-72.7272727272727,4,1,0,95,0,1
182105,-74.0740740740741,4,1,0,95,0,1
182266,-74.0740740740741,4,1,0,95,0,1
182320,-71.4285714285714,4,1,0,95,0,1
182373,-68.9655172413793,4,1,0,95,0,1
182427,-66.6666666666667,4,1,0,95,0,1
182588,-66.6666666666667,4,1,0,95,0,1
182753,-81.6326530612245,4,1,0,95,0,1
182833,-83.3333333333333,4,1,0,95,0,1
182914,-85.1063829787234,4,1,0,95,0,1
182995,-86.9565217391304,4,1,0,95,0,1
183075,-88.8888888888889,4,1,0,95,0,1
183237,-93.0232558139535,4,1,0,95,0,1
183398,-95.2380952380952,4,1,0,95,0,1
183559,-97.5609756097561,4,1,0,95,0,1
183885,-66.6666666666667,4,1,0,95,0,1
184040,-67.7966101694915,4,1,0,95,0,1
184121,-68.3760683760684,4,1,0,95,0,1
184202,-68.9655172413793,4,1,0,95,0,1
184363,-70.1754385964912,4,1,0,95,0,1
184524,-71.4285714285714,4,1,0,95,0,1
184686,-74.0740740740741,4,1,0,95,0,1
184847,-76.9230769230769,4,1,0,95,0,1
184931,-78.4313725490196,4,1,0,95,0,1
185012,-80,4,1,0,95,0,1
185175,-83.3333333333333,4,1,0,95,0,0
185331,-80,4,1,0,95,0,0
185492,-83.3333333333333,4,1,0,95,0,0
185653,-80,4,1,0,95,0,0
185815,-83.3333333333333,4,1,0,95,0,0
185976,-76.9230769230769,4,1,0,95,0,0
186136,-71.4285714285714,4,1,0,95,0,0
186465,-66.6666666666667,4,1,0,95,0,1
186624,-68.4931506849315,4,1,0,95,0,1
186704,-69.4444444444444,4,1,0,95,0,1
186785,-70.4225352112676,4,1,0,95,0,1
186946,-72.463768115942,4,1,0,95,0,1
187107,-74.6268656716418,4,1,0,95,0,1
187188,-75.7575757575758,4,1,0,95,0,1
187269,-76.9230769230769,4,1,0,95,0,1
187349,-78.125,4,1,0,95,0,1
187430,-79.3650793650794,4,1,0,95,0,1
187591,-81.9672131147541,4,1,0,95,0,1
187753,-66.6666666666667,4,1,0,95,0,1
187833,-67.5675675675676,4,1,0,95,0,1
187914,-68.4931506849315,4,1,0,95,0,1
188075,-70.4225352112676,4,1,0,95,0,1
188236,-72.463768115942,4,1,0,95,0,1
188317,-73.5294117647059,4,1,0,95,0,1
188398,-74.6268656716418,4,1,0,95,0,1
188559,-76.9230769230769,4,1,0,95,0,1
188720,-74.6268656716418,4,1,0,95,0,1
188801,-72.463768115942,4,1,0,95,0,1
188882,-70.4225352112676,4,1,0,95,0,1
188962,-68.4931506849315,4,1,0,95,0,1
189041,-66.6666666666667,4,1,0,95,0,1
189205,-68.4931506849315,4,1,0,95,0,1
189286,-69.4444444444444,4,1,0,95,0,1
189367,-70.4225352112676,4,1,0,95,0,1
189528,-72.463768115942,4,1,0,95,0,1
189689,-74.6268656716418,4,1,0,95,0,1
189770,-75.7575757575758,4,1,0,95,0,1
189850,-76.9230769230769,4,1,0,95,0,1
189931,-78.125,4,1,0,95,0,1
190012,-79.3650793650794,4,1,0,95,0,1
190173,-81.3008130081301,4,1,0,95,0,1
190336,-83.3333333333333,4,1,0,95,0,1
190412,-81.3008130081301,4,1,0,95,0,1
190492,-79.3650793650794,4,1,0,95,0,1
190654,-75.7575757575758,4,1,0,95,0,1
190815,-72.463768115942,4,1,0,95,0,1
190896,-70.4225352112676,4,1,0,95,0,1
190976,-68.0272108843537,4,1,0,95,0,1
191299,-62.5,4,1,0,95,0,1
191623,-66.6666666666667,4,1,0,95,0,1
191784,-68.4931506849315,4,1,0,95,0,1
191864,-69.4444444444444,4,1,0,95,0,1
191945,-70.4225352112676,4,1,0,95,0,1
192106,-72.463768115942,4,1,0,95,0,1
192189,-73.5294117647059,4,1,0,95,0,1
192267,-74.6268656716418,4,1,0,95,0,1
192348,-75.7575757575758,4,1,0,95,0,1
192429,-76.9230769230769,4,1,0,95,0,1
192590,-79.3650793650794,4,1,0,95,0,1
192751,-68.9655172413793,4,1,0,95,0,1
192834,-67.7966101694915,4,1,0,95,0,1
192913,-66.6666666666667,4,1,0,95,0,1
193074,-68.4931506849315,4,1,0,95,0,1
193235,-70.4225352112676,4,1,0,95,0,1
193318,-71.4285714285714,4,1,0,95,0,1
193396,-72.463768115942,4,1,0,95,0,1
193558,-74.6268656716418,4,1,0,95,0,1
193719,-76.9230769230769,4,1,0,95,0,1
193880,-74.6268656716418,4,1,0,95,0,1
193961,-72.463768115942,4,1,0,95,0,1
194042,-70.4225352112676,4,1,0,95,0,1
194122,-68.4931506849315,4,1,0,95,0,1
194201,-66.6666666666667,4,1,0,95,0,1
194365,-68.4931506849315,4,1,0,95,0,1
194446,-69.4444444444444,4,1,0,95,0,1
194527,-70.4225352112676,4,1,0,95,0,1
194688,-72.463768115942,4,1,0,95,0,1
194849,-74.6268656716418,4,1,0,95,0,1
194930,-75.7575757575758,4,1,0,95,0,1
195010,-76.9230769230769,4,1,0,95,0,1
195172,-79.3650793650794,4,1,0,95,0,1
195254,-80.3212851405623,4,1,0,95,0,1
195333,-81.3008130081301,4,1,0,95,0,1
195496,-83.3333333333333,4,1,0,95,0,1
195654,-80,4,1,0,95,0,1
195815,-83.3333333333333,4,1,0,95,0,1
195976,-80,4,1,0,95,0,1
196138,-83.3333333333333,4,1,0,95,0,1
196221,-80,4,1,0,95,0,1
196299,-76.9230769230769,4,1,0,95,0,1
196459,-71.4285714285714,4,1,0,95,0,1
196788,-66.6666666666667,4,1,0,95,0,1
196945,-68.4931506849315,4,1,0,95,0,1
197025,-69.4444444444444,4,1,0,95,0,1
197106,-70.4225352112676,4,1,0,95,0,1
197267,-72.463768115942,4,1,0,95,0,1
197428,-74.6268656716418,4,1,0,95,0,1
197509,-75.7575757575758,4,1,0,95,0,1
197590,-76.9230769230769,4,1,0,95,0,1
197670,-78.125,4,1,0,95,0,1
197751,-79.3650793650794,4,1,0,95,0,1
197912,-81.9672131147541,4,1,0,95,0,1
198074,-66.6666666666667,4,1,0,95,0,1
198154,-67.5675675675676,4,1,0,95,0,1
198235,-68.4931506849315,4,1,0,95,0,1
198396,-70.4225352112676,4,1,0,95,0,1
198557,-72.463768115942,4,1,0,95,0,1
198638,-73.5294117647059,4,1,0,95,0,1
198719,-74.6268656716418,4,1,0,95,0,1
198880,-76.9230769230769,4,1,0,95,0,1
199041,-74.6268656716418,4,1,0,95,0,1
199122,-72.463768115942,4,1,0,95,0,1
199203,-70.4225352112676,4,1,0,95,0,1
199283,-68.4931506849315,4,1,0,95,0,1
199362,-66.6666666666667,4,1,0,95,0,1
199526,-68.4931506849315,4,1,0,95,0,1
199607,-69.4444444444444,4,1,0,95,0,1
199688,-70.4225352112676,4,1,0,95,0,1
199849,-72.463768115942,4,1,0,95,0,1
200010,-74.6268656716418,4,1,0,95,0,1
200091,-75.7575757575758,4,1,0,95,0,1
200171,-76.9230769230769,4,1,0,95,0,1
200252,-78.125,4,1,0,95,0,1
200333,-79.3650793650794,4,1,0,95,0,1
200494,-81.3008130081301,4,1,0,95,0,1
200657,-83.3333333333333,4,1,0,95,0,1
200733,-81.3008130081301,4,1,0,95,0,1
200813,-79.3650793650794,4,1,0,95,0,1
200975,-75.7575757575758,4,1,0,95,0,1
201136,-72.463768115942,4,1,0,95,0,1
201217,-70.4225352112676,4,1,0,95,0,1
201297,-68.0272108843537,4,1,0,95,0,1
201620,-62.5,4,1,0,95,0,1
201944,-66.6666666666667,4,1,0,95,0,1
202105,-68.4931506849315,4,1,0,95,0,1
202185,-69.4444444444444,4,1,0,95,0,1
202266,-70.4225352112676,4,1,0,95,0,1
202427,-72.463768115942,4,1,0,95,0,1
202510,-73.5294117647059,4,1,0,95,0,1
202588,-74.6268656716418,4,1,0,95,0,1
202669,-75.7575757575758,4,1,0,95,0,1
202750,-76.9230769230769,4,1,0,95,0,1
202911,-79.3650793650794,4,1,0,95,0,1
203072,-68.9655172413793,4,1,0,95,0,1
203155,-67.7966101694915,4,1,0,95,0,1
203234,-66.6666666666667,4,1,0,95,0,1
203395,-68.4931506849315,4,1,0,95,0,1
203556,-70.4225352112676,4,1,0,95,0,1
203639,-71.4285714285714,4,1,0,95,0,1
203717,-72.463768115942,4,1,0,95,0,1
203879,-74.6268656716418,4,1,0,95,0,1
204040,-76.9230769230769,4,1,0,95,0,1
204201,-74.6268656716418,4,1,0,95,0,1
204282,-72.463768115942,4,1,0,95,0,1
204363,-70.4225352112676,4,1,0,95,0,1
204443,-68.4931506849315,4,1,0,95,0,1
204522,-66.6666666666667,4,1,0,95,0,1
204686,-68.4931506849315,4,1,0,95,0,1
204767,-69.4444444444444,4,1,0,95,0,1
204848,-70.4225352112676,4,1,0,95,0,1
205009,-72.463768115942,4,1,0,95,0,1
205170,-74.6268656716418,4,1,0,95,0,1
205251,-75.7575757575758,4,1,0,95,0,1
205331,-76.9230769230769,4,1,0,95,0,1
205493,-79.3650793650794,4,1,0,95,0,1
205575,-80.3212851405623,4,1,0,95,0,1
205654,-81.3008130081301,4,1,0,95,0,1
205817,-83.3333333333333,4,1,0,95,0,1
205975,-80,4,1,0,95,0,1
206136,-83.3333333333333,4,1,0,95,0,1
206297,-80,4,1,0,95,0,1
206459,-83.3333333333333,4,1,0,95,0,1
206780,-71.4285714285714,4,1,0,95,0,1
207110,-62.5,4,1,0,95,0,0

[HitObjects]
256,192,660,5,0,0:0:0:0:
256,192,982,5,0,0:0:0:0:
256,192,1304,1,0,0:0:0:0:
256,192,1627,1,0,0:0:0:0:
256,192,1949,1,8,0:0:0:0:
256,192,3240,1,0,0:0:0:0:
256,192,3562,5,0,0:0:0:0:
256,192,3885,1,0,0:0:0:0:
256,192,4207,1,0,0:0:0:0:
256,192,4530,1,8,0:0:0:0:
256,192,5820,1,0,0:0:0:0:
256,192,6143,5,0,0:0:0:0:
256,192,6465,1,0,0:0:0:0:
256,192,6788,1,0,0:0:0:0:
256,192,7110,1,8,0:0:0:0:
256,192,8401,1,0,0:0:0:0:
256,192,8723,5,0,0:0:0:0:
256,192,9046,1,0,0:0:0:0:
256,192,9369,1,0,0:0:0:0:
256,192,9691,1,8,0:0:0:0:
256,192,10981,1,0,0:0:0:0:
256,192,11304,5,0,0:0:0:0:
256,192,11627,1,0,0:0:0:0:
256,192,11949,1,0,0:0:0:0:
256,192,12272,1,8,0:0:0:0:
256,192,13562,1,0,0:0:0:0:
256,192,13885,5,0,0:0:0:0:
256,192,14207,1,0,0:0:0:0:
256,192,14530,1,0,0:0:0:0:
256,192,14852,1,8,0:0:0:0:
256,192,16143,1,0,0:0:0:0:
256,192,16466,5,0,0:0:0:0:
256,192,16788,1,0,0:0:0:0:
256,192,17111,1,0,0:0:0:0:
256,192,17433,1,8,0:0:0:0:
256,192,18723,1,0,0:0:0:0:
256,192,19046,5,0,0:0:0:0:
256,192,19368,1,0,0:0:0:0:
256,192,19691,1,0,0:0:0:0:
256,192,20013,1,8,0:0:0:0:
256,192,21305,1,12,0:0:0:0:
256,192,22272,1,4,0:0:0:0:
256,192,23240,1,0,0:0:0:0:
256,192,24207,1,0,0:0:0:0:
256,192,24261,1,8,0:0:0:0:
256,192,24530,1,8,0:0:0:0:
256,192,24852,1,4,0:0:0:0:
256,192,25820,1,0,0:0:0:0:
256,192,26143,1,0,0:0:0:0:
256,192,26465,1,12,0:0:0:0:
256,192,27433,1,12,0:0:0:0:
256,192,28401,1,8,0:0:0:0:
256,192,28455,1,8,0:0:0:0:
256,192,28508,1,8,0:0:0:0:
256,192,29369,1,8,0:0:0:0:
256,192,29691,1,8,0:0:0:0:
256,192,30014,1,12,0:0:0:0:
256,192,30659,1,8,0:0:0:0:
256,192,30981,1,0,0:0:0:0:
256,192,31627,1,12,0:0:0:0:
256,192,32594,1,4,0:0:0:0:
256,192,33562,1,0,0:0:0:0:
256,192,34530,1,0,0:0:0:0:
256,192,34584,1,8,0:0:0:0:
256,192,34853,1,8,0:0:0:0:
256,192,35175,1,4,0:0:0:0:
256,192,36143,1,0,0:0:0:0:
256,192,36466,1,0,0:0:0:0:
256,192,36788,1,12,0:0:0:0:
256,192,37756,1,12,0:0:0:0:
256,192,38724,1,8,0:0:0:0:
256,192,38778,1,8,0:0:0:0:
256,192,38831,1,8,0:0:0:0:
256,192,39692,1,8,0:0:0:0:
256,192,40014,1,8,0:0:0:0:
256,192,40337,1,12,0:0:0:0:
256,192,41304,1,8,0:0:0:0:
256,192,41950,1,4,0:0:0:0:
256,192,43240,1,8,0:0:0:0:
256,192,44530,1,0,0:0:0:0:
256,192,45820,1,8,0:0:0:0:
256,192,47110,1,0,0:0:0:0:
256,192,48401,1,8,0:0:0:0:
256,192,49046,1,0,0:0:0:0:
256,192,49369,1,8,0:0:0:0:
256,192,49691,1,0,0:0:0:0:
256,192,50981,1,8,0:0:0:0:
256,192,51022,1,8,0:0:0:0:
256,192,51627,1,0,0:0:0:0:
256,192,51949,1,0,0:0:0:0:
256,192,52271,1,8,0:0:0:0:
256,192,53240,1,8,0:0:0:0:
256,192,54207,1,0,0:0:0:0:
256,192,54852,1,8,0:0:0:0:
256,192,55820,1,8,0:0:0:0:
256,192,56789,1,8,0:0:0:0:
256,192,57111,1,0,0:0:0:0:
256,192,57434,1,8,0:0:0:0:
256,192,58401,1,8,0:0:0:0:
256,192,61949,5,8,0:0:0:0:
256,192,61990,1,8,0:0:0:0:
256,192,62595,1,4,0:0:0:0:
256,192,80659,5,4,0:0:0:0:
256,192,81950,5,2,0:0:0:0:
256,192,83240,1,0,0:0:0:0:
256,192,83401,1,2,0:0:0:0:
256,192,83724,1,0,0:0:0:0:
256,192,83885,1,2,0:0:0:0:
256,192,84047,1,0,0:0:0:0:
256,192,84208,1,2,0:0:0:0:
256,192,84369,1,2,0:0:0:0:
256,192,84692,1,0,0:0:0:0:
256,192,84853,1,2,0:0:0:0:
256,192,85014,1,0,0:0:0:0:
256,192,85176,1,2,0:0:0:0:
256,192,85337,1,0,0:0:0:0:
256,192,85498,1,2,0:0:0:0:
256,192,85660,1,2,0:0:0:0:
256,192,85982,1,2,0:0:0:0:
256,192,86143,1,0,0:0:0:0:
256,192,86466,1,2,0:0:0:0:
256,192,86627,1,2,0:0:0:0:
256,192,86950,1,2,0:0:0:0:
256,192,87111,1,0,0:0:0:0:
256,192,87272,1,0,0:0:0:0:
256,192,87434,1,2,0:0:0:0:
256,192,87595,1,0,0:0:0:0:
256,192,87756,1,2,0:0:0:0:
256,192,88079,1,2,0:0:0:0:
256,192,88240,1,2,0:0:0:0:
256,192,88401,1,0,0:0:0:0:
256,192,88724,1,2,0:0:0:0:
256,192,88885,1,0,0:0:0:0:
256,192,89047,1,2,0:0:0:0:
256,192,89208,1,2,0:0:0:0:
256,192,89530,1,2,0:0:0:0:
256,192,89692,1,0,0:0:0:0:
256,192,89853,1,0,0:0:0:0:
256,192,90014,1,2,0:0:0:0:
256,192,90176,1,2,0:0:0:0:
256,192,90337,1,2,0:0:0:0:
256,192,90660,1,2,0:0:0:0:
256,192,90821,1,2,0:0:0:0:
256,192,90982,1,0,0:0:0:0:
256,192,91143,1,0,0:0:0:0:
256,192,91305,1,2,0:0:0:0:
256,192,91466,1,0,0:0:0:0:
256,192,91627,1,2,0:0:0:0:
256,192,91789,1,2,0:0:0:0:
256,192,92272,1,0,0:0:0:0:
256,192,92434,1,0,0:0:0:0:
256,192,92595,1,2,0:0:0:0:
256,192,92918,1,2,0:0:0:0:
256,192,93239,1,0,0:0:0:0:
256,192,93293,1,0,0:0:0:0:
256,192,93347,1,0,0:0:0:0:
256,192,93401,1,8,0:0:0:0:
256,192,93563,1,4,0:0:0:0:
256,192,93724,1,2,0:0:0:0:
256,192,94047,1,0,0:0:0:0:
256,192,94208,1,2,0:0:0:0:
256,192,94369,1,0,0:0:0:0:
256,192,94530,1,2,0:0:0:0:
256,192,94692,1,2,0:0:0:0:
256,192,95014,1,0,0:0:0:0:
256,192,95176,1,2,0:0:0:0:
256,192,95337,1,0,0:0:0:0:
256,192,95498,1,2,0:0:0:0:
256,192,95660,1,0,0:0:0:0:
256,192,95821,1,2,0:0:0:0:
256,192,95982,1,2,0:0:0:0:
256,192,96305,1,2,0:0:0:0:
256,192,96466,1,0,0:0:0:0:
256,192,96789,1,2,0:0:0:0:
256,192,96950,1,2,0:0:0:0:
256,192,97272,1,2,0:0:0:0:
256,192,97434,1,0,0:0:0:0:
256,192,97595,1,0,0:0:0:0:
256,192,97756,1,2,0:0:0:0:
256,192,97918,1,0,0:0:0:0:
256,192,98079,1,2,0:0:0:0:
256,192,98401,1,2,0:0:0:0:
256,192,98563,1,2,0:0:0:0:
256,192,98724,1,0,0:0:0:0:
256,192,99047,1,2,0:0:0:0:
256,192,99208,1,0,0:0:0:0:
256,192,99369,1,2,0:0:0:0:
256,192,99530,1,2,0:0:0:0:
256,192,99853,1,2,0:0:0:0:
256,192,100014,1,0,0:0:0:0:
256,192,100337,1,2,0:0:0:0:
256,192,100498,1,0,0:0:0:0:
256,192,100660,1,2,0:0:0:0:
256,192,100982,1,2,0:0:0:0:
256,192,101143,1,2,0:0:0:0:
256,192,101305,1,0,0:0:0:0:
256,192,101466,1,0,0:0:0:0:
256,192,101627,5,2,0:0:0:0:
256,192,101789,1,0,0:0:0:0:
256,192,101950,1,2,0:0:0:0:
256,192,102003,1,2,0:0:0:0:
256,192,102057,1,0,0:0:0:0:
256,192,102111,1,0,0:0:0:0:
256,192,102164,1,0,0:0:0:0:
256,192,102218,1,0,0:0:0:0:
256,192,102272,1,2,0:0:0:0:
256,192,102434,1,2,0:0:0:0:
256,192,102595,1,0,0:0:0:0:
256,192,102756,1,0,0:0:0:0:
256,192,102918,1,2,0:0:0:0:
256,192,103079,1,0,0:0:0:0:
256,192,103240,1,2,0:0:0:0:
256,192,103563,1,0,0:0:0:0:
256,192,103616,1,0,0:0:0:0:
256,192,103670,1,0,0:0:0:0:
256,192,103724,1,2,0:0:0:0:
256,192,103885,1,4,0:0:0:0:
256,192,104047,1,2,0:0:0:0:
256,192,104208,1,0,0:0:0:0:
256,192,104369,1,0,0:0:0:0:
256,192,104530,1,2,0:0:0:0:
256,192,104692,1,0,0:0:0:0:
256,192,104853,1,2,0:0:0:0:
256,192,105014,1,2,0:0:0:0:
256,192,105176,1,0,0:0:0:0:
256,192,105337,1,0,0:0:0:0:
256,192,105498,1,2,0:0:0:0:
256,192,105660,1,0,0:0:0:0:
256,192,105821,1,2,0:0:0:0:
256,192,105982,1,0,0:0:0:0:
256,192,106143,1,2,0:0:0:0:
256,192,106305,1,2,0:0:0:0:
256,192,106466,1,0,0:0:0:0:
256,192,106627,1,2,0:0:0:0:
256,192,106789,1,0,0:0:0:0:
256,192,106950,1,0,0:0:0:0:
256,192,107111,1,2,0:0:0:0:
256,192,107272,1,2,0:0:0:0:
256,192,107434,1,0,0:0:0:0:
256,192,107595,1,2,0:0:0:0:
256,192,107756,1,0,0:0:0:0:
256,192,107918,1,0,0:0:0:0:
256,192,108079,1,2,0:0:0:0:
256,192,108240,1,0,0:0:0:0:
256,192,108401,1,2,0:0:0:0:
256,192,108563,1,0,0:0:0:0:
256,192,108724,1,2,0:0:0:0:
256,192,108885,1,2,0:0:0:0:
256,192,109047,1,0,0:0:0:0:
256,192,109208,1,0,0:0:0:0:
256,192,109369,1,2,0:0:0:0:
256,192,109530,1,0,0:0:0:0:
256,192,109692,1,2,0:0:0:0:
256,192,109853,1,2,0:0:0:0:
256,192,110014,1,0,0:0:0:0:
256,192,110176,1,2,0:0:0:0:
256,192,110337,1,0,0:0:0:0:
256,192,110498,1,2,0:0:0:0:
256,192,110660,1,2,0:0:0:0:
256,192,110821,1,0,0:0:0:0:
256,192,110982,1,2,0:0:0:0:
256,192,111143,1,0,0:0:0:0:
256,192,111305,1,2,0:0:0:0:
256,192,111466,1,2,0:0:0:0:
256,192,111627,1,0,0:0:0:0:
256,192,111789,1,2,0:0:0:0:
256,192,111950,1,0,0:0:0:0:
256,192,112111,1,0,0:0:0:0:
256,192,112272,1,2,0:0:0:0:
256,192,112434,1,2,0:0:0:0:
256,192,112595,1,0,0:0:0:0:
256,192,112756,1,2,0:0:0:0:
256,192,112918,1,0,0:0:0:0:
256,192,113079,1,0,0:0:0:0:
256,192,113240,1,2,0:0:0:0:
256,192,113401,1,2,0:0:0:0:
256,192,113563,1,0,0:0:0:0:
256,192,113724,1,2,0:0:0:0:
256,192,113885,1,0,0:0:0:0:
256,192,113938,1,0,0:0:0:0:
256,192,113992,1,8,0:0:0:0:
256,192,114047,1,2,0:0:0:0:
256,192,114100,1,2,0:0:0:0:
256,192,114153,1,2,0:0:0:0:
256,192,114208,1,0,0:0:0:0:
256,192,114369,1,0,0:0:0:0:
256,192,114530,1,2,0:0:0:0:
256,192,114692,1,0,0:0:0:0:
256,192,114853,1,2,0:0:0:0:
256,192,115014,1,2,0:0:0:0:
256,192,115176,1,0,0:0:0:0:
256,192,115337,1,0,0:0:0:0:
256,192,115498,1,2,0:0:0:0:
256,192,115660,1,0,0:0:0:0:
256,192,115821,1,0,0:0:0:0:
256,192,115982,1,0,0:0:0:0:
256,192,116143,1,2,0:0:0:0:
256,192,116305,1,2,0:0:0:0:
256,192,116466,1,2,0:0:0:0:
256,192,116627,1,0,0:0:0:0:
256,192,116789,1,0,0:0:0:0:
256,192,116950,1,0,0:0:0:0:
256,192,117111,1,2,0:0:0:0:
256,192,117272,1,0,0:0:0:0:
256,192,117434,1,2,0:0:0:0:
256,192,117595,1,2,0:0:0:0:
256,192,117756,1,0,0:0:0:0:
256,192,117918,1,0,0:0:0:0:
256,192,118079,1,2,0:0:0:0:
256,192,118240,1,0,0:0:0:0:
256,192,118401,1,0,0:0:0:0:
256,192,118563,1,0,0:0:0:0:
256,192,118724,1,2,0:0:0:0:
256,192,118885,1,2,0:0:0:0:
256,192,119047,1,2,0:0:0:0:
256,192,119208,1,0,0:0:0:0:
256,192,119369,1,0,0:0:0:0:
256,192,119530,1,0,0:0:0:0:
256,192,119692,1,2,0:0:0:0:
256,192,119853,1,0,0:0:0:0:
256,192,120014,1,2,0:0:0:0:
256,192,120176,1,2,0:0:0:0:
256,192,120337,1,0,0:0:0:0:
256,192,120498,1,0,0:0:0:0:
256,192,120660,1,2,0:0:0:0:
256,192,120821,1,0,0:0:0:0:
256,192,120982,1,2,0:0:0:0:
256,192,121143,1,0,0:0:0:0:
256,192,121305,1,0,0:0:0:0:
256,192,121466,1,0,0:0:0:0:
256,192,121627,1,2,0:0:0:0:
256,192,121789,1,0,0:0:0:0:
256,192,121950,1,2,0:0:0:0:
256,192,122918,1,2,0:0:0:0:
256,192,123885,1,2,0:0:0:0:
256,192,124208,1,2,0:0:0:0:
256,192,124289,1,2,0:0:0:0:
256,192,124369,1,2,0:0:0:0:
256,192,124450,1,2,0:0:0:0:
256,192,124530,1,0,0:0:0:0:
256,192,145176,5,6,0:0:0:0:
256,192,145337,1,2,0:0:0:0:
256,192,145418,1,0,0:0:0:0:
256,192,145498,1,0,0:0:0:0:
256,192,145660,1,0,0:0:0:0:
256,192,145821,1,2,0:0:0:0:
256,192,145901,1,2,0:0:0:0:
256,192,145982,1,2,0:0:0:0:
256,192,146143,1,0,0:0:0:0:
256,192,146224,1,2,0:0:0:0:
256,192,146305,1,0,0:0:0:0:
256,192,146385,1,2,0:0:0:0:
256,192,146466,1,0,0:0:0:0:
256,192,146627,1,0,0:0:0:0:
256,192,146789,1,2,0:0:0:0:
256,192,146869,1,2,0:0:0:0:
256,192,146950,1,0,0:0:0:0:
256,192,147030,1,0,0:0:0:0:
256,192,147111,1,2,0:0:0:0:
256,192,147272,1,0,0:0:0:0:
256,192,147434,1,2,0:0:0:0:
256,192,147514,1,2,0:0:0:0:
256,192,147595,1,2,0:0:0:0:
256,192,147756,1,0,0:0:0:0:
256,192,147918,1,2,0:0:0:0:
256,192,147998,1,2,0:0:0:0:
256,192,148079,1,0,0:0:0:0:
256,192,148160,1,0,0:0:0:0:
256,192,148240,1,2,0:0:0:0:
256,192,148401,1,2,0:0:0:0:
256,192,148482,1,0,0:0:0:0:
256,192,148563,1,2,0:0:0:0:
256,192,148724,1,2,0:0:0:0:
256,192,148885,1,2,0:0:0:0:
256,192,149047,1,0,0:0:0:0:
256,192,149127,1,0,0:0:0:0:
256,192,149208,1,0,0:0:0:0:
256,192,149369,1,2,0:0:0:0:
256,192,149450,1,0,0:0:0:0:
256,192,149530,1,2,0:0:0:0:
256,192,149611,1,0,0:0:0:0:
256,192,149692,1,2,0:0:0:0:
256,192,149853,1,0,0:0:0:0:
256,192,149934,1,0,0:0:0:0:
256,192,150014,1,2,0:0:0:0:
256,192,150176,1,2,0:0:0:0:
256,192,150337,1,0,0:0:0:0:
256,192,150498,1,2,0:0:0:0:
256,192,150579,1,0,0:0:0:0:
256,192,150660,1,0,0:0:0:0:
256,192,150821,1,0,0:0:0:0:
256,192,150982,1,2,0:0:0:0:
256,192,151063,1,2,0:0:0:0:
256,192,151143,1,2,0:0:0:0:
256,192,151305,1,0,0:0:0:0:
256,192,151385,1,2,0:0:0:0:
256,192,151466,1,0,0:0:0:0:
256,192,151547,1,2,0:0:0:0:
256,192,151627,1,0,0:0:0:0:
256,192,151789,1,0,0:0:0:0:
256,192,151950,1,2,0:0:0:0:
256,192,152030,1,2,0:0:0:0:
256,192,152111,1,0,0:0:0:0:
256,192,152192,1,0,0:0:0:0:
256,192,152272,1,2,0:0:0:0:
256,192,152434,1,0,0:0:0:0:
256,192,152595,1,2,0:0:0:0:
256,192,152676,1,2,0:0:0:0:
256,192,152756,1,2,0:0:0:0:
256,192,152918,1,0,0:0:0:0:
256,192,153079,1,2,0:0:0:0:
256,192,153160,1,2,0:0:0:0:
256,192,153240,1,0,0:0:0:0:
256,192,153321,1,0,0:0:0:0:
256,192,153401,1,2,0:0:0:0:
256,192,153563,1,2,0:0:0:0:
256,192,153643,1,0,0:0:0:0:
256,192,153724,1,2,0:0:0:0:
256,192,153885,1,2,0:0:0:0:
256,192,154047,1,2,0:0:0:0:
256,192,154208,1,0,0:0:0:0:
256,192,154289,1,0,0:0:0:0:
256,192,154369,1,0,0:0:0:0:
256,192,154530,1,2,0:0:0:0:
256,192,154611,1,0,0:0:0:0:
256,192,154692,1,2,0:0:0:0:
256,192,154772,1,0,0:0:0:0:
256,192,154853,1,2,0:0:0:0:
256,192,155014,1,0,0:0:0:0:
256,192,155095,1,0,0:0:0:0:
256,192,155176,1,2,0:0:0:0:
256,192,155337,1,2,0:0:0:0:
256,192,155498,1,4,0:0:0:0:
256,192,155820,1,2,0:0:0:0:
256,192,155981,1,2,0:0:0:0:
256,192,156143,1,0,0:0:0:0:
256,192,156465,1,2,0:0:0:0:
256,192,156627,1,0,0:0:0:0:
256,192,156788,1,2,0:0:0:0:
256,192,157111,1,0,0:0:0:0:
256,192,157272,1,2,0:0:0:0:
256,192,157434,1,0,0:0:0:0:
256,192,157756,1,2,0:0:0:0:
256,192,158079,1,4,0:0:0:0:
256,192,158401,1,2,0:0:0:0:
256,192,158563,1,2,0:0:0:0:
256,192,158724,1,0,0:0:0:0:
256,192,159047,1,2,0:0:0:0:
256,192,159208,1,0,0:0:0:0:
256,192,159369,1,2,0:0:0:0:
256,192,159692,1,0,0:0:0:0:
256,192,159853,1,2,0:0:0:0:
256,192,160014,1,0,0:0:0:0:
256,192,160337,1,2,0:0:0:0:
256,192,160660,1,4,0:0:0:0:
256,192,160982,1,4,0:0:0:0:
256,192,161305,1,4,0:0:0:0:
256,192,161627,1,4,0:0:0:0:
256,192,161950,1,4,0:0:0:0:
256,192,162272,1,4,0:0:0:0:
256,192,162595,1,4,0:0:0:0:
256,192,162918,1,4,0:0:0:0:
256,192,163240,1,2,0:0:0:0:
256,192,165498,5,2,0:0:0:0:
256,192,165820,1,4,0:0:0:0:
256,192,165982,1,0,0:0:0:0:
256,192,166063,1,2,0:0:0:0:
256,192,166143,1,0,0:0:0:0:
256,192,166305,1,0,0:0:0:0:
256,192,166466,1,2,0:0:0:0:
256,192,166547,1,2,0:0:0:0:
256,192,166627,1,0,0:0:0:0:
256,192,166789,1,2,0:0:0:0:
256,192,166842,1,2,0:0:0:0:
256,192,166895,1,2,0:0:0:0:
256,192,166950,1,2,0:0:0:0:
256,192,167111,1,0,0:0:0:0:
256,192,167272,1,0,0:0:0:0:
256,192,167353,1,0,0:0:0:0:
256,192,167434,1,2,0:0:0:0:
256,192,167514,1,2,0:0:0:0:
256,192,167595,1,0,0:0:0:0:
256,192,167756,1,2,0:0:0:0:
256,192,167918,1,0,0:0:0:0:
256,192,168079,1,2,0:0:0:0:
256,192,168401,1,4,0:0:0:0:
256,192,168563,1,0,0:0:0:0:
256,192,168643,1,0,0:0:0:0:
256,192,168724,1,2,0:0:0:0:
256,192,168885,1,0,0:0:0:0:
256,192,169047,1,2,0:0:0:0:
256,192,169208,1,0,0:0:0:0:
256,192,169369,1,2,0:0:0:0:
256,192,169422,1,2,0:0:0:0:
256,192,169476,1,0,0:0:0:0:
256,192,169530,1,0,0:0:0:0:
256,192,169692,1,0,0:0:0:0:
256,192,169772,1,0,0:0:0:0:
256,192,169853,1,0,0:0:0:0:
256,192,170014,1,2,0:0:0:0:
256,192,170176,1,0,0:0:0:0:
256,192,170256,1,0,0:0:0:0:
256,192,170337,1,2,0:0:0:0:
256,192,170660,1,2,0:0:0:0:
256,192,170981,1,4,0:0:0:0:
256,192,171143,1,0,0:0:0:0:
256,192,171224,1,2,0:0:0:0:
256,192,171305,1,0,0:0:0:0:
256,192,171466,1,0,0:0:0:0:
256,192,171627,1,2,0:0:0:0:
256,192,171708,1,2,0:0:0:0:
256,192,171789,1,0,0:0:0:0:
256,192,171950,1,2,0:0:0:0:
256,192,172003,1,2,0:0:0:0:
256,192,172057,1,2,0:0:0:0:
256,192,172111,1,2,0:0:0:0:
256,192,172272,1,0,0:0:0:0:
256,192,172434,1,0,0:0:0:0:
256,192,172514,1,0,0:0:0:0:
256,192,172595,1,2,0:0:0:0:
256,192,172676,1,2,0:0:0:0:
256,192,172756,1,0,0:0:0:0:
256,192,172918,1,2,0:0:0:0:
256,192,173079,1,0,0:0:0:0:
256,192,173240,1,2,0:0:0:0:
256,192,173563,5,4,0:0:0:0:
256,192,173724,1,0,0:0:0:0:
256,192,173805,1,0,0:0:0:0:
256,192,173885,1,2,0:0:0:0:
256,192,174047,1,0,0:0:0:0:
256,192,174208,1,2,0:0:0:0:
256,192,174369,1,0,0:0:0:0:
256,192,174530,1,2,0:0:0:0:
256,192,174584,1,2,0:0:0:0:
256,192,174637,1,0,0:0:0:0:
256,192,174692,1,0,0:0:0:0:
256,192,174853,1,2,0:0:0:0:
256,192,174893,1,2,0:0:0:0:
256,192,175014,1,0,0:0:0:0:
256,192,175176,1,2,0:0:0:0:
256,192,175215,1,2,0:0:0:0:
256,192,175337,1,0,0:0:0:0:
256,192,175498,1,2,0:0:0:0:
256,192,175578,1,2,0:0:0:0:
256,192,175660,1,0,0:0:0:0:
256,192,175821,1,2,0:0:0:0:
256,192,176143,1,4,0:0:0:0:
256,192,176305,1,0,0:0:0:0:
256,192,176385,1,2,0:0:0:0:
256,192,176466,1,0,0:0:0:0:
256,192,176627,1,0,0:0:0:0:
256,192,176789,1,2,0:0:0:0:
256,192,176869,1,2,0:0:0:0:
256,192,176950,1,0,0:0:0:0:
256,192,177110,1,2,0:0:0:0:
256,192,177164,1,2,0:0:0:0:
256,192,177218,1,2,0:0:0:0:
256,192,177272,1,2,0:0:0:0:
256,192,177434,1,0,0:0:0:0:
256,192,177595,1,0,0:0:0:0:
256,192,177676,1,0,0:0:0:0:
256,192,177756,1,2,0:0:0:0:
256,192,177837,1,2,0:0:0:0:
256,192,177918,1,0,0:0:0:0:
256,192,178079,1,2,0:0:0:0:
256,192,178240,1,0,0:0:0:0:
256,192,178401,1,2,0:0:0:0:
256,192,178723,1,4,0:0:0:0:
256,192,178885,1,0,0:0:0:0:
256,192,178966,1,0,0:0:0:0:
256,192,179047,1,2,0:0:0:0:
256,192,179207,1,0,0:0:0:0:
256,192,179369,1,2,0:0:0:0:
256,192,179530,1,0,0:0:0:0:
256,192,179692,1,2,0:0:0:0:
256,192,179772,1,0,0:0:0:0:
256,192,179853,1,0,0:0:0:0:
256,192,180014,1,0,0:0:0:0:
256,192,180095,1,0,0:0:0:0:
256,192,180176,1,0,0:0:0:0:
256,192,180337,1,2,0:0:0:0:
256,192,180498,1,0,0:0:0:0:
256,192,180579,1,0,0:0:0:0:
256,192,180660,1,2,0:0:0:0:
256,64,180982,2,0,L|256:198,1,112
256,192,181304,1,4,0:0:0:0:
256,192,181466,1,0,0:0:0:0:
256,192,181547,1,2,0:0:0:0:
256,192,181627,1,0,0:0:0:0:
256,192,181789,1,0,0:0:0:0:
256,192,181950,1,2,0:0:0:0:
256,192,182030,1,2,0:0:0:0:
256,192,182111,1,0,0:0:0:0:
256,192,182272,1,2,0:0:0:0:
256,192,182326,1,2,0:0:0:0:
256,192,182379,1,8,0:0:0:0:
256,192,182433,1,2,0:0:0:0:
256,192,182595,1,0,0:0:0:0:
256,192,182756,1,0,0:0:0:0:
256,192,182837,1,0,0:0:0:0:
256,192,182918,1,2,0:0:0:0:
256,192,182998,1,2,0:0:0:0:
256,192,183079,1,0,0:0:0:0:
256,192,183240,1,2,0:0:0:0:
256,192,183401,1,0,0:0:0:0:
256,192,183563,1,2,0:0:0:0:
256,192,183885,5,4,0:0:0:0:
256,192,184047,1,0,0:0:0:0:
256,192,184127,1,0,0:0:0:0:
256,192,184208,1,2,0:0:0:0:
256,192,184369,1,0,0:0:0:0:
256,192,184530,1,2,0:0:0:0:
256,192,184691,1,0,0:0:0:0:
256,192,184853,1,2,0:0:0:0:
256,192,184933,1,2,0:0:0:0:
256,192,185014,1,0,0:0:0:0:
256,192,185175,1,2,0:0:0:0:
256,192,185215,1,2,0:0:0:0:
256,192,185336,1,0,0:0:0:0:
256,192,185498,1,2,0:0:0:0:
256,192,185538,1,2,0:0:0:0:
256,192,185659,1,0,0:0:0:0:
256,192,185820,1,6,0:0:0:0:
256,192,185981,1,0,0:0:0:0:
256,192,186143,1,6,0:0:0:0:
256,192,186465,1,4,0:0:0:0:
256,192,186627,1,0,0:0:0:0:
256,192,186708,1,0,0:0:0:0:
256,192,186789,1,2,0:0:0:0:
256,192,186950,1,0,0:0:0:0:
256,192,187111,1,2,0:0:0:0:
256,192,187192,1,2,0:0:0:0:
256,192,187272,1,0,0:0:0:0:
256,192,187353,1,0,0:0:0:0:
256,192,187434,1,2,0:0:0:0:
256,192,187595,1,0,0:0:0:0:
256,192,187756,1,2,0:0:0:0:
256,192,187837,1,2,0:0:0:0:
256,192,187918,1,0,0:0:0:0:
256,192,188079,1,2,0:0:0:0:
256,192,188240,1,0,0:0:0:0:
256,192,188321,1,0,0:0:0:0:
256,192,188401,1,2,0:0:0:0:
256,192,188563,1,0,0:0:0:0:
256,192,188723,1,2,0:0:0:0:
256,192,188804,1,0,0:0:0:0:
256,192,188885,1,2,0:0:0:0:
256,192,188965,1,2,0:0:0:0:
256,192,189046,1,0,0:0:0:0:
256,192,189207,1,0,0:0:0:0:
256,192,189288,1,0,0:0:0:0:
256,192,189369,1,2,0:0:0:0:
256,192,189530,1,0,0:0:0:0:
256,192,189691,1,2,0:0:0:0:
256,192,189772,1,2,0:0:0:0:
256,192,189852,1,0,0:0:0:0:
256,192,189933,1,2,0:0:0:0:
256,192,190014,1,2,0:0:0:0:
256,192,190175,1,2,0:0:0:0:
256,192,190336,1,0,0:0:0:0:
256,192,190417,1,0,0:0:0:0:
256,192,190498,1,0,0:0:0:0:
256,192,190659,1,2,0:0:0:0:
256,192,190820,1,0,0:0:0:0:
256,192,190901,1,0,0:0:0:0:
256,192,190981,1,2,0:0:0:0:
256,192,191305,1,2,0:0:0:0:
256,192,191627,1,4,0:0:0:0:
256,192,191789,1,0,0:0:0:0:
256,192,191869,1,2,0:0:0:0:
256,192,191950,1,0,0:0:0:0:
256,192,192111,1,2,0:0:0:0:
256,192,192192,1,2,0:0:0:0:
256,192,192272,1,0,0:0:0:0:
256,192,192353,1,0,0:0:0:0:
256,192,192434,1,2,0:0:0:0:
256,192,192595,1,2,0:0:0:0:
256,192,192756,1,2,0:0:0:0:
256,192,192837,1,2,0:0:0:0:
256,192,192918,1,0,0:0:0:0:
256,192,193079,1,0,0:0:0:0:
256,192,193240,1,2,0:0:0:0:
256,192,193320,1,2,0:0:0:0:
256,192,193401,1,0,0:0:0:0:
256,192,193562,1,2,0:0:0:0:
256,192,193723,1,0,0:0:0:0:
256,192,193885,1,2,0:0:0:0:
256,192,193965,1,0,0:0:0:0:
256,192,194046,1,2,0:0:0:0:
256,192,194127,1,2,0:0:0:0:
256,192,194207,1,0,0:0:0:0:
256,192,194369,1,0,0:0:0:0:
256,192,194449,1,0,0:0:0:0:
256,192,194530,1,2,0:0:0:0:
256,192,194691,1,0,0:0:0:0:
256,192,194852,1,2,0:0:0:0:
256,192,194933,1,0,0:0:0:0:
256,192,195014,1,2,0:0:0:0:
256,192,195175,1,2,0:0:0:0:
256,192,195256,1,2,0:0:0:0:
256,192,195336,1,0,0:0:0:0:
256,192,195498,1,2,0:0:0:0:
256,192,195538,1,2,0:0:0:0:
256,192,195659,1,0,0:0:0:0:
256,192,195820,1,2,0:0:0:0:
256,192,195860,1,2,0:0:0:0:
256,192,195981,1,0,0:0:0:0:
256,192,196143,1,2,0:0:0:0:
256,192,196223,1,2,0:0:0:0:
256,192,196304,1,0,0:0:0:0:
256,192,196465,1,2,0:0:0:0:
256,192,196788,1,4,0:0:0:0:
256,192,196949,1,0,0:0:0:0:
256,192,197029,1,0,0:0:0:0:
256,192,197110,1,2,0:0:0:0:
256,192,197271,1,0,0:0:0:0:
256,192,197433,1,2,0:0:0:0:
256,192,197514,1,2,0:0:0:0:
256,192,197594,1,0,0:0:0:0:
256,192,197675,1,0,0:0:0:0:
256,192,197756,1,2,0:0:0:0:
256,192,197917,1,0,0:0:0:0:
256,192,198078,1,2,0:0:0:0:
256,192,198159,1,2,0:0:0:0:
256,192,198239,1,0,0:0:0:0:
256,192,198401,1,2,0:0:0:0:
256,192,198562,1,0,0:0:0:0:
256,192,198643,1,0,0:0:0:0:
256,192,198723,1,2,0:0:0:0:
256,192,198885,1,0,0:0:0:0:
256,192,199046,1,2,0:0:0:0:
256,192,199127,1,0,0:0:0:0:
256,192,199207,1,2,0:0:0:0:
256,192,199288,1,2,0:0:0:0:
256,192,199369,1,0,0:0:0:0:
256,192,199530,1,0,0:0:0:0:
256,192,199610,1,0,0:0:0:0:
256,192,199691,1,2,0:0:0:0:
256,192,199852,1,0,0:0:0:0:
256,192,200014,1,2,0:0:0:0:
256,192,200094,1,2,0:0:0:0:
256,192,200175,1,0,0:0:0:0:
256,192,200256,1,2,0:0:0:0:
256,192,200336,1,2,0:0:0:0:
256,192,200498,1,2,0:0:0:0:
256,192,200659,1,0,0:0:0:0:
256,192,200739,1,0,0:0:0:0:
256,192,200820,1,0,0:0:0:0:
256,192,200981,1,2,0:0:0:0:
256,192,201142,1,0,0:0:0:0:
256,192,201223,1,0,0:0:0:0:
256,192,201304,1,2,0:0:0:0:
256,192,201626,12,0,201788,0:0:0:0:
256,192,201949,5,4,0:0:0:0:
256,192,202110,1,0,0:0:0:0:
256,192,202191,1,2,0:0:0:0:
256,192,202272,1,0,0:0:0:0:
256,192,202433,1,2,0:0:0:0:
256,192,202514,1,2,0:0:0:0:
256,192,202594,1,0,0:0:0:0:
256,192,202675,1,0,0:0:0:0:
256,192,202756,1,2,0:0:0:0:
256,192,202917,1,2,0:0:0:0:
256,192,203078,1,2,0:0:0:0:
256,192,203159,1,2,0:0:0:0:
256,192,203239,1,0,0:0:0:0:
256,192,203401,1,0,0:0:0:0:
256,192,203562,1,2,0:0:0:0:
256,192,203643,1,2,0:0:0:0:
256,192,203723,1,0,0:0:0:0:
256,192,203885,1,2,0:0:0:0:
256,192,204046,1,0,0:0:0:0:
256,192,204207,1,2,0:0:0:0:
256,192,204288,1,0,0:0:0:0:
256,192,204369,1,2,0:0:0:0:
256,192,204449,1,2,0:0:0:0:
256,192,204530,1,0,0:0:0:0:
256,192,204691,1,0,0:0:0:0:
256,192,204772,1,0,0:0:0:0:
256,192,204852,1,2,0:0:0:0:
256,192,205014,1,0,0:0:0:0:
256,192,205175,1,2,0:0:0:0:
256,192,205256,1,0,0:0:0:0:
256,192,205336,1,2,0:0:0:0:
256,192,205498,1,2,0:0:0:0:
256,192,205578,1,2,0:0:0:0:
256,192,205659,1,0,0:0:0:0:
256,192,205820,1,2,0:0:0:0:
256,192,205860,1,2,0:0:0:0:
256,192,205981,1,0,0:0:0:0:
256,192,206143,1,2,0:0:0:0:
256,192,206182,1,2,0:0:0:0:
256,192,206304,1,0,0:0:0:0:
256,192,206465,1,6,0:0:0:0:
256,192,206788,1,2,0:0:0:0:
256,192,207110,1,4,0:0:0:0:
