osu file format v14

[General]
AudioFilename: audio.mp3
AudioLeadIn: 0
PreviewTime: 82917
Countdown: 0
SampleSet: Normal
StackLeniency: 0.7
Mode: 1
LetterboxInBreaks: 0
WidescreenStoryboard: 1

[Editor]
Bookmarks: 144495
DistanceSpacing: 0.9
BeatDivisor: 4
GridSize: 32
TimelineZoom: 2.5

[Metadata]
Title:forest of the spirits
TitleUnicode:forest of the spirits
Artist:sakuraburst
ArtistUnicode:sakuraburst
Creator:[Zeth]
Version:oni
Source:osu!
Tags:blood orange EP experimental glitch dubstep glitch hop wub electronic instrumental mappers' guild mg featured artist fa salchow Aisha xfraczynho Nardoxyribonucleic Volta
BeatmapID:2252931
BeatmapSetID:1053433

[Difficulty]
HPDrainRate:5
CircleSize:5
OverallDifficulty:5.5
ApproachRate:10
SliderMultiplier:1.4
SliderTickRate:1

[Events]
//Background and Video events
0,0,"forest of the spirit(1).jpg",0,-80
//Break Periods
2,124730,144725
//Storyboard Layer 0 (Background)
//Storyboard Layer 1 (Fail)
//Storyboard Layer 2 (Pass)
//Storyboard Layer 3 (Foreground)
//Storyboard Layer 4 (Overlay)
//Storyboard Sound Samples

[TimingPoints]
660,645.161290322581,4,2,0,100,1,0
660,-125,4,2,0,100,0,0
21303,-100,4,2,0,100,0,0
58723,-100,4,2,0,25,0,0
60013,-111.111111111111,4,2,0,25,0,0
61787,-117.647058823529,4,2,0,100,0,0
62271,-121.212121212121,4,2,0,100,0,0
62593,-125,4,2,0,100,0,0
65174,-111.111111111111,4,2,0,100,0,0
65819,-125,4,2,0,100,0,0
67755,-111.111111111111,4,2,0,100,0,0
68400,-125,4,2,0,100,0,0
70335,-111.111111111111,4,2,0,100,0,0
70980,-125,4,2,0,100,0,0
72916,-111.111111111111,4,2,0,100,0,0
73561,-125,4,2,0,100,0,0
75497,-133.333333333333,4,2,0,100,0,0
78077,-142.857142857143,4,2,0,100,0,0
80658,-100,4,2,0,100,0,0
81948,-125,4,2,0,100,0,0
83240,322.58064516129,4,1,0,100,1,0
83240,-111.111111111111,4,1,0,100,0,0
92915,-100,4,1,0,100,0,0
93237,-105.263157894737,4,1,0,100,0,0
93399,-108.108108108108,4,1,0,100,0,0
93560,-111.111111111111,4,1,0,100,0,0
101947,-100,4,1,0,100,0,0
102028,-102.040816326531,4,1,0,100,0,0
102108,-104.166666666667,4,1,0,100,0,0
102270,-107.52688172043,4,1,0,100,0,0
102592,-111.111111111111,4,1,0,100,0,0
103237,-90.9090909090909,4,1,0,100,0,0
103560,-95.2380952380952,4,1,0,100,0,0
103641,-96.3855421686747,4,1,0,100,0,0
103721,-97.5609756097561,4,1,0,100,0,0
103883,-100,4,1,0,100,0,0
105496,-96.1538461538461,4,1,0,100,0,0
105576,-98.0392156862745,4,1,0,100,0,0
105657,-100,4,1,0,100,0,0
108076,-96.1538461538461,4,1,0,100,0,0
108157,-98.0392156862745,4,1,0,100,0,0
108237,-100,4,1,0,100,0,0
108399,-96.1538461538461,4,1,0,100,0,0
108560,-100,4,1,0,100,0,0
110657,-96.1538461538461,4,1,0,100,0,0
110729,-98.0392156862745,4,1,0,100,0,0
110818,-100,4,1,0,100,0,0
113237,-96.1538461538461,4,1,0,100,0,0
113318,-98.0392156862745,4,1,0,100,0,0
113399,-100,4,1,0,100,0,0
113560,-96.1538461538461,4,1,0,100,0,0
113883,-95.2380952380952,4,1,0,100,0,0
113963,-96.3855421686747,4,1,0,100,0,0
114044,-97.5609756097561,4,1,0,100,0,0
114205,-100,4,1,0,100,0,0
115818,-96.1538461538461,4,1,0,100,0,0
115899,-98.0392156862745,4,1,0,100,0,0
115979,-100,4,1,0,100,0,0
118399,-96.1538461538461,4,1,0,100,0,0
118479,-98.0392156862745,4,1,0,100,0,0
118560,-100,4,1,0,100,0,0
118721,-96.1538461538461,4,1,0,100,0,0
118883,-100,4,1,0,100,0,0
120979,-96.1538461538461,4,1,0,100,0,0
121060,-98.0392156862745,4,1,0,100,0,0
121141,-100,4,1,0,100,0,0
121947,-102.564102564103,4,1,0,100,0,0
122915,-111.111111111111,4,1,0,100,0,0
123237,-114.285714285714,4,1,0,100,0,0
123883,-90.9090909090909,4,1,0,100,0,0
124205,-102.040816326531,4,1,0,100,0,0
124286,-99.009900990099,4,1,0,100,0,0
124367,-96.1538461538461,4,1,0,100,0,0
124528,-90.9090909090909,4,1,0,100,0,0
125818,-93.0232558139535,4,1,0,100,0,0
127108,-95.2380952380952,4,1,0,100,0,0
128399,-97.5609756097561,4,1,0,100,0,0
129689,-100,4,1,0,100,0,0
130979,-102.564102564103,4,1,0,100,0,0
132270,-105.263157894737,4,1,0,100,0,0
133560,-108.108108108108,4,1,0,100,0,0
134850,-111.111111111111,4,1,0,100,0,0
136141,-114.285714285714,4,1,0,100,0,0
137431,-117.647058823529,4,1,0,100,0,0
138721,-121.212121212121,4,1,0,100,0,0
140012,-125,4,1,0,100,0,0
141302,-129.032258064516,4,1,0,100,0,0
142592,-133.333333333333,4,1,0,100,0,0
143883,-137.931034482759,4,1,0,100,0,0
145173,-80,4,1,0,100,0,0
145334,-111.111111111111,4,1,0,100,0,0
155012,-108.108108108108,4,1,0,100,0,0
155173,-105.263157894737,4,1,0,100,0,0
155334,-102.564102564103,4,1,0,100,0,0
155496,-100,4,1,0,100,0,0
160657,-98.0392156862745,4,1,0,100,0,0
160818,-96.1538461538461,4,1,0,100,0,0
160979,-94.3396226415094,4,1,0,100,0,0
161140,-92.5925925925926,4,1,0,100,0,0
161302,-90.9090909090909,4,1,0,100,0,0
161463,-89.2857142857143,4,1,0,100,0,0
161624,-87.719298245614,4,1,0,100,0,0
161786,-86.2068965517241,4,1,0,100,0,0
161947,-84.7457627118644,4,1,0,100,0,0
162108,-83.3333333333333,4,1,0,100,0,0
162269,-81.9672131147541,4,1,0,100,0,0
162431,-80.6451612903226,4,1,0,100,0,0
162592,-79.3650793650794,4,1,0,100,0,0
162753,-78.125,4,1,0,100,0,0
162915,-76.9230769230769,4,1,0,100,0,0
163076,-75.7575757575758,4,1,0,100,0,0
163237,-74.6268656716418,4,1,0,100,0,0
164528,-111.111111111111,4,1,0,100,0,0
165496,-100,4,1,0,100,0,0
165820,-100,4,1,0,100,0,1
166786,-96.1538461538461,4,1,0,100,0,1
166867,-98.0392156862745,4,1,0,100,0,1
166947,-100,4,1,0,100,0,1
167431,-96.1538461538461,4,1,0,100,0,1
167512,-98.0392156862745,4,1,0,100,0,1
167592,-100,4,1,0,100,0,1
168721,-96.1538461538461,4,1,0,100,0,1
168802,-98.0392156862745,4,1,0,100,0,1
168883,-100,4,1,0,100,0,1
169850,-96.1538461538461,4,1,0,100,0,1
169931,-98.0392156862745,4,1,0,100,0,1
170012,-100,4,1,0,100,0,1
170334,-95.2380952380952,4,1,0,100,0,1
170979,-100,4,1,0,100,0,1
171947,-96.1538461538461,4,1,0,100,0,1
172028,-98.0392156862745,4,1,0,100,0,1
172108,-100,4,1,0,100,0,1
172592,-96.1538461538461,4,1,0,100,0,1
172673,-98.0392156862745,4,1,0,100,0,1
172754,-100,4,1,0,100,0,1
173883,-96.1538461538461,4,1,0,100,0,1
173963,-98.0392156862745,4,1,0,100,0,1
174044,-100,4,1,0,100,0,1
177108,-96.1538461538461,4,1,0,100,0,1
177189,-98.0392156862745,4,1,0,100,0,1
177270,-100,4,1,0,100,0,1
177754,-96.1538461538461,4,1,0,100,0,1
177834,-98.0392156862745,4,1,0,100,0,1
177915,-100,4,1,0,100,0,1
179044,-96.1538461538461,4,1,0,100,0,1
179125,-98.0392156862745,4,1,0,100,0,1
179205,-100,4,1,0,100,0,1
180173,-96.1538461538461,4,1,0,100,0,1
180254,-98.0392156862745,4,1,0,100,0,1
180334,-100,4,1,0,100,0,1
180657,-95.2380952380952,4,1,0,100,0,1
181302,-100,4,1,0,100,0,1
182270,-96.1538461538461,4,1,0,100,0,1
182350,-98.0392156862745,4,1,0,100,0,1
182431,-100,4,1,0,100,0,1
182915,-96.1538461538461,4,1,0,100,0,1
182996,-98.0392156862745,4,1,0,100,0,1
183076,-100,4,1,0,100,0,1
184205,-96.1538461538461,4,1,0,100,0,1
184286,-98.0392156862745,4,1,0,100,0,1
184367,-100,4,1,0,100,0,1
185175,-100,4,1,0,100,0,0
186465,-100,4,1,0,100,0,1
187431,-94.3396226415094,4,1,0,100,0,1
187512,-97.0873786407767,4,1,0,100,0,1
187592,-100,4,1,0,100,0,1
188076,-94.3396226415094,4,1,0,100,0,1
188157,-97.0873786407767,4,1,0,100,0,1
188237,-100,4,1,0,100,0,1
188775,-98.0392156862745,4,1,0,100,0,1
188883,-96.1538461538461,4,1,0,100,0,1
189044,-100,4,1,0,100,0,1
189367,-94.3396226415094,4,1,0,100,0,1
189447,-97.0873786407767,4,1,0,100,0,1
189528,-100,4,1,0,100,0,1
190092,-98.0392156862745,4,1,0,100,0,1
190173,-96.1538461538461,4,1,0,100,0,1
190334,-100,4,1,0,100,0,1
190496,-94.3396226415094,4,1,0,100,0,1
190576,-97.0873786407767,4,1,0,100,0,1
190657,-100,4,1,0,100,0,1
190979,-92.5925925925926,4,1,0,100,0,1
191625,-100,4,1,0,100,0,1
192592,-96.1538461538461,4,1,0,100,0,1
192673,-98.0392156862745,4,1,0,100,0,1
192754,-100,4,1,0,100,0,1
192915,-98.0392156862745,4,1,0,100,0,1
193237,-94.3396226415094,4,1,0,100,0,1
193318,-97.0873786407767,4,1,0,100,0,1
193399,-100,4,1,0,100,0,1
193963,-98.0392156862745,4,1,0,100,0,1
194044,-96.1538461538461,4,1,0,100,0,1
194205,-100,4,1,0,100,0,1
194528,-94.3396226415094,4,1,0,100,0,1
194608,-97.0873786407767,4,1,0,100,0,1
194689,-100,4,1,0,100,0,1
195254,-98.0392156862745,4,1,0,100,0,1
195334,-96.1538461538461,4,1,0,100,0,1
195496,-100,4,1,0,100,0,1
197754,-94.3396226415094,4,1,0,100,0,1
197834,-97.0873786407767,4,1,0,100,0,1
197915,-100,4,1,0,100,0,1
198399,-94.3396226415094,4,1,0,100,0,1
198479,-97.0873786407767,4,1,0,100,0,1
198560,-100,4,1,0,100,0,1
199125,-98.0392156862745,4,1,0,100,0,1
199205,-96.1538461538461,4,1,0,100,0,1
199367,-100,4,1,0,100,0,1
199689,-94.3396226415094,4,1,0,100,0,1
199770,-97.0873786407767,4,1,0,100,0,1
199850,-100,4,1,0,100,0,1
200415,-98.0392156862745,4,1,0,100,0,1
200496,-96.1538461538461,4,1,0,100,0,1
200657,-100,4,1,0,100,0,1
200818,-94.3396226415094,4,1,0,100,0,1
200899,-97.0873786407767,4,1,0,100,0,1
200979,-100,4,1,0,100,0,1
201302,-92.5925925925926,4,1,0,100,0,1
201947,-100,4,1,0,100,0,1
202915,-96.1538461538461,4,1,0,100,0,1
202996,-98.0392156862745,4,1,0,100,0,1
203076,-100,4,1,0,100,0,1
203560,-94.3396226415094,4,1,0,100,0,1
203641,-97.0873786407767,4,1,0,100,0,1
203721,-100,4,1,0,100,0,1
204286,-98.0392156862745,4,1,0,100,0,1
204367,-96.1538461538461,4,1,0,100,0,1
204528,-100,4,1,0,100,0,1
204850,-94.3396226415094,4,1,0,100,0,1
204931,-97.0873786407767,4,1,0,100,0,1
205012,-100,4,1,0,100,0,1
205576,-98.0392156862745,4,1,0,100,0,1
205657,-96.1538461538461,4,1,0,100,0,1
205818,-100,4,1,0,100,0,1
207110,-83.3333333333333,4,1,0,100,0,0

[HitObjects]
256,192,660,5,0,0:0:0:0:
256,192,1306,1,2,0:0:0:0:
256,192,1628,1,0,0:0:0:0:
256,192,1951,1,2,0:0:0:0:
256,192,3241,5,0,0:0:0:0:
256,192,3886,1,2,0:0:0:0:
256,192,4208,1,0,0:0:0:0:
256,192,4531,1,2,0:0:0:0:
256,192,5822,5,0,0:0:0:0:
256,192,6467,1,2,0:0:0:0:
256,192,6789,1,0,0:0:0:0:
256,192,7112,1,2,0:0:0:0:
256,192,8402,5,0,0:0:0:0:
256,192,9047,1,2,0:0:0:0:
256,192,9369,1,0,0:0:0:0:
256,192,9692,1,2,0:0:0:0:
256,192,10983,5,0,0:0:0:0:
256,192,11628,1,0,0:0:0:0:
256,192,11950,1,0,0:0:0:0:
256,192,12273,1,2,0:0:0:0:
256,192,13564,5,0,0:0:0:0:
256,192,14209,1,0,0:0:0:0:
256,192,14531,1,0,0:0:0:0:
256,192,14854,1,2,0:0:0:0:
256,192,16144,5,0,0:0:0:0:
256,192,16789,1,0,0:0:0:0:
256,192,17111,1,0,0:0:0:0:
256,192,17434,1,2,0:0:0:0:
256,192,18725,5,0,0:0:0:0:
256,192,19370,1,0,0:0:0:0:
256,192,19692,1,0,0:0:0:0:
256,192,20015,1,2,0:0:0:0:
256,192,21305,1,6,0:0:0:0:
256,192,22273,1,0,0:0:0:0:
256,192,24209,1,2,0:0:0:0:
256,192,24531,1,2,0:0:0:0:
256,192,24853,1,0,0:0:0:0:
256,192,25821,1,2,0:0:0:0:
256,192,26144,1,0,0:0:0:0:
256,192,26466,1,0,0:0:0:0:
256,192,27434,1,2,0:0:0:0:
256,192,28402,1,2,0:0:0:0:
256,192,29370,1,0,0:0:0:0:
256,192,29693,1,2,0:0:0:0:
256,192,30015,1,2,0:0:0:0:
256,192,30661,1,2,0:0:0:0:
256,192,30983,1,0,0:0:0:0:
256,192,31628,1,2,0:0:0:0:
256,192,32596,1,0,0:0:0:0:
256,192,34531,1,2,0:0:0:0:
256,192,34854,1,2,0:0:0:0:
256,192,35177,1,0,0:0:0:0:
256,192,36144,1,2,0:0:0:0:
256,192,36467,1,0,0:0:0:0:
256,192,36790,1,0,0:0:0:0:
256,192,37757,1,2,0:0:0:0:
256,192,38724,1,2,0:0:0:0:
256,192,39693,1,0,0:0:0:0:
256,192,40015,1,0,0:0:0:0:
256,192,40338,1,2,0:0:0:0:
256,192,41306,1,2,0:0:0:0:
256,192,41950,1,4,0:0:0:0:
256,192,42596,1,0,0:0:0:0:
256,192,42919,1,0,0:0:0:0:
256,192,43241,1,2,0:0:0:0:
256,192,43564,1,2,0:0:0:0:
256,192,43886,1,0,0:0:0:0:
256,192,44209,1,0,0:0:0:0:
256,192,44531,1,0,0:0:0:0:
256,192,45177,1,2,0:0:0:0:
256,192,45499,1,0,0:0:0:0:
256,192,45822,1,2,0:0:0:0:
256,192,46144,1,0,0:0:0:0:
256,192,46467,1,2,0:0:0:0:
256,192,46790,1,0,0:0:0:0:
256,192,47112,1,0,0:0:0:0:
256,192,47757,1,2,0:0:0:0:
256,192,48080,1,0,0:0:0:0:
256,192,48402,1,2,0:0:0:0:
256,192,48725,1,0,0:0:0:0:
256,192,49048,1,0,0:0:0:0:
256,192,49370,1,2,0:0:0:0:
256,192,49693,1,0,0:0:0:0:
256,192,50338,1,2,0:0:0:0:
256,192,50661,1,0,0:0:0:0:
256,192,50983,1,2,0:0:0:0:
256,192,51306,1,2,0:0:0:0:
256,192,51628,1,2,0:0:0:0:
256,192,51951,1,0,0:0:0:0:
256,192,52273,1,2,0:0:0:0:
256,192,52919,1,0,0:0:0:0:
256,192,53241,1,2,0:0:0:0:
256,192,53564,1,2,0:0:0:0:
256,192,53886,1,0,0:0:0:0:
256,192,54209,1,2,0:0:0:0:
256,192,54531,1,0,0:0:0:0:
256,192,54854,1,2,0:0:0:0:
256,192,55499,1,0,0:0:0:0:
256,192,55822,1,2,0:0:0:0:
256,192,56144,1,0,0:0:0:0:
256,192,56467,1,0,0:0:0:0:
256,192,56790,1,2,0:0:0:0:
256,192,57112,1,2,0:0:0:0:
256,192,57435,1,2,0:0:0:0:
256,192,58402,1,2,0:0:0:0:
256,192,58724,12,0,61627,0:0:0:0:
256,192,61950,5,0,0:0:0:0:
256,192,62273,1,2,0:0:0:0:
256,192,62595,1,6,0:0:0:0:
256,192,63241,1,0,0:0:0:0:
256,192,65821,1,0,0:0:0:0:
256,192,68402,1,0,0:0:0:0:
256,192,70982,1,0,0:0:0:0:
256,192,72918,1,4,0:0:0:0:
256,192,73563,1,0,0:0:0:0:
256,192,76144,1,0,0:0:0:0:
256,192,78725,1,0,0:0:0:0:
256,192,80660,1,4,0:0:0:0:
256,192,81950,1,2,0:0:0:0:
256,192,83240,1,4,0:0:0:0:
256,192,83401,1,2,0:0:0:0:
256,192,83562,1,2,0:0:0:0:
256,192,83723,1,0,0:0:0:0:
256,192,83885,1,2,0:0:0:0:
256,192,84207,1,2,0:0:0:0:
256,192,84369,1,0,0:0:0:0:
256,192,84691,1,2,0:0:0:0:
256,192,84852,1,0,0:0:0:0:
256,192,85014,1,2,0:0:0:0:
256,192,85336,1,0,0:0:0:0:
256,192,85498,1,2,0:0:0:0:
256,192,85659,1,0,0:0:0:0:
256,192,85820,1,0,0:0:0:0:
256,192,85981,1,2,0:0:0:0:
256,192,86143,1,0,0:0:0:0:
256,192,86304,1,0,0:0:0:0:
256,192,86465,1,2,0:0:0:0:
256,192,86627,1,2,0:0:0:0:
256,192,86788,1,0,0:0:0:0:
256,192,86949,1,0,0:0:0:0:
256,192,87272,1,0,0:0:0:0:
256,192,87433,1,2,0:0:0:0:
256,192,87594,1,0,0:0:0:0:
256,192,87756,1,6,0:0:0:0:
256,192,87917,1,0,0:0:0:0:
256,192,88078,1,2,0:0:0:0:
256,192,88240,1,2,0:0:0:0:
256,192,88401,1,0,0:0:0:0:
256,192,88562,1,0,0:0:0:0:
256,192,88723,1,2,0:0:0:0:
256,192,88885,1,0,0:0:0:0:
256,192,89046,1,2,0:0:0:0:
256,192,89207,1,2,0:0:0:0:
256,192,89369,1,0,0:0:0:0:
256,192,89530,1,2,0:0:0:0:
256,192,89852,1,0,0:0:0:0:
256,192,90014,1,0,0:0:0:0:
256,192,90175,1,2,0:0:0:0:
256,192,90498,1,0,0:0:0:0:
256,192,90659,1,2,0:0:0:0:
256,192,90820,1,0,0:0:0:0:
256,192,90981,1,0,0:0:0:0:
256,192,91143,1,2,0:0:0:0:
256,192,91304,1,0,0:0:0:0:
256,192,91465,1,0,0:0:0:0:
256,192,91627,1,2,0:0:0:0:
256,192,91788,1,2,0:0:0:0:
256,192,91949,2,0,L|335:192,1,62.9999980773926
256,192,92272,1,0,0:0:0:0:
256,192,92433,1,2,0:0:0:0:
256,192,92594,1,2,0:0:0:0:
256,192,92756,1,0,0:0:0:0:
256,192,92917,1,6,0:0:0:0:
256,192,93239,1,2,0:0:0:0:
256,192,93401,1,2,0:0:0:0:
256,192,93562,1,4,0:0:0:0:
256,192,93723,1,2,0:0:0:0:
256,192,93885,1,2,0:0:0:0:
256,192,94046,1,0,0:0:0:0:
256,192,94207,1,2,0:0:0:0:
256,192,94530,1,2,0:0:0:0:
256,192,94691,1,0,0:0:0:0:
256,192,95014,1,2,0:0:0:0:
256,192,95175,1,0,0:0:0:0:
256,192,95337,1,2,0:0:0:0:
256,192,95659,1,0,0:0:0:0:
256,192,95821,1,2,0:0:0:0:
256,192,95982,1,0,0:0:0:0:
256,192,96143,1,0,0:0:0:0:
256,192,96304,1,0,0:0:0:0:
256,192,96466,1,2,0:0:0:0:
256,192,96627,1,0,0:0:0:0:
256,192,96788,1,2,0:0:0:0:
256,192,96950,1,2,0:0:0:0:
256,192,97111,1,0,0:0:0:0:
256,192,97272,1,0,0:0:0:0:
256,192,97595,1,0,0:0:0:0:
256,192,97756,1,2,0:0:0:0:
256,192,97917,1,0,0:0:0:0:
256,192,98078,1,6,0:0:0:0:
256,192,98240,1,0,0:0:0:0:
256,192,98401,1,2,0:0:0:0:
256,192,98563,1,2,0:0:0:0:
256,192,98724,1,0,0:0:0:0:
256,192,98885,1,0,0:0:0:0:
256,192,99046,1,2,0:0:0:0:
256,192,99208,1,0,0:0:0:0:
256,192,99369,1,2,0:0:0:0:
256,192,99530,1,2,0:0:0:0:
256,192,99692,1,0,0:0:0:0:
256,192,99853,1,2,0:0:0:0:
256,192,100175,1,0,0:0:0:0:
256,192,100337,1,0,0:0:0:0:
256,192,100498,1,2,0:0:0:0:
256,192,100821,1,0,0:0:0:0:
256,192,100982,1,2,0:0:0:0:
256,192,101143,1,0,0:0:0:0:
256,192,101304,1,0,0:0:0:0:
256,192,101466,1,2,0:0:0:0:
256,192,101627,1,2,0:0:0:0:
256,192,101788,1,0,0:0:0:0:
256,192,101949,1,2,0:0:0:0:
256,192,102030,1,2,0:0:0:0:
256,192,102110,1,2,0:0:0:0:
256,192,102272,2,0,L|342:191,1,65.1000020363618
256,192,102594,1,0,0:0:0:0:
256,192,102756,1,2,0:0:0:0:
256,192,102917,1,0,0:0:0:0:
256,192,103078,1,0,0:0:0:0:
256,192,103239,1,6,0:0:0:0:
256,192,103562,1,2,0:0:0:0:
256,192,103643,1,2,0:0:0:0:
256,192,103723,1,2,0:0:0:0:
256,192,103885,1,4,0:0:0:0:
256,192,104046,1,0,0:0:0:0:
256,192,104207,1,2,0:0:0:0:
256,192,104369,1,0,0:0:0:0:
256,192,104530,1,2,0:0:0:0:
256,192,104691,1,2,0:0:0:0:
256,192,105014,1,2,0:0:0:0:
256,192,105175,1,0,0:0:0:0:
256,192,105336,1,0,0:0:0:0:
256,192,105498,1,2,0:0:0:0:
256,192,105578,1,2,0:0:0:0:
256,192,105659,1,0,0:0:0:0:
256,192,105820,1,2,0:0:0:0:
256,192,105981,1,0,0:0:0:0:
256,192,106143,1,2,0:0:0:0:
256,192,106465,1,0,0:0:0:0:
256,192,106627,1,2,0:0:0:0:
256,192,106788,1,0,0:0:0:0:
256,192,106949,1,0,0:0:0:0:
256,192,107110,1,2,0:0:0:0:
256,192,107272,1,2,0:0:0:0:
256,192,107594,1,2,0:0:0:0:
256,192,107756,1,0,0:0:0:0:
256,192,107836,1,0,0:0:0:0:
256,192,107917,1,0,0:0:0:0:
256,192,108078,1,2,0:0:0:0:
256,192,108159,1,2,0:0:0:0:
256,192,108239,1,0,0:0:0:0:
256,192,108401,1,6,0:0:0:0:
256,192,108562,1,0,0:0:0:0:
256,192,108723,1,2,0:0:0:0:
256,192,109046,1,0,0:0:0:0:
256,192,109207,1,0,0:0:0:0:
256,192,109369,1,2,0:0:0:0:
256,192,109530,1,0,0:0:0:0:
256,192,109691,1,2,0:0:0:0:
256,192,109852,1,2,0:0:0:0:
256,192,110175,1,2,0:0:0:0:
256,192,110336,1,0,0:0:0:0:
256,192,110498,1,0,0:0:0:0:
256,192,110659,1,2,0:0:0:0:
256,192,110739,1,2,0:0:0:0:
256,192,110820,1,0,0:0:0:0:
256,192,110981,1,2,0:0:0:0:
256,192,111143,1,0,0:0:0:0:
256,192,111304,1,2,0:0:0:0:
256,192,111627,1,0,0:0:0:0:
256,192,111788,1,2,0:0:0:0:
256,192,111949,1,0,0:0:0:0:
256,192,112110,1,0,0:0:0:0:
256,192,112272,1,2,0:0:0:0:
256,192,112433,1,2,0:0:0:0:
256,192,112756,1,2,0:0:0:0:
256,192,112917,1,0,0:0:0:0:
256,192,112998,1,0,0:0:0:0:
256,192,113078,1,0,0:0:0:0:
256,192,113239,1,2,0:0:0:0:
256,192,113320,1,2,0:0:0:0:
256,192,113401,1,0,0:0:0:0:
256,192,113562,1,6,0:0:0:0:
256,192,113885,1,2,0:0:0:0:
256,192,113965,1,2,0:0:0:0:
256,192,114046,1,2,0:0:0:0:
256,192,114207,1,4,0:0:0:0:
256,192,114369,1,0,0:0:0:0:
256,192,114530,1,2,0:0:0:0:
256,192,114610,1,2,0:0:0:0:
256,192,114691,1,0,0:0:0:0:
256,192,114852,1,2,0:0:0:0:
256,192,115014,1,0,0:0:0:0:
256,192,115336,1,2,0:0:0:0:
256,192,115498,1,0,0:0:0:0:
256,192,115659,1,0,0:0:0:0:
256,192,115820,1,2,0:0:0:0:
256,192,115901,1,2,0:0:0:0:
256,192,115981,1,0,0:0:0:0:
256,192,116143,1,2,0:0:0:0:
256,192,116304,1,0,0:0:0:0:
256,192,116465,1,2,0:0:0:0:
256,192,116788,1,0,0:0:0:0:
256,192,116949,1,2,0:0:0:0:
256,192,117110,1,0,0:0:0:0:
256,192,117272,1,0,0:0:0:0:
256,192,117352,1,0,0:0:0:0:
256,192,117433,1,2,0:0:0:0:
256,192,117594,1,0,0:0:0:0:
256,192,117917,1,2,0:0:0:0:
256,192,118078,1,0,0:0:0:0:
256,192,118159,1,0,0:0:0:0:
256,192,118239,1,0,0:0:0:0:
256,192,118401,1,2,0:0:0:0:
256,192,118481,1,2,0:0:0:0:
256,192,118562,1,0,0:0:0:0:
256,192,118723,1,6,0:0:0:0:
256,192,118885,1,0,0:0:0:0:
256,192,119046,1,2,0:0:0:0:
256,192,119369,1,0,0:0:0:0:
256,192,119530,1,0,0:0:0:0:
256,192,119691,1,2,0:0:0:0:
256,192,119772,1,2,0:0:0:0:
256,192,119852,1,0,0:0:0:0:
256,192,120014,1,2,0:0:0:0:
256,192,120175,1,2,0:0:0:0:
256,192,120498,1,2,0:0:0:0:
256,192,120659,1,0,0:0:0:0:
256,192,120820,1,0,0:0:0:0:
256,192,120981,1,2,0:0:0:0:
256,192,121062,1,2,0:0:0:0:
256,192,121143,1,0,0:0:0:0:
256,192,121304,1,2,0:0:0:0:
256,192,121465,1,0,0:0:0:0:
256,192,121627,1,2,0:0:0:0:
256,192,121949,1,0,0:0:0:0:
256,192,122917,1,0,0:0:0:0:
256,192,123885,1,6,0:0:0:0:
256,192,124207,1,2,0:0:0:0:
256,192,124288,1,2,0:0:0:0:
256,192,124369,1,2,0:0:0:0:
256,192,124530,1,4,0:0:0:0:
256,192,145175,5,6,0:0:0:0:
256,192,145498,1,0,0:0:0:0:
256,192,145659,1,0,0:0:0:0:
256,192,145820,1,2,0:0:0:0:
256,192,145981,1,0,0:0:0:0:
256,192,146143,1,2,0:0:0:0:
256,192,146304,1,0,0:0:0:0:
256,192,146627,1,0,0:0:0:0:
256,192,146788,1,0,0:0:0:0:
256,192,146949,1,2,0:0:0:0:
256,192,147272,1,0,0:0:0:0:
256,192,147433,1,2,0:0:0:0:
256,192,147594,1,0,0:0:0:0:
256,192,147756,1,0,0:0:0:0:
256,192,147917,1,2,0:0:0:0:
256,192,148078,1,0,0:0:0:0:
256,192,148239,1,0,0:0:0:0:
256,192,148401,1,2,0:0:0:0:
256,192,148562,1,2,0:0:0:0:
256,192,148723,1,0,0:0:0:0:
256,192,148885,1,0,0:0:0:0:
256,192,149207,1,0,0:0:0:0:
256,192,149369,1,0,0:0:0:0:
256,192,149530,1,2,0:0:0:0:
256,192,149852,1,0,0:0:0:0:
256,192,150014,1,2,0:0:0:0:
256,192,150175,1,2,0:0:0:0:
256,192,150336,1,0,0:0:0:0:
256,192,150498,1,0,0:0:0:0:
256,192,150659,1,2,0:0:0:0:
256,192,150820,1,0,0:0:0:0:
256,192,150981,1,0,0:0:0:0:
256,192,151143,1,2,0:0:0:0:
256,192,151304,1,0,0:0:0:0:
256,192,151465,1,2,0:0:0:0:
256,192,151788,1,0,0:0:0:0:
256,192,151949,1,2,0:0:0:0:
256,192,152110,1,2,0:0:0:0:
256,192,152433,1,0,0:0:0:0:
256,192,152594,1,2,0:0:0:0:
256,192,152755,1,0,0:0:0:0:
256,192,152917,1,0,0:0:0:0:
256,192,153078,1,2,0:0:0:0:
256,192,153239,1,0,0:0:0:0:
256,192,153400,1,0,0:0:0:0:
256,192,153562,1,2,0:0:0:0:
256,192,153723,1,2,0:0:0:0:
256,192,153884,1,0,0:0:0:0:
256,192,154046,1,0,0:0:0:0:
256,192,154368,1,0,0:0:0:0:
256,192,154530,1,2,0:0:0:0:
256,192,154691,1,2,0:0:0:0:
256,192,155014,1,0,0:0:0:0:
256,192,155175,1,2,0:0:0:0:
256,192,155336,1,0,0:0:0:0:
256,192,155498,1,0,0:0:0:0:
256,192,155659,1,2,0:0:0:0:
256,192,155820,1,0,0:0:0:0:
256,192,155981,1,0,0:0:0:0:
256,192,156142,1,2,0:0:0:0:
256,192,156303,1,0,0:0:0:0:
256,192,156465,1,2,0:0:0:0:
256,192,156626,1,0,0:0:0:0:
256,192,156949,1,0,0:0:0:0:
256,192,157110,1,0,0:0:0:0:
256,192,157271,1,2,0:0:0:0:
256,192,157594,1,0,0:0:0:0:
256,192,157755,1,2,0:0:0:0:
256,192,157916,1,0,0:0:0:0:
256,192,158078,1,0,0:0:0:0:
256,192,158239,1,2,0:0:0:0:
256,192,158400,1,0,0:0:0:0:
256,192,158561,1,0,0:0:0:0:
256,192,158723,1,2,0:0:0:0:
256,192,158884,1,2,0:0:0:0:
256,192,159045,1,0,0:0:0:0:
256,192,159207,1,0,0:0:0:0:
256,192,159529,1,0,0:0:0:0:
256,192,159691,1,2,0:0:0:0:
256,192,159852,1,2,0:0:0:0:
256,192,160174,1,0,0:0:0:0:
256,192,160336,1,2,0:0:0:0:
256,192,160497,1,2,0:0:0:0:
256,192,160659,1,0,0:0:0:0:
256,192,160820,1,0,0:0:0:0:
256,192,160981,1,2,0:0:0:0:
256,192,161143,1,0,0:0:0:0:
256,192,161304,1,2,0:0:0:0:
256,192,161465,1,2,0:0:0:0:
256,192,161627,1,0,0:0:0:0:
256,192,161788,1,0,0:0:0:0:
256,192,161949,1,0,0:0:0:0:
256,192,162110,1,2,0:0:0:0:
256,192,162272,1,0,0:0:0:0:
256,192,162433,1,0,0:0:0:0:
256,192,162594,1,2,0:0:0:0:
256,192,162756,1,0,0:0:0:0:
256,192,162917,1,2,0:0:0:0:
256,192,163078,1,2,0:0:0:0:
256,192,163239,5,4,0:0:0:0:
256,192,164530,1,2,0:0:0:0:
256,192,165498,2,0,L|336:192,1,70
256,192,165820,1,4,0:0:0:0:
256,192,166143,1,2,0:0:0:0:
256,192,166304,1,0,0:0:0:0:
256,192,166465,1,2,0:0:0:0:
256,192,166627,1,0,0:0:0:0:
256,192,166788,1,2,0:0:0:0:
256,192,166869,1,2,0:0:0:0:
256,192,166949,1,0,0:0:0:0:
256,192,167110,1,0,0:0:0:0:
256,192,167433,1,0,0:0:0:0:
256,192,167514,1,2,0:0:0:0:
256,192,167594,1,0,0:0:0:0:
256,192,167756,1,2,0:0:0:0:
256,192,167917,1,0,0:0:0:0:
256,192,168078,2,0,L|327:197,1,70
256,192,168401,1,0,0:0:0:0:
256,192,168723,1,2,0:0:0:0:
256,192,168804,1,0,0:0:0:0:
256,192,168885,1,0,0:0:0:0:
256,192,169046,1,2,0:0:0:0:
256,192,169207,1,0,0:0:0:0:
256,192,169369,2,0,L|336:191,1,70
256,192,169691,1,0,0:0:0:0:
256,192,169852,1,2,0:0:0:0:
256,192,169933,1,2,0:0:0:0:
256,192,170014,1,0,0:0:0:0:
256,192,170175,1,0,0:0:0:0:
256,192,170336,1,6,0:0:0:0:
256,192,170981,5,0,0:0:0:0:
256,192,171304,1,2,0:0:0:0:
256,192,171465,1,0,0:0:0:0:
256,192,171627,1,2,0:0:0:0:
256,192,171788,1,0,0:0:0:0:
256,192,171949,1,2,0:0:0:0:
256,192,172030,1,2,0:0:0:0:
256,192,172110,1,2,0:0:0:0:
256,192,172272,1,0,0:0:0:0:
256,192,172594,1,0,0:0:0:0:
256,192,172675,1,2,0:0:0:0:
256,192,172756,1,0,0:0:0:0:
256,192,172917,1,2,0:0:0:0:
256,192,173078,1,0,0:0:0:0:
256,192,173239,2,0,L|345:192,1,70
256,192,173562,1,0,0:0:0:0:
256,192,173885,1,2,0:0:0:0:
256,192,173965,1,2,0:0:0:0:
256,192,174046,1,0,0:0:0:0:
256,192,174207,1,2,0:0:0:0:
256,192,174369,1,0,0:0:0:0:
256,192,174530,2,0,L|351:189,1,70
256,192,174852,1,0,0:0:0:0:
256,192,175014,1,2,0:0:0:0:
256,192,175175,1,0,0:0:0:0:
256,192,175336,1,0,0:0:0:0:
256,192,175498,1,6,0:0:0:0:
256,192,176143,5,4,0:0:0:0:
256,192,176465,1,2,0:0:0:0:
256,192,176627,1,0,0:0:0:0:
256,192,176788,1,2,0:0:0:0:
256,192,176949,1,0,0:0:0:0:
256,192,177110,1,2,0:0:0:0:
256,192,177191,1,2,0:0:0:0:
256,192,177272,1,0,0:0:0:0:
256,192,177433,1,0,0:0:0:0:
256,192,177756,1,0,0:0:0:0:
256,192,177836,1,2,0:0:0:0:
256,192,177917,1,0,0:0:0:0:
256,192,178078,1,2,0:0:0:0:
256,192,178239,1,0,0:0:0:0:
256,192,178401,2,0,L|330:194,1,70
256,192,178723,1,0,0:0:0:0:
256,192,179046,1,2,0:0:0:0:
256,192,179127,1,2,0:0:0:0:
256,192,179207,1,0,0:0:0:0:
256,192,179369,1,2,0:0:0:0:
256,192,179530,1,0,0:0:0:0:
256,192,179691,2,0,L|329:194,1,70
256,192,180014,1,0,0:0:0:0:
256,192,180175,1,2,0:0:0:0:
256,192,180256,1,2,0:0:0:0:
256,192,180336,1,0,0:0:0:0:
256,192,180498,1,0,0:0:0:0:
256,192,180659,1,6,0:0:0:0:
256,192,181304,5,0,0:0:0:0:
256,192,181627,1,2,0:0:0:0:
256,192,181788,1,0,0:0:0:0:
256,192,181949,1,2,0:0:0:0:
256,192,182110,1,0,0:0:0:0:
256,192,182272,1,2,0:0:0:0:
256,192,182352,1,2,0:0:0:0:
256,192,182433,1,2,0:0:0:0:
256,192,182594,1,0,0:0:0:0:
256,192,182917,1,0,0:0:0:0:
256,192,182998,1,2,0:0:0:0:
256,192,183078,1,0,0:0:0:0:
256,192,183239,1,2,0:0:0:0:
256,192,183401,1,0,0:0:0:0:
256,192,183562,2,2,L|326:187,1,70
256,192,183885,1,0,0:0:0:0:
256,192,184207,1,2,0:0:0:0:
256,192,184288,1,2,0:0:0:0:
256,192,184369,1,0,0:0:0:0:
256,192,184530,1,2,0:0:0:0:
256,192,184691,1,0,0:0:0:0:
256,192,184852,2,0,L|330:193,1,70
256,192,185175,1,0,0:0:0:0:
256,192,185336,1,2,0:0:0:0:
256,192,185498,1,0,0:0:0:0:
256,192,185659,1,0,0:0:0:0:
256,192,185820,1,6,0:0:0:0:
256,192,186143,1,6,0:0:0:0:
256,192,186465,1,4,0:0:0:0:
256,192,186788,1,2,0:0:0:0:
256,192,186949,1,0,0:0:0:0:
256,192,187110,1,2,0:0:0:0:
256,192,187272,1,0,0:0:0:0:
256,192,187433,1,2,0:0:0:0:
256,192,187514,1,2,0:0:0:0:
256,192,187594,1,0,0:0:0:0:
256,192,187756,1,0,0:0:0:0:
256,192,188078,1,2,0:0:0:0:
256,192,188159,1,0,0:0:0:0:
256,192,188239,1,2,0:0:0:0:
256,192,188401,1,2,0:0:0:0:
256,192,188562,1,0,0:0:0:0:
256,192,188723,1,0,0:0:0:0:
256,192,188804,1,0,0:0:0:0:
256,192,188885,1,2,0:0:0:0:
256,192,189046,1,0,0:0:0:0:
256,192,189369,1,2,0:0:0:0:
256,192,189449,1,2,0:0:0:0:
256,192,189530,1,0,0:0:0:0:
256,192,189691,1,2,0:0:0:0:
256,192,189852,1,0,0:0:0:0:
256,192,190014,1,0,0:0:0:0:
256,192,190094,1,0,0:0:0:0:
256,192,190175,1,2,0:0:0:0:
256,192,190336,1,0,0:0:0:0:
256,192,190498,1,2,0:0:0:0:
256,192,190578,1,2,0:0:0:0:
256,192,190659,1,0,0:0:0:0:
256,192,190820,1,0,0:0:0:0:
256,192,190981,1,6,0:0:0:0:
256,192,191627,5,0,0:0:0:0:
256,192,191949,1,2,0:0:0:0:
256,192,192110,1,0,0:0:0:0:
256,192,192272,1,2,0:0:0:0:
256,192,192433,1,0,0:0:0:0:
256,192,192594,1,2,0:0:0:0:
256,192,192675,1,2,0:0:0:0:
256,192,192756,1,2,0:0:0:0:
256,192,192917,1,0,0:0:0:0:
256,192,193239,1,2,0:0:0:0:
256,192,193320,1,2,0:0:0:0:
256,192,193401,1,0,0:0:0:0:
256,192,193562,1,2,0:0:0:0:
256,192,193723,1,0,0:0:0:0:
256,192,193885,1,0,0:0:0:0:
256,192,193965,1,0,0:0:0:0:
256,192,194046,1,2,0:0:0:0:
256,192,194207,1,0,0:0:0:0:
256,192,194530,1,2,0:0:0:0:
256,192,194610,1,0,0:0:0:0:
256,192,194691,1,0,0:0:0:0:
256,192,194852,1,2,0:0:0:0:
256,192,195014,1,0,0:0:0:0:
256,192,195175,1,0,0:0:0:0:
256,192,195256,1,0,0:0:0:0:
256,192,195336,1,2,0:0:0:0:
256,192,195498,1,0,0:0:0:0:
256,192,195659,1,2,0:0:0:0:
256,192,195820,1,0,0:0:0:0:
256,192,195981,1,0,0:0:0:0:
256,192,196143,1,6,0:0:0:0:
256,192,196788,5,4,0:0:0:0:
256,192,197110,1,2,0:0:0:0:
256,192,197272,1,0,0:0:0:0:
256,192,197433,1,2,0:0:0:0:
256,192,197594,1,0,0:0:0:0:
256,192,197756,1,2,0:0:0:0:
256,192,197836,1,2,0:0:0:0:
256,192,197917,1,0,0:0:0:0:
256,192,198078,1,0,0:0:0:0:
256,192,198401,1,2,0:0:0:0:
256,192,198481,1,0,0:0:0:0:
256,192,198562,1,2,0:0:0:0:
256,192,198723,1,2,0:0:0:0:
256,192,198885,1,0,0:0:0:0:
256,192,199046,1,0,0:0:0:0:
256,192,199127,1,0,0:0:0:0:
256,192,199207,1,2,0:0:0:0:
256,192,199369,1,0,0:0:0:0:
256,192,199691,1,2,0:0:0:0:
256,192,199772,1,2,0:0:0:0:
256,192,199852,1,0,0:0:0:0:
256,192,200014,1,2,0:0:0:0:
256,192,200175,1,0,0:0:0:0:
256,192,200336,1,0,0:0:0:0:
256,192,200417,1,0,0:0:0:0:
256,192,200498,1,2,0:0:0:0:
256,192,200659,1,0,0:0:0:0:
256,192,200820,1,2,0:0:0:0:
256,192,200901,1,2,0:0:0:0:
256,192,200981,1,0,0:0:0:0:
256,192,201143,1,0,0:0:0:0:
256,192,201304,1,6,0:0:0:0:
256,192,201949,5,0,0:0:0:0:
256,192,202272,1,2,0:0:0:0:
256,192,202433,1,0,0:0:0:0:
256,192,202594,1,2,0:0:0:0:
256,192,202756,1,0,0:0:0:0:
256,192,202917,1,2,0:0:0:0:
256,192,202998,1,2,0:0:0:0:
256,192,203078,1,2,0:0:0:0:
256,192,203239,1,0,0:0:0:0:
256,192,203562,1,2,0:0:0:0:
256,192,203643,1,2,0:0:0:0:
256,192,203723,1,0,0:0:0:0:
256,192,203885,1,2,0:0:0:0:
256,192,204046,1,0,0:0:0:0:
256,192,204207,1,0,0:0:0:0:
256,192,204288,1,0,0:0:0:0:
256,192,204369,1,2,0:0:0:0:
256,192,204530,1,0,0:0:0:0:
256,192,204852,1,2,0:0:0:0:
256,192,204933,1,0,0:0:0:0:
256,192,205014,1,2,0:0:0:0:
256,192,205175,1,2,0:0:0:0:
256,192,205336,1,0,0:0:0:0:
256,192,205498,1,0,0:0:0:0:
256,192,205578,1,0,0:0:0:0:
256,192,205659,1,2,0:0:0:0:
256,192,205820,1,0,0:0:0:0:
224,192,205981,1,2,0:0:0:0:
256,192,206143,1,0,0:0:0:0:
256,192,206304,1,0,0:0:0:0:
256,192,206465,1,6,0:0:0:0:
256,192,207110,1,4,0:0:0:0:
