osu file format v14

[General]
AudioFilename: audio.mp3
AudioLeadIn: 0
PreviewTime: 82917
Countdown: 0
SampleSet: Soft
StackLeniency: 0.7
Mode: 1
LetterboxInBreaks: 0
WidescreenStoryboard: 0

[Editor]
Bookmarks: -20,10301,20624,30947,41269,51592,61914,82560,103205,121270,123850,144496,154818,162560,165141,196109
DistanceSpacing: 0.9
BeatDivisor: 8
GridSize: 32
TimelineZoom: 2.099999

[Metadata]
Title:forest of the spirits
TitleUnicode:forest of the spirits
Artist:sakuraburst
ArtistUnicode:sakuraburst
Creator:[Zeth]
Version:aisha's muzukashii
Source:osu!
Tags:blood orange EP experimental glitch dubstep glitch hop wub electronic instrumental mappers' guild mg featured artist fa salchow Aisha xfraczynho Nardoxyribonucleic Volta
BeatmapID:2252929
BeatmapSetID:1053433

[Difficulty]
HPDrainRate:5
CircleSize:2
OverallDifficulty:5
ApproachRate:10
SliderMultiplier:1.4
SliderTickRate:1

[Events]
//Background and Video events
0,0,"forest of the spirit(4).jpg",0,-80
//Break Periods
2,124730,144725
//Storyboard Layer 0 (Background)
//Storyboard Layer 1 (Fail)
//Storyboard Layer 2 (Pass)
//Storyboard Layer 3 (Foreground)
//Storyboard Layer 4 (Overlay)
//Storyboard Sound Samples

[TimingPoints]
660,645.161290322581,4,2,0,80,1,0
660,-125,4,2,0,80,0,0
21303,-100,4,2,0,80,0,0
41626,-111.111111111111,4,2,0,80,0,0
41948,-125,4,2,0,80,0,0
83158,-125,4,1,0,80,0,0
83240,322.58064516129,4,1,0,90,1,0
123076,-100,4,1,0,20,0,0
123157,-100,4,1,0,30,0,0
123237,-100,4,1,0,40,0,0
123318,-100,4,1,0,50,0,0
123399,-100,4,1,0,60,0,0
123479,-100,4,1,0,70,0,0
123560,-100,4,1,0,80,0,0
123641,-100,4,1,0,90,0,0
143883,-100,4,1,0,80,0,0
163883,-100,4,1,0,40,0,0
165173,-100,4,1,0,80,0,0
165820,-100,4,1,0,90,0,1
185175,-100,4,1,0,80,0,0
186465,-100,4,1,0,90,0,1
207110,-100,4,1,0,80,0,0

[HitObjects]
256,192,660,5,0,0:0:0:0:
256,192,1305,1,0,0:0:0:0:
256,192,1950,1,8,0:0:0:0:
256,192,3241,1,0,0:0:0:0:
256,192,3886,1,0,0:0:0:0:
256,192,4531,1,8,0:0:0:0:
256,192,5821,1,0,0:0:0:0:
256,192,6466,1,0,0:0:0:0:
256,192,7111,1,8,0:0:0:0:
256,192,8402,1,0,0:0:0:0:
256,192,9047,1,0,0:0:0:0:
256,192,9692,1,8,0:0:0:0:
256,192,10982,1,0,0:0:0:0:
256,192,11628,1,0,0:0:0:0:
256,192,11950,1,0,0:0:0:0:
256,192,12273,1,8,0:0:0:0:
256,192,13563,1,0,0:0:0:0:
256,192,14208,1,0,0:0:0:0:
256,192,14531,1,0,0:0:0:0:
256,192,14853,1,8,0:0:0:0:
256,192,16144,1,0,0:0:0:0:
256,192,16789,1,0,0:0:0:0:
256,192,17111,1,0,0:0:0:0:
256,192,17434,1,8,0:0:0:0:
256,192,18724,1,0,0:0:0:0:
256,192,19370,1,0,0:0:0:0:
256,192,19692,1,0,0:0:0:0:
256,192,20015,1,8,0:0:0:0:
256,192,21305,1,12,0:0:0:0:
256,192,22273,1,0,0:0:0:0:
256,192,24208,1,8,0:0:0:0:
256,192,24531,1,8,0:0:0:0:
256,192,24853,1,0,0:0:0:0:
256,192,25821,1,8,0:0:0:0:
256,192,26144,1,0,0:0:0:0:
256,192,26466,1,8,0:0:0:0:
256,192,27434,1,8,0:0:0:0:
256,192,28402,1,8,0:0:0:0:
256,192,29370,1,8,0:0:0:0:
256,192,29692,1,0,0:0:0:0:
256,192,30015,1,8,0:0:0:0:
256,192,30660,1,8,0:0:0:0:
256,192,30982,1,0,0:0:0:0:
256,192,31628,1,12,0:0:0:0:
256,192,32595,1,0,0:0:0:0:
256,192,33563,1,0,0:0:0:0:
256,192,34531,1,8,0:0:0:0:
256,192,34853,1,8,0:0:0:0:
256,192,35176,1,0,0:0:0:0:
256,192,36144,1,8,0:0:0:0:
256,192,36466,1,0,0:0:0:0:
256,192,36789,1,8,0:0:0:0:
256,192,37757,1,4,0:0:0:0:
256,192,38724,1,12,0:0:0:0:
256,192,39692,1,8,0:0:0:0:
256,192,40015,1,0,0:0:0:0:
256,192,40337,1,12,0:0:0:0:
256,192,41305,1,8,0:0:0:0:
256,192,41628,1,0,0:0:0:0:
256,192,41950,1,0,0:0:0:0:
256,192,42595,1,0,0:0:0:0:
256,192,43241,1,8,0:0:0:0:
256,192,43886,1,8,0:0:0:0:
256,192,44208,1,0,0:0:0:0:
256,192,44531,1,0,0:0:0:0:
256,192,45176,1,0,0:0:0:0:
256,192,45821,1,8,0:0:0:0:
256,192,46466,1,8,0:0:0:0:
256,192,46789,1,8,0:0:0:0:
256,192,47111,1,0,0:0:0:0:
256,192,47757,1,0,0:0:0:0:
256,192,48402,1,8,0:0:0:0:
256,192,49047,1,0,0:0:0:0:
256,192,49370,1,8,0:0:0:0:
256,192,49692,1,0,0:0:0:0:
256,192,50337,1,0,0:0:0:0:
256,192,50982,1,8,0:0:0:0:
256,192,51628,1,8,0:0:0:0:
256,192,51950,1,8,0:0:0:0:
256,192,52273,1,4,0:0:0:0:
256,192,52918,1,0,0:0:0:0:
256,192,53241,1,12,0:0:0:0:
256,192,54208,1,0,0:0:0:0:
256,192,54853,1,12,0:0:0:0:
256,192,55499,1,8,0:0:0:0:
256,192,55821,1,4,0:0:0:0:
256,192,56789,1,8,0:0:0:0:
256,192,57111,1,8,0:0:0:0:
256,192,57434,1,0,0:0:0:0:
256,192,58402,1,8,0:0:0:0:
256,192,58724,12,0,61950,0:0:0:0:
256,192,62595,6,0,L|-662:-726|-1121:-1185|-1121:-1217,4,28
256,192,65821,1,0,0:0:0:0:
256,192,68402,1,0,0:0:0:0:
256,192,70982,1,0,0:0:0:0:
256,192,73563,1,8,0:0:0:0:
256,192,75821,1,0,0:0:0:0:
256,192,76144,1,8,0:0:0:0:
256,192,76789,1,0,0:0:0:0:
256,192,78402,1,0,0:0:0:0:
256,192,78724,1,8,0:0:0:0:
256,192,79692,1,8,0:0:0:0:
256,192,80015,1,8,0:0:0:0:
256,192,80660,1,0,0:0:0:0:
256,192,81950,1,2,0:0:0:0:
256,192,83240,1,0,0:0:0:0:
256,192,83562,1,0,0:0:0:0:
256,192,83723,1,0,0:0:0:0:
256,192,83885,1,8,0:0:0:0:
256,192,84369,1,8,0:0:0:0:
256,192,84691,1,8,0:0:0:0:
256,192,84852,1,0,0:0:0:0:
256,192,85014,1,0,0:0:0:0:
256,192,85175,1,8,0:0:0:0:
256,192,85498,1,8,0:0:0:0:
256,192,85820,1,0,0:0:0:0:
256,192,86143,1,0,0:0:0:0:
256,192,86304,1,0,0:0:0:0:
256,192,86465,1,8,0:0:0:0:
256,192,86949,1,8,0:0:0:0:
256,192,87272,1,8,0:0:0:0:
256,192,87433,1,0,0:0:0:0:
256,192,87594,1,0,0:0:0:0:
256,192,87756,1,8,0:0:0:0:
256,192,88078,1,8,0:0:0:0:
256,192,88240,1,8,0:0:0:0:
256,192,88401,1,0,0:0:0:0:
256,192,88723,1,0,0:0:0:0:
256,192,88885,1,0,0:0:0:0:
256,192,89046,1,8,0:0:0:0:
256,192,89530,1,8,0:0:0:0:
256,192,89852,1,8,0:0:0:0:
256,192,90014,1,0,0:0:0:0:
256,192,90175,1,0,0:0:0:0:
256,192,90336,1,8,0:0:0:0:
256,192,90659,1,8,0:0:0:0:
256,192,90981,1,0,0:0:0:0:
256,192,91304,1,0,0:0:0:0:
256,192,91465,1,0,0:0:0:0:
256,192,91627,1,8,0:0:0:0:
256,192,92110,1,8,0:0:0:0:
256,192,92433,1,8,0:0:0:0:
256,192,92594,1,0,0:0:0:0:
256,192,92756,1,0,0:0:0:0:
256,192,92917,1,8,0:0:0:0:
256,192,93239,1,8,0:0:0:0:
256,192,93320,1,8,0:0:0:0:
256,192,93401,1,8,0:0:0:0:
256,192,93562,1,0,0:0:0:0:
256,192,93723,1,0,0:0:0:0:
256,192,94207,1,8,0:0:0:0:
256,192,94530,1,8,0:0:0:0:
256,192,94691,1,8,0:0:0:0:
256,192,94852,1,0,0:0:0:0:
256,192,95175,1,0,0:0:0:0:
256,192,95336,1,8,0:0:0:0:
256,192,95498,1,0,0:0:0:0:
256,192,95820,1,8,0:0:0:0:
256,192,95981,1,8,0:0:0:0:
256,192,96143,1,0,0:0:0:0:
256,192,96304,1,0,0:0:0:0:
256,192,96788,1,8,0:0:0:0:
256,192,97110,1,8,0:0:0:0:
256,192,97272,1,8,0:0:0:0:
256,192,97433,1,0,0:0:0:0:
256,192,97756,1,0,0:0:0:0:
256,192,97917,1,8,0:0:0:0:
256,192,98078,1,0,0:0:0:0:
256,192,98401,1,8,0:0:0:0:
256,192,98562,1,8,0:0:0:0:
256,192,98723,1,0,0:0:0:0:
256,192,98885,1,0,0:0:0:0:
256,192,99369,1,8,0:0:0:0:
256,192,99691,1,8,0:0:0:0:
256,192,99852,1,8,0:0:0:0:
256,192,100014,1,0,0:0:0:0:
256,192,100336,1,0,0:0:0:0:
256,192,100498,1,8,0:0:0:0:
256,192,100659,1,0,0:0:0:0:
256,192,100981,1,8,0:0:0:0:
256,192,101143,1,8,0:0:0:0:
256,192,101304,1,0,0:0:0:0:
256,192,101465,1,0,0:0:0:0:
256,192,101949,2,0,L|256:128,4,35
256,192,102433,1,8,0:0:0:0:
256,192,102594,1,8,0:0:0:0:
256,192,102917,1,8,0:0:0:0:
256,192,103078,1,0,0:0:0:0:
256,192,103239,1,8,0:0:0:0:
256,192,103562,1,8,0:0:0:0:
256,192,103643,1,8,0:0:0:0:
256,192,103723,1,8,0:0:0:0:
256,192,103885,1,0,0:0:0:0:
256,192,104046,1,8,0:0:0:0:
256,192,104530,1,8,0:0:0:0:
256,192,104852,1,8,0:0:0:0:
256,192,105014,1,8,0:0:0:0:
256,192,105175,1,0,0:0:0:0:
256,192,105498,1,0,0:0:0:0:
256,192,105820,1,8,0:0:0:0:
256,192,106143,1,8,0:0:0:0:
256,192,106304,1,8,0:0:0:0:
256,192,106465,1,0,0:0:0:0:
256,192,106627,1,8,0:0:0:0:
256,192,107110,1,8,0:0:0:0:
256,192,107433,1,8,0:0:0:0:
256,192,107594,1,8,0:0:0:0:
256,192,107756,1,0,0:0:0:0:
256,192,108078,1,0,0:0:0:0:
256,192,108401,1,8,0:0:0:0:
256,192,108723,1,0,0:0:0:0:
256,192,108885,1,8,0:0:0:0:
256,192,109046,1,8,0:0:0:0:
256,192,109207,1,0,0:0:0:0:
256,192,109691,1,8,0:0:0:0:
256,192,110014,1,8,0:0:0:0:
256,192,110175,1,8,0:0:0:0:
256,192,110336,1,0,0:0:0:0:
256,192,110659,1,0,0:0:0:0:
256,192,110981,1,8,0:0:0:0:
256,192,111304,1,8,0:0:0:0:
256,192,111465,1,8,0:0:0:0:
256,192,111627,1,0,0:0:0:0:
256,192,111788,1,8,0:0:0:0:
256,192,112272,1,8,0:0:0:0:
256,192,112594,1,8,0:0:0:0:
256,192,112756,1,8,0:0:0:0:
256,192,112917,1,0,0:0:0:0:
256,192,113239,1,0,0:0:0:0:
256,192,113562,1,8,0:0:0:0:
256,192,113885,1,8,0:0:0:0:
256,192,113965,1,8,0:0:0:0:
256,192,114046,1,8,0:0:0:0:
256,192,114207,1,0,0:0:0:0:
256,192,114369,1,8,0:0:0:0:
256,192,114852,1,8,0:0:0:0:
256,192,115175,1,8,0:0:0:0:
256,192,115336,1,8,0:0:0:0:
256,192,115498,1,0,0:0:0:0:
256,192,115820,1,0,0:0:0:0:
256,192,116143,1,8,0:0:0:0:
256,192,116465,1,8,0:0:0:0:
256,192,116627,1,8,0:0:0:0:
256,192,116788,1,0,0:0:0:0:
256,192,116949,1,8,0:0:0:0:
256,192,117433,1,8,0:0:0:0:
256,192,117756,1,8,0:0:0:0:
256,192,117917,1,8,0:0:0:0:
256,192,118078,1,0,0:0:0:0:
256,192,118401,1,0,0:0:0:0:
256,192,118723,1,8,0:0:0:0:
256,192,119046,1,8,0:0:0:0:
256,192,119207,1,0,0:0:0:0:
256,192,119369,1,8,0:0:0:0:
256,192,119530,1,8,0:0:0:0:
256,192,120014,1,8,0:0:0:0:
256,192,120336,1,8,0:0:0:0:
256,192,120498,1,8,0:0:0:0:
256,192,120659,1,0,0:0:0:0:
256,192,120981,1,0,0:0:0:0:
256,192,121304,1,8,0:0:0:0:
256,192,121627,1,8,0:0:0:0:
256,192,121788,1,0,0:0:0:0:
256,192,121949,1,8,0:0:0:0:
256,192,122917,1,0,0:0:0:0:
256,192,123078,12,0,123723,0:0:0:0:
256,192,123885,5,4,0:0:0:0:
256,192,124369,1,8,0:0:0:0:
256,192,124530,1,0,0:0:0:0:
256,192,145175,5,4,0:0:0:0:
256,192,145659,1,0,0:0:0:0:
256,192,145820,1,8,0:0:0:0:
256,192,146143,1,8,0:0:0:0:
256,192,146304,1,0,0:0:0:0:
256,192,146465,1,0,0:0:0:0:
256,192,146788,1,8,0:0:0:0:
256,192,146949,1,8,0:0:0:0:
256,192,147272,1,0,0:0:0:0:
256,192,147433,1,8,0:0:0:0:
256,192,147594,1,8,0:0:0:0:
256,192,147756,1,0,0:0:0:0:
256,192,148239,1,0,0:0:0:0:
256,192,148401,1,8,0:0:0:0:
256,192,148562,1,8,0:0:0:0:
256,192,148885,1,0,0:0:0:0:
256,192,149046,1,8,0:0:0:0:
256,192,149369,1,0,0:0:0:0:
256,192,149530,1,8,0:0:0:0:
256,192,149691,1,0,0:0:0:0:
256,192,150014,1,8,0:0:0:0:
256,192,150175,1,8,0:0:0:0:
256,192,150336,1,0,0:0:0:0:
256,192,150820,1,0,0:0:0:0:
256,192,150981,1,8,0:0:0:0:
256,192,151143,1,8,0:0:0:0:
256,192,151465,1,8,0:0:0:0:
256,192,151627,1,0,0:0:0:0:
256,192,151949,1,0,0:0:0:0:
256,192,152110,1,8,0:0:0:0:
256,192,152433,1,0,0:0:0:0:
256,192,152594,1,8,0:0:0:0:
256,192,152756,1,0,0:0:0:0:
256,192,152917,1,0,0:0:0:0:
256,192,153401,1,0,0:0:0:0:
256,192,153562,1,8,0:0:0:0:
256,192,153723,1,8,0:0:0:0:
256,192,154046,1,8,0:0:0:0:
256,192,154207,1,0,0:0:0:0:
256,192,154530,1,0,0:0:0:0:
256,192,154691,1,0,0:0:0:0:
256,192,155014,1,0,0:0:0:0:
256,192,155175,1,8,0:0:0:0:
256,192,155336,1,8,0:0:0:0:
256,192,155498,1,0,0:0:0:0:
256,192,156143,1,0,0:0:0:0:
256,192,156788,1,0,0:0:0:0:
256,192,157110,1,8,0:0:0:0:
256,192,157272,1,8,0:0:0:0:
256,192,157433,1,0,0:0:0:0:
256,192,158078,1,0,0:0:0:0:
256,192,158723,1,0,0:0:0:0:
256,192,159369,1,0,0:0:0:0:
256,192,159691,1,0,0:0:0:0:
256,192,159852,1,8,0:0:0:0:
256,192,160014,1,0,0:0:0:0:
256,192,160336,1,8,0:0:0:0:
256,192,160498,1,8,0:0:0:0:
256,192,160659,1,0,0:0:0:0:
256,192,160981,1,0,0:0:0:0:
256,192,161304,1,0,0:0:0:0:
256,192,161627,1,0,0:0:0:0:
256,192,161949,1,8,0:0:0:0:
256,192,162272,1,8,0:0:0:0:
256,192,162594,1,8,0:0:0:0:
256,192,162917,1,8,0:0:0:0:
256,192,163239,1,4,0:0:0:0:
256,192,164530,1,8,0:0:0:0:
256,192,165820,1,4,0:0:0:0:
256,192,166143,1,8,0:0:0:0:
256,192,166304,1,0,0:0:0:0:
256,192,166465,1,8,0:0:0:0:
256,192,166627,1,0,0:0:0:0:
256,192,166707,1,0,0:0:0:0:
256,192,166788,1,0,0:0:0:0:
256,192,167110,1,8,0:0:0:0:
256,192,167272,1,8,0:0:0:0:
256,192,167756,1,8,0:0:0:0:
256,192,167836,1,8,0:0:0:0:
256,192,167917,1,8,0:0:0:0:
256,192,168078,1,0,0:0:0:0:
256,192,168239,1,8,0:0:0:0:
256,192,168401,1,0,0:0:0:0:
256,192,168723,1,8,0:0:0:0:
256,192,168885,1,0,0:0:0:0:
256,192,169046,1,8,0:0:0:0:
256,192,169207,1,0,0:0:0:0:
256,192,169288,1,0,0:0:0:0:
256,192,169369,1,0,0:0:0:0:
256,192,169691,1,8,0:0:0:0:
256,192,170175,1,8,0:0:0:0:
256,192,170256,1,8,0:0:0:0:
256,192,170336,1,8,0:0:0:0:
256,192,170498,1,8,0:0:0:0:
256,192,170820,1,8,0:0:0:0:
256,192,170981,1,0,0:0:0:0:
256,192,171304,1,8,0:0:0:0:
256,192,171465,1,0,0:0:0:0:
256,192,171627,1,8,0:0:0:0:
256,192,171788,1,0,0:0:0:0:
256,192,171869,1,0,0:0:0:0:
256,192,171949,1,0,0:0:0:0:
256,192,172272,1,8,0:0:0:0:
256,192,172433,1,8,0:0:0:0:
256,192,172917,1,8,0:0:0:0:
256,192,172998,1,8,0:0:0:0:
256,192,173078,1,8,0:0:0:0:
256,192,173239,1,0,0:0:0:0:
256,192,173401,1,8,0:0:0:0:
256,192,173562,1,0,0:0:0:0:
256,192,173885,1,8,0:0:0:0:
256,192,174046,1,0,0:0:0:0:
256,192,174207,1,8,0:0:0:0:
256,192,174369,1,0,0:0:0:0:
256,192,174449,1,0,0:0:0:0:
256,192,174530,1,0,0:0:0:0:
256,192,174852,1,8,0:0:0:0:
256,192,175175,1,8,0:0:0:0:
256,192,175498,1,8,0:0:0:0:
256,192,175981,1,8,0:0:0:0:
256,192,176143,1,4,0:0:0:0:
256,192,176465,1,8,0:0:0:0:
256,192,176627,1,0,0:0:0:0:
256,192,176788,1,8,0:0:0:0:
256,192,176949,1,0,0:0:0:0:
256,192,177030,1,0,0:0:0:0:
256,192,177110,1,0,0:0:0:0:
256,192,177433,1,8,0:0:0:0:
256,192,177594,1,8,0:0:0:0:
256,192,178078,1,8,0:0:0:0:
256,192,178159,1,8,0:0:0:0:
256,192,178239,1,8,0:0:0:0:
256,192,178401,1,0,0:0:0:0:
256,192,178562,1,8,0:0:0:0:
256,192,178723,1,0,0:0:0:0:
256,192,179046,1,8,0:0:0:0:
256,192,179207,1,0,0:0:0:0:
256,192,179369,1,8,0:0:0:0:
256,192,179530,1,0,0:0:0:0:
256,192,179610,1,0,0:0:0:0:
256,192,179691,1,0,0:0:0:0:
256,192,180014,1,8,0:0:0:0:
256,192,180498,1,8,0:0:0:0:
256,192,180578,1,8,0:0:0:0:
256,192,180659,1,8,0:0:0:0:
256,192,180981,1,0,0:0:0:0:
256,192,181062,1,0,0:0:0:0:
256,192,181143,1,0,0:0:0:0:
256,192,181304,1,0,0:0:0:0:
256,192,181627,1,8,0:0:0:0:
256,192,181788,1,0,0:0:0:0:
256,192,181949,1,8,0:0:0:0:
256,192,182110,1,0,0:0:0:0:
256,192,182191,1,0,0:0:0:0:
256,192,182272,1,0,0:0:0:0:
256,192,182594,1,8,0:0:0:0:
256,192,182756,1,8,0:0:0:0:
256,192,183239,1,8,0:0:0:0:
256,192,183320,1,8,0:0:0:0:
256,192,183401,1,8,0:0:0:0:
256,192,183562,1,0,0:0:0:0:
256,192,183723,1,8,0:0:0:0:
256,192,183885,1,0,0:0:0:0:
256,192,184207,1,8,0:0:0:0:
256,192,184369,1,0,0:0:0:0:
256,192,184530,1,8,0:0:0:0:
256,192,184691,1,0,0:0:0:0:
256,192,184772,1,0,0:0:0:0:
256,192,184852,1,0,0:0:0:0:
256,192,185175,1,8,0:0:0:0:
256,192,185498,1,8,0:0:0:0:
256,192,185820,1,12,0:0:0:0:
256,192,186143,1,12,0:0:0:0:
256,192,186465,1,4,0:0:0:0:
256,192,186788,1,8,0:0:0:0:
256,192,186949,1,0,0:0:0:0:
256,192,187110,1,8,0:0:0:0:
256,192,187272,1,0,0:0:0:0:
256,192,187352,1,0,0:0:0:0:
256,192,187433,1,0,0:0:0:0:
256,192,187756,1,8,0:0:0:0:
256,192,187917,1,8,0:0:0:0:
256,192,188401,1,8,0:0:0:0:
256,192,188481,1,8,0:0:0:0:
256,192,188562,1,8,0:0:0:0:
256,192,188723,1,0,0:0:0:0:
256,192,188885,1,8,0:0:0:0:
256,192,189046,1,0,0:0:0:0:
256,192,189369,1,8,0:0:0:0:
256,192,189530,1,0,0:0:0:0:
256,192,189691,1,8,0:0:0:0:
256,192,189852,1,0,0:0:0:0:
256,192,189933,1,0,0:0:0:0:
256,192,190014,1,0,0:0:0:0:
256,192,190336,1,8,0:0:0:0:
256,192,190820,1,8,0:0:0:0:
256,192,190901,1,8,0:0:0:0:
256,192,190981,1,8,0:0:0:0:
256,192,191143,1,8,0:0:0:0:
256,192,191465,1,8,0:0:0:0:
256,192,191627,1,0,0:0:0:0:
256,192,191949,1,8,0:0:0:0:
256,192,192110,1,0,0:0:0:0:
256,192,192272,1,8,0:0:0:0:
256,192,192433,1,0,0:0:0:0:
256,192,192514,1,0,0:0:0:0:
256,192,192594,1,0,0:0:0:0:
256,192,192917,1,8,0:0:0:0:
256,192,193078,1,8,0:0:0:0:
256,192,193562,1,8,0:0:0:0:
256,192,193643,1,8,0:0:0:0:
256,192,193723,1,8,0:0:0:0:
256,192,193885,1,0,0:0:0:0:
256,192,194046,1,8,0:0:0:0:
256,192,194207,1,0,0:0:0:0:
256,192,194691,1,0,0:0:0:0:
256,192,194852,1,8,0:0:0:0:
256,192,195014,1,0,0:0:0:0:
256,192,195094,1,0,0:0:0:0:
256,192,195175,1,0,0:0:0:0:
256,192,195498,1,8,0:0:0:0:
256,192,195659,1,8,0:0:0:0:
256,192,195820,1,0,0:0:0:0:
256,192,196143,1,8,0:0:0:0:
256,192,196223,1,8,0:0:0:0:
256,192,196304,1,8,0:0:0:0:
256,192,196465,1,0,0:0:0:0:
256,192,196627,1,8,0:0:0:0:
256,192,196788,1,4,0:0:0:0:
256,192,197110,1,8,0:0:0:0:
256,192,197272,1,0,0:0:0:0:
256,192,197433,1,8,0:0:0:0:
256,192,197594,1,0,0:0:0:0:
256,192,197675,1,0,0:0:0:0:
256,192,197756,1,0,0:0:0:0:
256,192,198078,1,8,0:0:0:0:
256,192,198239,1,8,0:0:0:0:
256,192,198723,1,8,0:0:0:0:
256,192,198804,1,8,0:0:0:0:
256,192,198885,1,8,0:0:0:0:
256,192,199046,1,0,0:0:0:0:
256,192,199207,1,8,0:0:0:0:
256,192,199369,1,0,0:0:0:0:
256,192,199691,1,8,0:0:0:0:
256,192,199852,1,0,0:0:0:0:
256,192,200014,1,8,0:0:0:0:
256,192,200175,1,0,0:0:0:0:
256,192,200256,1,0,0:0:0:0:
256,192,200336,1,0,0:0:0:0:
256,192,200659,1,8,0:0:0:0:
256,192,201143,1,8,0:0:0:0:
256,192,201223,1,8,0:0:0:0:
256,192,201304,1,8,0:0:0:0:
256,192,201627,1,0,0:0:0:0:
256,192,201707,1,0,0:0:0:0:
256,192,201788,1,0,0:0:0:0:
256,192,201949,1,0,0:0:0:0:
256,192,202272,1,8,0:0:0:0:
256,192,202433,1,0,0:0:0:0:
256,192,202594,1,8,0:0:0:0:
256,192,202756,1,0,0:0:0:0:
256,192,202836,1,0,0:0:0:0:
256,192,202917,1,0,0:0:0:0:
256,192,203239,1,8,0:0:0:0:
256,192,203401,1,8,0:0:0:0:
256,192,203885,1,8,0:0:0:0:
256,192,203965,1,8,0:0:0:0:
256,192,204046,1,8,0:0:0:0:
256,192,204207,1,0,0:0:0:0:
256,192,204369,1,8,0:0:0:0:
256,192,204530,1,0,0:0:0:0:
256,192,204852,1,8,0:0:0:0:
256,192,205014,1,0,0:0:0:0:
256,192,205175,1,8,0:0:0:0:
256,192,205336,1,0,0:0:0:0:
256,192,205417,1,0,0:0:0:0:
256,192,205498,1,0,0:0:0:0:
256,192,205820,1,8,0:0:0:0:
256,192,206143,1,0,0:0:0:0:
256,192,206465,1,12,0:0:0:0:
256,192,207110,1,4,0:0:0:0:
