osu file format v14

[General]
AudioFilename: audio.mp3
AudioLeadIn: 0
PreviewTime: 44662
Countdown: 0
SampleSet: Normal
StackLeniency: 0.2
Mode: 1
LetterboxInBreaks: 0
WidescreenStoryboard: 1

[Editor]
DistanceSpacing: 0.9
BeatDivisor: 8
GridSize: 32
TimelineZoom: 1.7

[Metadata]
Title:dungeon music
TitleUnicode:dungeon music
Artist:sakuraburst
ArtistUnicode:sakuraburst
Creator:iceOC
Version:Oni
Source:osu!
Tags:experimental instrumental electronic blood orange ep mappers guild featured artist fa cynplytholowazy -gn junior
BeatmapID:2279002
BeatmapSetID:1056653

[Difficulty]
HPDrainRate:5
CircleSize:2
OverallDifficulty:6.5
ApproachRate:10
SliderMultiplier:1.4
SliderTickRate:1

[Events]
//Background and Video events
0,0,"BG.jpg",0,0
//Break Periods
2,73955,88078
//Storyboard Layer 0 (Background)
//Storyboard Layer 1 (Fail)
//Storyboard Layer 2 (Pass)
//Storyboard Layer 3 (Foreground)
//Storyboard Layer 4 (Overlay)
//Storyboard Sound Samples

[TimingPoints]
1028,454.545454545455,4,1,0,50,1,0
13755,-100,4,1,0,5,0,0
15459,-100,4,1,0,70,0,0
16880,-50,4,1,0,70,0,0
16993,-100,4,1,0,70,0,0
18698,-50,4,1,0,70,0,0
18811,-100,4,1,0,70,0,0
20516,-50,4,1,0,70,0,0
20629,-100,4,1,0,70,0,0
22334,-50,4,1,0,70,0,0
22447,-100,4,1,0,70,0,0
24153,-50,4,1,0,70,0,0
24266,-100,4,1,0,70,0,0
25971,-50,4,1,0,70,0,0
26084,-100,4,1,0,70,0,0
27789,-50,4,1,0,70,0,0
27902,-100,4,1,0,70,0,0
29607,-25,4,1,0,70,0,0
29720,-100,4,1,0,70,0,0
31425,-33.3333333333333,4,1,0,70,0,0
31538,-100,4,1,0,70,0,0
33243,-33.3333333333333,4,1,0,70,0,0
33356,-100,4,1,0,70,0,0
35061,-33.3333333333333,4,1,0,70,0,0
35174,-100,4,1,0,70,0,0
36879,-33.3333333333333,4,1,0,70,0,0
36992,-100,4,1,0,70,0,0
38698,-33.3333333333333,4,1,0,70,0,0
38811,-100,4,1,0,70,0,0
40516,-33.3333333333333,4,1,0,70,0,0
40629,-100,4,1,0,70,0,0
42334,-33.3333333333333,4,1,0,70,0,0
42447,-100,4,1,0,70,0,0
43925,-50,4,1,0,70,0,0
44039,-100,4,1,0,70,0,0
44152,-25,4,1,0,70,0,0
44265,-100,4,1,0,70,0,0
44778,-100,4,1,0,90,0,0
44891,-100,4,1,0,90,0,1
45971,-50,4,1,0,90,0,1
46084,-100,4,1,0,90,0,1
47789,-50,4,1,0,90,0,1
47902,-100,4,1,0,90,0,1
49607,-50,4,1,0,90,0,1
49720,-100,4,1,0,90,0,1
51425,-50,4,1,0,90,0,1
51538,-100,4,1,0,90,0,1
53244,-50,4,1,0,90,0,1
53357,-100,4,1,0,90,0,1
55062,-50,4,1,0,90,0,1
55175,-100,4,1,0,90,0,1
56880,-50,4,1,0,90,0,1
56993,-100,4,1,0,90,0,1
58698,-25,4,1,0,90,0,1
58812,-100,4,1,0,90,0,1
59209,-100,4,1,0,90,0,0
59380,-100,4,1,0,90,0,0
59437,-100,4,1,0,90,0,1
60516,-33.3333333333333,4,1,0,90,0,1
60629,-100,4,1,0,90,0,1
62334,-33.3333333333333,4,1,0,90,0,1
62447,-100,4,1,0,90,0,1
64152,-33.3333333333333,4,1,0,90,0,1
64265,-100,4,1,0,90,0,1
65970,-33.3333333333333,4,1,0,90,0,1
66083,-100,4,1,0,90,0,1
67789,-33.3333333333333,4,1,0,90,0,1
67902,-100,4,1,0,90,0,1
69607,-33.3333333333333,4,1,0,90,0,1
69720,-100,4,1,0,90,0,1
71425,-33.3333333333333,4,1,0,90,0,1
71538,-100,4,1,0,90,0,1
73243,-25,4,1,0,90,0,1
73356,-100,4,1,0,90,0,1
73641,-100,4,1,0,60,0,1
73698,-100,4,1,0,60,0,1
73755,-100,4,1,0,60,0,0
73868,-100,4,1,0,55,0,0
73925,-100,4,1,0,50,0,0
73982,-100,4,1,0,45,0,0
74039,-100,4,1,0,40,0,0
74096,-100,4,1,0,35,0,0
74153,-100,4,1,0,31,0,0
74209,-100,4,1,0,27,0,0
74266,-100,4,1,0,23,0,0
74323,-100,4,1,0,19,0,0
74380,-100,4,1,0,16,0,0
74437,-100,4,1,0,13,0,0
74493,-100,4,1,0,10,0,0
74550,-100,4,1,0,8,0,0
74607,-100,4,1,0,6,0,0
74664,-100,4,1,0,5,0,0
75516,-133.333333333333,4,1,0,5,0,0
77334,-142.857142857143,4,1,0,5,0,0
79153,-153.846153846154,4,1,0,5,0,0
80971,-166.666666666667,4,1,0,5,0,0
82789,-178.571428571429,4,1,0,5,0,0
84607,-188.679245283019,4,1,0,5,0,0
86425,-196.078431372549,4,1,0,5,0,0
88187,-196.078431372549,4,1,0,50,0,0
88243,-200,4,1,0,50,0,0
100914,-200,4,1,0,51,0,0
101084,-196.078431372549,1,1,0,51,0,0
101197,-192.307692307692,1,1,0,51,0,0
101311,-188.679245283019,1,1,0,51,0,0
101368,-188.679245283019,1,1,0,52,0,0
101424,-185.185185185185,1,1,0,52,0,0
101538,-181.818181818182,1,1,0,52,0,0
101652,-178.571428571429,1,1,0,52,0,0
101765,-175.438596491228,1,1,0,52,0,0
101879,-172.413793103448,1,1,0,52,0,0
101937,-172.413793103448,1,1,0,53,0,0
101993,-169.491525423729,1,1,0,53,0,0
102106,-163.934426229508,1,1,0,54,0,0
102220,-158.730158730159,1,1,0,55,0,0
102334,-153.846153846154,1,1,0,56,0,0
102447,-149.253731343284,1,1,0,57,0,0
102561,-144.927536231884,1,1,0,58,0,0
102674,-140.845070422535,1,1,0,59,0,0
102788,-133.333333333333,1,1,0,60,0,0
115459,-133.333333333333,1,1,0,5,0,0
117278,-133.333333333333,1,1,0,70,0,0
117334,-100,1,1,0,70,0,0
118698,-50,4,1,0,70,0,0
118811,-100,4,1,0,70,0,0
120516,-50,4,1,0,70,0,0
120629,-100,4,1,0,70,0,0
122334,-50,4,1,0,70,0,0
122447,-100,4,1,0,70,0,0
124152,-50,4,1,0,70,0,0
124265,-100,4,1,0,70,0,0
125971,-50,4,1,0,70,0,0
126084,-100,4,1,0,70,0,0
127789,-50,4,1,0,70,0,0
127902,-100,4,1,0,70,0,0
129607,-50,4,1,0,70,0,0
129720,-100,4,1,0,70,0,0
131425,-25,4,1,0,70,0,0
131538,-100,4,1,0,70,0,0
131823,-100,4,1,0,90,0,0
133243,-33.3333333333333,4,1,0,90,0,0
133356,-100,4,1,0,90,0,0
135061,-33.3333333333333,4,1,0,90,0,0
135174,-100,4,1,0,90,0,0
136879,-33.3333333333333,4,1,0,90,0,0
136992,-100,4,1,0,90,0,0
138697,-33.3333333333333,4,1,0,90,0,0
138810,-100,4,1,0,90,0,0
139380,-99.009900990099,1,1,0,90,0,0
139493,-98.0392156862745,1,1,0,90,0,0
139607,-97.0873786407767,1,1,0,90,0,0
139720,-96.1538461538461,1,1,0,90,0,0
139834,-95.2380952380952,1,1,0,90,0,0
139948,-94.3396226415094,1,1,0,90,0,0
140061,-93.4579439252336,1,1,0,90,0,0
140175,-92.5925925925926,1,1,0,90,0,0
140289,-91.743119266055,1,1,0,90,0,0
140402,-90.9090909090909,1,1,0,90,0,0
140516,-33.3333333333333,1,1,0,90,0,0
140629,-89.2857142857143,1,1,0,90,0,0
140743,-88.4955752212389,1,1,0,90,0,0
140857,-87.719298245614,1,1,0,90,0,0
140970,-86.9565217391304,1,1,0,90,0,0
141084,-86.2068965517241,1,1,0,90,0,0
141198,-85.4700854700855,1,1,0,90,0,0
141311,-84.7457627118644,1,1,0,90,0,0
141425,-84.0336134453781,1,1,0,90,0,0
141539,-83.3333333333333,1,1,0,90,0,0
141652,-82.6446280991735,1,1,0,90,0,0
141766,-81.9672131147541,1,1,0,90,0,0
141879,-81.3008130081301,1,1,0,90,0,0
141993,-80.6451612903226,1,1,0,90,0,0
142107,-80,1,1,0,90,0,0
142220,-79.3650793650794,1,1,0,90,0,0
142334,-33.3333333333333,1,1,0,90,0,0
142448,-78.125,1,1,0,90,0,0
142561,-77.5193798449612,1,1,0,90,0,0
142675,-76.9230769230769,1,1,0,90,0,0
142789,-76.3358778625954,1,1,0,90,0,0
142902,-75.7575757575757,1,1,0,90,0,0
143016,-75.187969924812,1,1,0,90,0,0
143129,-74.6268656716418,1,1,0,90,0,0
143243,-74.0740740740741,1,1,0,90,0,0
143357,-73.5294117647059,1,1,0,90,0,0
143470,-72.992700729927,1,1,0,90,0,0
143584,-72.463768115942,1,1,0,90,0,0
143698,-71.9424460431654,1,1,0,90,0,0
143811,-71.4285714285714,1,1,0,90,0,0
143925,-70.9219858156028,1,1,0,90,0,0
144039,-70.4225352112676,1,1,0,90,0,0
144152,-33.3333333333333,1,1,0,90,0,0
144266,-69.4444444444444,1,1,0,90,0,0
144379,-68.9655172413793,1,1,0,90,0,0
144493,-68.4931506849315,1,1,0,90,0,0
144607,-68.0272108843537,1,1,0,90,0,0
144720,-67.5675675675676,1,1,0,90,0,0
144834,-67.1140939597315,1,1,0,90,0,0
144948,-66.6666666666666,1,1,0,90,0,0
145061,-66.2251655629139,1,1,0,90,0,0
145175,-65.7894736842105,1,1,0,90,0,0
145289,-65.359477124183,1,1,0,90,0,0
145402,-64.9350649350649,1,1,0,90,0,0
145516,-64.5161290322581,1,1,0,90,0,0
145629,-64.1025641025641,1,1,0,90,0,0
145743,-50,4,1,0,90,0,0
145970,-25,4,1,0,90,0,0
146083,-100,4,1,0,90,0,0
146141,-100,4,1,0,5,0,0
146596,-100,4,1,0,90,0,0
146709,-100,4,1,0,100,0,1
147789,-50,4,1,0,100,0,1
147902,-100,4,1,0,100,0,1
149607,-50,4,1,0,100,0,1
149720,-100,4,1,0,100,0,1
151425,-50,4,1,0,100,0,1
151538,-100,4,1,0,100,0,1
153243,-50,4,1,0,100,0,1
153356,-100,4,1,0,100,0,1
155062,-50,4,1,0,100,0,1
155175,-100,4,1,0,100,0,1
156880,-50,4,1,0,100,0,1
156993,-100,4,1,0,100,0,1
158698,-50,4,1,0,100,0,1
158811,-100,4,1,0,100,0,1
160516,-25,4,1,0,100,0,1
160630,-100,4,1,0,100,0,1
161028,-100,4,1,0,100,0,0
161198,-100,4,1,0,100,0,0
161255,-100,4,1,0,100,0,1
162334,-33.3333333333333,4,1,0,100,0,1
162447,-100,4,1,0,100,0,1
164152,-33.3333333333333,4,1,0,100,0,1
164265,-100,4,1,0,100,0,1
165970,-33.3333333333333,4,1,0,100,0,1
166083,-100,4,1,0,100,0,1
167788,-33.3333333333333,4,1,0,100,0,1
167901,-100,4,1,0,100,0,1
169607,-33.3333333333333,4,1,0,100,0,1
169720,-100,4,1,0,100,0,1
171425,-33.3333333333333,4,1,0,100,0,1
171538,-100,4,1,0,100,0,1
173243,-33.3333333333333,4,1,0,100,0,1
173356,-100,4,1,0,100,0,1
175061,-25,4,1,0,100,0,1
175174,-100,4,1,0,100,0,1
175459,-100,4,1,0,60,0,1
175573,-100,4,1,0,60,0,0

[HitObjects]
256,192,1028,5,0,0:0:0:0:
256,192,1482,5,0,0:0:0:0:
256,192,1709,1,0,0:0:0:0:
256,192,2164,1,0,0:0:0:0:
256,192,2391,5,8,0:0:0:0:
256,192,2467,1,8,0:0:0:0:
256,192,2543,1,8,0:0:0:0:
256,192,2618,1,0,0:0:0:0:
256,192,2846,1,0,0:0:0:0:
256,192,3300,1,0,0:0:0:0:
256,192,3528,1,0,0:0:0:0:
256,192,3868,1,8,0:0:0:0:
256,192,3982,1,0,0:0:0:0:
256,192,4209,1,8,0:0:0:0:
256,192,4285,1,8,0:0:0:0:
256,192,4361,1,8,0:0:0:0:
256,192,4437,1,8,0:0:0:0:
256,192,4664,1,0,0:0:0:0:
256,192,5118,1,0,0:0:0:0:
256,192,5346,1,0,0:0:0:0:
256,192,5800,1,0,0:0:0:0:
256,192,6028,1,8,0:0:0:0:
256,192,6103,1,8,0:0:0:0:
256,192,6179,1,8,0:0:0:0:
256,192,6255,1,0,0:0:0:0:
256,192,6482,1,0,0:0:0:0:
256,192,6937,1,0,0:0:0:0:
256,192,7164,1,0,0:0:0:0:
256,192,7618,1,0,0:0:0:0:
256,192,7846,1,8,0:0:0:0:
256,192,8300,1,0,0:0:0:0:
256,192,8755,1,0,0:0:0:0:
256,192,8982,1,0,0:0:0:0:
256,192,9209,1,0,0:0:0:0:
256,192,9664,1,8,0:0:0:0:
256,192,9740,1,8,0:0:0:0:
256,192,9815,1,8,0:0:0:0:
256,192,9891,1,8,0:0:0:0:
256,192,10118,1,0,0:0:0:0:
256,192,10573,1,0,0:0:0:0:
256,192,10800,1,0,0:0:0:0:
256,192,11028,1,0,0:0:0:0:
256,192,11482,1,8,0:0:0:0:
256,192,11558,1,8,0:0:0:0:
256,192,11634,1,8,0:0:0:0:
256,192,11709,1,8,0:0:0:0:
256,192,11937,12,0,13755,0:0:0:0:
256,192,15573,5,0,0:0:0:0:
256,192,15800,1,0,0:0:0:0:
256,192,15914,1,8,0:0:0:0:
256,192,16255,1,0,0:0:0:0:
256,192,16482,1,8,0:0:0:0:
256,192,16937,1,12,0:0:0:0:
256,192,17391,1,0,0:0:0:0:
256,192,17618,1,0,0:0:0:0:
256,192,17732,1,8,0:0:0:0:
256,192,17959,1,0,0:0:0:0:
256,192,18073,1,0,0:0:0:0:
256,192,18300,1,8,0:0:0:0:
256,192,18528,1,0,0:0:0:0:
256,192,18755,1,12,0:0:0:0:
256,192,19209,1,0,0:0:0:0:
256,192,19437,1,0,0:0:0:0:
256,192,19550,1,8,0:0:0:0:
256,192,19891,1,0,0:0:0:0:
256,192,20118,1,8,0:0:0:0:
256,192,20573,1,12,0:0:0:0:
256,192,21028,1,0,0:0:0:0:
256,192,21255,1,0,0:0:0:0:
256,192,21368,1,8,0:0:0:0:
256,192,21596,1,0,0:0:0:0:
256,192,21709,1,0,0:0:0:0:
256,192,21937,1,8,0:0:0:0:
256,192,22050,1,0,0:0:0:0:
256,192,22164,1,0,0:0:0:0:
256,192,22391,1,12,0:0:0:0:
256,192,22846,1,0,0:0:0:0:
256,192,23073,1,0,0:0:0:0:
256,192,23187,1,8,0:0:0:0:
256,192,23528,1,0,0:0:0:0:
256,192,23755,1,8,0:0:0:0:
256,192,24209,1,12,0:0:0:0:
256,192,24664,1,0,0:0:0:0:
256,192,24891,1,0,0:0:0:0:
256,192,25005,1,8,0:0:0:0:
256,192,25232,1,0,0:0:0:0:
256,192,25346,1,0,0:0:0:0:
256,192,25573,1,8,0:0:0:0:
256,192,25800,1,0,0:0:0:0:
256,192,26028,1,12,0:0:0:0:
256,192,26482,1,0,0:0:0:0:
256,192,26709,1,0,0:0:0:0:
256,192,26823,1,8,0:0:0:0:
256,192,27164,1,0,0:0:0:0:
256,192,27391,1,8,0:0:0:0:
256,192,27846,1,12,0:0:0:0:
256,192,28300,1,0,0:0:0:0:
256,192,28528,1,0,0:0:0:0:
256,192,28641,1,8,0:0:0:0:
256,192,28868,1,0,0:0:0:0:
256,192,28982,1,0,0:0:0:0:
256,192,29209,1,8,0:0:0:0:
256,192,29323,1,0,0:0:0:0:
256,192,29437,1,0,0:0:0:0:
256,192,29550,1,0,0:0:0:0:
256,192,29664,1,12,0:0:0:0:
256,192,30118,1,0,0:0:0:0:
256,192,30346,1,0,0:0:0:0:
256,192,30459,1,8,0:0:0:0:
256,192,30687,1,8,0:0:0:0:
256,192,30800,1,0,0:0:0:0:
256,192,31028,1,8,0:0:0:0:
256,192,31482,1,12,0:0:0:0:
256,192,31937,1,0,0:0:0:0:
256,192,32164,1,0,0:0:0:0:
256,192,32278,1,8,0:0:0:0:
256,192,32618,1,0,0:0:0:0:
256,192,32732,1,0,0:0:0:0:
256,192,32846,1,8,0:0:0:0:
256,192,33073,1,0,0:0:0:0:
256,192,33300,1,12,0:0:0:0:
256,192,33755,1,0,0:0:0:0:
256,192,33982,1,0,0:0:0:0:
256,192,34096,1,8,0:0:0:0:
256,192,34323,1,8,0:0:0:0:
256,192,34437,1,0,0:0:0:0:
256,192,34664,1,8,0:0:0:0:
256,192,35118,1,12,0:0:0:0:
256,192,35573,1,0,0:0:0:0:
256,192,35800,1,0,0:0:0:0:
256,192,35914,1,8,0:0:0:0:
256,192,36255,1,0,0:0:0:0:
256,192,36368,1,0,0:0:0:0:
256,192,36482,1,8,0:0:0:0:
256,192,36596,1,8,0:0:0:0:
256,192,36709,1,0,0:0:0:0:
256,192,36937,1,12,0:0:0:0:
256,192,37391,1,0,0:0:0:0:
256,192,37618,1,0,0:0:0:0:
256,192,37732,1,8,0:0:0:0:
256,192,37959,1,8,0:0:0:0:
256,192,38073,1,0,0:0:0:0:
256,192,38300,1,8,0:0:0:0:
256,192,38755,1,12,0:0:0:0:
256,192,39209,1,0,0:0:0:0:
256,192,39437,1,0,0:0:0:0:
256,192,39550,1,8,0:0:0:0:
256,192,39891,1,0,0:0:0:0:
256,192,40005,1,0,0:0:0:0:
256,192,40118,1,8,0:0:0:0:
256,192,40346,1,0,0:0:0:0:
256,192,40573,1,12,0:0:0:0:
256,192,41028,1,0,0:0:0:0:
256,192,41255,1,0,0:0:0:0:
256,192,41368,1,8,0:0:0:0:
256,192,41596,1,8,0:0:0:0:
256,192,41709,1,0,0:0:0:0:
256,192,41937,1,8,0:0:0:0:
256,192,42391,1,12,0:0:0:0:
256,192,42846,1,0,0:0:0:0:
256,192,43187,1,8,0:0:0:0:
256,192,43300,1,0,0:0:0:0:
256,192,43528,1,0,0:0:0:0:
256,192,43755,1,8,0:0:0:0:
256,192,43868,1,0,0:0:0:0:
256,192,43982,1,12,0:0:0:0:
256,192,44209,1,12,0:0:0:0:
256,192,44891,1,0,0:0:0:0:
256,192,45118,1,8,0:0:0:0:
256,192,45346,1,0,0:0:0:0:
256,192,45459,1,0,0:0:0:0:
256,192,45800,1,0,0:0:0:0:
256,192,46028,1,12,0:0:0:0:
256,192,46596,1,0,0:0:0:0:
256,192,46709,1,0,0:0:0:0:
256,192,46937,1,8,0:0:0:0:
256,192,47164,1,8,0:0:0:0:
256,192,47278,1,0,0:0:0:0:
256,192,47618,1,0,0:0:0:0:
256,192,47846,1,12,0:0:0:0:
256,192,48528,1,0,0:0:0:0:
256,192,48755,1,8,0:0:0:0:
256,192,48982,1,0,0:0:0:0:
256,192,49096,1,0,0:0:0:0:
256,192,49437,1,0,0:0:0:0:
256,192,49664,1,12,0:0:0:0:
256,192,50232,1,0,0:0:0:0:
256,192,50346,1,0,0:0:0:0:
256,192,50573,1,8,0:0:0:0:
256,192,50800,1,0,0:0:0:0:
256,192,50914,1,8,0:0:0:0:
256,192,51255,1,0,0:0:0:0:
256,192,51482,1,12,0:0:0:0:
256,192,52164,1,0,0:0:0:0:
256,192,52391,1,8,0:0:0:0:
256,192,52618,1,0,0:0:0:0:
256,192,52732,1,0,0:0:0:0:
256,192,53073,1,0,0:0:0:0:
256,192,53300,1,12,0:0:0:0:
256,192,53868,1,0,0:0:0:0:
256,192,53982,1,0,0:0:0:0:
256,192,54209,1,8,0:0:0:0:
256,192,54437,1,8,0:0:0:0:
256,192,54550,1,0,0:0:0:0:
256,192,54891,1,0,0:0:0:0:
256,192,55118,1,12,0:0:0:0:
256,192,55800,1,0,0:0:0:0:
256,192,56028,1,8,0:0:0:0:
256,192,56255,1,0,0:0:0:0:
256,192,56368,1,0,0:0:0:0:
256,192,56709,1,0,0:0:0:0:
256,192,56937,1,12,0:0:0:0:
256,192,57505,1,0,0:0:0:0:
256,192,57618,1,0,0:0:0:0:
256,192,57732,1,0,0:0:0:0:
256,192,57846,1,8,0:0:0:0:
256,192,58073,1,0,0:0:0:0:
256,192,58187,1,8,0:0:0:0:
256,192,58414,1,8,0:0:0:0:
256,192,58528,1,0,0:0:0:0:
256,192,58641,1,0,0:0:0:0:
256,192,58755,1,12,0:0:0:0:
256,192,58982,1,0,0:0:0:0:
256,192,59096,1,0,0:0:0:0:
256,192,59437,1,8,0:0:0:0:
256,192,59664,1,8,0:0:0:0:
256,192,59891,1,0,0:0:0:0:
256,192,60005,1,0,0:0:0:0:
256,192,60346,1,0,0:0:0:0:
256,192,60573,1,12,0:0:0:0:
256,192,61028,1,0,0:0:0:0:
256,192,61141,1,8,0:0:0:0:
256,192,61255,1,8,0:0:0:0:
256,192,61482,1,8,0:0:0:0:
256,192,61709,1,0,0:0:0:0:
256,192,61823,1,0,0:0:0:0:
256,192,62164,1,0,0:0:0:0:
256,192,62391,1,12,0:0:0:0:
256,192,63073,1,8,0:0:0:0:
256,192,63300,1,8,0:0:0:0:
256,192,63528,1,0,0:0:0:0:
256,192,63641,1,0,0:0:0:0:
256,192,63982,1,0,0:0:0:0:
256,192,64209,1,12,0:0:0:0:
256,192,64664,1,0,0:0:0:0:
256,192,64778,1,8,0:0:0:0:
256,192,64891,1,8,0:0:0:0:
256,192,65118,1,8,0:0:0:0:
256,192,65346,1,0,0:0:0:0:
256,192,65459,1,8,0:0:0:0:
256,192,65687,1,8,0:0:0:0:
256,192,65800,1,0,0:0:0:0:
256,192,65914,1,0,0:0:0:0:
256,192,66028,1,12,0:0:0:0:
256,192,66709,1,8,0:0:0:0:
256,192,66937,1,8,0:0:0:0:
256,192,67164,1,0,0:0:0:0:
256,192,67278,1,0,0:0:0:0:
256,192,67618,1,0,0:0:0:0:
256,192,67846,1,12,0:0:0:0:
256,192,68300,1,0,0:0:0:0:
256,192,68414,1,8,0:0:0:0:
256,192,68528,1,8,0:0:0:0:
256,192,68755,1,8,0:0:0:0:
256,192,68982,1,0,0:0:0:0:
256,192,69096,1,0,0:0:0:0:
256,192,69437,1,0,0:0:0:0:
256,192,69664,1,12,0:0:0:0:
256,192,70346,1,8,0:0:0:0:
256,192,70573,1,8,0:0:0:0:
256,192,70800,1,0,0:0:0:0:
256,192,70914,1,0,0:0:0:0:
256,192,71255,1,0,0:0:0:0:
256,192,71482,1,12,0:0:0:0:
256,192,71937,1,0,0:0:0:0:
256,192,72050,1,8,0:0:0:0:
256,192,72164,1,8,0:0:0:0:
256,192,72391,1,8,0:0:0:0:
256,192,72618,1,8,0:0:0:0:
256,192,72732,1,0,0:0:0:0:
256,192,72846,1,8,0:0:0:0:
256,192,72959,1,8,0:0:0:0:
256,192,73073,1,0,0:0:0:0:
256,192,73187,1,0,0:0:0:0:
256,192,73300,1,12,0:0:0:0:
256,192,73755,1,0,0:0:0:0:
256,192,88528,5,8,0:0:0:0:
256,192,88755,1,8,0:0:0:0:
256,192,88982,1,0,0:0:0:0:
256,192,90118,5,0,0:0:0:0:
256,192,90232,1,0,0:0:0:0:
256,192,90346,1,0,0:0:0:0:
256,192,90573,1,8,0:0:0:0:
256,192,90800,1,0,0:0:0:0:
256,192,90914,1,0,0:0:0:0:
256,192,92164,1,8,0:0:0:0:
256,192,92391,1,8,0:0:0:0:
256,192,92618,1,0,0:0:0:0:
256,192,93755,1,0,0:0:0:0:
256,192,93868,1,0,0:0:0:0:
256,192,93982,1,0,0:0:0:0:
256,192,94209,1,8,0:0:0:0:
256,192,94323,1,8,0:0:0:0:
256,192,94437,1,8,0:0:0:0:
256,192,94550,1,8,0:0:0:0:
256,192,95800,1,8,0:0:0:0:
256,192,96028,1,8,0:0:0:0:
256,192,96255,1,0,0:0:0:0:
256,192,97391,1,0,0:0:0:0:
256,192,97505,1,0,0:0:0:0:
256,192,97618,1,0,0:0:0:0:
256,192,97846,1,8,0:0:0:0:
256,192,98073,1,0,0:0:0:0:
256,192,98187,1,0,0:0:0:0:
256,192,99437,1,8,0:0:0:0:
256,192,99664,1,8,0:0:0:0:
256,192,99891,1,0,0:0:0:0:
256,192,101028,1,0,0:0:0:0:
256,192,101141,1,0,0:0:0:0:
256,192,101255,1,0,0:0:0:0:
256,192,101482,1,8,0:0:0:0:
256,192,101596,1,8,0:0:0:0:
256,192,101709,1,8,0:0:0:0:
256,192,101823,1,8,0:0:0:0:
256,192,102050,1,8,0:0:0:0:
256,192,102164,1,0,0:0:0:0:
256,192,102278,1,0,0:0:0:0:
256,192,102391,1,8,0:0:0:0:
256,192,102505,1,8,0:0:0:0:
256,192,102618,1,0,0:0:0:0:
256,192,102732,1,0,0:0:0:0:
256,192,103300,1,8,0:0:0:0:
256,192,103528,1,0,0:0:0:0:
256,192,103982,1,0,0:0:0:0:
256,192,104209,1,8,0:0:0:0:
256,192,104285,1,8,0:0:0:0:
256,192,104361,1,8,0:0:0:0:
256,192,104437,1,0,0:0:0:0:
256,192,104664,1,0,0:0:0:0:
256,192,104778,1,0,0:0:0:0:
256,192,104891,1,0,0:0:0:0:
256,192,105118,1,8,0:0:0:0:
256,192,105346,1,0,0:0:0:0:
256,192,105459,1,0,0:0:0:0:
256,192,105800,1,0,0:0:0:0:
256,192,106028,1,8,0:0:0:0:
256,192,106084,1,8,0:0:0:0:
256,192,106141,1,8,0:0:0:0:
256,192,106709,1,8,0:0:0:0:
256,192,106937,1,8,0:0:0:0:
256,192,107164,1,0,0:0:0:0:
256,192,107618,1,0,0:0:0:0:
256,192,107846,1,8,0:0:0:0:
256,192,107921,1,8,0:0:0:0:
256,192,107997,1,8,0:0:0:0:
256,192,108073,1,0,0:0:0:0:
256,192,108300,1,0,0:0:0:0:
256,192,108414,1,0,0:0:0:0:
256,192,108528,1,0,0:0:0:0:
256,192,108755,1,8,0:0:0:0:
256,192,108868,1,8,0:0:0:0:
256,192,108982,1,8,0:0:0:0:
256,192,109096,1,8,0:0:0:0:
256,192,109437,1,0,0:0:0:0:
256,192,109664,1,8,0:0:0:0:
256,192,110346,1,8,0:0:0:0:
256,192,110573,1,8,0:0:0:0:
256,192,110800,1,0,0:0:0:0:
256,192,111425,1,8,0:0:0:0:
256,192,111482,1,8,0:0:0:0:
256,192,111653,1,8,0:0:0:0:
256,192,111709,1,8,0:0:0:0:
256,192,111937,1,0,0:0:0:0:
256,192,112050,1,0,0:0:0:0:
256,192,112164,1,0,0:0:0:0:
256,192,112391,1,8,0:0:0:0:
256,192,112618,1,0,0:0:0:0:
256,192,112732,1,0,0:0:0:0:
256,192,113243,1,8,0:0:0:0:
256,192,113300,1,8,0:0:0:0:
256,192,113471,1,8,0:0:0:0:
256,192,113528,1,8,0:0:0:0:
256,192,113982,1,8,0:0:0:0:
256,192,114209,1,8,0:0:0:0:
256,192,114437,1,0,0:0:0:0:
256,192,115118,1,8,0:0:0:0:
256,192,117391,1,0,0:0:0:0:
256,192,117618,1,0,0:0:0:0:
256,192,117732,1,8,0:0:0:0:
256,192,118073,1,0,0:0:0:0:
256,192,118300,1,8,0:0:0:0:
256,192,118755,1,12,0:0:0:0:
256,192,118982,1,0,0:0:0:0:
256,192,119096,1,0,0:0:0:0:
256,192,119209,1,8,0:0:0:0:
256,192,119437,1,0,0:0:0:0:
256,192,119550,1,8,0:0:0:0:
256,192,119778,1,0,0:0:0:0:
256,192,119891,1,0,0:0:0:0:
256,192,120118,1,8,0:0:0:0:
256,192,120573,1,12,0:0:0:0:
256,192,120800,1,0,0:0:0:0:
256,192,120914,1,0,0:0:0:0:
256,192,121028,1,8,0:0:0:0:
256,192,121255,1,0,0:0:0:0:
256,192,121368,1,8,0:0:0:0:
256,192,121709,1,0,0:0:0:0:
256,192,121937,1,8,0:0:0:0:
256,192,122391,1,12,0:0:0:0:
256,192,122618,1,0,0:0:0:0:
256,192,122732,1,0,0:0:0:0:
256,192,122846,1,8,0:0:0:0:
256,192,123073,1,0,0:0:0:0:
256,192,123187,1,8,0:0:0:0:
256,192,123414,1,0,0:0:0:0:
256,192,123528,1,0,0:0:0:0:
256,192,123755,1,8,0:0:0:0:
256,192,123982,1,0,0:0:0:0:
256,192,124209,1,12,0:0:0:0:
256,192,124664,1,0,0:0:0:0:
256,192,124891,1,0,0:0:0:0:
256,192,125005,1,8,0:0:0:0:
256,192,125232,1,8,0:0:0:0:
256,192,125346,1,0,0:0:0:0:
256,192,125573,1,8,0:0:0:0:
256,192,126028,1,12,0:0:0:0:
256,192,126255,1,8,0:0:0:0:
256,192,126368,1,8,0:0:0:0:
256,192,126482,1,0,0:0:0:0:
256,192,126709,1,0,0:0:0:0:
256,192,126823,1,8,0:0:0:0:
256,192,127050,1,8,0:0:0:0:
256,192,127164,1,0,0:0:0:0:
256,192,127391,1,8,0:0:0:0:
256,192,127618,1,0,0:0:0:0:
256,192,127846,1,12,0:0:0:0:
256,192,128073,1,8,0:0:0:0:
256,192,128187,1,8,0:0:0:0:
256,192,128300,1,0,0:0:0:0:
256,192,128528,1,0,0:0:0:0:
256,192,128641,1,8,0:0:0:0:
256,192,128868,1,8,0:0:0:0:
256,192,128982,1,0,0:0:0:0:
256,192,129209,1,8,0:0:0:0:
256,192,129664,1,12,0:0:0:0:
256,192,129891,1,8,0:0:0:0:
256,192,130005,1,8,0:0:0:0:
256,192,130118,1,0,0:0:0:0:
256,192,130346,1,8,0:0:0:0:
256,192,130459,1,8,0:0:0:0:
256,192,130687,1,0,0:0:0:0:
256,192,130800,1,8,0:0:0:0:
256,192,131028,1,8,0:0:0:0:
256,192,131255,1,0,0:0:0:0:
256,192,131482,1,12,0:0:0:0:
256,192,131937,1,8,0:0:0:0:
256,192,132164,1,8,0:0:0:0:
256,192,132278,1,8,0:0:0:0:
256,192,132505,1,8,0:0:0:0:
256,192,132618,1,8,0:0:0:0:
256,192,132732,1,8,0:0:0:0:
256,192,132846,1,8,0:0:0:0:
256,192,133300,1,12,0:0:0:0:
256,192,133641,1,8,0:0:0:0:
256,192,133755,1,8,0:0:0:0:
256,192,133982,1,8,0:0:0:0:
256,192,134096,1,8,0:0:0:0:
256,192,134323,1,8,0:0:0:0:
256,192,134437,1,8,0:0:0:0:
256,192,134550,1,8,0:0:0:0:
256,192,134664,1,8,0:0:0:0:
256,192,134891,1,8,0:0:0:0:
256,192,135118,1,12,0:0:0:0:
256,192,135346,1,8,0:0:0:0:
256,192,135459,1,8,0:0:0:0:
256,192,135573,1,8,0:0:0:0:
256,192,135800,1,8,0:0:0:0:
256,192,135914,1,8,0:0:0:0:
256,192,136141,1,8,0:0:0:0:
256,192,136368,1,8,0:0:0:0:
256,192,136482,1,8,0:0:0:0:
256,192,136937,1,12,0:0:0:0:
256,192,137278,1,8,0:0:0:0:
256,192,137391,1,8,0:0:0:0:
256,192,137618,1,8,0:0:0:0:
256,192,137732,1,8,0:0:0:0:
256,192,137959,1,8,0:0:0:0:
256,192,138073,1,8,0:0:0:0:
256,192,138187,1,8,0:0:0:0:
256,192,138300,1,8,0:0:0:0:
256,192,138528,1,8,0:0:0:0:
256,192,138755,1,12,0:0:0:0:
256,192,139209,1,8,0:0:0:0:
256,192,139437,1,8,0:0:0:0:
256,192,139550,1,8,0:0:0:0:
256,192,139778,1,8,0:0:0:0:
256,192,140005,1,8,0:0:0:0:
256,192,140118,1,8,0:0:0:0:
256,192,140573,1,12,0:0:0:0:
256,192,140914,1,8,0:0:0:0:
256,192,141028,1,8,0:0:0:0:
256,192,141255,1,8,0:0:0:0:
256,192,141368,1,8,0:0:0:0:
256,192,141596,1,8,0:0:0:0:
256,192,141709,1,8,0:0:0:0:
256,192,141823,1,8,0:0:0:0:
256,192,141937,1,8,0:0:0:0:
256,192,142164,1,8,0:0:0:0:
256,192,142391,1,12,0:0:0:0:
256,192,142618,1,8,0:0:0:0:
256,192,142732,1,8,0:0:0:0:
256,192,142846,1,8,0:0:0:0:
256,192,143073,1,8,0:0:0:0:
256,192,143187,1,8,0:0:0:0:
256,192,143414,1,8,0:0:0:0:
256,192,143528,1,8,0:0:0:0:
256,192,143641,1,8,0:0:0:0:
256,192,143755,1,8,0:0:0:0:
256,192,144209,1,12,0:0:0:0:
256,192,144437,1,8,0:0:0:0:
256,192,144550,1,8,0:0:0:0:
256,192,144664,1,8,0:0:0:0:
256,192,144891,1,8,0:0:0:0:
256,192,145005,1,8,0:0:0:0:
256,192,145118,1,8,0:0:0:0:
256,192,145346,1,8,0:0:0:0:
256,192,145573,1,8,0:0:0:0:
256,192,145687,1,8,0:0:0:0:
256,192,145800,1,12,0:0:0:0:
256,192,146028,1,12,0:0:0:0:
256,192,146709,1,0,0:0:0:0:
256,192,146937,1,8,0:0:0:0:
256,192,147164,1,0,0:0:0:0:
256,192,147278,1,0,0:0:0:0:
256,192,147618,1,0,0:0:0:0:
256,192,147846,1,12,0:0:0:0:
256,192,148300,1,0,0:0:0:0:
256,192,148414,1,0,0:0:0:0:
256,192,148528,1,0,0:0:0:0:
256,192,148755,1,8,0:0:0:0:
256,192,148982,1,0,0:0:0:0:
256,192,149096,1,0,0:0:0:0:
256,192,149437,1,0,0:0:0:0:
256,192,149664,1,12,0:0:0:0:
256,192,150346,1,0,0:0:0:0:
256,192,150573,1,8,0:0:0:0:
256,192,150800,1,0,0:0:0:0:
256,192,150914,1,0,0:0:0:0:
256,192,151255,1,0,0:0:0:0:
256,192,151482,1,12,0:0:0:0:
256,192,151937,1,0,0:0:0:0:
256,192,152050,1,0,0:0:0:0:
256,192,152164,1,0,0:0:0:0:
256,192,152391,1,8,0:0:0:0:
256,192,152505,1,8,0:0:0:0:
256,192,152618,1,8,0:0:0:0:
256,192,152732,1,8,0:0:0:0:
256,192,153073,1,0,0:0:0:0:
256,192,153300,1,12,0:0:0:0:
256,192,153982,1,0,0:0:0:0:
256,192,154209,1,8,0:0:0:0:
256,192,154437,1,0,0:0:0:0:
256,192,154550,1,0,0:0:0:0:
256,192,154891,1,0,0:0:0:0:
256,192,155118,1,12,0:0:0:0:
256,192,155573,1,0,0:0:0:0:
256,192,155687,1,0,0:0:0:0:
256,192,155800,1,0,0:0:0:0:
256,192,156028,1,8,0:0:0:0:
256,192,156255,1,0,0:0:0:0:
256,192,156368,1,0,0:0:0:0:
256,192,156709,1,0,0:0:0:0:
256,192,156937,1,12,0:0:0:0:
256,192,157618,1,0,0:0:0:0:
256,192,157846,1,8,0:0:0:0:
256,192,158073,1,0,0:0:0:0:
256,192,158187,1,0,0:0:0:0:
256,192,158528,1,0,0:0:0:0:
256,192,158755,1,12,0:0:0:0:
256,192,159209,1,0,0:0:0:0:
256,192,159323,1,0,0:0:0:0:
256,192,159437,1,0,0:0:0:0:
256,192,159664,1,8,0:0:0:0:
256,192,159778,1,8,0:0:0:0:
256,192,159891,1,8,0:0:0:0:
256,192,160005,1,8,0:0:0:0:
256,192,160232,1,8,0:0:0:0:
256,192,160346,1,0,0:0:0:0:
256,192,160459,1,0,0:0:0:0:
256,192,160573,1,12,0:0:0:0:
256,192,160800,1,0,0:0:0:0:
256,192,160914,1,0,0:0:0:0:
256,192,161255,1,8,0:0:0:0:
256,192,161482,1,8,0:0:0:0:
256,192,161709,1,0,0:0:0:0:
256,192,161823,1,0,0:0:0:0:
256,192,162164,1,0,0:0:0:0:
256,192,162391,1,12,0:0:0:0:
256,192,162846,1,8,0:0:0:0:
256,192,162959,1,8,0:0:0:0:
256,192,163073,1,0,0:0:0:0:
256,192,163300,1,8,0:0:0:0:
256,192,163528,1,8,0:0:0:0:
256,192,163641,1,0,0:0:0:0:
256,192,163982,1,0,0:0:0:0:
256,192,164209,1,12,0:0:0:0:
256,192,164891,1,8,0:0:0:0:
256,192,165118,1,8,0:0:0:0:
256,192,165346,1,0,0:0:0:0:
256,192,165459,1,0,0:0:0:0:
256,192,165800,1,0,0:0:0:0:
256,192,166028,1,12,0:0:0:0:
256,192,166482,1,8,0:0:0:0:
256,192,166596,1,8,0:0:0:0:
256,192,166709,1,0,0:0:0:0:
256,192,166937,1,8,0:0:0:0:
256,192,167050,1,8,0:0:0:0:
256,192,167164,1,0,0:0:0:0:
256,192,167278,1,8,0:0:0:0:
256,192,167391,1,0,0:0:0:0:
256,192,167505,1,0,0:0:0:0:
256,192,167618,1,8,0:0:0:0:
256,192,167732,1,0,0:0:0:0:
256,192,167846,1,12,0:0:0:0:
256,192,168528,1,8,0:0:0:0:
256,192,168755,1,8,0:0:0:0:
256,192,168982,1,0,0:0:0:0:
256,192,169096,1,0,0:0:0:0:
256,192,169437,1,0,0:0:0:0:
256,192,169664,1,12,0:0:0:0:
256,192,170118,1,8,0:0:0:0:
256,192,170232,1,8,0:0:0:0:
256,192,170346,1,0,0:0:0:0:
256,192,170573,1,8,0:0:0:0:
256,192,170800,1,0,0:0:0:0:
256,192,170914,1,0,0:0:0:0:
256,192,171255,1,0,0:0:0:0:
256,192,171482,1,12,0:0:0:0:
256,192,172164,1,8,0:0:0:0:
256,192,172391,1,8,0:0:0:0:
256,192,172618,1,0,0:0:0:0:
256,192,172732,1,0,0:0:0:0:
256,192,173073,1,0,0:0:0:0:
256,192,173300,1,12,0:0:0:0:
256,192,173755,1,8,0:0:0:0:
256,192,173868,1,8,0:0:0:0:
256,192,173982,1,0,0:0:0:0:
256,192,174096,1,0,0:0:0:0:
256,192,174209,1,8,0:0:0:0:
256,192,174323,1,8,0:0:0:0:
256,192,174437,1,8,0:0:0:0:
256,192,174550,1,8,0:0:0:0:
256,192,174664,1,0,0:0:0:0:
256,192,174778,1,0,0:0:0:0:
256,192,174891,1,8,0:0:0:0:
256,192,175005,1,0,0:0:0:0:
256,192,175118,1,12,0:0:0:0:
256,192,175573,1,0,0:0:0:0:
