osu file format v14

[General]
AudioFilename: audio.mp3
AudioLeadIn: 0
PreviewTime: 44662
Countdown: 0
SampleSet: Normal
StackLeniency: 0.2
Mode: 1
LetterboxInBreaks: 0
WidescreenStoryboard: 1

[Editor]
DistanceSpacing: 0.9
BeatDivisor: 4
GridSize: 32
TimelineZoom: 2.1

[Metadata]
Title:dungeon music
TitleUnicode:dungeon music
Artist:sakuraburst
ArtistUnicode:sakuraburst
Creator:iceOC
Version:Inner Oni
Source:osu!
Tags:experimental instrumental electronic blood orange ep mappers guild featured artist fa cynplytholowazy -gn junior
BeatmapID:2219729
BeatmapSetID:1056653

[Difficulty]
HPDrainRate:4.5
CircleSize:2
OverallDifficulty:7.5
ApproachRate:10
SliderMultiplier:1.4
SliderTickRate:1

[Events]
//Background and Video events
0,0,"BG.jpg",0,0
//Break Periods
2,73955,87850
//Storyboard Layer 0 (Background)
//Storyboard Layer 1 (Fail)
//Storyboard Layer 2 (Pass)
//Storyboard Layer 3 (Foreground)
//Storyboard Layer 4 (Overlay)
//Storyboard Sound Samples

[TimingPoints]
1028,454.545454545455,4,1,0,50,1,0
7789,-33.3333333333333,4,1,0,50,0,0
7903,-100,4,1,0,50,0,0
13755,-100,4,1,0,5,0,0
15459,-100,4,1,0,70,0,0
15516,-100,4,1,0,70,0,0
16880,-50,4,1,0,70,0,0
16993,-100,4,1,0,70,0,0
18698,-50,4,1,0,70,0,0
18811,-100,4,1,0,70,0,0
20516,-50,4,1,0,70,0,0
20629,-100,4,1,0,70,0,0
22334,-50,4,1,0,70,0,0
22447,-100,4,1,0,70,0,0
24153,-50,4,1,0,70,0,0
24266,-100,4,1,0,70,0,0
25971,-50,4,1,0,70,0,0
26084,-100,4,1,0,70,0,0
27789,-50,4,1,0,70,0,0
27902,-100,4,1,0,70,0,0
29607,-25,4,1,0,70,0,0
29720,-100,4,1,0,70,0,0
31425,-33.3333333333333,4,1,0,70,0,0
31538,-100,4,1,0,70,0,0
33243,-33.3333333333333,4,1,0,70,0,0
33356,-100,4,1,0,70,0,0
35061,-33.3333333333333,4,1,0,70,0,0
35174,-100,4,1,0,70,0,0
36879,-33.3333333333333,4,1,0,70,0,0
36992,-100,4,1,0,70,0,0
38698,-33.3333333333333,4,1,0,70,0,0
38811,-100,4,1,0,70,0,0
40516,-33.3333333333333,4,1,0,70,0,0
40629,-100,4,1,0,70,0,0
42334,-33.3333333333333,4,1,0,70,0,0
42447,-100,4,1,0,70,0,0
43925,-33.3333333333333,4,1,0,70,0,0
44039,-100,4,1,0,70,0,0
44152,-16.6666666666667,4,1,0,70,0,0
44265,-100,4,1,0,70,0,0
44778,-100,4,1,0,90,0,0
44891,-100,4,1,0,90,0,1
45971,-25,4,1,0,90,0,1
46084,-100,4,1,0,90,0,1
47789,-25,4,1,0,90,0,1
47902,-100,4,1,0,90,0,1
49607,-25,4,1,0,90,0,1
49720,-100,4,1,0,90,0,1
51425,-25,4,1,0,90,0,1
51538,-100,4,1,0,90,0,1
53244,-25,4,1,0,90,0,1
53357,-100,4,1,0,90,0,1
55062,-25,4,1,0,90,0,1
55175,-100,4,1,0,90,0,1
56880,-25,4,1,0,90,0,1
56993,-100,4,1,0,90,0,1
58698,-12.5,4,1,0,90,0,1
58812,-100,4,1,0,90,0,1
59209,-100,4,1,0,90,0,0
59380,-100,4,1,0,90,0,0
59437,-100,4,1,0,90,0,1
60516,-25,4,1,0,90,0,1
60629,-100,4,1,0,90,0,1
62334,-25,4,1,0,90,0,1
62447,-100,4,1,0,90,0,1
64152,-25,4,1,0,90,0,1
64265,-100,4,1,0,90,0,1
65970,-25,4,1,0,90,0,1
66083,-100,4,1,0,90,0,1
67789,-25,4,1,0,90,0,1
67902,-100,4,1,0,90,0,1
69607,-25,4,1,0,90,0,1
69720,-100,4,1,0,90,0,1
71425,-25,4,1,0,90,0,1
71538,-100,4,1,0,90,0,1
73243,-12.5,4,1,0,90,0,1
73356,-100,4,1,0,90,0,1
73641,-100,4,1,0,60,0,1
73698,-100,4,1,0,60,0,1
73755,-100,4,1,0,60,0,0
73868,-100,4,1,0,55,0,0
73925,-100,4,1,0,50,0,0
73982,-100,4,1,0,45,0,0
74039,-100,4,1,0,40,0,0
74096,-100,4,1,0,35,0,0
74153,-100,4,1,0,31,0,0
74209,-100,4,1,0,27,0,0
74266,-100,4,1,0,23,0,0
74323,-100,4,1,0,19,0,0
74380,-100,4,1,0,16,0,0
74437,-100,4,1,0,13,0,0
74493,-100,4,1,0,10,0,0
74550,-100,4,1,0,8,0,0
74607,-100,4,1,0,6,0,0
74664,-100,4,1,0,5,0,0
75516,-250,4,1,0,5,0,0
77334,-303.030303030303,4,1,0,5,0,0
79153,-370.37037037037,4,1,0,5,0,0
80971,-454.545454545455,4,1,0,5,0,0
82789,-555.555555555556,4,1,0,5,0,0
84607,-666.666666666667,4,1,0,5,0,0
86425,-769.230769230769,4,1,0,5,0,0
88187,-833.333333333333,4,1,0,50,0,0
88243,-33.3333333333333,4,1,0,50,0,0
88471,-833.333333333333,4,1,0,50,0,0
100914,-833.333333333333,4,1,0,51,0,0
100971,-833.333333333333,1,1,0,51,0,0
101084,-787.40157480315,1,1,0,51,0,0
101198,-746.268656716418,1,1,0,51,0,0
101311,-709.219858156028,1,1,0,51,0,0
101368,-709.219858156028,1,1,0,52,0,0
101425,-675.675675675676,1,1,0,52,0,0
101539,-645.161290322581,1,1,0,52,0,0
101652,-617.283950617284,1,1,0,52,0,0
101766,-591.715976331361,1,1,0,52,0,0
101880,-568.181818181818,1,1,0,52,0,0
101937,-568.181818181818,1,1,0,53,0,0
101993,-546.448087431694,1,1,0,53,0,0
102107,-526.315789473684,1,1,0,54,0,0
102221,-507.614213197969,1,1,0,55,0,0
102334,-490.196078431372,1,1,0,56,0,0
102448,-473.933649289099,1,1,0,57,0,0
102561,-458.715596330275,1,1,0,58,0,0
102675,-444.444444444444,1,1,0,59,0,0
102788,-33.3333333333333,1,1,0,60,0,0
102903,-434.782608695652,1,1,0,60,0,0
109607,-33.3333333333333,1,1,0,60,0,0
109721,-434.782608695652,1,1,0,60,0,0
115459,-434.782608695652,1,1,0,5,0,0
117278,-434.782608695652,1,1,0,70,0,0
117334,-100,1,1,0,70,0,0
118698,-33.3333333333333,4,1,0,70,0,0
118811,-100,4,1,0,70,0,0
120516,-33.3333333333333,4,1,0,70,0,0
120629,-100,4,1,0,70,0,0
122334,-33.3333333333333,4,1,0,70,0,0
122447,-100,4,1,0,70,0,0
124152,-33.3333333333333,4,1,0,70,0,0
124265,-100,1,1,0,70,0,0
124607,-100,1,1,0,70,0,0
124720,-99.009900990099,1,1,0,70,0,0
124834,-98.0392156862745,1,1,0,70,0,0
124947,-97.0873786407767,1,1,0,70,0,0
125061,-96.1538461538461,1,1,0,70,0,0
125175,-95.2380952380952,1,1,0,70,0,0
125288,-94.3396226415094,1,1,0,70,0,0
125402,-93.4579439252336,1,1,0,70,0,0
125516,-92.5925925925926,1,1,0,70,0,0
125629,-91.743119266055,1,1,0,70,0,0
125743,-90.9090909090909,1,1,0,70,0,0
125857,-90.0900900900901,1,1,0,70,0,0
125970,-33.3333333333333,1,1,0,70,0,0
126084,-88.4955752212389,1,1,0,70,0,0
126197,-87.719298245614,1,1,0,70,0,0
126311,-86.9565217391304,1,1,0,70,0,0
126425,-86.2068965517241,1,1,0,70,0,0
126538,-85.4700854700855,1,1,0,70,0,0
126652,-84.7457627118644,1,1,0,70,0,0
126766,-84.0336134453781,1,1,0,70,0,0
126879,-83.3333333333333,1,1,0,70,0,0
126993,-82.6446280991735,1,1,0,70,0,0
127107,-81.9672131147541,1,1,0,70,0,0
127220,-81.3008130081301,1,1,0,70,0,0
127334,-80.6451612903226,1,1,0,70,0,0
127447,-80,1,1,0,70,0,0
127561,-79.3650793650794,1,1,0,70,0,0
127675,-78.7401574803149,1,1,0,70,0,0
127788,-25,1,1,0,70,0,0
127902,-77.5193798449612,1,1,0,70,0,0
128016,-76.9230769230769,1,1,0,70,0,0
128129,-76.3358778625954,1,1,0,70,0,0
128243,-75.7575757575757,1,1,0,70,0,0
128357,-75.187969924812,1,1,0,70,0,0
128470,-74.6268656716418,1,1,0,70,0,0
128584,-74.0740740740741,1,1,0,70,0,0
128697,-73.5294117647059,1,1,0,70,0,0
128811,-72.992700729927,1,1,0,70,0,0
128925,-72.463768115942,1,1,0,70,0,0
129038,-71.9424460431654,1,1,0,70,0,0
129152,-71.4285714285714,1,1,0,70,0,0
129266,-70.9219858156028,1,1,0,70,0,0
129379,-70.4225352112676,1,1,0,70,0,0
129493,-69.9300699300699,1,1,0,70,0,0
129607,-20,1,1,0,70,0,0
129720,-68.9655172413793,1,1,0,70,0,0
129834,-68.4931506849315,1,1,0,70,0,0
129947,-68.0272108843537,1,1,0,70,0,0
130061,-67.5675675675676,1,1,0,70,0,0
130175,-67.1140939597315,1,1,0,70,0,0
130288,-66.6666666666666,1,1,0,70,0,0
130402,-66.2251655629139,1,1,0,70,0,0
130516,-65.7894736842105,1,1,0,70,0,0
130629,-65.359477124183,1,1,0,70,0,0
130743,-64.9350649350649,1,1,0,70,0,0
130857,-64.5161290322581,1,1,0,70,0,0
130970,-64.1025641025641,1,1,0,70,0,0
131084,-63.6942675159235,1,1,0,70,0,0
131197,-63.2911392405063,1,1,0,70,0,0
131311,-62.8930817610063,1,1,0,70,0,0
131425,-12.5,4,1,0,70,0,0
131538,-100,4,1,0,70,0,0
131823,-100,4,1,0,90,0,0
131880,-50,4,1,0,90,0,0
133243,-100,4,1,0,90,0,0
133356,-50,4,1,0,90,0,0
135061,-100,4,1,0,90,0,0
135174,-50,4,1,0,90,0,0
136879,-100,4,1,0,90,0,0
136992,-50,4,1,0,90,0,0
138697,-100,4,1,0,90,0,0
138810,-50,4,1,0,90,0,0
139380,-49.7512437810945,1,1,0,90,0,0
139493,-49.5049504950495,1,1,0,90,0,0
139607,-49.2610837438424,1,1,0,90,0,0
139720,-49.0196078431373,1,1,0,90,0,0
139834,-48.780487804878,1,1,0,90,0,0
139948,-48.5436893203883,1,1,0,90,0,0
140061,-48.3091787439614,1,1,0,90,0,0
140175,-48.0769230769231,1,1,0,90,0,0
140289,-47.8468899521531,1,1,0,90,0,0
140402,-47.6190476190476,1,1,0,90,0,0
140516,-105.263157894737,1,1,0,90,0,0
140629,-47.1698113207547,1,1,0,90,0,0
140743,-46.9483568075117,1,1,0,90,0,0
140857,-46.7289719626168,1,1,0,90,0,0
140970,-46.5116279069767,1,1,0,90,0,0
141084,-46.2962962962963,1,1,0,90,0,0
141198,-46.0829493087558,1,1,0,90,0,0
141311,-45.8715596330275,1,1,0,90,0,0
141425,-45.662100456621,1,1,0,90,0,0
141539,-45.4545454545455,1,1,0,90,0,0
141652,-45.2488687782805,1,1,0,90,0,0
141766,-45.045045045045,1,1,0,90,0,0
141879,-44.8430493273543,1,1,0,90,0,0
141993,-44.6428571428571,1,1,0,90,0,0
142107,-44.4444444444445,1,1,0,90,0,0
142220,-44.2477876106195,1,1,0,90,0,0
142334,-111.111111111111,1,1,0,90,0,0
142448,-43.859649122807,1,1,0,90,0,0
142561,-43.6681222707424,1,1,0,90,0,0
142675,-43.4782608695652,1,1,0,90,0,0
142789,-43.2900432900433,1,1,0,90,0,0
142902,-43.1034482758621,1,1,0,90,0,0
143016,-42.9184549356223,1,1,0,90,0,0
143129,-42.7350427350427,1,1,0,90,0,0
143243,-42.5531914893617,1,1,0,90,0,0
143357,-42.3728813559322,1,1,0,90,0,0
143470,-42.1940928270042,1,1,0,90,0,0
143584,-42.0168067226891,1,1,0,90,0,0
143698,-41.8410041841004,1,1,0,90,0,0
143811,-41.6666666666667,1,1,0,90,0,0
143925,-41.49377593361,1,1,0,90,0,0
144039,-41.3223140495868,1,1,0,90,0,0
144152,-117.647058823529,1,1,0,90,0,0
144266,-40.983606557377,1,1,0,90,0,0
144379,-40.8163265306122,1,1,0,90,0,0
144493,-40.650406504065,1,1,0,90,0,0
144607,-40.4858299595142,1,1,0,90,0,0
144720,-40.3225806451613,1,1,0,90,0,0
144834,-40.1606425702811,1,1,0,90,0,0
144948,-40,1,1,0,90,0,0
145061,-39.8406374501992,1,1,0,90,0,0
145175,-39.6825396825397,1,1,0,90,0,0
145289,-39.5256916996047,1,1,0,90,0,0
145402,-39.3700787401575,1,1,0,90,0,0
145516,-39.2156862745098,1,1,0,90,0,0
145629,-39.0625,1,1,0,90,0,0
145743,-125,4,1,0,90,0,0
145970,-10,4,1,0,90,0,0
146083,-100,4,1,0,90,0,0
146141,-100,4,1,0,5,0,0
146596,-100,4,1,0,100,0,0
146709,-100,4,1,0,100,0,1
147789,-25,4,1,0,100,0,1
147902,-100,4,1,0,100,0,1
149607,-25,4,1,0,100,0,1
149720,-100,4,1,0,100,0,1
151425,-25,4,1,0,100,0,1
151538,-100,4,1,0,100,0,1
153243,-25,4,1,0,100,0,1
153356,-100,4,1,0,100,0,1
155062,-25,4,1,0,100,0,1
155175,-100,4,1,0,100,0,1
156880,-25,4,1,0,100,0,1
156993,-100,4,1,0,100,0,1
158698,-25,4,1,0,100,0,1
158811,-100,4,1,0,100,0,1
160516,-16.6666666666667,4,1,0,100,0,1
160630,-100,4,1,0,100,0,1
161028,-100,4,1,0,100,0,0
161198,-100,4,1,0,100,0,0
161255,-100,4,1,0,100,0,1
162334,-20,4,1,0,100,0,1
162447,-100,4,1,0,100,0,1
164152,-20,4,1,0,100,0,1
164265,-100,4,1,0,100,0,1
165970,-20,4,1,0,100,0,1
166083,-100,4,1,0,100,0,1
167788,-20,4,1,0,100,0,1
167901,-100,4,1,0,100,0,1
169607,-20,4,1,0,100,0,1
169720,-100,4,1,0,100,0,1
171425,-20,4,1,0,100,0,1
171538,-100,4,1,0,100,0,1
173243,-20,4,1,0,100,0,1
173356,-100,4,1,0,100,0,1
175061,-10,4,1,0,100,0,1
175174,-100,4,1,0,100,0,1
175459,-100,4,1,0,60,0,1
175573,-100,4,1,0,60,0,0

[HitObjects]
256,192,1028,5,0,0:0:0:0:
252,188,1482,5,0,0:0:0:0:
256,192,1709,1,0,0:0:0:0:
256,192,2164,1,0,0:0:0:0:
256,192,2391,5,8,0:0:0:0:
256,192,2467,1,8,0:0:0:0:
256,192,2543,1,8,0:0:0:0:
256,192,2618,1,0,0:0:0:0:
256,192,2845,1,0,0:0:0:0:
256,192,3300,1,0,0:0:0:0:
256,192,3528,1,0,0:0:0:0:
256,192,3868,1,8,0:0:0:0:
256,192,3925,1,0,0:0:0:0:
256,192,4209,1,8,0:0:0:0:
256,192,4266,1,8,0:0:0:0:
256,192,4323,1,8,0:0:0:0:
256,192,4380,1,8,0:0:0:0:
256,192,4437,1,8,0:0:0:0:
256,192,4664,1,0,0:0:0:0:
256,192,5118,1,0,0:0:0:0:
256,192,5346,1,0,0:0:0:0:
256,192,5800,1,0,0:0:0:0:
256,192,6028,1,8,0:0:0:0:
256,192,6103,1,8,0:0:0:0:
256,192,6179,1,8,0:0:0:0:
256,192,6255,1,0,0:0:0:0:
256,192,6482,1,0,0:0:0:0:
256,192,6937,1,0,0:0:0:0:
256,192,7164,1,0,0:0:0:0:
256,192,7618,1,0,0:0:0:0:
256,192,7846,1,12,0:0:0:0:
256,192,8300,1,0,0:0:0:0:
256,192,8698,1,8,0:0:0:0:
256,192,8755,1,0,0:0:0:0:
256,192,8982,1,0,0:0:0:0:
256,192,9209,1,0,0:0:0:0:
256,192,9607,1,8,0:0:0:0:
256,192,9664,1,0,0:0:0:0:
256,192,9721,1,0,0:0:0:0:
256,192,9778,1,0,0:0:0:0:
256,192,9834,1,0,0:0:0:0:
256,192,9891,1,0,0:0:0:0:
256,192,10118,1,0,0:0:0:0:
256,192,10516,1,8,0:0:0:0:
256,192,10573,1,0,0:0:0:0:
256,192,10800,1,0,0:0:0:0:
256,192,11027,1,0,0:0:0:0:
256,192,11425,1,8,0:0:0:0:
256,192,11482,1,0,0:0:0:0:
256,192,11539,1,0,0:0:0:0:
256,192,11596,1,0,0:0:0:0:
256,192,11653,1,0,0:0:0:0:
256,192,11709,1,0,0:0:0:0:
256,192,11766,1,8,0:0:0:0:
256,192,11937,12,0,13755,0:0:0:0:
256,192,15573,5,0,0:0:0:0:
256,192,15800,1,0,0:0:0:0:
256,192,15914,1,8,0:0:0:0:
256,192,16255,1,0,0:0:0:0:
256,192,16482,1,8,0:0:0:0:
256,192,16937,1,4,0:0:0:0:
256,192,17391,1,0,0:0:0:0:
256,192,17618,1,0,0:0:0:0:
256,192,17732,1,8,0:0:0:0:
256,192,17959,1,0,0:0:0:0:
256,192,18073,1,0,0:0:0:0:
256,192,18300,1,8,0:0:0:0:
256,192,18528,1,0,0:0:0:0:
256,192,18755,1,12,0:0:0:0:
256,192,19209,1,0,0:0:0:0:
256,192,19437,1,0,0:0:0:0:
256,192,19550,1,8,0:0:0:0:
256,192,19891,1,0,0:0:0:0:
256,192,20118,1,8,0:0:0:0:
256,192,20573,1,4,0:0:0:0:
256,192,21028,1,0,0:0:0:0:
256,192,21255,1,0,0:0:0:0:
256,192,21368,1,8,0:0:0:0:
256,192,21596,1,0,0:0:0:0:
256,192,21709,1,0,0:0:0:0:
256,192,21937,1,8,0:0:0:0:
256,192,22050,1,0,0:0:0:0:
256,192,22164,1,0,0:0:0:0:
256,192,22391,1,12,0:0:0:0:
256,192,22846,1,0,0:0:0:0:
256,192,23073,1,0,0:0:0:0:
256,192,23187,1,8,0:0:0:0:
256,192,23528,1,0,0:0:0:0:
256,192,23755,1,8,0:0:0:0:
256,192,24209,1,4,0:0:0:0:
256,192,24664,1,0,0:0:0:0:
256,192,24891,1,0,0:0:0:0:
256,192,25005,1,8,0:0:0:0:
256,192,25232,1,0,0:0:0:0:
256,192,25346,1,0,0:0:0:0:
256,192,25573,1,8,0:0:0:0:
256,192,25800,1,0,0:0:0:0:
256,192,26028,1,12,0:0:0:0:
256,192,26482,1,0,0:0:0:0:
256,192,26709,1,0,0:0:0:0:
256,192,26823,1,8,0:0:0:0:
256,192,27164,1,0,0:0:0:0:
256,192,27391,1,8,0:0:0:0:
256,192,27846,1,4,0:0:0:0:
256,192,28300,1,0,0:0:0:0:
256,192,28528,1,0,0:0:0:0:
256,192,28641,1,8,0:0:0:0:
256,192,28868,1,0,0:0:0:0:
256,192,28982,1,0,0:0:0:0:
256,192,29209,1,8,0:0:0:0:
256,192,29323,1,0,0:0:0:0:
256,192,29437,1,0,0:0:0:0:
256,192,29550,1,0,0:0:0:0:
256,192,29664,1,12,0:0:0:0:
256,192,30118,1,0,0:0:0:0:
256,192,30346,1,0,0:0:0:0:
256,192,30459,1,8,0:0:0:0:
256,192,30687,1,8,0:0:0:0:
256,192,30800,1,0,0:0:0:0:
256,192,31028,1,8,0:0:0:0:
256,192,31482,1,4,0:0:0:0:
256,192,31937,1,0,0:0:0:0:
256,192,32164,1,0,0:0:0:0:
256,192,32278,1,8,0:0:0:0:
256,192,32505,1,8,0:0:0:0:
256,192,32618,1,0,0:0:0:0:
256,192,32732,1,0,0:0:0:0:
256,192,32846,1,8,0:0:0:0:
256,192,33073,1,0,0:0:0:0:
256,192,33300,1,12,0:0:0:0:
256,192,33755,1,0,0:0:0:0:
256,192,33982,1,0,0:0:0:0:
256,192,34096,1,8,0:0:0:0:
256,192,34323,1,8,0:0:0:0:
256,192,34437,1,0,0:0:0:0:
256,192,34664,1,8,0:0:0:0:
256,192,35118,1,4,0:0:0:0:
256,192,35573,1,0,0:0:0:0:
256,192,35800,1,0,0:0:0:0:
256,192,35914,1,8,0:0:0:0:
256,192,36141,1,8,0:0:0:0:
256,192,36255,1,0,0:0:0:0:
256,192,36368,1,0,0:0:0:0:
256,192,36482,1,8,0:0:0:0:
256,192,36596,1,8,0:0:0:0:
256,192,36709,1,0,0:0:0:0:
256,192,36937,1,12,0:0:0:0:
256,192,37391,1,0,0:0:0:0:
256,192,37618,1,0,0:0:0:0:
256,192,37732,1,8,0:0:0:0:
256,192,37959,1,8,0:0:0:0:
256,192,38073,1,0,0:0:0:0:
256,192,38300,1,8,0:0:0:0:
256,192,38755,1,4,0:0:0:0:
256,192,39209,1,0,0:0:0:0:
256,192,39437,1,0,0:0:0:0:
256,192,39550,1,8,0:0:0:0:
256,192,39778,1,8,0:0:0:0:
256,192,39891,1,0,0:0:0:0:
256,192,40005,1,0,0:0:0:0:
256,192,40118,1,8,0:0:0:0:
256,192,40346,1,0,0:0:0:0:
256,192,40573,1,12,0:0:0:0:
256,192,41028,1,0,0:0:0:0:
256,192,41255,1,0,0:0:0:0:
256,192,41368,1,8,0:0:0:0:
256,192,41596,1,8,0:0:0:0:
256,192,41709,1,0,0:0:0:0:
256,192,41937,1,8,0:0:0:0:
256,192,42391,1,4,0:0:0:0:
256,192,42846,1,0,0:0:0:0:
256,192,43187,1,8,0:0:0:0:
256,192,43300,1,0,0:0:0:0:
256,192,43527,1,0,0:0:0:0:
256,192,43755,1,8,0:0:0:0:
256,192,43868,1,0,0:0:0:0:
256,192,43982,1,12,0:0:0:0:
256,192,44209,1,4,0:0:0:0:
256,192,44891,1,0,0:0:0:0:
256,192,45118,1,8,0:0:0:0:
256,192,45346,1,0,0:0:0:0:
256,192,45459,1,0,0:0:0:0:
256,192,45800,1,0,0:0:0:0:
256,192,46028,1,12,0:0:0:0:
256,192,46255,1,0,0:0:0:0:
256,192,46596,1,0,0:0:0:0:
256,192,46709,1,0,0:0:0:0:
256,192,46937,1,8,0:0:0:0:
256,192,47164,1,8,0:0:0:0:
256,192,47278,1,0,0:0:0:0:
256,192,47618,1,0,0:0:0:0:
256,192,47846,1,4,0:0:0:0:
256,192,48073,1,8,0:0:0:0:
256,192,48149,1,8,0:0:0:0:
256,192,48224,1,8,0:0:0:0:
256,192,48528,1,0,0:0:0:0:
256,192,48755,1,8,0:0:0:0:
256,192,48982,1,0,0:0:0:0:
256,192,49096,1,0,0:0:0:0:
256,192,49437,1,0,0:0:0:0:
256,192,49664,1,12,0:0:0:0:
256,192,49891,1,0,0:0:0:0:
256,192,50232,1,0,0:0:0:0:
256,192,50346,1,0,0:0:0:0:
256,192,50573,1,8,0:0:0:0:
256,192,50800,1,0,0:0:0:0:
256,192,50914,1,8,0:0:0:0:
256,192,51255,1,0,0:0:0:0:
256,192,51482,1,4,0:0:0:0:
256,192,51709,1,8,0:0:0:0:
256,192,51766,1,8,0:0:0:0:
256,192,51823,1,0,0:0:0:0:
256,192,51880,1,0,0:0:0:0:
256,192,52164,1,0,0:0:0:0:
256,192,52391,1,8,0:0:0:0:
256,192,52618,1,0,0:0:0:0:
256,192,52732,1,0,0:0:0:0:
256,192,53073,1,0,0:0:0:0:
256,192,53300,1,12,0:0:0:0:
256,192,53528,1,0,0:0:0:0:
256,192,53868,1,0,0:0:0:0:
256,192,53982,1,0,0:0:0:0:
256,192,54209,1,8,0:0:0:0:
256,192,54437,1,8,0:0:0:0:
256,192,54550,1,0,0:0:0:0:
256,192,54891,1,0,0:0:0:0:
256,192,55119,1,4,0:0:0:0:
256,192,55346,1,8,0:0:0:0:
256,192,55421,1,8,0:0:0:0:
256,192,55497,1,8,0:0:0:0:
256,192,55800,1,0,0:0:0:0:
256,192,56027,1,8,0:0:0:0:
256,192,56255,1,0,0:0:0:0:
256,192,56368,1,0,0:0:0:0:
256,192,56709,1,0,0:0:0:0:
256,192,56937,1,12,0:0:0:0:
256,192,57164,1,0,0:0:0:0:
256,192,57505,1,0,0:0:0:0:
256,192,57618,1,0,0:0:0:0:
256,192,57732,1,0,0:0:0:0:
256,192,57846,1,8,0:0:0:0:
256,192,58073,1,0,0:0:0:0:
256,192,58187,1,8,0:0:0:0:
256,192,58414,1,8,0:0:0:0:
256,192,58528,1,8,0:0:0:0:
256,192,58641,1,8,0:0:0:0:
256,192,58755,1,4,0:0:0:0:
256,192,58982,1,8,0:0:0:0:
256,192,59096,1,0,0:0:0:0:
256,192,59437,1,8,0:0:0:0:
256,192,59664,1,8,0:0:0:0:
256,192,59891,1,0,0:0:0:0:
256,192,60005,1,0,0:0:0:0:
256,192,60346,1,0,0:0:0:0:
256,192,60573,1,12,0:0:0:0:
256,192,60800,1,0,0:0:0:0:
256,192,61028,1,0,0:0:0:0:
256,192,61141,1,8,0:0:0:0:
256,192,61255,1,8,0:0:0:0:
256,192,61482,1,8,0:0:0:0:
256,192,61709,1,0,0:0:0:0:
256,192,61823,1,0,0:0:0:0:
256,192,62164,1,0,0:0:0:0:
256,192,62391,1,4,0:0:0:0:
256,192,62618,1,8,0:0:0:0:
256,192,62694,1,8,0:0:0:0:
256,192,62770,1,8,0:0:0:0:
256,192,63073,1,8,0:0:0:0:
256,192,63300,1,8,0:0:0:0:
256,192,63528,1,0,0:0:0:0:
256,192,63641,1,0,0:0:0:0:
256,192,63982,1,0,0:0:0:0:
256,192,64209,1,12,0:0:0:0:
256,192,64437,1,0,0:0:0:0:
256,192,64664,1,0,0:0:0:0:
256,192,64777,1,8,0:0:0:0:
256,192,64891,1,8,0:0:0:0:
256,192,65118,1,8,0:0:0:0:
256,192,65232,1,0,0:0:0:0:
256,192,65345,1,0,0:0:0:0:
256,192,65459,1,8,0:0:0:0:
256,192,65687,1,8,0:0:0:0:
256,192,65800,1,8,0:0:0:0:
256,192,65914,1,8,0:0:0:0:
256,192,66028,1,4,0:0:0:0:
256,192,66255,1,8,0:0:0:0:
256,192,66312,1,8,0:0:0:0:
256,192,66369,1,0,0:0:0:0:
256,192,66426,1,0,0:0:0:0:
256,192,66709,1,8,0:0:0:0:
256,192,66937,1,8,0:0:0:0:
256,192,67164,1,0,0:0:0:0:
256,192,67278,1,0,0:0:0:0:
256,192,67618,1,0,0:0:0:0:
256,192,67846,1,12,0:0:0:0:
256,192,68073,1,0,0:0:0:0:
256,192,68300,1,0,0:0:0:0:
256,192,68414,1,8,0:0:0:0:
256,192,68528,1,8,0:0:0:0:
256,192,68755,1,8,0:0:0:0:
256,192,68982,1,0,0:0:0:0:
256,192,69096,1,0,0:0:0:0:
256,192,69437,1,0,0:0:0:0:
256,192,69664,1,4,0:0:0:0:
256,192,69891,1,8,0:0:0:0:
256,192,69967,1,8,0:0:0:0:
256,192,70043,1,8,0:0:0:0:
256,192,70346,1,8,0:0:0:0:
256,192,70573,1,8,0:0:0:0:
256,192,70800,1,0,0:0:0:0:
256,192,70914,1,0,0:0:0:0:
256,192,71255,1,0,0:0:0:0:
256,192,71482,1,12,0:0:0:0:
256,192,71709,1,0,0:0:0:0:
256,192,71937,1,0,0:0:0:0:
256,192,72050,1,8,0:0:0:0:
256,192,72164,1,0,0:0:0:0:
256,192,72278,1,8,0:0:0:0:
256,192,72391,1,0,0:0:0:0:
256,192,72505,1,8,0:0:0:0:
256,192,72618,1,8,0:0:0:0:
256,192,72732,1,8,0:0:0:0:
256,192,72846,1,0,0:0:0:0:
256,192,72959,1,0,0:0:0:0:
256,192,73073,1,8,0:0:0:0:
256,192,73187,1,8,0:0:0:0:
256,192,73300,1,4,0:0:0:0:
256,192,73755,1,0,0:0:0:0:
256,192,88300,5,12,0:0:0:0:
256,192,88528,5,8,0:0:0:0:
256,192,88755,1,0,0:0:0:0:
256,192,88982,1,0,0:0:0:0:
256,192,90118,1,0,0:0:0:0:
256,192,90232,1,0,0:0:0:0:
256,192,90346,1,8,0:0:0:0:
256,192,90573,1,8,0:0:0:0:
256,192,90800,1,0,0:0:0:0:
256,192,90914,1,0,0:0:0:0:
256,192,92164,1,8,0:0:0:0:
256,192,92391,1,8,0:0:0:0:
256,192,92618,1,0,0:0:0:0:
256,192,93755,1,0,0:0:0:0:
256,192,93868,1,0,0:0:0:0:
256,192,93982,1,8,0:0:0:0:
256,192,94209,1,0,0:0:0:0:
256,192,94323,1,8,0:0:0:0:
256,192,94437,1,8,0:0:0:0:
256,192,94550,1,8,0:0:0:0:
256,192,95800,1,8,0:0:0:0:
256,192,96028,1,0,0:0:0:0:
256,192,96255,1,0,0:0:0:0:
256,192,97391,1,0,0:0:0:0:
256,192,97505,1,0,0:0:0:0:
256,192,97618,1,8,0:0:0:0:
256,192,97846,1,8,0:0:0:0:
256,192,98073,1,0,0:0:0:0:
256,192,98187,1,0,0:0:0:0:
256,192,99437,1,8,0:0:0:0:
256,192,99664,1,8,0:0:0:0:
256,192,99891,1,0,0:0:0:0:
256,192,101028,1,0,0:0:0:0:
256,192,101141,1,0,0:0:0:0:
256,192,101255,1,8,0:0:0:0:
256,192,101482,1,0,0:0:0:0:
256,192,101596,1,8,0:0:0:0:
256,192,101709,1,8,0:0:0:0:
256,192,101823,1,8,0:0:0:0:
256,192,102050,1,8,0:0:0:0:
256,192,102164,1,8,0:0:0:0:
256,192,102278,1,0,0:0:0:0:
256,192,102391,1,8,0:0:0:0:
256,192,102505,1,0,0:0:0:0:
256,192,102618,1,0,0:0:0:0:
256,192,102732,1,8,0:0:0:0:
256,192,102846,1,4,0:0:0:0:
256,192,103073,1,8,0:0:0:0:
256,192,103300,1,8,0:0:0:0:
256,192,103528,1,0,0:0:0:0:
256,192,103982,1,0,0:0:0:0:
256,192,104209,1,8,0:0:0:0:
256,192,104285,1,8,0:0:0:0:
256,192,104361,1,8,0:0:0:0:
256,192,104437,1,0,0:0:0:0:
256,192,104664,1,0,0:0:0:0:
256,192,104778,1,0,0:0:0:0:
256,192,104891,1,8,0:0:0:0:
256,192,105118,1,8,0:0:0:0:
256,192,105346,1,0,0:0:0:0:
256,192,105459,1,0,0:0:0:0:
256,192,105800,1,0,0:0:0:0:
256,192,106028,1,8,0:0:0:0:
256,192,106084,1,8,0:0:0:0:
256,192,106141,1,8,0:0:0:0:
256,192,106198,1,8,0:0:0:0:
256,192,106256,1,8,0:0:0:0:
256,192,106709,1,8,0:0:0:0:
256,192,106937,1,8,0:0:0:0:
256,192,107164,1,0,0:0:0:0:
256,192,107618,1,0,0:0:0:0:
256,192,107846,1,8,0:0:0:0:
256,192,107922,1,8,0:0:0:0:
256,192,107998,1,8,0:0:0:0:
256,192,108073,1,0,0:0:0:0:
256,192,108300,1,0,0:0:0:0:
256,192,108414,1,0,0:0:0:0:
256,192,108528,1,8,0:0:0:0:
256,192,108755,1,0,0:0:0:0:
256,192,108868,1,8,0:0:0:0:
256,192,108982,1,8,0:0:0:0:
256,192,109096,1,8,0:0:0:0:
256,192,109437,1,0,0:0:0:0:
256,192,109664,1,12,0:0:0:0:
256,192,110346,1,8,0:0:0:0:
256,192,110573,1,8,0:0:0:0:
256,192,110800,1,0,0:0:0:0:
256,192,111425,1,8,0:0:0:0:
256,192,111482,1,8,0:0:0:0:
256,192,111653,1,8,0:0:0:0:
256,192,111709,1,8,0:0:0:0:
256,192,111766,1,8,0:0:0:0:
256,192,111937,1,0,0:0:0:0:
256,192,112050,1,0,0:0:0:0:
256,192,112164,1,8,0:0:0:0:
256,192,112391,1,8,0:0:0:0:
256,192,112618,1,0,0:0:0:0:
256,192,112732,1,0,0:0:0:0:
256,192,113243,1,8,0:0:0:0:
256,192,113300,1,8,0:0:0:0:
256,192,113471,1,8,0:0:0:0:
256,192,113528,1,8,0:0:0:0:
256,192,113584,1,8,0:0:0:0:
256,192,113982,1,8,0:0:0:0:
256,192,114209,1,8,0:0:0:0:
256,192,114437,1,0,0:0:0:0:
256,192,115118,1,8,0:0:0:0:
256,192,117391,1,0,0:0:0:0:
256,192,117618,1,0,0:0:0:0:
256,192,117732,1,8,0:0:0:0:
256,192,117959,1,0,0:0:0:0:
256,192,118187,1,0,0:0:0:0:
256,192,118300,1,8,0:0:0:0:
256,192,118755,1,4,0:0:0:0:
256,192,118982,1,0,0:0:0:0:
256,192,119096,1,0,0:0:0:0:
256,192,119209,1,8,0:0:0:0:
256,192,119436,1,0,0:0:0:0:
256,192,119550,1,8,0:0:0:0:
256,192,119777,1,0,0:0:0:0:
256,192,119891,1,0,0:0:0:0:
256,192,120005,1,0,0:0:0:0:
256,192,120118,1,8,0:0:0:0:
256,192,120346,1,0,0:0:0:0:
256,192,120573,1,12,0:0:0:0:
256,192,120800,1,0,0:0:0:0:
256,192,120914,1,0,0:0:0:0:
256,192,121028,1,8,0:0:0:0:
256,192,121255,1,0,0:0:0:0:
256,192,121368,1,8,0:0:0:0:
256,192,121596,1,0,0:0:0:0:
256,192,121823,1,0,0:0:0:0:
256,192,121936,1,8,0:0:0:0:
256,192,122391,1,4,0:0:0:0:
256,192,122618,1,0,0:0:0:0:
256,192,122732,1,0,0:0:0:0:
256,192,122846,1,8,0:0:0:0:
256,192,123073,1,0,0:0:0:0:
256,192,123186,1,8,0:0:0:0:
256,192,123414,1,0,0:0:0:0:
256,192,123528,1,0,0:0:0:0:
256,192,123641,1,0,0:0:0:0:
256,192,123755,1,8,0:0:0:0:
256,192,123982,1,0,0:0:0:0:
256,192,124209,1,12,0:0:0:0:
256,192,124437,1,0,0:0:0:0:
256,192,124550,1,0,0:0:0:0:
256,192,124664,1,8,0:0:0:0:
256,192,124891,1,0,0:0:0:0:
256,192,125005,1,8,0:0:0:0:
256,192,125232,1,8,0:0:0:0:
256,192,125346,1,0,0:0:0:0:
256,192,125459,1,0,0:0:0:0:
256,192,125573,1,8,0:0:0:0:
256,192,126028,1,4,0:0:0:0:
256,192,126255,1,8,0:0:0:0:
256,192,126368,1,0,0:0:0:0:
256,192,126482,1,8,0:0:0:0:
256,192,126709,1,0,0:0:0:0:
256,192,126823,1,8,0:0:0:0:
256,192,127050,1,8,0:0:0:0:
256,192,127164,1,0,0:0:0:0:
256,192,127278,1,0,0:0:0:0:
256,192,127391,1,8,0:0:0:0:
256,192,127618,1,0,0:0:0:0:
256,192,127846,1,12,0:0:0:0:
256,192,128073,1,8,0:0:0:0:
256,192,128187,1,8,0:0:0:0:
256,192,128300,1,0,0:0:0:0:
256,192,128528,1,0,0:0:0:0:
256,192,128641,1,8,0:0:0:0:
256,192,128868,1,8,0:0:0:0:
256,192,128982,1,0,0:0:0:0:
256,192,129096,1,8,0:0:0:0:
256,192,129209,1,8,0:0:0:0:
256,192,129664,1,4,0:0:0:0:
256,192,129891,1,8,0:0:0:0:
256,192,130005,1,8,0:0:0:0:
256,192,130118,1,8,0:0:0:0:
256,192,130346,1,0,0:0:0:0:
256,192,130459,1,8,0:0:0:0:
256,192,130687,1,8,0:0:0:0:
256,192,130800,1,8,0:0:0:0:
256,192,130914,1,0,0:0:0:0:
256,192,131028,1,8,0:0:0:0:
256,192,131255,1,8,0:0:0:0:
256,192,131482,1,12,0:0:0:0:
256,192,131937,1,8,0:0:0:0:
256,192,132164,1,8,0:0:0:0:
256,192,132278,1,8,0:0:0:0:
256,192,132505,1,8,0:0:0:0:
256,192,132618,1,8,0:0:0:0:
256,192,132732,1,8,0:0:0:0:
256,192,132959,1,8,0:0:0:0:
256,192,133300,1,12,0:0:0:0:
256,192,133528,1,8,0:0:0:0:
256,192,133641,1,8,0:0:0:0:
256,192,133755,1,8,0:0:0:0:
256,192,133982,1,8,0:0:0:0:
256,192,134096,1,8,0:0:0:0:
256,192,134323,1,8,0:0:0:0:
256,192,134437,1,8,0:0:0:0:
256,192,134550,1,8,0:0:0:0:
256,192,134778,1,8,0:0:0:0:
256,192,135005,1,8,0:0:0:0:
256,192,135118,1,12,0:0:0:0:
256,192,135346,1,8,0:0:0:0:
256,192,135459,1,8,0:0:0:0:
256,192,135573,1,8,0:0:0:0:
256,192,135800,1,8,0:0:0:0:
256,192,135914,1,8,0:0:0:0:
256,192,136141,1,8,0:0:0:0:
256,192,136255,1,8,0:0:0:0:
256,192,136368,1,8,0:0:0:0:
256,192,136596,1,8,0:0:0:0:
256,192,136937,1,12,0:0:0:0:
256,192,137164,1,8,0:0:0:0:
256,192,137278,1,8,0:0:0:0:
256,192,137391,1,8,0:0:0:0:
256,192,137618,1,8,0:0:0:0:
256,192,137732,1,8,0:0:0:0:
256,192,137959,1,8,0:0:0:0:
256,192,138073,1,8,0:0:0:0:
256,192,138187,1,8,0:0:0:0:
256,192,138414,1,8,0:0:0:0:
256,192,138641,1,8,0:0:0:0:
256,192,138755,1,12,0:0:0:0:
256,192,138982,1,8,0:0:0:0:
256,192,139096,1,8,0:0:0:0:
256,192,139209,1,8,0:0:0:0:
256,192,139437,1,8,0:0:0:0:
256,192,139550,1,8,0:0:0:0:
256,192,139778,1,8,0:0:0:0:
256,192,140005,1,8,0:0:0:0:
256,192,140118,1,8,0:0:0:0:
256,192,140232,1,8,0:0:0:0:
256,192,140459,1,8,0:0:0:0:
256,192,140573,1,12,0:0:0:0:
256,192,140800,1,8,0:0:0:0:
256,192,140914,1,8,0:0:0:0:
256,192,141028,1,8,0:0:0:0:
256,192,141254,1,8,0:0:0:0:
256,192,141368,1,8,0:0:0:0:
256,192,141596,1,8,0:0:0:0:
256,192,141709,1,8,0:0:0:0:
256,192,141823,1,8,0:0:0:0:
256,192,141936,1,8,0:0:0:0:
256,192,142050,1,8,0:0:0:0:
256,192,142391,1,12,0:0:0:0:
256,192,142618,1,8,0:0:0:0:
256,192,142732,1,8,0:0:0:0:
256,192,142845,1,8,0:0:0:0:
256,192,143073,1,8,0:0:0:0:
256,192,143186,1,8,0:0:0:0:
256,192,143414,1,8,0:0:0:0:
256,192,143528,1,8,0:0:0:0:
256,192,143641,1,8,0:0:0:0:
256,192,143754,1,8,0:0:0:0:
256,192,143868,1,8,0:0:0:0:
256,192,144096,1,8,0:0:0:0:
256,192,144209,1,12,0:0:0:0:
256,192,144437,1,8,0:0:0:0:
256,192,144550,1,8,0:0:0:0:
256,192,144664,1,8,0:0:0:0:
256,192,144891,1,8,0:0:0:0:
256,192,145005,1,8,0:0:0:0:
256,192,145118,1,8,0:0:0:0:
256,192,145345,1,8,0:0:0:0:
256,192,145573,1,8,0:0:0:0:
256,192,145686,1,8,0:0:0:0:
256,192,145800,1,12,0:0:0:0:
256,192,146027,1,4,0:0:0:0:
256,192,146709,1,0,0:0:0:0:
256,192,146936,1,8,0:0:0:0:
256,192,147164,1,0,0:0:0:0:
256,192,147277,1,0,0:0:0:0:
256,192,147618,1,0,0:0:0:0:
256,192,147846,1,12,0:0:0:0:
256,192,148073,1,0,0:0:0:0:
256,192,148414,1,0,0:0:0:0:
256,192,148527,1,0,0:0:0:0:
256,192,148755,1,8,0:0:0:0:
256,192,148982,1,8,0:0:0:0:
256,192,149096,1,0,0:0:0:0:
256,192,149436,1,0,0:0:0:0:
256,192,149664,1,4,0:0:0:0:
256,192,149891,1,8,0:0:0:0:
256,192,149967,1,8,0:0:0:0:
256,192,150042,1,8,0:0:0:0:
256,192,150346,1,0,0:0:0:0:
256,192,150573,1,8,0:0:0:0:
256,192,150800,1,0,0:0:0:0:
256,192,150914,1,0,0:0:0:0:
256,192,151255,1,0,0:0:0:0:
256,192,151482,1,12,0:0:0:0:
256,192,151709,1,0,0:0:0:0:
256,192,152050,1,0,0:0:0:0:
256,192,152164,1,0,0:0:0:0:
256,192,152391,1,8,0:0:0:0:
256,192,152618,1,0,0:0:0:0:
256,192,152732,1,8,0:0:0:0:
256,192,153073,1,0,0:0:0:0:
256,192,153300,1,4,0:0:0:0:
256,192,153527,1,8,0:0:0:0:
256,192,153584,1,8,0:0:0:0:
256,192,153641,1,0,0:0:0:0:
256,192,153698,1,0,0:0:0:0:
256,192,153982,1,0,0:0:0:0:
256,192,154209,1,8,0:0:0:0:
256,192,154436,1,0,0:0:0:0:
256,192,154550,1,0,0:0:0:0:
256,192,154891,1,0,0:0:0:0:
256,192,155118,1,12,0:0:0:0:
256,192,155346,1,0,0:0:0:0:
256,192,155687,1,0,0:0:0:0:
256,192,155800,1,0,0:0:0:0:
256,192,156027,1,8,0:0:0:0:
256,192,156255,1,8,0:0:0:0:
256,192,156368,1,0,0:0:0:0:
256,192,156709,1,0,0:0:0:0:
256,192,156937,1,4,0:0:0:0:
256,192,157164,1,8,0:0:0:0:
256,192,157239,1,8,0:0:0:0:
256,192,157315,1,8,0:0:0:0:
256,192,157618,1,0,0:0:0:0:
256,192,157846,1,8,0:0:0:0:
256,192,158073,1,0,0:0:0:0:
256,192,158187,1,0,0:0:0:0:
256,192,158528,1,0,0:0:0:0:
256,192,158755,1,12,0:0:0:0:
256,192,158982,1,0,0:0:0:0:
256,192,159323,1,0,0:0:0:0:
256,192,159437,1,0,0:0:0:0:
256,192,159550,1,0,0:0:0:0:
256,192,159664,1,8,0:0:0:0:
256,192,159778,1,0,0:0:0:0:
256,192,159891,1,0,0:0:0:0:
256,192,160005,1,8,0:0:0:0:
256,192,160232,1,8,0:0:0:0:
256,192,160346,1,8,0:0:0:0:
256,192,160459,1,8,0:0:0:0:
256,192,160573,1,4,0:0:0:0:
256,192,160800,1,8,0:0:0:0:
256,192,160914,1,0,0:0:0:0:
256,192,161255,1,8,0:0:0:0:
256,192,161482,1,8,0:0:0:0:
256,192,161709,1,0,0:0:0:0:
256,192,161823,1,0,0:0:0:0:
256,192,162164,1,0,0:0:0:0:
256,192,162391,1,12,0:0:0:0:
256,192,162618,1,0,0:0:0:0:
256,192,162846,1,0,0:0:0:0:
256,192,162959,1,8,0:0:0:0:
256,192,163073,1,8,0:0:0:0:
256,192,163300,1,8,0:0:0:0:
256,192,163528,1,0,0:0:0:0:
256,192,163641,1,0,0:0:0:0:
256,192,163982,1,0,0:0:0:0:
256,192,164209,1,4,0:0:0:0:
256,192,164436,1,8,0:0:0:0:
256,192,164512,1,8,0:0:0:0:
256,192,164588,1,8,0:0:0:0:
256,192,164891,1,8,0:0:0:0:
256,192,165118,1,8,0:0:0:0:
256,192,165346,1,0,0:0:0:0:
256,192,165459,1,0,0:0:0:0:
256,192,165800,1,0,0:0:0:0:
256,192,166028,1,12,0:0:0:0:
256,192,166255,1,0,0:0:0:0:
256,192,166482,1,0,0:0:0:0:
256,192,166596,1,8,0:0:0:0:
256,192,166709,1,8,0:0:0:0:
256,192,166937,1,8,0:0:0:0:
256,192,167050,1,0,0:0:0:0:
256,192,167164,1,8,0:0:0:0:
256,192,167278,1,8,0:0:0:0:
256,192,167391,1,0,0:0:0:0:
256,192,167505,1,8,0:0:0:0:
256,192,167618,1,8,0:0:0:0:
256,192,167732,1,8,0:0:0:0:
256,192,167846,1,4,0:0:0:0:
256,192,168073,1,8,0:0:0:0:
256,192,168130,1,8,0:0:0:0:
256,192,168187,1,0,0:0:0:0:
256,192,168243,1,0,0:0:0:0:
256,192,168528,1,8,0:0:0:0:
256,192,168755,1,8,0:0:0:0:
256,192,168982,1,0,0:0:0:0:
256,192,169096,1,0,0:0:0:0:
256,192,169437,1,0,0:0:0:0:
256,192,169664,1,12,0:0:0:0:
256,192,169891,1,0,0:0:0:0:
256,192,170118,1,0,0:0:0:0:
256,192,170232,1,8,0:0:0:0:
256,192,170346,1,8,0:0:0:0:
256,192,170573,1,8,0:0:0:0:
256,192,170800,1,0,0:0:0:0:
256,192,170914,1,0,0:0:0:0:
256,192,171255,1,0,0:0:0:0:
256,192,171482,1,4,0:0:0:0:
256,192,171709,1,8,0:0:0:0:
256,192,171785,1,8,0:0:0:0:
256,192,171861,1,8,0:0:0:0:
256,192,172164,1,8,0:0:0:0:
256,192,172391,1,8,0:0:0:0:
256,192,172618,1,0,0:0:0:0:
256,192,172732,1,0,0:0:0:0:
256,192,173073,1,0,0:0:0:0:
256,192,173300,1,12,0:0:0:0:
256,192,173528,1,0,0:0:0:0:
256,192,173755,1,0,0:0:0:0:
256,192,173868,1,0,0:0:0:0:
256,192,173982,1,8,0:0:0:0:
256,192,174096,1,8,0:0:0:0:
256,192,174209,1,0,0:0:0:0:
256,192,174323,1,8,0:0:0:0:
256,192,174437,1,8,0:0:0:0:
256,192,174550,1,8,0:0:0:0:
256,192,174664,1,0,0:0:0:0:
256,192,174778,1,8,0:0:0:0:
256,192,174891,1,0,0:0:0:0:
256,192,175005,1,0,0:0:0:0:
256,192,175118,1,4,0:0:0:0:
256,192,175573,1,0,0:0:0:0:
