osu file format v14

[General]
AudioFilename: audio.mp3
AudioLeadIn: 0
PreviewTime: 44662
Countdown: 0
SampleSet: Normal
StackLeniency: 0.2
Mode: 1
LetterboxInBreaks: 0
WidescreenStoryboard: 1

[Editor]
DistanceSpacing: 0.9
BeatDivisor: 2
GridSize: 32
TimelineZoom: 1.2

[Metadata]
Title:dungeon music
TitleUnicode:dungeon music
Artist:sakuraburst
ArtistUnicode:sakuraburst
Creator:iceOC
Version:Cynp-zy's Futsuu
Source:osu!
Tags:experimental instrumental electronic blood orange ep mappers guild featured artist fa cynplytholowazy -gn junior
BeatmapID:2220385
BeatmapSetID:1056653

[Difficulty]
HPDrainRate:6.5
CircleSize:10
OverallDifficulty:4
ApproachRate:10
SliderMultiplier:1.4
SliderTickRate:1

[Events]
//Background and Video events
0,0,"BG.jpg",0,0
//Break Periods
//Storyboard Layer 0 (Background)
//Storyboard Layer 1 (Fail)
//Storyboard Layer 2 (Pass)
//Storyboard Layer 3 (Foreground)
//Storyboard Layer 4 (Overlay)
//Storyboard Sound Samples

[TimingPoints]
1028,454.545454545455,4,1,0,60,1,0
13755,-100,4,1,0,5,0,0
15459,-100,4,1,0,70,0,0
44323,-100,4,1,0,5,0,0
44778,-100,4,1,0,90,0,0
44891,-100,4,1,0,90,0,1
59209,-100,4,1,0,90,0,0
59437,-100,4,1,0,90,0,1
73641,-100,4,1,0,60,0,1
73755,-100,4,1,0,60,0,0
73868,-100,4,1,0,55,0,0
73925,-100,4,1,0,50,0,0
73982,-100,4,1,0,45,0,0
74039,-100,4,1,0,40,0,0
74096,-100,4,1,0,35,0,0
74153,-100,4,1,0,31,0,0
74209,-100,4,1,0,27,0,0
74266,-100,4,1,0,23,0,0
74323,-100,4,1,0,19,0,0
74380,-100,4,1,0,16,0,0
74437,-100,4,1,0,13,0,0
74493,-100,4,1,0,10,0,0
74550,-100,4,1,0,8,0,0
74607,-100,4,1,0,6,0,0
74664,-100,4,1,0,5,0,0
75459,-100,4,1,0,5,0,0
88187,-100,4,1,0,50,0,0
100914,-100,4,1,0,51,0,0
101368,-100,1,1,0,52,0,0
101937,-100,1,1,0,53,0,0
102106,-100,1,1,0,54,0,0
102220,-100,1,1,0,55,0,0
102334,-100,1,1,0,56,0,0
102447,-100,1,1,0,57,0,0
102561,-100,1,1,0,58,0,0
102674,-100,1,1,0,59,0,0
102788,-100,1,1,0,60,0,0
117278,-100,1,1,0,70,0,0
131823,-100,4,1,0,90,0,0
146141,-100,4,1,0,5,0,0
146596,-100,4,1,0,100,0,0
146709,-100,4,1,0,100,0,1
161028,-100,4,1,0,100,0,0
161255,-100,4,1,0,100,0,1
175459,-100,4,1,0,60,0,1
175573,-100,4,1,0,60,0,0

[HitObjects]
256,192,1028,5,0,0:0:0:0:
256,192,1255,5,2,0:0:0:0:
256,192,1482,1,0,0:0:0:0:
256,192,1709,1,0,0:0:0:0:
256,192,2846,1,0,0:0:0:0:
256,192,3073,1,2,0:0:0:0:
256,192,3300,1,0,0:0:0:0:
256,192,3528,1,0,0:0:0:0:
256,192,3982,1,0,0:0:0:0:
256,192,4664,1,0,0:0:0:0:
256,192,4891,1,2,0:0:0:0:
256,192,5118,1,0,0:0:0:0:
256,192,5346,1,0,0:0:0:0:
256,192,6482,1,0,0:0:0:0:
256,192,6709,1,2,0:0:0:0:
256,192,6937,1,0,0:0:0:0:
256,192,7164,1,0,0:0:0:0:
256,192,7846,1,2,0:0:0:0:
256,192,8300,1,0,0:0:0:0:
256,192,8528,1,2,0:0:0:0:
256,192,8755,1,0,0:0:0:0:
256,192,9209,1,0,0:0:0:0:
256,192,10118,1,0,0:0:0:0:
256,192,10346,1,2,0:0:0:0:
256,192,10573,1,0,0:0:0:0:
256,192,11028,1,0,0:0:0:0:
256,192,11709,1,2,0:0:0:0:
256,192,11937,1,0,0:0:0:0:
256,192,12164,1,2,0:0:0:0:
256,192,12391,1,0,0:0:0:0:
256,192,12846,1,0,0:0:0:0:
256,192,13300,1,0,0:0:0:0:
256,192,13528,1,2,0:0:0:0:
256,192,15573,1,0,0:0:0:0:
256,192,16255,1,0,0:0:0:0:
256,192,16937,1,2,0:0:0:0:
256,192,17391,1,0,0:0:0:0:
256,192,18073,1,0,0:0:0:0:
256,192,18755,1,2,0:0:0:0:
256,192,19209,1,0,0:0:0:0:
256,192,19891,1,0,0:0:0:0:
256,192,20573,1,2,0:0:0:0:
256,192,21028,1,0,0:0:0:0:
256,192,21709,1,0,0:0:0:0:
256,192,22391,1,2,0:0:0:0:
256,192,22618,1,2,0:0:0:0:
256,192,22846,1,0,0:0:0:0:
256,192,23300,1,2,0:0:0:0:
256,192,23528,1,0,0:0:0:0:
256,192,24209,1,2,0:0:0:0:
256,192,24664,1,0,0:0:0:0:
256,192,25118,1,2,0:0:0:0:
256,192,25346,1,0,0:0:0:0:
256,192,26028,1,2,0:0:0:0:
256,192,26482,1,0,0:0:0:0:
256,192,26937,1,2,0:0:0:0:
256,192,27164,1,0,0:0:0:0:
256,192,27846,1,2,0:0:0:0:
256,192,28300,1,0,0:0:0:0:
256,192,28755,1,2,0:0:0:0:
256,192,28982,1,0,0:0:0:0:
256,192,29664,1,2,0:0:0:0:
256,192,30118,1,4,0:0:0:0:
256,192,30573,1,2,0:0:0:0:
256,192,30800,1,0,0:0:0:0:
256,192,31255,1,0,0:0:0:0:
256,192,31482,1,2,0:0:0:0:
256,192,31937,1,0,0:0:0:0:
256,192,32391,1,2,0:0:0:0:
256,192,32618,1,0,0:0:0:0:
256,192,33300,1,2,0:0:0:0:
256,192,33755,1,0,0:0:0:0:
256,192,34209,1,2,0:0:0:0:
256,192,34437,1,0,0:0:0:0:
256,192,34891,1,0,0:0:0:0:
256,192,35118,1,2,0:0:0:0:
256,192,35573,1,0,0:0:0:0:
256,192,36028,1,2,0:0:0:0:
256,192,36255,1,0,0:0:0:0:
256,192,36937,1,2,0:0:0:0:
256,192,37164,1,2,0:0:0:0:
256,192,37391,1,0,0:0:0:0:
256,192,37846,1,2,0:0:0:0:
256,192,38073,1,0,0:0:0:0:
256,192,38528,1,0,0:0:0:0:
256,192,38755,1,2,0:0:0:0:
256,192,39209,1,0,0:0:0:0:
256,192,39664,1,2,0:0:0:0:
256,192,39891,1,0,0:0:0:0:
256,192,40573,1,2,0:0:0:0:
256,192,41028,1,0,0:0:0:0:
256,192,41482,1,2,0:0:0:0:
256,192,41709,1,0,0:0:0:0:
256,192,42164,1,0,0:0:0:0:
256,192,42391,1,2,0:0:0:0:
256,192,42846,1,0,0:0:0:0:
256,192,43300,1,2,0:0:0:0:
256,192,43528,1,0,0:0:0:0:
256,192,43982,1,2,0:0:0:0:
256,192,44209,1,2,0:0:0:0:
256,192,44891,1,4,0:0:0:0:
256,192,45118,1,2,0:0:0:0:
256,192,45573,1,0,0:0:0:0:
256,192,46028,1,2,0:0:0:0:
256,192,46709,1,2,0:0:0:0:
256,192,46937,1,0,0:0:0:0:
256,192,47391,1,0,0:0:0:0:
256,192,47846,1,2,0:0:0:0:
256,192,48528,1,0,0:0:0:0:
256,192,48755,1,2,0:0:0:0:
256,192,49209,1,0,0:0:0:0:
256,192,49664,1,2,0:0:0:0:
256,192,50346,1,2,0:0:0:0:
256,192,50573,1,0,0:0:0:0:
256,192,51028,1,0,0:0:0:0:
256,192,51255,1,0,0:0:0:0:
256,192,51482,1,2,0:0:0:0:
256,192,52164,1,0,0:0:0:0:
256,192,52391,1,2,0:0:0:0:
256,192,52846,1,0,0:0:0:0:
256,192,53073,1,0,0:0:0:0:
256,192,53300,1,2,0:0:0:0:
256,192,53982,1,2,0:0:0:0:
256,192,54209,1,0,0:0:0:0:
256,192,54664,1,0,0:0:0:0:
256,192,54891,1,0,0:0:0:0:
256,192,55118,1,2,0:0:0:0:
256,192,55800,1,0,0:0:0:0:
256,192,56028,1,2,0:0:0:0:
256,192,56482,1,0,0:0:0:0:
256,192,56709,1,0,0:0:0:0:
256,192,56937,1,2,0:0:0:0:
256,192,57618,1,2,0:0:0:0:
256,192,57846,1,0,0:0:0:0:
256,192,58073,1,2,0:0:0:0:
256,192,58300,1,0,0:0:0:0:
256,192,58755,1,2,0:0:0:0:
256,192,58982,1,0,0:0:0:0:
256,192,59437,1,4,0:0:0:0:
256,192,59664,1,2,0:0:0:0:
256,192,60118,1,0,0:0:0:0:
256,192,60573,1,2,0:0:0:0:
256,192,61255,1,2,0:0:0:0:
256,192,61482,1,0,0:0:0:0:
256,192,61937,1,0,0:0:0:0:
256,192,62391,1,2,0:0:0:0:
256,192,63073,1,0,0:0:0:0:
256,192,63300,1,2,0:0:0:0:
256,192,63755,1,0,0:0:0:0:
256,192,64209,1,2,0:0:0:0:
256,192,64891,1,2,0:0:0:0:
256,192,65118,1,0,0:0:0:0:
256,192,65573,1,2,0:0:0:0:
256,192,65800,1,2,0:0:0:0:
256,192,66028,1,0,0:0:0:0:
256,192,66709,1,0,0:0:0:0:
256,192,66937,1,2,0:0:0:0:
256,192,67391,1,0,0:0:0:0:
256,192,67618,1,0,0:0:0:0:
256,192,67846,1,2,0:0:0:0:
256,192,68528,1,2,0:0:0:0:
256,192,68755,1,0,0:0:0:0:
256,192,69209,1,0,0:0:0:0:
256,192,69437,1,0,0:0:0:0:
256,192,69664,1,2,0:0:0:0:
256,192,70346,1,0,0:0:0:0:
256,192,70573,1,2,0:0:0:0:
256,192,71028,1,0,0:0:0:0:
256,192,71255,1,0,0:0:0:0:
256,192,71482,1,2,0:0:0:0:
256,192,72164,1,2,0:0:0:0:
256,192,72391,1,0,0:0:0:0:
256,192,72618,1,0,0:0:0:0:
256,192,73073,1,0,0:0:0:0:
256,192,73300,1,2,0:0:0:0:
256,192,73755,1,4,0:0:0:0:
256,192,74209,12,4,86482,0:0:0:0:
256,192,88528,5,2,0:0:0:0:
256,192,88755,1,0,0:0:0:0:
256,192,88982,1,0,0:0:0:0:
256,192,90118,1,0,0:0:0:0:
256,192,90346,1,2,0:0:0:0:
256,192,90573,1,2,0:0:0:0:
256,192,90801,1,0,0:0:0:0:
256,192,92164,5,2,0:0:0:0:
256,192,92391,1,0,0:0:0:0:
256,192,92618,1,0,0:0:0:0:
256,192,93755,1,0,0:0:0:0:
256,192,93982,1,2,0:0:0:0:
256,192,94210,1,2,0:0:0:0:
256,192,94437,1,2,0:0:0:0:
256,192,95800,1,2,0:0:0:0:
256,192,96028,1,0,0:0:0:0:
256,192,96255,1,0,0:0:0:0:
256,192,97391,1,0,0:0:0:0:
256,192,97618,1,2,0:0:0:0:
256,192,97846,1,2,0:0:0:0:
256,192,98073,1,0,0:0:0:0:
256,192,99437,1,2,0:0:0:0:
256,192,99664,1,0,0:0:0:0:
256,192,99891,1,0,0:0:0:0:
256,192,101028,1,0,0:0:0:0:
256,192,101255,1,2,0:0:0:0:
256,192,101481,1,2,0:0:0:0:
256,192,101709,1,2,0:0:0:0:
256,192,102391,1,0,0:0:0:0:
256,192,102846,1,4,0:0:0:0:
256,192,103300,1,2,0:0:0:0:
256,192,103528,1,0,0:0:0:0:
256,192,104664,1,0,0:0:0:0:
256,192,104891,1,2,0:0:0:0:
256,192,105119,1,2,0:0:0:0:
256,192,105346,1,0,0:0:0:0:
256,192,105800,1,2,0:0:0:0:
256,192,106482,1,0,0:0:0:0:
256,192,106710,1,2,0:0:0:0:
256,192,106937,1,0,0:0:0:0:
256,192,107164,1,0,0:0:0:0:
256,192,108300,1,0,0:0:0:0:
256,192,108528,1,2,0:0:0:0:
256,192,108755,1,2,0:0:0:0:
256,192,108982,1,2,0:0:0:0:
256,192,109437,1,2,0:0:0:0:
256,192,110118,1,0,0:0:0:0:
256,192,110346,1,2,0:0:0:0:
256,192,110573,1,0,0:0:0:0:
256,192,110800,1,0,0:0:0:0:
256,192,111482,1,0,0:0:0:0:
256,192,111937,1,0,0:0:0:0:
256,192,112164,1,2,0:0:0:0:
256,192,112391,1,2,0:0:0:0:
256,192,112618,1,0,0:0:0:0:
256,192,113755,1,0,0:0:0:0:
256,192,113981,1,2,0:0:0:0:
256,192,114209,1,0,0:0:0:0:
256,192,114437,1,0,0:0:0:0:
256,192,115118,1,0,0:0:0:0:
256,192,115573,1,0,0:0:0:0:
256,192,115800,1,2,0:0:0:0:
256,192,116028,1,2,0:0:0:0:
256,192,116255,1,2,0:0:0:0:
256,192,117391,1,0,0:0:0:0:
256,192,118073,1,0,0:0:0:0:
256,192,118755,1,2,0:0:0:0:
256,192,119209,1,0,0:0:0:0:
256,192,119891,1,0,0:0:0:0:
256,192,120573,1,2,0:0:0:0:
256,192,121028,1,0,0:0:0:0:
256,192,121709,1,0,0:0:0:0:
256,192,122391,1,2,0:0:0:0:
256,192,122846,1,0,0:0:0:0:
256,192,123528,1,0,0:0:0:0:
256,192,124209,1,2,0:0:0:0:
256,192,124437,1,2,0:0:0:0:
256,192,124664,1,0,0:0:0:0:
256,192,125118,1,2,0:0:0:0:
256,192,125346,1,0,0:0:0:0:
256,192,126028,1,2,0:0:0:0:
256,192,126482,1,0,0:0:0:0:
256,192,126937,1,2,0:0:0:0:
256,192,127164,1,0,0:0:0:0:
256,192,127846,1,2,0:0:0:0:
256,192,128300,1,0,0:0:0:0:
256,192,128755,1,2,0:0:0:0:
256,192,128982,1,0,0:0:0:0:
256,192,129664,1,2,0:0:0:0:
256,192,130118,1,0,0:0:0:0:
256,192,130573,1,2,0:0:0:0:
256,192,130800,1,0,0:0:0:0:
256,192,131482,1,2,0:0:0:0:
256,192,131937,1,4,0:0:0:0:
256,192,132391,1,2,0:0:0:0:
256,192,132618,1,0,0:0:0:0:
256,192,133073,1,0,0:0:0:0:
256,192,133300,1,2,0:0:0:0:
256,192,133755,1,0,0:0:0:0:
256,192,134209,1,2,0:0:0:0:
256,192,134437,1,0,0:0:0:0:
256,192,135118,1,2,0:0:0:0:
256,192,135573,1,0,0:0:0:0:
256,192,136028,1,2,0:0:0:0:
256,192,136255,1,0,0:0:0:0:
256,192,136709,1,0,0:0:0:0:
256,192,136937,1,2,0:0:0:0:
256,192,137391,1,0,0:0:0:0:
256,192,137846,1,2,0:0:0:0:
256,192,138073,1,0,0:0:0:0:
256,192,138755,1,2,0:0:0:0:
256,192,138982,1,2,0:0:0:0:
256,192,139209,1,0,0:0:0:0:
256,192,139664,1,2,0:0:0:0:
256,192,139891,1,0,0:0:0:0:
256,192,140346,1,0,0:0:0:0:
256,192,140573,1,2,0:0:0:0:
256,192,141028,1,0,0:0:0:0:
256,192,141482,1,2,0:0:0:0:
256,192,141709,1,0,0:0:0:0:
256,192,142391,1,2,0:0:0:0:
256,192,142846,1,0,0:0:0:0:
256,192,143300,1,2,0:0:0:0:
256,192,143528,1,0,0:0:0:0:
256,192,143982,1,0,0:0:0:0:
256,192,144209,1,2,0:0:0:0:
256,192,144664,1,0,0:0:0:0:
256,192,145118,1,2,0:0:0:0:
256,192,145346,1,0,0:0:0:0:
256,192,145800,1,2,0:0:0:0:
256,192,146028,1,2,0:0:0:0:
256,192,146709,1,4,0:0:0:0:
256,192,146937,1,2,0:0:0:0:
256,192,147391,1,0,0:0:0:0:
256,192,147846,1,2,0:0:0:0:
256,192,148300,1,0,0:0:0:0:
256,192,148528,1,2,0:0:0:0:
256,192,148755,1,0,0:0:0:0:
256,192,149209,1,0,0:0:0:0:
256,192,149664,1,2,0:0:0:0:
256,192,150346,1,0,0:0:0:0:
256,192,150573,1,2,0:0:0:0:
256,192,151028,1,0,0:0:0:0:
256,192,151482,1,2,0:0:0:0:
256,192,151937,1,0,0:0:0:0:
256,192,152164,1,2,0:0:0:0:
256,192,152391,1,0,0:0:0:0:
256,192,152846,1,0,0:0:0:0:
256,192,153073,1,0,0:0:0:0:
256,192,153300,1,2,0:0:0:0:
256,192,153982,1,0,0:0:0:0:
256,192,154209,1,2,0:0:0:0:
256,192,154664,1,0,0:0:0:0:
256,192,154891,1,0,0:0:0:0:
256,192,155118,1,2,0:0:0:0:
256,192,155573,1,0,0:0:0:0:
256,192,155800,1,2,0:0:0:0:
256,192,156028,1,0,0:0:0:0:
256,192,156482,1,0,0:0:0:0:
256,192,156709,1,0,0:0:0:0:
256,192,156937,1,2,0:0:0:0:
256,192,157618,1,0,0:0:0:0:
256,192,157846,1,2,0:0:0:0:
256,192,158300,1,0,0:0:0:0:
256,192,158528,1,0,0:0:0:0:
256,192,158755,1,2,0:0:0:0:
256,192,159209,1,0,0:0:0:0:
256,192,159437,1,2,0:0:0:0:
256,192,159664,1,0,0:0:0:0:
256,192,159891,1,2,0:0:0:0:
256,192,160346,1,2,0:0:0:0:
256,192,160573,1,2,0:0:0:0:
256,192,160800,1,0,0:0:0:0:
256,192,161255,1,4,0:0:0:0:
256,192,161482,1,2,0:0:0:0:
256,192,161937,1,0,0:0:0:0:
256,192,162391,1,2,0:0:0:0:
256,192,162846,1,0,0:0:0:0:
256,192,163073,1,2,0:0:0:0:
256,192,163300,1,0,0:0:0:0:
256,192,163755,1,0,0:0:0:0:
256,192,164209,1,2,0:0:0:0:
256,192,164891,1,0,0:0:0:0:
256,192,165118,1,2,0:0:0:0:
256,192,165573,1,0,0:0:0:0:
256,192,166028,1,2,0:0:0:0:
256,192,166482,1,0,0:0:0:0:
256,192,166709,1,2,0:0:0:0:
256,192,166937,1,0,0:0:0:0:
256,192,167391,1,2,0:0:0:0:
256,192,167618,1,2,0:0:0:0:
256,192,167846,1,0,0:0:0:0:
256,192,168528,1,0,0:0:0:0:
256,192,168755,1,2,0:0:0:0:
256,192,169209,1,0,0:0:0:0:
256,192,169437,1,0,0:0:0:0:
256,192,169664,1,2,0:0:0:0:
256,192,170118,1,0,0:0:0:0:
256,192,170346,1,2,0:0:0:0:
256,192,170573,1,0,0:0:0:0:
256,192,171028,1,0,0:0:0:0:
256,192,171255,1,0,0:0:0:0:
256,192,171482,1,2,0:0:0:0:
256,192,172164,1,0,0:0:0:0:
256,192,172391,1,2,0:0:0:0:
256,192,172846,1,0,0:0:0:0:
256,192,173073,1,0,0:0:0:0:
256,192,173300,1,2,0:0:0:0:
256,192,173755,1,0,0:0:0:0:
256,192,173982,1,2,0:0:0:0:
256,192,174209,1,0,0:0:0:0:
256,192,174437,1,2,0:0:0:0:
256,192,174891,1,2,0:0:0:0:
256,192,175118,1,0,0:0:0:0:
256,192,175573,1,4,0:0:0:0:
256,192,176028,12,0,189437,0:0:0:0:
