osu file format v14

[General]
AudioFilename: audio.mp3
AudioLeadIn: 0
PreviewTime: 37680
Countdown: 0
SampleSet: Soft
StackLeniency: 0.4
Mode: 0
LetterboxInBreaks: 0
WidescreenStoryboard: 0

[Editor]
Bookmarks: 115230,134430,144030,153630
DistanceSpacing: 1
BeatDivisor: 4
GridSize: 32
TimelineZoom: 2.3

[Metadata]
Title:dragonlands
TitleUnicode:dragonlands
Artist:sakuraburst
ArtistUnicode:sakuraburst
Creator:Minorsonek
Version:Walao's Insane
Source:osu!
Tags:walaowey hazu- m2usonek High Tempo Beatmap Pack FA Featured Artist Gremio Mappers' Guild MG Electronic Instrumental
BeatmapID:2153281
BeatmapSetID:1009637

[Difficulty]
HPDrainRate:5
CircleSize:4
OverallDifficulty:8
ApproachRate:9
SliderMultiplier:1.6
SliderTickRate:1

[Events]
//Background and Video events
0,0,"fantasy-3756975_1920.jpg",0,0
//Break Periods
2,134630,143430
//Storyboard Layer 0 (Background)
//Storyboard Layer 1 (Fail)
//Storyboard Layer 2 (Pass)
//Storyboard Layer 3 (Foreground)
//Storyboard Layer 4 (Overlay)
//Storyboard Sound Samples

[TimingPoints]
30,300,4,2,2,40,1,0
30,-133.333333333333,4,2,2,40,0,0
19230,-133.333333333333,4,2,2,50,0,0
28830,-133.333333333333,4,2,2,40,0,0
36030,-133.333333333333,4,2,2,50,0,0
37830,-133.333333333333,4,2,2,60,0,0
38430,-83.3333333333333,4,2,1,80,0,1
47430,-133.333333333333,4,2,1,80,0,1
48180,-83.3333333333333,4,2,1,80,0,1
66630,-133.333333333333,4,2,1,80,0,1
67380,-83.3333333333333,4,2,1,80,0,1
76830,-100,4,2,3,60,0,0
96330,-100,4,2,3,70,0,0
115230,-133.333333333333,4,2,2,40,0,0
134430,-133.333333333333,4,2,4,40,0,0
144030,-200,4,2,4,40,0,0
146280,-200,4,2,4,5,0,0
146430,-200,4,2,5,40,0,0
148680,-200,4,2,5,5,0,0
148830,-200,4,2,4,40,0,0
151080,-200,4,2,4,5,0,0
151230,-200,4,2,1,30,0,0
153630,-133.333333333333,4,2,1,50,0,0
163230,-100,4,2,2,60,0,0
168030,-100,4,2,2,65,0,0
170430,-100,4,2,2,70,0,0
172830,-100,4,2,2,5,0,0
173880,-100,4,2,2,70,0,0
174030,-200,4,2,1,70,0,1
176430,-100,4,2,1,70,0,1
178830,-200,4,2,1,70,0,1
181230,-100,4,2,1,70,0,1
182430,-200,4,2,1,70,0,1
183030,-83.3333333333333,4,2,1,70,0,1
183630,-133.333333333333,4,2,1,70,0,1
184230,-83.3333333333333,4,2,1,70,0,1
186030,-100,4,2,1,70,0,1
187230,-200,4,2,1,70,0,1
187680,-100,4,2,1,70,0,1
188430,-200,4,2,1,70,0,1
190830,-100,4,2,1,70,0,1
192030,-100,4,2,1,5,0,1
193080,-100,4,2,1,70,0,1
193230,-200,4,2,1,70,0,1
195630,-100,4,2,1,70,0,1
198030,-200,4,2,1,70,0,1
200430,-100,4,2,1,70,0,1
201630,-200,4,2,1,70,0,1
202230,-83.3333333333333,4,2,1,70,0,1
202830,-133.333333333333,4,2,1,70,0,1
203430,-83.3333333333333,4,2,1,70,0,1
205230,-100,4,2,1,70,0,1
206730,-80,4,2,1,70,0,1
207030,-66.6666666666667,4,2,1,70,0,1
207330,-100,4,2,1,70,0,1
207630,-200,4,2,1,70,0,1
210030,-100,4,2,1,70,0,1
211230,-100,4,2,3,80,0,0

[Colours]
Combo1 : 0,0,160
Combo2 : 192,192,192
Combo3 : 0,128,255
Combo4 : 116,116,116

[HitObjects]
343,36,30,6,0,L|355:118,1,60.0000022888184,0|2,1:0|0:0,0:0:0:0:
365,172,330,1,8,0:0:0:0:
246,215,480,2,0,L|268:78,2,120.000004577637,2|2|2,0:0|0:0|0:0,0:0:0:0:
218,287,1230,22,0,P|247:292|277:286,1,60.0000022888184,8|2,0:0|0:0,0:0:0:0:
325,225,1530,2,0,P|354:219|383:226,1,60.0000022888184,8|2,0:0|0:0,0:0:0:0:
437,282,1830,2,0,L|427:145,1,120.000004577637,8|8,0:0|0:0,0:0:0:0:
274,37,2430,22,0,L|264:98,1,60.0000022888184,8|2,0:0|0:0,0:0:0:0:
251,173,2730,1,8,0:0:0:0:
141,121,2880,2,0,L|160:241,1,120.000004577637,2|2,0:0|0:0,0:0:0:0:
322,250,3480,21,2,0:0:0:0:
260,298,3630,2,0,L|187:309,1,60.0000022888184,8|2,0:0|0:0,0:0:0:0:
122,306,3930,1,8,0:0:0:0:
159,239,4080,1,2,0:0:0:0:
59,347,4230,2,0,P|48:290|81:242,1,120.000004577637,8|8,0:0|0:0,0:0:0:0:
159,239,4680,1,2,0:0:0:0:
260,298,4830,22,0,L|341:285,1,60.0000022888184,8|2,0:0|0:0,0:0:0:0:
396,276,5130,1,8,0:0:0:0:
388,151,5280,2,0,B|359:133|359:133|273:147,2,120.000004577637,2|2|2,0:0|0:0|0:0,0:0:0:0:
339,212,6030,22,0,L|279:220,1,60.0000022888184,8|2,0:0|0:0,0:0:0:0:
209,190,6330,2,0,L|149:182,1,60.0000022888184,8|2,0:0|0:0,0:0:0:0:
99,249,6630,2,0,L|217:265,1,120.000004577637,8|8,0:0|0:0,0:0:0:0:
281,87,7230,22,0,L|271:169,1,60.0000022888184,8|2,0:0|0:0,0:0:0:0:
205,107,7530,1,8,0:0:0:0:
312,64,7680,2,0,L|296:182,1,120.000004577637,2|2,0:0|0:0,0:0:0:0:
102,174,8280,21,2,0:0:0:0:
179,189,8430,2,0,L|192:276,1,60.0000022888184,8|2,0:0|0:0,0:0:0:0:
108,362,8730,1,8,0:0:0:0:
120,285,8880,1,2,0:0:0:0:
258,346,9030,1,8,0:0:0:0:
260,199,9180,38,0,L|250:131,2,60.0000022888184,2|8|2,0:0|0:0|0:0,0:0:0:0:
371,291,9630,38,0,L|430:282,1,60.0000022888184,8|2,0:0|0:0,0:0:0:0:
498,242,9930,1,8,0:0:0:0:
441,147,10080,2,0,B|416:122|416:122|430:207,2,120.000004577637,2|2|2,0:0|0:0|0:0,0:0:0:0:
466,66,10830,22,0,P|437:49|389:51,1,60.0000022888184,8|2,0:0|0:0,0:0:0:0:
345,87,11130,2,0,P|316:103|268:102,1,60.0000022888184,8|2,0:0|0:0,0:0:0:0:
229,55,11430,2,0,P|185:36|106:64,1,120.000004577637,8|8,0:0|0:0,0:0:0:0:
68,210,12030,22,0,L|89:280,1,60.0000022888184,8|2,0:0|0:0,0:0:0:0:
138,333,12330,1,8,0:0:0:0:
162,226,12480,2,0,P|128:274|136:331,1,120.000004577637,2|2,0:0|0:0,0:0:0:0:
338,307,13080,21,2,0:0:0:0:
264,282,13230,2,0,L|205:293,1,60.0000022888184,8|2,0:0|0:0,0:0:0:0:
136,331,13530,1,8,0:0:0:0:
203,369,13680,1,2,0:0:0:0:
137,255,13830,2,0,L|271:233,1,120.000004577637,8|8,0:0|0:0,0:0:0:0:
331,219,14280,1,2,0:0:0:0:
281,107,14430,22,0,P|274:136|277:165,1,60.0000022888184,8|2,0:0|0:0,0:0:0:0:
352,142,14730,1,8,0:0:0:0:
214,59,14880,2,0,L|95:39,2,120.000004577637,2|2|2,0:0|0:0|0:0,0:0:0:0:
286,27,15630,22,0,L|345:17,1,60.0000022888184,8|2,0:0|0:0,0:0:0:0:
419,43,15930,2,0,L|478:52,1,60.0000022888184,8|2,0:0|0:0,0:0:0:0:
468,130,16230,2,0,P|409:125|351:141,1,120.000004577637,8|8,0:0|0:0,0:0:0:0:
355,302,16830,22,0,L|332:222,1,60.0000022888184,8|2,0:0|0:0,0:0:0:0:
275,291,17130,1,8,0:0:0:0:
149,244,17280,2,0,L|265:213,1,120.000004577637,2|2,0:0|0:0,0:0:0:0:
71,235,17880,21,2,0:0:0:0:
133,186,18030,2,0,L|148:243,1,60.0000022888184,8|2,0:0|0:0,0:0:0:0:
59,158,18330,1,8,0:0:0:0:
117,105,18480,1,2,0:0:0:0:
71,235,18630,1,8,0:0:0:0:
42,79,18780,38,0,P|62:48|85:32,2,60.0000022888184,2|8|2,0:0|0:0|0:0,0:0:0:0:
191,124,19230,37,8,1:2:0:0:
191,124,19380,2,0,B|227:73|289:73|321:113|321:113|353:153|425:153|451:97,1,300.000011444092,2|8,0:0|0:0,0:0:0:0:
382,59,20280,1,2,0:0:0:0:
261,165,20430,22,0,L|273:240,1,60.0000022888184,8|2,0:0|0:0,0:0:0:0:
348,236,20730,2,0,L|338:295,1,60.0000022888184,8|2,0:0|0:0,0:0:0:0:
417,292,21030,2,0,L|426:351,1,60.0000022888184,8|2,0:0|0:0,0:0:0:0:
478,227,21330,22,0,L|490:160,2,60.0000022888184,8|2|8,0:0|0:0|0:0,0:0:0:0:
348,236,21780,2,0,L|229:216,1,120.000004577637,2|2,0:0|0:0,0:0:0:0:
158,322,22230,2,0,L|276:302,1,120.000004577637,8|8,0:0|0:0,0:0:0:0:
362,156,22680,22,0,L|236:136,1,120.000004577637,2|2,0:0|0:0,0:0:0:0:
108,176,23130,2,0,L|166:164,1,60.0000022888184,8|2,0:0|0:0,0:0:0:0:
248,56,23430,1,8,0:0:0:0:
243,137,23580,1,2,0:0:0:0:
171,29,23730,1,8,0:0:0:0:
166,164,23880,22,0,P|180:188|217:214,1,60.0000022888184,2|8,0:0|0:0,0:0:0:0:
314,102,24180,2,0,B|358:76|397:72|397:72|340:155|345:244|405:278,1,300.000011444092,2|8,0:0|0:0,0:0:0:0:
460,295,25080,1,2,0:0:0:0:
301,269,25230,22,0,L|239:283,1,60.0000022888184,8|2,0:0|0:0,0:0:0:0:
182,232,25530,2,0,L|164:289,1,60.0000022888184,8|2,0:0|0:0,0:0:0:0:
91,319,25830,2,0,L|131:363,1,60.0000022888184,8|2,0:0|0:0,0:0:0:0:
288,353,26130,22,0,L|363:335,2,60.0000022888184,8|2|8,0:0|0:0|0:0,0:0:0:0:
164,289,26580,2,0,P|177:237|246:202,1,120.000004577637,2|2,0:0|0:0,0:0:0:0:
338,217,27030,2,0,P|286:231|221:189,1,120.000004577637,8|8,0:0|0:0,0:0:0:0:
189,102,27480,22,0,P|227:139|223:216,1,120.000004577637,2|2,0:0|0:0,0:0:0:0:
97,188,27930,2,0,L|156:174,1,60.0000022888184,8|2,0:0|0:0,0:0:0:0:
306,229,28230,1,8,0:0:0:0:
230,202,28380,1,2,0:0:0:0:
373,180,28530,1,8,0:0:0:0:
351,303,28680,22,0,L|292:314,1,60.0000022888184,2|0,0:0|1:0,0:0:0:0:
145,303,28980,2,0,B|225:287|225:287|280:346|280:346|378:327|378:327|394:271,1,300.000011444092,2|0,0:0|0:0,0:0:0:0:
315,261,29880,1,2,0:0:0:0:
455,360,30030,22,0,L|470:301,1,60.0000022888184,10|0,0:0|0:0,0:0:0:0:
436,231,30330,2,0,L|420:172,1,60.0000022888184,2|0,0:0|0:0,0:0:0:0:
464,108,30630,2,0,L|479:49,1,60.0000022888184,2|8,0:0|0:0,0:0:0:0:
331,34,30930,22,0,L|261:53,2,60.0000022888184,2|0|0,0:0|0:0|0:0,0:0:0:0:
297,155,31380,2,0,P|250:120|172:148,1,120.000004577637,2|0,0:0|0:0,0:0:0:0:
127,221,31830,2,0,P|174:186|252:214,1,120.000004577637,2|0,0:0|0:0,0:0:0:0:
297,288,32280,22,0,P|250:253|193:263,1,120.000004577637,2|0,0:0|0:0,0:0:0:0:
66,276,32730,2,0,P|48:239|52:196,1,60.0000022888184,2|0,0:0|0:0,0:0:0:0:
193,262,33030,1,2,0:0:0:0:
174,341,33180,1,10,0:0:0:0:
127,221,33330,1,2,0:0:0:0:
96,348,33480,22,0,P|67:355|25:342,1,60.0000022888184,2|0,0:0|0:0,0:0:0:0:
46,220,33780,2,0,B|53:126|163:118|197:181|197:181|249:183|234:136|184:122,1,300.000011444092,2|0,0:0|0:0,0:0:0:0:
127,221,34680,1,2,0:0:0:0:
279,228,34830,22,0,P|299:197|303:151,1,60.0000022888184,10|0,0:0|0:0,0:0:0:0:
362,122,35130,2,0,P|378:154|416:181,1,60.0000022888184,2|0,0:0|0:0,0:0:0:0:
414,246,35430,2,0,P|377:244|335:263,1,60.0000022888184,2|8,0:0|0:0,0:0:0:0:
316,357,35730,1,2,0:0:0:0:
391,324,35880,1,2,0:3:0:0:
280,283,36030,21,8,0:0:0:0:
138,350,36180,2,0,L|68:346,1,60.0000022888184,8|0,0:0|0:0,0:0:0:0:
78,219,36480,21,8,0:0:0:0:
220,286,36630,2,0,L|290:282,1,60.0000022888184,8|0,0:0|0:0,0:0:0:0:
279,155,36930,21,8,0:0:0:0:
137,222,37080,2,0,L|67:218,1,60.0000022888184,8|0,0:0|0:0,0:0:0:0:
77,91,37380,21,8,0:0:0:0:
219,158,37530,2,0,L|289:154,1,60.0000022888184,8|0,0:0|1:0,0:0:0:0:
375,56,37830,5,8,1:0:0:0:
354,132,37980,1,0,1:0:0:0:
386,202,38130,1,0,1:0:0:0:
365,278,38280,1,0,1:0:0:0:
463,191,38430,21,0,1:0:0:0:
278,154,38580,2,0,B|217:158|217:158|179:209|179:209|91:215,1,191.999994140625,0|0,0:0|0:0,0:0:0:0:
198,83,39030,2,0,L|293:77,1,95.9999970703126,8|0,1:0|0:0,0:0:0:0:
259,230,39330,1,0,1:0:0:0:
133,135,39480,22,0,P|65:148|31:217,1,143.999995605469,2|0,1:3|0:0,0:0:0:0:
41,257,39780,2,0,P|98:235|182:300,1,143.999995605469,2|0,1:3|0:0,0:0:0:0:
181,317,40080,1,0,1:0:0:0:
7,333,40230,2,0,P|51:316|98:322,1,95.9999970703126,8|0,1:0|0:0,0:0:0:0:
281,318,40530,2,0,B|260:342|260:342|259:230,1,143.999995605469,0|0,0:0|0:0,0:0:0:0:
259,182,40830,21,0,1:0:0:0:
381,179,40980,2,0,P|391:251|337:201,1,191.999994140625,0|0,0:0|0:0,0:0:0:0:
338,152,41355,1,0,0:0:0:0:
338,152,41430,2,0,P|308:112|255:98,1,95.9999970703126,8|0,1:0|0:0,0:0:0:0:
154,65,41730,1,0,1:0:0:0:
156,204,41880,22,0,B|134:147|134:147|258:181,1,191.999994140625,2|2,1:3|1:3,0:0:0:0:
257,349,42330,2,0,L|217:245,1,95.9999970703126,0|0,1:0|1:0,0:0:0:0:
265,97,42630,1,8,1:0:0:0:
308,252,42780,1,0,0:0:0:0:
308,252,42855,1,0,0:0:0:0:
308,252,42930,2,0,B|347:276|347:276|406:271|406:271|436:241,1,143.999995605469,0|0,0:0|0:0,0:0:0:0:
468,209,43230,21,0,1:0:0:0:
377,96,43380,2,0,B|350:56|350:56|370:197,1,191.999994140625,0|0,0:0|0:0,0:0:0:0:
433,346,43830,2,0,L|326:356,1,95.9999970703126,8|0,1:0|0:0,0:0:0:0:
212,266,44130,1,0,1:0:0:0:
278,97,44280,22,0,L|297:239,1,143.999995605469,2|0,1:3|0:0,0:0:0:0:
268,201,44580,2,0,B|226:181|226:181|104:197,1,143.999995605469,2|0,1:3|0:0,0:0:0:0:
81,200,44880,1,0,1:0:0:0:
94,316,45030,2,0,L|199:303,1,95.9999970703126,8|0,1:0|0:0,0:0:0:0:
349,272,45330,2,0,P|295:239|277:299,1,143.999995605469,0|0,0:0|0:0,0:0:0:0:
306,338,45630,21,0,1:0:0:0:
395,200,45780,2,0,B|358:146|358:146|348:271,1,191.999994140625,0|0,0:0|0:0,0:0:0:0:
394,287,46155,1,0,0:0:0:0:
394,287,46230,2,0,P|448:270|480:213,1,95.9999970703126,8|0,1:0|0:0,0:0:0:0:
362,116,46530,1,0,1:0:0:0:
277,299,46680,22,0,B|261:254|261:254|273:110,1,191.999994140625,2|2,1:3|1:3,0:0:0:0:
354,20,47130,2,0,L|361:115,1,95.9999970703126,0|0,1:0|1:0,0:0:0:0:
177,93,47430,38,0,B|156:74|156:74|175:55|175:55|196:73|196:73|183:229,1,240.000009155274,8|0,1:0|0:0,0:0:0:0:
56,320,48180,38,0,B|104:299|104:299|243:311,1,191.999994140625,0|0,0:0|0:0,0:0:0:0:
407,354,48630,2,0,L|311:360,1,95.9999970703126,8|0,1:0|0:0,0:0:0:0:
266,234,48930,1,0,1:0:0:0:
459,243,49080,22,0,B|426:275|426:275|328:284,1,143.999995605469,2|0,1:3|0:0,0:0:0:0:
351,241,49380,2,0,P|332:179|245:152,1,143.999995605469,2|0,1:3|0:0,0:0:0:0:
217,163,49680,1,0,1:0:0:0:
106,266,49830,2,0,P|125:222|114:160,1,95.9999970703126,8|0,1:0|0:0,0:0:0:0:
57,51,50130,2,0,B|18:55|18:55|27:158,1,143.999995605469,0|0,0:0|0:0,0:0:0:0:
30,206,50430,21,0,1:0:0:0:
120,100,50580,2,0,B|196:93|196:93|207:228,1,191.999994140625,0|0,0:0|0:0,0:0:0:0:
206,256,50955,1,0,0:0:0:0:
206,256,51030,2,0,P|241:200|278:185,1,95.9999970703126,8|0,1:0|0:0,0:0:0:0:
377,144,51330,1,0,1:0:0:0:
475,254,51480,22,0,P|383:234|298:275,1,191.999994140625,2|2,1:3|1:3,0:0:0:0:
150,337,51930,2,0,P|195:353|242:347,1,95.9999970703126,0|0,1:0|1:0,0:0:0:0:
113,245,52230,1,8,1:0:0:0:
25,345,52380,1,0,0:0:0:0:
25,345,52455,1,0,0:0:0:0:
25,345,52530,2,0,B|19:297|19:297|36:202,1,143.999995605469,0|0,0:0|0:0,0:0:0:0:
47,156,52830,21,0,1:0:0:0:
201,124,52980,2,0,B|258:141|258:141|128:164,1,191.999994140625,0|0,0:0|0:0,0:0:0:0:
28,67,53430,2,0,L|122:84,1,95.9999970703126,8|0,1:0|0:0,0:0:0:0:
204,230,53730,1,0,1:0:0:0:
256,60,53880,22,0,L|398:40,1,143.999995605469,2|0,1:3|0:0,0:0:0:0:
429,77,54180,2,0,L|296:132,1,143.999995605469,2|0,1:3|0:0,0:0:0:0:
294,180,54480,1,0,1:0:0:0:
432,264,54630,2,0,L|396:175,1,95.9999970703126,8|0,1:0|0:0,0:0:0:0:
345,328,54930,2,0,B|276:355|276:355|212:319,1,143.999995605469,0|0,0:0|0:0,0:0:0:0:
173,294,55230,21,0,1:0:0:0:
294,180,55380,2,0,P|317:246|262:195,1,191.999994140625,0|0,0:0|0:0,0:0:0:0:
209,196,55755,1,0,0:0:0:0:
209,196,55830,2,0,B|162:191|162:191|97:214,1,95.9999970703126,8|0,1:0|0:0,0:0:0:0:
31,306,56130,1,0,1:0:0:0:
19,118,56280,22,0,L|25:221,1,95.9999970703126,2|0,1:3|0:0,0:0:0:0:
126,301,56580,2,0,L|125:332,3,31.9999990234375,2|2|2|0,1:3|1:3|1:3|1:0,0:0:0:0:
31,306,56880,1,0,1:0:0:0:
116,207,57030,38,0,L|187:217,1,47.9999985351563,8|0,1:0|0:0,0:0:0:0:
203,322,57180,2,0,L|234:257,1,47.9999985351563,0|0,0:0|0:0,0:0:0:0:
337,274,57330,2,0,L|285:224,1,47.9999985351563,0|0,0:0|0:0,0:0:0:0:
334,129,57480,2,0,L|270:162,1,47.9999985351563,0|0,0:0|0:0,0:0:0:0:
207,139,57630,37,0,0:0:0:0:
282,333,57780,2,0,B|341:358|341:358|477:289,1,191.999994140625,0|0,0:0|0:0,0:0:0:0:
455,148,58230,2,0,L|407:242,1,95.9999970703126,8|0,1:0|0:0,0:0:0:0:
334,129,58530,1,0,1:0:0:0:
491,73,58680,22,0,P|431:90|361:42,1,143.999995605469,2|0,1:3|0:0,0:0:0:0:
317,44,58980,2,0,P|259:84|256:164,1,143.999995605469,2|0,1:3|0:0,0:0:0:0:
275,194,59280,1,0,1:0:0:0:
366,306,59430,2,0,P|324:284|277:289,1,95.9999970703126,8|0,1:0|0:0,0:0:0:0:
161,372,59730,2,0,B|185:342|185:342|194:214,1,143.999995605469,0|0,0:0|0:0,0:0:0:0:
171,193,60030,21,0,1:0:0:0:
46,73,60180,2,0,B|23:112|23:112|32:258,1,191.999994140625,0|0,0:0|0:0,0:0:0:0:
72,285,60555,1,0,0:0:0:0:
72,285,60630,2,0,L|78:189,1,95.9999970703126,8|0,1:0|0:0,0:0:0:0:
4,342,60930,1,0,1:0:0:0:
154,235,61080,22,0,B|282:243|282:243|235:285,1,191.999994140625,2|2,1:3|1:3,0:0:0:0:
169,159,61530,2,0,L|264:165,1,95.9999970703126,0|0,1:0|1:0,0:0:0:0:
322,318,61830,1,8,1:0:0:0:
425,176,61980,1,0,0:0:0:0:
425,176,62055,1,0,0:0:0:0:
425,176,62130,2,0,B|387:145|387:145|382:241,1,143.999995605469,0|0,0:0|0:0,0:0:0:0:
413,278,62430,21,0,1:0:0:0:
450,98,62580,2,0,B|411:68|411:68|319:79|319:79|280:49,1,191.999994140625,0|0,0:0|0:0,0:0:0:0:
153,132,63030,2,0,L|253:119,1,95.9999970703126,8|0,1:0|0:0,0:0:0:0:
100,58,63330,1,0,1:0:0:0:
114,202,63480,22,0,B|145:214|145:214|254:199,1,143.999995605469,2|0,1:3|0:0,0:0:0:0:
299,182,63780,2,0,P|257:238|269:307,1,143.999995605469,2|0,1:3|0:0,0:0:0:0:
303,341,64080,1,0,1:0:0:0:
439,245,64230,2,0,L|343:258,1,95.9999970703126,8|0,1:0|0:0,0:0:0:0:
195,340,64530,2,0,B|165:350|165:350|54:333,1,143.999995605469,0|0,0:0|0:0,0:0:0:0:
33,289,64830,21,0,1:0:0:0:
130,156,64980,2,0,B|214:111|214:111|220:207,1,191.999994140625,0|0,0:0|0:0,0:0:0:0:
188,244,65355,1,0,0:0:0:0:
188,244,65430,2,0,L|194:339,1,95.9999970703126,8|0,1:0|0:0,0:0:0:0:
324,362,65730,1,0,1:0:0:0:
358,193,65880,22,0,P|287:251|306:340,1,191.999994140625,2|2,1:3|1:3,0:0:0:0:
455,310,66330,2,0,P|416:282|368:279,1,95.9999970703126,0|0,1:0|1:0,0:0:0:0:
195,340,66630,38,0,B|147:348|147:348|115:316|115:316|75:356|75:356|43:324|43:324|-13:332,1,240.000009155274,8|0,1:0|0:0,0:0:0:0:
42,172,67380,38,0,P|104:192|24:208,1,191.999994140625,0|0,1:0|0:0,0:0:0:0:
16,100,67830,2,0,P|62:89|128:108,1,95.9999970703126,8|0,1:0|0:0,0:0:0:0:
190,193,68130,1,0,1:0:0:0:
299,26,68280,22,0,B|248:32|248:32|186:116,1,143.999995605469,2|0,1:3|0:0,0:0:0:0:
236,116,68580,2,0,B|290:110|290:110|352:194,1,143.999995605469,2|0,1:3|0:0,0:0:0:0:
351,228,68880,1,0,1:0:0:0:
260,316,69030,2,0,L|268:220,1,95.9999970703126,8|0,1:0|0:0,0:0:0:0:
398,119,69330,2,0,B|424:157|424:157|434:255,1,143.999995605469,0|0,0:0|0:0,0:0:0:0:
411,297,69630,21,0,1:0:0:0:
267,220,69780,2,0,P|189:248|168:350,1,191.999994140625,0|0,0:0|0:0,0:0:0:0:
118,352,70155,1,0,0:0:0:0:
118,352,70230,2,0,L|107:242,1,95.9999970703126,8|0,1:0|0:0,0:0:0:0:
204,146,70530,1,0,1:0:0:0:
260,316,70680,22,0,B|350:344|350:344|467:291,1,191.999994140625,2|2,1:3|1:3,0:0:0:0:
341,155,71130,2,0,L|345:250,1,95.9999970703126,0|0,1:0|1:0,0:0:0:0:
466,289,71430,1,8,1:0:0:0:
452,127,71580,1,0,0:0:0:0:
452,127,71655,1,0,0:0:0:0:
452,127,71730,2,0,B|412:87|412:87|417:174,1,143.999995605469,0|0,0:0|0:0,0:0:0:0:
420,223,72030,21,0,1:0:0:0:
260,316,72180,2,0,B|193:313|193:313|311:264,1,191.999994140625,0|0,0:0|0:0,0:0:0:0:
439,303,72630,2,0,L|351:340,1,95.9999970703126,8|0,1:0|0:0,0:0:0:0:
234,216,72930,1,0,1:0:0:0:
120,359,73080,22,0,P|106:309|178:229,1,143.999995605469,2|0,1:3|0:0,0:0:0:0:
187,201,73380,2,0,P|116:215|43:197,1,143.999995605469,2|0,1:3|0:0,0:0:0:0:
21,157,73680,1,0,1:0:0:0:
159,76,73830,2,0,L|257:94,1,95.9999970703126,8|0,1:0|0:0,0:0:0:0:
376,198,74130,2,0,L|233:215,1,143.999995605469,0|0,0:0|0:0,0:0:0:0:
187,201,74430,21,0,1:0:0:0:
253,93,74580,2,0,B|397:75|397:75|468:109,1,191.999994140625,0|0,0:0|0:0,0:0:0:0:
471,130,74955,1,0,0:0:0:0:
471,130,75030,2,0,L|485:235,1,95.9999970703126,8|0,1:0|0:0,0:0:0:0:
393,296,75330,1,0,1:0:0:0:
280,209,75480,22,0,L|376:198,1,95.9999970703126,2|0,1:3|0:0,0:0:0:0:
297,307,75780,2,0,L|265:310,3,31.9999990234375,2|2|2|0,1:3|1:3|1:3|1:0,0:0:0:0:
169,204,76080,1,0,1:0:0:0:
332,90,76230,38,0,B|386:119|386:119|257:134,1,191.999994140625,8|0,1:0|1:0,0:0:0:0:
168,100,76680,1,0,1:0:0:0:
81,68,76830,21,0,1:0:0:0:
81,68,77130,2,0,L|92:192,1,120,0|0,1:0|0:0,0:0:0:0:
109,223,77430,2,0,L|102:302,1,80,8|0,1:0|0:0,0:0:0:0:
21,250,77730,1,0,1:0:0:0:
195,201,77880,22,0,B|243:204|243:204|343:264,1,160,0|2,1:0|1:3,0:0:0:0:
220,360,78330,1,0,1:0:0:0:
206,282,78480,1,0,1:0:0:0:
357,341,78630,2,0,P|392:324|417:277,1,80,8|0,1:0|0:0,0:0:0:0:
339,140,78930,22,0,B|290:143|290:143|191:203,1,160,0|0,1:0|0:0,0:0:0:0:
194,200,79530,2,0,P|248:145|254:100,1,120,0|0,1:0|0:0,0:0:0:0:
230,72,79830,2,0,L|161:112,1,80,8|2,1:0|1:3,0:0:0:0:
88,248,80130,1,0,1:0:0:0:
224,285,80280,22,0,P|288:254|398:268,1,160,0|2,1:0|1:3,0:0:0:0:
467,365,80730,2,0,L|449:268,1,80,0|0,1:0|1:0,0:0:0:0:
505,135,81030,1,8,1:0:0:0:
490,214,81180,1,0,1:0:0:0:
393,120,81330,22,0,P|324:124|251:187,1,160,0|0,1:0|0:0,0:0:0:0:
255,179,81930,2,0,P|271:108|309:62,1,120,0|0,1:0|0:0,0:0:0:0:
299,30,82230,2,0,L|221:48,1,80,8|0,1:0|0:0,0:0:0:0:
153,169,82530,1,0,1:0:0:0:
26,62,82680,22,0,P|92:41|97:111,1,160,0|2,1:0|1:3,0:0:0:0:
39,228,83130,1,0,1:0:0:0:
27,148,83280,1,0,1:0:0:0:
115,243,83430,2,0,P|150:251|214:229,1,80,8|0,1:0|0:0,0:0:0:0:
306,144,83730,2,0,P|291:206|290:286,1,120,0|0,1:0|0:0,0:0:0:0:
292,301,84030,21,2,1:3:0:0:
366,272,84180,1,2,1:3:0:0:
237,361,84330,2,0,L|109:337,1,120,0|0,1:0|0:0,0:0:0:0:
95,306,84630,2,0,P|72:288|8:289,1,80,8|0,1:0|0:0,0:0:0:0:
37,362,84930,1,0,1:0:0:0:
172,269,85080,22,0,B|229:259|229:259|329:278,1,160,0|2,1:0|1:3,0:0:0:0:
460,354,85530,2,0,L|373:339,1,80,0|0,1:0|1:0,0:0:0:0:
426,189,85830,1,8,1:0:0:0:
412,268,85980,1,0,1:0:0:0:
357,148,86130,2,0,L|238:167,1,120,0|0,1:0|0:0,0:0:0:0:
198,176,86430,21,0,1:0:0:0:
233,247,86580,1,0,0:0:0:0:
204,94,86730,2,0,P|160:104|117:169,1,120,0|0,1:0|0:0,0:0:0:0:
121,202,87030,2,0,P|130:249|112:295,1,80,8|0,1:0|0:0,0:0:0:0:
15,367,87330,1,0,1:0:0:0:
50,241,87480,22,0,P|152:208|196:253,1,160,0|2,1:0|1:3,0:0:0:0:
139,356,87930,1,0,1:0:0:0:
121,279,88080,1,0,1:0:0:0:
222,360,88230,2,0,L|330:345,1,80,8|0,1:0|0:0,0:0:0:0:
314,189,88530,22,0,B|234:200|234:200|246:277,1,160,0|0,1:0|1:0,0:0:0:0:
328,268,88980,1,0,0:0:0:0:
352,117,89130,2,0,B|320:107|320:107|234:119,1,120,0|0,1:0|0:0,0:0:0:0:
195,128,89430,2,0,L|115:117,1,80,8|2,1:0|1:3,0:0:0:0:
235,41,89730,1,0,1:0:0:0:
314,189,89880,22,0,P|382:194|435:120,1,160,0|2,1:0|1:3,0:0:0:0:
323,45,90330,2,0,P|328:85|352:117,1,80,0|0,1:0|1:0,0:0:0:0:
481,64,90630,1,8,1:0:0:0:
402,55,90780,1,0,1:0:0:0:
314,189,90930,22,0,P|253:214|154:205,1,160,0|0,1:0|1:0,0:0:0:0:
92,164,91380,1,0,0:0:0:0:
183,50,91530,2,0,L|173:169,1,120,0|0,1:0|0:0,0:0:0:0:
160,207,91830,2,0,L|167:286,1,80,8|0,1:0|0:0,0:0:0:0:
270,200,92130,1,0,1:0:0:0:
183,50,92280,22,0,B|174:171|174:171|239:135,1,160,0|2,1:0|1:3,0:0:0:0:
359,87,92730,1,0,1:0:0:0:
356,166,92880,1,0,1:0:0:0:
285,41,93030,2,0,L|282:124,1,80,8|0,1:0|0:0,0:0:0:0:
339,252,93330,22,0,P|418:244|470:300,1,160,0|0,1:0|1:0,0:0:0:0:
387,325,93780,1,0,0:0:0:0:
254,268,93930,2,0,P|203:260|142:299,1,120,0|0,1:0|0:0,0:0:0:0:
130,330,94230,2,0,L|138:237,1,80,8|0,1:0|0:0,0:0:0:0:
231,180,94530,1,0,1:0:0:0:
215,344,94680,22,0,L|55:358,1,160,0|2,1:0|1:3,0:0:0:0:
102,184,95130,2,0,L|108:270,1,80,0|0,1:0|1:0,0:0:0:0:
31,134,95430,1,8,1:0:0:0:
26,213,95580,1,0,1:0:0:0:
156,84,95730,2,0,B|178:114|178:114|186:196,1,120,0|0,1:0|0:0,0:0:0:0:
191,236,96030,5,2,1:2:0:0:
191,236,96330,6,0,P|195:160|226:118,1,120,0|0,1:0|0:0,0:0:0:0:
255,140,96630,2,0,L|334:130,1,80,8|0,1:0|0:0,0:0:0:0:
467,97,96930,1,0,1:0:0:0:
339,50,97080,22,0,L|259:60,2,80,0|2|2,1:0|1:2|1:3,0:0:0:0:
409,159,97530,1,0,1:0:0:0:
334,130,97680,1,0,1:0:0:0:
420,31,97830,2,0,L|466:96,1,80,8|0,1:0|0:0,0:0:0:0:
344,215,98130,2,0,B|290:208|290:208|218:229,1,120,0|0,1:0|0:0,0:0:0:0:
191,245,98430,5,2,1:2:0:0:
191,245,98730,6,0,P|268:260|310:311,1,120,0|0,1:0|0:0,0:0:0:0:
293,326,99030,2,0,L|385:299,1,80,8|2,1:0|1:3,0:0:0:0:
413,168,99330,1,0,1:0:0:0:
453,298,99480,22,0,P|446:335|414:374,2,80,0|2|2,1:0|1:2|1:3,0:0:0:0:
344,215,99930,2,0,P|330:177|343:122,1,80,0|0,1:0|1:0,0:0:0:0:
481,126,100230,1,8,1:0:0:0:
413,168,100380,1,0,1:0:0:0:
327,57,100530,2,0,P|277:55|209:81,1,120,0|0,1:0|0:0,0:0:0:0:
177,100,100830,5,2,1:2:0:0:
177,100,101130,6,0,B|194:129|194:129|189:222,1,120,0|0,1:0|0:0,0:0:0:0:
150,225,101430,2,0,L|156:131,1,80,8|0,1:0|0:0,0:0:0:0:
267,177,101730,1,0,1:0:0:0:
184,303,101880,22,0,L|83:298,2,80,0|2|2,1:0|1:2|1:3,0:0:0:0:
334,228,102330,1,0,1:0:0:0:
259,263,102480,1,0,1:0:0:0:
406,274,102630,2,0,P|419:238|410:189,1,80,8|0,1:0|0:0,0:0:0:0:
355,59,102930,2,0,B|328:85|328:85|228:71,1,120,0|0,1:0|0:0,0:0:0:0:
206,66,103230,5,2,1:2:0:0:
206,66,103530,6,0,P|139:62|82:118,1,120,0|0,1:0|0:0,0:0:0:0:
88,130,103830,2,0,L|167:140,1,80,8|2,1:0|1:3,0:0:0:0:
15,93,104130,1,0,1:0:0:0:
119,211,104280,22,0,L|221:225,2,80,0|2|2,1:0|1:2|1:3,0:0:0:0:
252,152,104730,2,0,L|331:142,1,80,0|0,1:0|1:0,0:0:0:0:
350,281,105030,1,8,1:0:0:0:
271,291,105180,1,0,1:0:0:0:
379,207,105330,2,0,P|428:261|419:321,1,120,0|0,1:0|0:0,0:0:0:0:
406,338,105630,37,2,1:2:0:0:
301,218,105780,1,0,0:0:0:0:
240,365,105930,2,0,L|108:345,1,120,0|0,1:0|0:0,0:0:0:0:
108,309,106230,2,0,L|187:298,1,80,8|0,1:0|0:0,0:0:0:0:
323,351,106530,1,0,1:0:0:0:
301,218,106680,22,0,L|221:207,2,80,0|2|2,1:0|1:2|1:3,0:0:0:0:
465,239,107130,1,0,1:0:0:0:
385,228,107280,1,0,1:0:0:0:
449,81,107430,2,0,L|438:160,1,80,8|0,1:0|0:0,0:0:0:0:
275,137,107730,2,0,P|208:118|148:160,1,120,0|0,1:0|0:0,0:0:0:0:
124,140,108030,22,0,P|141:207|207:238,1,120,2|0,1:2|0:0,0:0:0:0:
202,268,108330,2,0,P|251:219|245:146,1,120,0|0,1:0|0:0,0:0:0:0:
275,137,108630,2,0,P|265:90|232:49,1,80,8|2,1:0|1:3,0:0:0:0:
107,58,108930,1,0,1:0:0:0:
32,183,109080,22,0,L|19:276,2,80,0|2|2,1:0|1:2|1:3,0:0:0:0:
168,155,109530,2,0,L|181:245,1,80,0|0,1:0|1:0,0:0:0:0:
90,355,109830,1,8,1:0:0:0:
102,276,109980,1,0,1:0:0:0:
230,352,110130,2,0,L|371:332,1,120,0|0,1:0|0:0,0:0:0:0:
323,366,110430,22,0,L|435:278,1,120,2|0,1:2|0:0,0:0:0:0:
410,331,110730,2,0,L|463:198,1,120,0|0,1:0|0:0,0:0:0:0:
341,145,111030,2,0,L|370:221,1,80,8|0,1:0|0:0,0:0:0:0:
397,83,111330,1,0,1:0:0:0:
277,27,111480,22,0,L|202:56,2,80,0|2|2,1:0|1:2|1:3,0:0:0:0:
341,145,111930,1,0,1:0:0:0:
265,111,112080,1,0,1:0:0:0:
397,83,112230,2,0,P|417:118|419:171,1,80,8|0,1:0|0:0,0:0:0:0:
272,196,112530,2,0,B|214:178|214:178|140:199,1,120,0|0,1:0|0:0,0:0:0:0:
117,202,112830,22,0,B|161:160|161:160|180:86,1,120,2|0,1:2|0:0,0:0:0:0:
189,65,113130,2,0,B|202:124|202:124|257:177,1,120,0|0,1:0|0:0,0:0:0:0:
272,196,113430,2,0,L|293:118,1,80,8|2,1:0|1:3,0:0:0:0:
197,27,113730,1,0,1:0:0:0:
84,115,113880,22,0,P|39:103|99:61,1,160,0|2,1:0|1:3,0:0:0:0:
156,194,114330,2,0,L|134:282,1,80,0|0,1:0|1:0,0:0:0:0:
24,357,114630,1,8,1:0:0:0:
4,280,114780,1,0,1:0:0:0:
115,356,114930,2,0,L|237:337,1,120,0|0,1:0|0:0,0:0:0:0:
259,307,115230,6,0,L|318:315,1,60.0000022888184,0|2,1:0|0:0,0:0:0:0:
396,324,115530,1,8,0:0:0:0:
417,216,115680,2,0,L|292:236,2,120.000004577637,2|2|8,0:0|0:0|0:0,0:0:0:0:
376,149,116430,22,0,L|306:160,1,60.0000022888184,2|2,0:0|0:0,0:0:0:0:
240,176,116730,2,0,L|180:166,1,60.0000022888184,8|2,0:0|0:0,0:0:0:0:
105,143,117030,2,0,P|148:185|139:260,1,120.000004577637,8|8,0:0|0:0,0:0:0:0:
138,48,117630,22,0,L|219:62,1,60.0000022888184,0|2,1:0|0:0,0:0:0:0:
274,72,117930,1,8,0:0:0:0:
360,153,118080,2,0,L|478:132,1,120.000004577637,2|2,0:0|0:0,0:0:0:0:
274,72,118680,21,8,0:0:0:0:
238,142,118830,2,0,L|248:201,1,60.0000022888184,2|2,0:0|0:0,0:0:0:0:
304,255,119130,1,8,0:0:0:0:
367,299,119280,1,2,0:0:0:0:
441,157,119430,2,0,L|322:178,1,120.000004577637,8|8,0:0|0:0,0:0:0:0:
248,201,119880,1,8,0:0:0:0:
130,156,120030,22,0,P|158:145|188:146,1,60.0000022888184,0|2,1:0|0:0,0:0:0:0:
172,223,120330,1,8,0:0:0:0:
48,169,120480,2,0,L|40:37,2,120.000004577637,2|2|8,0:0|0:0|0:0,0:0:0:0:
96,231,121230,22,0,L|92:290,1,60.0000022888184,2|2,0:0|0:0,0:0:0:0:
14,301,121530,2,0,L|17:241,1,60.0000022888184,8|2,0:0|0:0,0:0:0:0:
48,169,121830,2,0,L|175:188,1,120.000004577637,8|8,0:0|0:0,0:0:0:0:
328,315,122430,22,0,L|268:324,1,60.0000022888184,0|2,1:0|0:0,0:0:0:0:
284,247,122730,1,8,0:0:0:0:
407,300,122880,2,0,L|386:177,1,120.000004577637,2|2,0:0|0:0,0:0:0:0:
249,51,123480,21,8,0:0:0:0:
325,37,123630,2,0,P|325:68|302:110,1,60.0000022888184,2|2,0:0|0:0,0:0:0:0:
172,93,123930,1,8,0:0:0:0:
173,15,124080,1,2,0:0:0:0:
245,131,124230,1,8,0:0:0:0:
98,55,124380,38,0,L|39:66,2,60.0000022888184,8|8|8,0:0|0:0|0:0,0:0:0:0:
175,172,124830,38,0,L|115:182,1,60.0000022888184,0|2,1:0|0:0,0:0:0:0:
42,155,125130,1,8,0:0:0:0:
28,289,125280,2,0,P|76:256|133:265,2,120.000004577637,2|2|8,0:0|0:0|0:0,0:0:0:0:
92,330,126030,22,0,P|121:341|150:341,1,60.0000022888184,2|2,0:0|0:0,0:0:0:0:
207,287,126330,2,0,P|236:286|264:297,1,60.0000022888184,8|2,0:0|0:0,0:0:0:0:
337,327,126630,2,0,L|223:363,1,120.000004577637,8|8,0:0|0:0,0:0:0:0:
340,210,127230,22,0,L|397:228,1,60.0000022888184,0|2,1:0|0:0,0:0:0:0:
434,296,127530,1,8,0:0:0:0:
511,191,127680,2,0,L|397:228,1,120.000004577637,2|2,0:0|0:0,0:0:0:0:
255,99,128280,21,8,0:0:0:0:
321,58,128430,2,0,L|378:76,1,60.0000022888184,2|2,0:0|0:0,0:0:0:0:
450,105,128730,1,8,0:0:0:0:
440,27,128880,1,2,0:0:0:0:
389,153,129030,2,0,L|275:191,1,120.000004577637,8|8,0:0|0:0,0:0:0:0:
199,173,129480,1,8,0:0:0:0:
105,93,129630,22,0,L|123:150,1,60.0000022888184,0|2,1:0|0:0,0:0:0:0:
141,226,129930,1,8,0:0:0:0:
59,353,130080,2,0,B|42:294|42:294|70:220,2,120.000004577637,2|2|8,0:0|0:0|0:0,0:0:0:0:
136,363,130830,22,0,L|211:349,1,60.0000022888184,2|2,0:0|0:0,0:0:0:0:
235,284,131130,2,0,L|293:295,1,60.0000022888184,8|2,0:0|0:0,0:0:0:0:
330,364,131430,2,0,L|471:336,1,120.000004577637,8|8,0:0|0:0,0:0:0:0:
359,200,132030,22,0,L|372:261,1,60.0000022888184,0|2,1:0|0:0,0:0:0:0:
436,214,132330,1,8,0:0:0:0:
395,93,132480,2,0,L|277:119,1,120.000004577637,2|2,0:0|0:0,0:0:0:0:
122,194,133080,21,8,0:0:0:0:
91,122,133230,2,0,P|129:115|172:132,1,60.0000022888184,2|2,0:0|0:0,0:0:0:0:
249,235,133530,1,8,0:0:0:0:
198,179,133680,1,2,0:0:0:0:
97,267,133830,1,8,0:0:0:0:
149,119,133980,38,0,P|174:107|215:104,2,60.0000022888184,8|8|8,0:0|0:0|0:0,0:0:0:0:
173,252,134430,37,2,0:0:0:0:
45,183,144030,22,0,B|46:91|157:71|224:152|176:227|176:227|258:159|337:225|337:225|405:280|468:230,1,600,2|0,0:0|0:0,0:0:0:0:
407,164,146430,22,0,B|367:203|362:279|420:308|449:317|449:317|357:351|261:275|261:275|226:281|218:322|143:336|101:284|97:244,1,600,2|0,0:0|0:0,0:0:0:0:
176,228,148830,22,0,B|236:185|275:187|305:205|305:205|230:109|121:170|121:170|88:159|51:173|35:198|35:198|20:129|134:77,1,600,2|0,0:0|0:0,0:0:0:0:
212,70,151230,38,0,B|302:74|358:148|358:148|367:54|456:17|456:17|417:133|426:232|493:209|492:158|470:129,1,600,8|0,0:3|0:0,0:0:0:0:
504,263,153630,38,0,P|464:275|418:261,1,90.0000034332277,8|0,1:3|0:0,0:0:0:0:
385,241,153930,2,0,L|308:263,1,60.0000022888184,2|0,0:0|0:0,0:0:0:0:
212,308,154230,2,0,L|269:324,1,60.0000022888184,2|0,0:0|0:0,0:0:0:0:
195,226,154530,1,10,0:0:0:0:
195,226,154680,1,8,0:0:0:0:
129,334,154830,22,0,L|72:350,1,60.0000022888184,10|0,0:0|0:0,0:0:0:0:
30,228,155130,1,10,0:0:0:0:
105,251,155280,1,8,0:0:0:0:
151,147,155430,2,0,L|93:163,1,60.0000022888184,10|0,0:0|0:0,0:0:0:0:
54,41,155730,1,2,0:0:0:0:
54,41,155880,1,8,0:0:0:0:
183,21,156030,22,0,L|198:78,1,60.0000022888184,10|0,0:0|0:0,0:0:0:0:
135,204,156330,2,0,L|150:146,1,60.0000022888184,2|0,0:0|0:0,0:0:0:0:
281,90,156630,2,0,L|296:147,1,60.0000022888184,2|0,0:0|0:0,0:0:0:0:
219,264,156930,1,10,0:0:0:0:
219,264,157080,1,8,0:0:0:0:
325,350,157230,22,0,L|339:291,1,60.0000022888184,10|0,0:0|0:0,0:0:0:0:
448,218,157530,1,10,0:0:0:0:
468,293,157680,1,8,0:0:0:0:
362,209,157830,2,0,L|381:135,1,60.0000022888184,10|0,0:0|0:0,0:0:0:0:
502,145,158130,1,10,0:0:0:0:
502,145,158280,1,8,0:0:0:0:
468,293,158430,22,0,L|374:296,1,90.0000034332277,8|0,0:3|0:0,0:0:0:0:
339,291,158730,2,0,P|306:264|270:257,1,60.0000022888184,2|0,0:0|0:0,0:0:0:0:
224,361,159030,2,0,P|253:353|277:335,1,60.0000022888184,2|0,0:0|0:0,0:0:0:0:
314,184,159330,1,10,0:0:0:0:
314,184,159480,1,8,0:0:0:0:
217,281,159630,22,0,P|190:269|169:249,1,60.0000022888184,10|0,0:0|0:0,0:0:0:0:
251,128,159930,1,10,0:0:0:0:
232,204,160080,1,8,0:0:0:0:
175,96,160230,2,0,P|168:125|174:155,1,60.0000022888184,10|0,0:0|0:0,0:0:0:0:
314,184,160530,1,10,0:0:0:0:
314,184,160680,1,8,0:0:0:0:
241,49,160830,22,0,P|219:28|191:18,1,60.0000022888184,10|0,0:0|0:0,0:0:0:0:
251,128,161130,2,0,P|279:119|302:100,1,60.0000022888184,2|0,0:0|0:0,0:0:0:0:
175,96,161430,2,0,P|168:125|174:155,1,60.0000022888184,2|0,0:0|0:0,0:0:0:0:
295,263,161730,1,10,0:0:0:0:
295,263,161880,1,8,0:0:0:0:
157,232,162030,22,0,L|94:242,1,60.0000022888184,10|0,0:0|0:0,0:0:0:0:
194,363,162330,1,10,0:0:0:0:
217,288,162480,1,8,0:0:0:0:
71,321,162630,2,0,L|108:367,1,60.0000022888184,10|0,0:0|0:0,0:0:0:0:
157,232,162930,1,10,0:0:0:0:
157,232,163080,1,8,0:0:0:0:
7,195,163230,22,0,P|73:235|141:202,1,160,8|8,1:3|0:0,0:0:0:0:
191,139,163680,1,0,1:0:0:0:
95,77,163830,2,0,L|77:155,1,80,8|0,0:0|0:0,0:0:0:0:
175,58,164130,1,8,0:0:0:0:
175,58,164280,1,0,0:0:0:0:
254,194,164430,21,8,0:0:0:0:
252,82,164580,1,0,1:0:0:0:
141,202,164730,2,0,L|162:291,1,80,8|0,0:0|0:0,0:0:0:0:
269,358,165030,2,0,L|287:280,1,80,8|0,0:0|0:0,0:0:0:0:
407,222,165330,2,0,L|417:269,2,40,8|0|0,0:0|0:0|0:0,0:0:0:0:
374,84,165630,22,0,B|331:50|331:50|352:154,1,160,8|8,0:0|0:0,0:0:0:0:
431,140,166080,1,0,1:0:0:0:
262,102,166230,2,0,L|173:119,1,80,8|0,0:0|0:0,0:0:0:0:
114,234,166530,1,8,0:0:0:0:
114,234,166680,1,0,0:0:0:0:
237,182,166830,21,8,0:0:0:0:
108,151,166980,1,0,1:0:0:0:
197,254,167130,2,0,L|294:258,1,80,8|0,0:0|0:0,0:0:0:0:
383,177,167430,1,8,0:0:0:0:
262,102,167580,2,0,L|201:100,2,40,0|0|8,0:0|0:0|0:0,0:0:0:0:
385,201,167880,1,0,0:0:0:0:
273,337,168030,22,0,L|276:257,1,80,8|0,0:0|0:0,0:0:0:0:
190,225,168330,2,0,L|193:305,1,80,8|0,0:0|0:0,0:0:0:0:
106,348,168630,2,0,L|109:268,1,80,8|0,0:0|0:0,0:0:0:0:
23,236,168930,2,0,L|26:316,1,80,8|0,0:0|0:0,0:0:0:0:
112,185,169230,22,0,P|141:151|208:139,1,80,8|0,0:0|0:0,0:0:0:0:
236,286,169530,2,0,P|202:256|190:190,1,80,8|0,0:0|0:0,0:0:0:0:
332,160,169830,2,0,P|302:193|236:206,1,80,8|0,0:0|0:0,0:0:0:0:
208,59,170130,2,0,P|241:88|254:155,1,80,8|8,0:0|0:0,0:0:0:0:
112,185,170430,38,0,L|101:142,3,40,8|2|8|2,0:0|3:0|0:0|3:0,0:0:0:0:
119,59,170730,2,0,L|128:20,3,40,8|2|8|2,0:0|3:0|0:0|3:0,0:0:0:0:
208,59,171030,21,8,0:0:0:0:
236,72,171105,1,2,3:0:0:0:
267,74,171180,1,8,0:0:0:0:
298,71,171255,1,2,3:0:0:0:
328,62,171330,1,8,0:0:0:0:
359,59,171405,1,2,3:0:0:0:
390,61,171480,1,8,0:0:0:0:
418,74,171555,1,2,3:0:0:0:
439,97,171630,22,0,L|448:137,1,40,8|2,0:0|3:0,0:0:0:0:
367,141,171780,2,0,L|358:181,1,40,8|2,0:0|3:0,0:0:0:0:
439,214,171930,2,0,L|448:254,1,40,8|2,0:0|3:0,0:0:0:0:
367,258,172080,2,0,L|358:298,1,40,8|2,0:0|3:0,0:0:0:0:
435,330,172230,5,8,1:0:0:0:
369,376,172380,1,0,1:0:0:0:
293,349,172530,1,0,1:0:0:0:
280,269,172680,2,0,P|241:287|216:326,1,80,0|0,1:0|0:0,0:0:0:0:
79,111,173880,21,0,0:0:0:0:
132,51,174030,22,0,B|176:96|161:153|123:179|123:179|65:217|50:282|50:282|157:208|238:279|238:279|284:273|316:240,1,560,8|0,1:0|0:0,0:0:0:0:
333,107,176280,1,0,1:0:0:0:
333,107,176355,1,0,1:0:0:0:
333,107,176430,38,0,B|286:183|308:247|308:247|357:391|492:282|405:164|373:208|284:278|237:279|237:279|214:255|165:243,1,560,8|0,1:0|0:0,0:0:0:0:
99,321,177630,37,0,1:0:0:0:
110,241,177780,1,2,0:0:0:0:
122,162,177930,1,2,0:0:0:0:
136,83,178080,1,2,0:0:0:0:
0,32,178230,21,2,0:0:0:0:
14,111,178380,1,2,0:0:0:0:
26,190,178530,1,2,0:0:0:0:
37,270,178680,1,2,1:2:0:0:
203,172,178830,22,0,B|282:159|282:159|313:203|313:203|408:188|408:188|424:136|424:136|487:126|487:126|444:60|444:60|365:73|365:73|347:131,1,560,8|0,1:0|0:0,0:0:0:0:
246,241,181080,1,0,1:0:0:0:
246,241,181155,1,0,1:0:0:0:
246,241,181230,6,0,B|176:252|176:252|85:192|152:104|152:104|271:84|271:84|305:52|305:3|244:-6|179:15|194:74|247:67,1,560,8|0,1:0|0:0,0:0:0:0:
203,172,182430,6,0,B|299:158|299:158|329:133,1,120,0|0,1:0|0:0,0:0:0:0:
447,28,183030,22,0,B|412:68|361:65|361:65|404:93|408:156,1,191.999994140625,0|0,0:0|0:0,0:0:0:0:
299,260,183480,1,0,1:0:0:0:
299,260,183555,1,2,0:0:0:0:
299,260,183630,22,0,B|284:212|316:143|316:143|319:180|334:198,1,180.000006866455,8|0,1:0|0:0,0:0:0:0:
435,314,184230,6,0,B|389:341|332:318|332:318|299:259|299:259|214:218|146:253|146:253|145:188|80:200|80:200|33:298|103:367|199:373|270:311|257:227|239:138|134:87|34:134|34:134|5:160|0:208,1,1055.99996777344,0|0,0:0|0:0,0:0:0:0:
123,45,186030,22,0,B|201:53|263:100|294:171|294:171|350:185|350:185|385:248|385:248|376:148|380:103|435:34,1,560,8|0,1:0|0:0,0:0:0:0:
472,117,187230,6,0,P|461:155|464:209,1,80,0|0,1:0|0:0,0:0:0:0:
460,273,187680,22,0,B|420:274|393:239|393:239|360:268|304:248,2,160,0|0|0,0:0|0:0|1:0,0:0:0:0:
345,175,188430,22,0,B|297:153|215:178|197:295|287:330|287:330|202:286|96:269|55:331|119:378|157:380|179:358|172:325,1,560,8|0,1:0|0:0,0:0:0:0:
159,215,190680,1,0,1:0:0:0:
159,215,190755,1,0,1:0:0:0:
159,215,190830,6,0,B|104:215|46:235|21:298|24:335|24:335|-11:246|125:178|150:124|123:62|84:31|33:25|-16:51|-15:109|22:118,1,640,8|0,1:0|0:0,0:0:0:0:
159,215,193080,5,0,1:0:0:0:
234,249,193230,22,0,B|206:297|161:311|72:292|72:292|71:144|71:144|137:124|174:123|232:137|248:193|237:240,1,560,8|0,1:0|0:0,0:0:0:0:
321,322,195480,1,0,1:0:0:0:
321,322,195555,1,0,1:0:0:0:
321,322,195630,38,0,B|333:196|300:98|300:98|410:99|433:143|372:192|372:192|419:270|489:274,1,560,8|0,1:0|0:0,0:0:0:0:
394,352,196830,37,0,1:0:0:0:
321,322,196980,1,2,0:0:0:0:
249,286,197130,1,2,0:0:0:0:
178,248,197280,1,2,0:0:0:0:
33,314,197430,21,2,0:0:0:0:
106,284,197580,1,2,0:0:0:0:
178,248,197730,1,2,0:0:0:0:
249,210,197880,1,2,1:2:0:0:
393,174,198030,22,0,B|474:159|519:223|519:223|494:127|441:45|441:45|369:187|358:250,1,560,8|0,1:0|0:0,0:0:0:0:
240,185,200280,1,0,1:0:0:0:
240,185,200355,1,0,1:0:0:0:
240,185,200430,6,0,B|198:165|119:175|65:245|87:339|129:399|241:418|327:338|282:262|282:262|208:273,1,560,8|0,1:0|0:0,0:0:0:0:
402,325,201630,6,0,P|461:288|450:238,1,120,0|0,1:0|0:0,0:0:0:0:
402,325,202230,22,0,P|376:244|462:257,1,191.999994140625,0|0,0:0|0:0,0:0:0:0:
291,326,202680,1,0,1:0:0:0:
291,326,202755,1,2,0:0:0:0:
291,326,202830,22,0,P|286:248|358:157,1,180.000006866455,8|0,1:0|0:0,0:0:0:0:
437,64,203430,6,0,B|475:182|438:287|438:287|341:262|357:94|238:69|238:69|234:144|185:162|90:205|117:268|177:280|177:280|225:231|225:193|132:201|101:137|159:58,1,1055.99996777344,0|0,0:0|0:0,0:0:0:0:
60,49,205230,22,0,B|25:121|54:185|54:185|24:235|38:276|65:289|18:339|18:339|33:302|90:305|94:370|161:380|213:379|233:348|248:324,1,560,8|0,1:0|0:0,0:0:0:0:
286,240,206430,6,0,P|241:231|192:245,1,80,0|2,1:0|0:0,0:0:0:0:
297,256,206730,22,0,P|270:214|250:168,1,100,2|2,0:0|0:0,0:0:0:0:
185,269,207030,22,0,P|219:219|250:168,1,120.000004577637,2|2,0:0|0:0,0:0:0:0:
304,228,207330,1,2,0:0:0:0:
365,283,207480,1,2,1:2:0:0:
507,300,207630,22,0,B|552:169|470:83|376:129|352:194|365:283|365:283|333:228|355:107,1,560,8|0,1:0|0:0,0:0:0:0:
221,278,209880,1,0,1:0:0:0:
221,278,209955,1,0,1:0:0:0:
221,278,210030,38,0,B|189:305|122:294|115:217|169:135|244:176|283:289|283:289|261:221|262:155|276:91|297:46,1,560,8|0,1:0|0:0,0:0:0:0:
364,281,211230,37,12,1:0:0:0:
