osu file format v14

[General]
AudioFilename: audio.mp3
AudioLeadIn: 0
PreviewTime: 37680
Countdown: 0
SampleSet: Soft
StackLeniency: 0.4
Mode: 0
LetterboxInBreaks: 0
WidescreenStoryboard: 0

[Editor]
Bookmarks: 115230
DistanceSpacing: 1
BeatDivisor: 4
GridSize: 8
TimelineZoom: 2.6

[Metadata]
Title:dragonlands
TitleUnicode:dragonlands
Artist:sakuraburst
ArtistUnicode:sakuraburst
Creator:Minorsonek
Version:Pulchritudinous
Source:osu!
Tags:walaowey hazu- m2usonek High Tempo Beatmap Pack FA Featured Artist Gremio Mappers' Guild MG Electronic Instrumental
BeatmapID:2113585
BeatmapSetID:1009637

[Difficulty]
HPDrainRate:6
CircleSize:4.4
OverallDifficulty:8.8
ApproachRate:9.4
SliderMultiplier:2
SliderTickRate:1

[Events]
//Background and Video events
0,0,"fantasy-3756975_1920.jpg",0,0
//Break Periods
//Storyboard Layer 0 (Background)
//Storyboard Layer 1 (Fail)
//Storyboard Layer 2 (Pass)
//Storyboard Layer 3 (Foreground)
//Storyboard Layer 4 (Overlay)
//Storyboard Sound Samples

[TimingPoints]
30,300,4,2,2,40,1,0
30,-133.333333333333,4,2,2,40,0,0
4455,-133.333333333333,4,2,2,40,0,0
4530,-133.333333333333,4,2,2,40,0,0
9105,-133.333333333333,4,2,2,40,0,0
9180,-133.333333333333,4,2,2,40,0,0
14055,-133.333333333333,4,2,2,40,0,0
14130,-133.333333333333,4,2,2,40,0,0
18705,-133.333333333333,4,2,2,40,0,0
18780,-133.333333333333,4,2,2,40,0,0
19230,-133.333333333333,4,2,2,50,0,0
19380,-200,4,2,2,50,0,0
20430,-133.333333333333,4,2,2,50,0,0
20655,-133.333333333333,4,2,2,50,0,0
20730,-133.333333333333,4,2,2,50,0,0
20955,-133.333333333333,4,2,2,50,0,0
21030,-133.333333333333,4,2,2,50,0,0
21255,-133.333333333333,4,2,2,50,0,0
21330,-100,4,2,2,50,0,0
21780,-133.333333333333,4,2,2,50,0,0
23130,-111.111111111111,4,2,2,50,0,0
23355,-111.111111111111,4,2,2,50,0,0
23430,-100,4,2,2,50,0,0
23730,-90.9090909090909,4,2,2,50,0,0
24180,-166.666666666667,4,2,2,50,0,0
25230,-133.333333333333,4,2,2,50,0,0
25455,-133.333333333333,4,2,2,50,0,0
25530,-133.333333333333,4,2,2,50,0,0
25755,-133.333333333333,4,2,2,50,0,0
25830,-133.333333333333,4,2,2,50,0,0
26055,-133.333333333333,4,2,2,50,0,0
26130,-100,4,2,2,50,0,0
26580,-133.333333333333,4,2,2,50,0,0
27930,-111.111111111111,4,2,2,50,0,0
28155,-111.111111111111,4,2,2,50,0,0
28230,-100,4,2,2,50,0,0
28530,-90.9090909090909,4,2,2,50,0,0
28980,-200,4,2,2,40,0,0
30030,-166.666666666667,4,2,2,40,0,0
32955,-166.666666666667,4,2,2,40,0,0
33030,-166.666666666667,4,2,2,40,0,0
34830,-133.333333333333,4,2,2,40,0,0
36030,-133.333333333333,4,2,2,50,0,0
37830,-83.3333333333333,4,2,2,60,0,0
38430,-100,4,2,1,80,0,1
38580,-66.6666666666667,4,2,1,80,0,1
39030,-25,4,2,1,80,0,1
39330,-66.6666666666667,4,2,1,80,0,1
40080,-55.5555555555556,4,2,1,80,0,1
40230,-25,4,2,1,80,0,1
40530,-83.3333333333333,4,2,1,80,0,1
40830,-33.3333333333333,4,2,1,80,0,1
40980,-66.6666666666667,4,2,1,80,0,1
41280,-50,4,2,1,80,0,1
41430,-25,4,2,1,80,0,1
41880,-66.6666666666667,4,2,1,80,0,1
42330,-58.8235294117647,4,2,1,80,0,1
42630,-25,4,2,1,80,0,1
42930,-50,4,2,1,80,0,1
43230,-100,4,2,1,80,0,1
43380,-66.6666666666667,4,2,1,80,0,1
43830,-25,4,2,1,80,0,1
44130,-66.6666666666667,4,2,1,80,0,1
44880,-55.5555555555556,4,2,1,80,0,1
45030,-25,4,2,1,80,0,1
45330,-83.3333333333333,4,2,1,80,0,1
45630,-33.3333333333333,4,2,1,80,0,1
45780,-66.6666666666667,4,2,1,80,0,1
46080,-50,4,2,1,80,0,1
46230,-25,4,2,1,80,0,1
46680,-66.6666666666667,4,2,1,80,0,1
47130,-58.8235294117647,4,2,1,80,0,1
47430,-66.6666666666667,4,2,1,80,0,1
48180,-66.6666666666667,4,2,1,80,0,1
48630,-25,4,2,1,80,0,1
48930,-66.6666666666667,4,2,1,80,0,1
49680,-55.5555555555556,4,2,1,80,0,1
49830,-25,4,2,1,80,0,1
50130,-83.3333333333333,4,2,1,80,0,1
50430,-33.3333333333333,4,2,1,80,0,1
50580,-66.6666666666667,4,2,1,80,0,1
50880,-50,4,2,1,80,0,1
51030,-25,4,2,1,80,0,1
51480,-66.6666666666667,4,2,1,80,0,1
51930,-58.8235294117647,4,2,1,80,0,1
52230,-25,4,2,1,80,0,1
52530,-50,4,2,1,80,0,1
52830,-100,4,2,1,80,0,1
52980,-66.6666666666667,4,2,1,80,0,1
53430,-25,4,2,1,80,0,1
53730,-66.6666666666667,4,2,1,80,0,1
54480,-55.5555555555556,4,2,1,80,0,1
54630,-25,4,2,1,80,0,1
54930,-83.3333333333333,4,2,1,80,0,1
55230,-33.3333333333333,4,2,1,80,0,1
55380,-66.6666666666667,4,2,1,80,0,1
55680,-50,4,2,1,80,0,1
55830,-25,4,2,1,80,0,1
56280,-66.6666666666667,4,2,1,80,0,1
56730,-58.8235294117647,4,2,1,80,0,1
57030,-66.6666666666667,4,2,1,80,0,1
57780,-66.6666666666667,4,2,1,80,0,1
58230,-25,4,2,1,80,0,1
58530,-66.6666666666667,4,2,1,80,0,1
59280,-55.5555555555556,4,2,1,80,0,1
59430,-25,4,2,1,80,0,1
59730,-83.3333333333333,4,2,1,80,0,1
60030,-33.3333333333333,4,2,1,80,0,1
60180,-66.6666666666667,4,2,1,80,0,1
60480,-50,4,2,1,80,0,1
60630,-25,4,2,1,80,0,1
61080,-66.6666666666667,4,2,1,80,0,1
61530,-58.8235294117647,4,2,1,80,0,1
61830,-25,4,2,1,80,0,1
62130,-50,4,2,1,80,0,1
62430,-100,4,2,1,80,0,1
62580,-66.6666666666667,4,2,1,80,0,1
63030,-25,4,2,1,80,0,1
63330,-66.6666666666667,4,2,1,80,0,1
64080,-55.5555555555556,4,2,1,80,0,1
64230,-25,4,2,1,80,0,1
64530,-83.3333333333333,4,2,1,80,0,1
64830,-33.3333333333333,4,2,1,80,0,1
64980,-66.6666666666667,4,2,1,80,0,1
65280,-50,4,2,1,80,0,1
65430,-25,4,2,1,80,0,1
65880,-66.6666666666667,4,2,1,80,0,1
66330,-58.8235294117647,4,2,1,80,0,1
66630,-66.6666666666667,4,2,1,80,0,1
67380,-66.6666666666667,4,2,1,80,0,1
67830,-25,4,2,1,80,0,1
68130,-66.6666666666667,4,2,1,80,0,1
68880,-55.5555555555556,4,2,1,80,0,1
69030,-25,4,2,1,80,0,1
69330,-83.3333333333333,4,2,1,80,0,1
69630,-33.3333333333333,4,2,1,80,0,1
69780,-66.6666666666667,4,2,1,80,0,1
70080,-50,4,2,1,80,0,1
70230,-25,4,2,1,80,0,1
70680,-66.6666666666667,4,2,1,80,0,1
71130,-58.8235294117647,4,2,1,80,0,1
71430,-25,4,2,1,80,0,1
71730,-50,4,2,1,80,0,1
72030,-100,4,2,1,80,0,1
72180,-66.6666666666667,4,2,1,80,0,1
72630,-25,4,2,1,80,0,1
72930,-66.6666666666667,4,2,1,80,0,1
73680,-55.5555555555556,4,2,1,80,0,1
73830,-25,4,2,1,80,0,1
74130,-83.3333333333333,4,2,1,80,0,1
74430,-33.3333333333333,4,2,1,80,0,1
74580,-66.6666666666667,4,2,1,80,0,1
74880,-50,4,2,1,80,0,1
75030,-25,4,2,1,80,0,1
75480,-66.6666666666667,4,2,1,80,0,1
75930,-58.8235294117647,4,2,1,80,0,1
76230,-66.6666666666667,4,2,1,80,0,1
76530,-100,4,2,1,80,0,0
76830,-100,4,2,3,60,0,0
77430,-66.6666666666667,4,2,3,60,0,0
77730,-100,4,2,3,60,0,0
78630,-66.6666666666667,4,2,3,60,0,0
78930,-100,4,2,3,60,0,0
79830,-66.6666666666667,4,2,3,60,0,0
80130,-100,4,2,3,60,0,0
81030,-66.6666666666667,4,2,3,60,0,0
81330,-100,4,2,3,60,0,0
82230,-66.6666666666667,4,2,3,60,0,0
82530,-100,4,2,3,60,0,0
83430,-66.6666666666667,4,2,3,60,0,0
83730,-100,4,2,3,60,0,0
84630,-66.6666666666667,4,2,3,60,0,0
84930,-100,4,2,3,60,0,0
85830,-66.6666666666667,4,2,3,60,0,0
86130,-100,4,2,3,60,0,0
86430,-90.9090909090909,4,2,3,60,0,0
87030,-62.5,4,2,3,60,0,0
87330,-90.9090909090909,4,2,3,60,0,0
88230,-62.5,4,2,3,60,0,0
88530,-90.9090909090909,4,2,3,60,0,0
89430,-62.5,4,2,3,60,0,0
89730,-90.9090909090909,4,2,3,60,0,0
90630,-62.5,4,2,3,60,0,0
90930,-90.9090909090909,4,2,3,60,0,0
91830,-62.5,4,2,3,60,0,0
92130,-90.9090909090909,4,2,3,60,0,0
93030,-62.5,4,2,3,60,0,0
93330,-90.9090909090909,4,2,3,60,0,0
94230,-62.5,4,2,3,60,0,0
94530,-90.9090909090909,4,2,3,60,0,0
95430,-62.5,4,2,3,60,0,0
95730,-90.9090909090909,4,2,3,60,0,0
96030,-133.333333333333,4,2,3,60,0,0
96330,-83.3333333333333,4,2,3,70,0,0
96630,-50,4,2,3,70,0,0
97080,-66.6666666666667,4,2,3,70,0,0
97830,-50,4,2,3,70,0,0
98130,-83.3333333333333,4,2,3,70,0,0
98430,-133.333333333333,4,2,3,70,0,0
98730,-83.3333333333333,4,2,3,70,0,0
99030,-50,4,2,3,70,0,0
99480,-66.6666666666667,4,2,3,70,0,0
100230,-50,4,2,3,70,0,0
100530,-66.6666666666667,4,2,3,70,0,0
100830,-133.333333333333,4,2,3,70,0,0
101130,-83.3333333333333,4,2,3,70,0,0
101430,-50,4,2,3,70,0,0
101880,-66.6666666666667,4,2,3,70,0,0
102630,-50,4,2,3,70,0,0
102930,-83.3333333333333,4,2,3,70,0,0
103230,-133.333333333333,4,2,3,70,0,0
103530,-83.3333333333333,4,2,3,70,0,0
103830,-50,4,2,3,70,0,0
104280,-66.6666666666667,4,2,3,70,0,0
105030,-50,4,2,3,70,0,0
105330,-66.6666666666667,4,2,3,70,0,0
105930,-76.9230769230769,4,2,3,70,0,0
106230,-50,4,2,3,70,0,0
106680,-62.5,4,2,3,70,0,0
107430,-45.4545454545455,4,2,3,70,0,0
107730,-76.9230769230769,4,2,3,70,0,0
108630,-50,4,2,3,70,0,0
109080,-62.5,4,2,3,70,0,0
109830,-43.4782608695652,4,2,3,70,0,0
110130,-66.6666666666667,4,2,3,70,0,0
110430,-76.9230769230769,4,2,3,70,0,0
111030,-50,4,2,3,70,0,0
111480,-62.5,4,2,3,70,0,0
112230,-41.6666666666667,4,2,3,70,0,0
112530,-76.9230769230769,4,2,3,70,0,0
113430,-50,4,2,3,70,0,0
113880,-62.5,4,2,3,70,0,0
114630,-40,4,2,3,70,0,0
114930,-50,4,2,3,70,0,0
115230,-133.333333333333,4,2,2,40,0,0
134430,-166.666666666667,4,2,4,40,0,0
136680,-166.666666666667,4,2,4,5,0,0
136830,-166.666666666667,4,2,5,40,0,0
139080,-166.666666666667,4,2,5,5,0,0
139230,-166.666666666667,4,2,4,40,0,0
141480,-166.666666666667,4,2,4,5,0,0
141630,-142.857142857143,4,2,1,30,0,0
143430,-100,4,2,1,30,0,0
144030,-166.666666666667,4,2,4,40,0,0
146280,-166.666666666667,4,2,4,5,0,0
146430,-166.666666666667,4,2,5,40,0,0
148680,-166.666666666667,4,2,5,5,0,0
148830,-166.666666666667,4,2,4,40,0,0
151080,-166.666666666667,4,2,4,5,0,0
151230,-133.333333333333,4,2,1,30,0,0
153480,-133.333333333333,4,2,1,5,0,0
153630,-125,4,2,1,50,0,0
163230,-100,4,2,2,60,0,0
168030,-83.3333333333333,4,2,2,65,0,0
169230,-76.9230769230769,4,2,2,65,0,0
170430,-66.6666666666667,4,2,2,70,0,0
173430,-1000,4,2,2,70,0,0
173880,-40,4,2,2,70,0,0
174030,-66.6666666666667,4,2,1,70,0,0
176430,-50,4,2,1,70,0,0
177630,-55.5555555555556,4,2,1,70,0,0
177780,-62.5,4,2,1,70,0,0
177930,-71.4285714285714,4,2,1,70,0,0
178080,-83.3333333333333,4,2,1,70,0,0
178230,-100,4,2,1,70,0,0
178380,-125,4,2,1,70,0,0
178530,-166.666666666667,4,2,1,70,0,0
178680,-40,4,2,1,70,0,0
178830,-66.6666666666667,4,2,1,70,0,0
181230,-50,4,2,1,70,0,0
182430,-1000,4,2,1,70,0,0
183480,-40,4,2,1,70,0,0
183630,-66.6666666666667,4,2,1,70,0,0
186030,-50,4,2,1,70,0,0
187230,-1000,4,2,1,70,0,0
188280,-40,4,2,1,70,0,0
188430,-66.6666666666667,4,2,1,70,0,0
190830,-100,4,2,1,70,0,0
192030,-100,4,2,1,5,0,0
192630,-1000,4,2,1,70,0,0
193080,-40,4,2,1,70,0,0
193230,-66.6666666666667,4,2,1,70,0,0
195630,-50,4,2,1,70,0,0
196830,-55.5555555555556,4,2,1,70,0,0
196980,-62.5,4,2,1,70,0,0
197130,-71.4285714285714,4,2,1,70,0,0
197280,-83.3333333333333,4,2,1,70,0,0
197430,-100,4,2,1,70,0,0
197580,-125,4,2,1,70,0,0
197730,-166.666666666667,4,2,1,70,0,0
197880,-40,4,2,1,70,0,0
198030,-66.6666666666667,4,2,1,70,0,0
200430,-50,4,2,1,70,0,0
201630,-1000,4,2,1,70,0,0
202680,-40,4,2,1,70,0,0
202830,-66.6666666666667,4,2,1,70,0,0
205230,-50,4,2,1,70,0,0
206430,-55.5555555555556,4,2,1,70,0,0
206580,-62.5,4,2,1,70,0,0
206730,-71.4285714285714,4,2,1,70,0,0
206880,-83.3333333333333,4,2,1,70,0,0
207030,-100,4,2,1,70,0,0
207180,-125,4,2,1,70,0,0
207330,-166.666666666667,4,2,1,70,0,0
207480,-40,4,2,1,70,0,0
207630,-66.6666666666667,4,2,1,70,0,0
210030,-100,4,2,1,70,0,0
211155,-100,4,2,1,5,0,0
211230,-100,4,2,3,80,0,0

[Colours]
Combo1 : 0,0,160
Combo2 : 192,192,192
Combo3 : 0,128,255
Combo4 : 116,116,116

[HitObjects]
256,32,30,53,0,1:0:0:0:
35,315,180,5,2,0:0:0:0:
134,293,330,1,8,0:0:0:0:
69,216,480,1,2,0:0:0:0:
69,216,780,1,2,0:0:0:0:
69,216,1080,21,2,0:0:0:0:
35,315,1230,1,8,0:0:0:0:
134,293,1380,1,2,0:0:0:0:
0,141,1530,1,8,0:0:0:0:
106,123,1680,1,2,0:0:0:0:
69,216,1830,2,0,P|156:208|200:160,1,150.000005722046,8|8,0:0|0:0,0:0:0:0:
197,165,2280,1,2,0:0:0:0:
314,165,2430,1,8,0:0:0:0:
477,315,2580,21,2,0:0:0:0:
378,293,2730,1,8,0:0:0:0:
443,216,2880,1,2,0:0:0:0:
443,216,3180,1,2,0:0:0:0:
443,216,3480,21,2,0:0:0:0:
477,315,3630,1,8,0:0:0:0:
378,293,3780,1,2,0:0:0:0:
512,141,3930,1,8,0:0:0:0:
406,123,4080,1,2,0:0:0:0:
443,216,4230,2,0,P|356:208|308:212,1,112.500004291535,8|0,0:0|0:0,0:0:0:0:
256,224,4530,1,8,0:0:0:0:
256,352,4680,1,2,0:0:0:0:
256,32,4830,5,8,0:0:0:0:
62,271,4980,5,2,0:0:0:0:
28,172,5130,1,8,0:0:0:0:
127,194,5280,1,2,0:0:0:0:
127,194,5580,1,2,0:0:0:0:
127,194,5880,21,2,0:0:0:0:
192,117,6030,1,8,0:0:0:0:
226,216,6180,1,2,0:0:0:0:
62,271,6330,1,8,0:0:0:0:
28,172,6480,1,2,0:0:0:0:
127,194,6630,2,0,P|162:257|147:338,1,150.000005722046,8|8,0:0|0:0,0:0:0:0:
150,331,7080,1,2,0:0:0:0:
361,331,7230,1,8,0:0:0:0:
450,271,7380,21,2,0:0:0:0:
484,172,7530,1,8,0:0:0:0:
385,194,7680,1,2,0:0:0:0:
385,194,7980,1,2,0:0:0:0:
385,194,8280,21,2,0:0:0:0:
320,117,8430,1,8,0:0:0:0:
286,216,8580,1,2,0:0:0:0:
450,271,8730,1,8,0:0:0:0:
484,172,8880,1,2,0:0:0:0:
385,194,9030,2,0,L|366:239,1,37.5000014305115,8|0,0:0|0:0,0:0:0:0:
256,352,9180,37,2,0:0:0:0:
256,232,9330,1,8,0:0:0:0:
256,152,9480,1,2,0:0:0:0:
256,32,9630,21,8,0:0:0:0:
21,240,9780,5,2,0:0:0:0:
74,151,9930,1,8,0:0:0:0:
160,215,10080,1,2,0:0:0:0:
160,215,10380,1,2,0:0:0:0:
160,215,10680,21,2,0:0:0:0:
103,297,10830,1,8,0:0:0:0:
21,240,10980,1,2,0:0:0:0:
74,151,11130,1,8,0:0:0:0:
160,215,11280,1,2,0:0:0:0:
74,151,11430,2,0,P|99:90|174:42,1,150.000005722046,8|8,0:0|0:0,0:0:0:0:
166,43,11880,1,2,0:0:0:0:
345,43,12030,1,8,0:0:0:0:
491,240,12180,21,2,0:0:0:0:
438,151,12330,1,8,0:0:0:0:
352,215,12480,1,2,0:0:0:0:
352,215,12780,1,2,0:0:0:0:
352,215,13080,21,2,0:0:0:0:
409,297,13230,1,8,0:0:0:0:
491,240,13380,1,2,0:0:0:0:
438,151,13530,1,8,0:0:0:0:
352,215,13680,1,2,0:0:0:0:
438,151,13830,2,0,P|384:131|313:120,1,112.500004291535,8|0,0:0|0:0,0:0:0:0:
256,136,14130,1,8,0:0:0:0:
256,248,14280,1,2,0:0:0:0:
256,32,14430,5,8,0:0:0:0:
151,300,14580,5,2,0:0:0:0:
97,222,14730,1,8,0:0:0:0:
125,135,14880,1,2,0:0:0:0:
125,135,15180,1,2,0:0:0:0:
125,135,15480,21,2,0:0:0:0:
97,222,15630,1,8,0:0:0:0:
10,255,15780,1,2,0:0:0:0:
43,342,15930,1,8,0:0:0:0:
130,309,16080,1,2,0:0:0:0:
97,222,16230,2,0,P|191:199|216:142,1,150.000005722046,8|8,0:0|0:0,0:0:0:0:
213,157,16680,1,2,0:0:0:0:
299,157,16830,1,8,0:0:0:0:
361,300,16980,21,2,0:0:0:0:
415,222,17130,1,8,0:0:0:0:
387,135,17280,1,2,0:0:0:0:
387,135,17580,1,2,0:0:0:0:
387,135,17880,21,2,0:0:0:0:
415,222,18030,1,8,0:0:0:0:
502,255,18180,1,2,0:0:0:0:
469,342,18330,1,8,0:0:0:0:
382,309,18480,1,2,0:0:0:0:
415,222,18630,2,0,L|375:230,1,37.5000014305115,8|0,0:0|0:0,0:0:0:0:
256,352,18780,37,2,0:0:0:0:
256,232,18930,1,8,0:0:0:0:
256,152,19080,1,2,0:0:0:0:
256,32,19230,37,8,1:2:0:0:
41,243,19380,2,0,B|113:256|158:193|86:144|123:102|164:83|204:94,1,250,2|8,0:0|0:0,0:0:0:0:
194,91,20280,21,2,0:0:0:0:
334,202,20430,2,0,B|356:189|356:189|320:170|272:188,1,112.500004291535,8|0,0:0|0:0,0:0:0:0:
247,298,20730,2,0,B|247:323|247:323|281:301|290:251,1,112.500004291535,8|0,0:0|0:0,0:0:0:0:
207,174,21030,2,0,B|184:161|184:161|186:202|225:234,1,112.500004291535,8|0,0:0|0:0,0:0:0:0:
334,202,21330,22,0,P|379:185|461:187,2,100,8|2|8,0:0|0:0|0:0,0:0:0:0:
175,342,21780,22,0,P|116:347|58:274,1,150.000005722046,2|2,0:0|0:0,0:0:0:0:
137,272,22230,2,0,P|111:224|12:220,1,150.000005722046,8|8,0:0|0:0,0:0:0:0:
30,113,22680,2,0,B|53:135|53:135|108:134|152:160|170:183,1,150.000005722046,2|2,0:0|0:0,0:0:0:0:
231,269,23130,2,0,B|208:233|208:233|246:207|246:148|216:120,1,134.999995880127,8|0,0:0|0:0,0:0:0:0:
185,103,23430,22,0,B|185:76|185:76|193:50,1,50,8|0,0:0|0:0,0:0:0:0:
319,54,23580,2,0,B|326:76|326:76|327:103,1,50,2|0,0:0|0:0,0:0:0:0:
131,156,23730,22,0,B|116:130|116:130|109:100,1,55.0000016784668,8|0,0:0|0:0,0:0:0:0:
400,105,23880,2,0,B|395:130|395:130|381:156,1,55.0000016784668,2|0,0:0|0:0,0:0:0:0:
256,32,24030,21,8,0:0:0:0:
371,301,24180,2,0,B|405:347|455:323|466:287|461:257|444:232|394:222|371:239|332:237|312:197|308:153,1,299.999990844727,2|8,0:0|0:0,0:0:0:0:
309,165,25080,21,2,0:0:0:0:
130,339,25230,2,0,B|99:327|99:327|95:272|146:255,1,112.500004291535,8|0,0:0|0:0,0:0:0:0:
268,260,25530,2,0,B|273:292|273:292|227:323|187:288,1,112.500004291535,8|0,0:0|0:0,0:0:0:0:
131,180,25830,2,0,B|156:159|156:159|206:183|195:235,1,112.500004291535,8|0,0:0|0:0,0:0:0:0:
130,339,26130,22,0,P|44:350|11:328,2,100,8|2|8,0:0|0:0|0:0,0:0:0:0:
7,278,26580,22,0,P|23:211|11:115,1,150.000005722046,2|2,0:0|0:0,0:0:0:0:
140,5,27030,2,0,P|80:60|105:141,1,150.000005722046,8|8,0:0|0:0,0:0:0:0:
277,47,27480,2,0,B|265:86|219:98|219:98|185:73|145:79,1,150.000005722046,2|2,0:0|0:0,0:0:0:0:
128,249,27930,2,0,B|127:188|164:157|164:157|161:180|170:208,1,134.999995880127,8|0,0:0|0:0,0:0:0:0:
202,249,28230,22,0,B|229:249|229:249|255:241,1,50,8|0,0:0|0:0,0:0:0:0:
406,156,28380,2,0,B|384:149|384:149|357:148,1,50,2|0,0:0|0:0,0:0:0:0:
163,156,28530,22,0,B|189:171|189:171|219:178,1,55.0000016784668,8|0,0:0|0:0,0:0:0:0:
446,96,28680,2,0,B|420:82|420:82|395:77,1,55.0000016784668,2|0,0:0|0:0,0:0:0:0:
256,32,28830,21,0,1:0:0:0:
85,172,28980,2,0,P|43:164|130:110,1,250,2|0,0:0|0:0,0:0:0:0:
85,172,29880,21,2,0:0:0:0:
52,246,30030,2,0,P|44:280|48:313,1,59.9999981689454,10|0,0:0|0:0,0:0:0:0:
118,279,30330,2,0,P|143:262|171:254,1,59.9999981689454,2|0,0:0|0:0,0:0:0:0:
233,214,30630,2,0,P|207:190|176:177,1,59.9999981689454,2|8,0:0|0:0,0:0:0:0:
307,194,30930,2,0,P|308:223|300:252,2,59.9999981689454,2|0|0,0:0|0:0|0:0,0:0:0:0:
253,129,31380,22,0,L|378:116,1,119.999996337891,2|0,0:0|0:0,0:0:0:0:
424,52,31830,2,0,L|304:39,1,119.999996337891,2|0,0:0|0:0,0:0:0:0:
173,153,32280,2,0,P|134:171|63:139,1,119.999996337891,2|0,0:0|0:0,0:0:0:0:
149,11,32730,2,0,P|129:69|123:114,1,89.9999972534181,2|0,0:0|0:0,0:0:0:0:
124,97,33030,21,2,0:0:0:0:
95,173,33180,1,10,0:0:0:0:
25,137,33330,1,2,0:0:0:0:
55,68,33480,1,2,0:0:0:0:
95,173,33630,21,0,0:0:0:0:
4,354,33780,2,0,P|11:293|210:200,1,299.999990844727,2|0,0:0|0:0,0:0:0:0:
206,201,34680,21,2,0:0:0:0:
164,336,34830,2,0,P|169:290|162:260,1,75.0000028610231,10|0,0:0|0:0,0:0:0:0:
337,195,35130,2,0,P|308:219|273:232,1,75.0000028610231,2|0,0:0|0:0,0:0:0:0:
95,102,35430,2,0,P|132:129|161:138,1,75.0000028610231,2|8,0:0|0:0,0:0:0:0:
84,360,35730,1,2,0:0:0:0:
101,285,35880,1,2,0:3:0:0:
18,202,36030,21,8,0:0:0:0:
21,195,36180,1,8,0:0:0:0:
205,361,36480,21,8,0:0:0:0:
202,354,36630,1,8,0:0:0:0:
224,48,36930,21,8,0:0:0:0:
227,55,37080,1,8,0:0:0:0:
509,313,37380,21,8,0:0:0:0:
512,306,37530,1,8,0:0:0:0:
406,344,37680,1,0,1:0:0:0:
456,130,37830,6,0,L|471:54,1,59.9999981689454,8|0,1:0|0:0,0:0:0:0:
356,266,37980,1,0,1:0:0:0:
512,189,38130,1,0,1:0:0:0:
297,48,38280,1,0,1:0:0:0:
256,383,38430,21,0,1:0:0:0:
97,178,38580,2,0,P|100:207|145:138,1,225.000008583069,0|0,0:0|0:0,0:0:0:0:
217,320,38880,1,0,0:0:0:0:
217,320,39030,22,0,B|164:310|164:310|121:336|121:336|90:296|90:296|33:282,1,200,8|0,1:0|0:0,0:0:0:0:
45,285,39330,21,0,1:0:0:0:
55,68,39480,2,0,P|78:144|14:269,1,225.000008583069,2|0,1:3|0:0,0:0:0:0:
227,224,39780,2,0,P|213:114|128:45,1,225.000008583069,2|0,1:3|0:0,0:0:0:0:
327,32,40080,2,0,P|329:56|300:120,1,89.9999972534181,0|0,1:0|0:0,0:0:0:0:
153,304,40230,22,0,B|206:295|206:295|249:321|249:321|280:281|280:281|324:270,1,200,8|0,1:0|0:0,0:0:0:0:
324,269,40530,22,0,P|387:309|390:234,1,179.999994506836,0|0,0:0|0:0,0:0:0:0:
389,242,40830,22,0,P|383:304|331:271,1,150.000005722046,0|0,1:0|0:0,0:0:0:0:
431,164,40980,2,0,B|359:122|287:228|208:183,1,225.000008583069,0|0,0:0|0:0,0:0:0:0:
138,141,41280,22,0,B|148:163|148:163|151:139,3,50,0|0|0|0,0:0|0:0|0:0|0:0,0:0:0:0:
147,149,41430,22,0,B|138:202|138:202|164:245|164:245|124:276|124:276|113:320,1,200,8|0,1:0|0:0,0:0:0:0:
113,320,41730,21,0,1:0:0:0:
215,186,41880,2,0,P|310:152|431:164,1,225.000008583069,2|0,1:3|0:0,0:0:0:0:
494,208,42180,1,2,1:3:0:0:
170,117,42330,2,0,P|131:195|276:242,1,255.000004863739,0|0,1:0|0:0,0:0:0:0:
252,260,42630,22,0,B|296:271|296:271|327:311|327:311|370:285|370:285|423:294,1,200,8|0,1:0|0:0,0:0:0:0:
423,294,42780,1,0,0:0:0:0:
243,373,42930,6,0,B|287:352|253:301|183:320|198:362|174:313|182:250|275:268|265:320|296:228|292:193|242:124|180:187|279:92,1,300,0|0,0:0|0:0,0:0:0:0:
256,32,43230,5,0,1:0:0:0:
72,229,43380,2,0,P|66:139|139:193,1,225.000008583069,0|0,0:0|0:0,0:0:0:0:
19,51,43680,1,0,0:0:0:0:
19,51,43830,22,0,B|72:61|72:61|115:35|115:35|146:75|146:75|203:89,1,200,8|0,1:0|0:0,0:0:0:0:
189,85,44130,21,0,1:0:0:0:
350,282,44280,2,0,P|267:233|284:95,1,225.000008583069,2|0,1:3|0:0,0:0:0:0:
458,18,44580,2,0,P|457:114|329:168,1,225.000008583069,2|0,1:3|0:0,0:0:0:0:
271,19,44880,2,0,P|315:25|349:54,1,89.9999972534181,0|0,1:0|0:0,0:0:0:0:
251,247,45030,22,0,B|198:257|198:257|155:231|155:231|124:271|124:271|67:285,1,200,8|0,1:0|0:0,0:0:0:0:
80,281,45330,22,0,P|24:261|47:341,1,179.999994506836,0|0,0:0|0:0,0:0:0:0:
45,333,45630,22,0,P|12:281|73:284,1,150.000005722046,0|0,1:0|0:0,0:0:0:0:
293,333,45780,2,0,P|216:330|186:183,1,225.000008583069,0|0,0:0|0:0,0:0:0:0:
362,155,46080,22,0,B|337:156|337:156|359:167,3,50,0|0|0|0,0:0|0:0|0:0|0:0,0:0:0:0:
349,155,46230,22,0,B|296:146|296:146|253:172|253:172|222:132|222:132|178:121,1,200,8|0,1:0|0:0,0:0:0:0:
178,121,46530,21,0,1:0:0:0:
375,248,46680,2,0,P|452:176|412:78,1,225.000008583069,2|0,1:3|0:0,0:0:0:0:
340,80,46980,1,2,1:3:0:0:
132,219,47130,2,0,P|76:110|158:19,1,255.000004863739,0|0,1:0|0:0,0:0:0:0:
275,37,47430,6,0,B|220:151|330:164|389:160|339:211|252:242|135:237|16:158|207:137|276:151|312:192|331:251|263:334|420:314|79:196|193:388|308:360,1,600.000022888185,8|0,1:0|0:0,0:0:0:0:
353,301,48180,38,0,P|442:311|377:373,1,225.000008583069,0|0,0:0|0:0,0:0:0:0:
169,256,48480,1,0,0:0:0:0:
169,256,48630,22,0,B|150:205|150:205|106:181|106:181|125:134|125:134|112:90,1,200,8|0,1:0|2:0,2:0:0:0:
112,90,48930,21,0,1:0:0:0:
203,152,49080,2,0,P|334:174|446:138,1,225.000008583069,2|0,1:3|0:0,0:0:0:0:
424,57,49380,2,0,P|293:35|181:71,1,225.000008583069,2|0,1:3|0:0,0:0:0:0:
203,152,49680,2,0,P|228:180|228:242,1,89.9999972534181,0|0,1:0|0:0,0:0:0:0:
54,280,49830,22,0,B|107:289|107:289|149:263|149:263|181:303|181:303|225:313,1,200,8|0,1:0|2:0,2:0:0:0:
225,314,50130,22,0,P|263:359|283:278,1,179.999994506836,0|0,0:0|0:0,0:0:0:0:
281,286,50430,22,0,P|283:347|232:314,1,150.000005722046,0|0,1:0|0:0,0:0:0:0:
203,152,50580,2,0,P|306:184|393:119,1,225.000008583069,0|0,0:0|0:0,0:0:0:0:
444,41,50880,22,0,B|419:42|419:42|441:53,3,50,0|0|0|0,0:0|0:0|0:0|0:0,0:0:0:0:
431,41,51030,22,0,B|378:32|378:32|335:58|335:58|304:18|304:18|260:7,1,200,8|0,1:0|0:0,0:0:0:0:
260,7,51330,21,0,1:0:0:0:
165,228,51480,2,0,P|184:140|98:31,1,225.000008583069,2|0,1:3|0:0,0:0:0:0:
32,37,51780,1,2,1:3:0:0:
86,272,51930,2,0,P|169:178|113:57,1,255.000004863739,0|0,1:0|0:0,0:0:0:0:
128,67,52230,22,0,B|171:78|171:78|202:118|202:118|246:91|246:91|299:101,1,200,8|0,1:0|2:0,2:0:0:0:
299,101,52380,1,0,0:0:0:0:
363,371,52530,6,0,B|311:342|426:308|404:285|365:285|333:311|214:287|260:332|433:271|237:256|365:186|212:151,1,300,0|0,0:0|0:0,0:0:0:0:
257,167,52830,5,0,1:0:0:0:
468,109,52980,2,0,P|460:21|385:87,1,225.000008583069,0|0,0:0|0:0,0:0:0:0:
383,232,53280,1,0,0:0:0:0:
383,232,53430,22,0,B|339:243|339:243|308:283|308:283|265:257|265:257|212:266,1,200,8|0,1:0|0:0,0:0:0:0:
211,266,53730,21,0,1:0:0:0:
81,372,53880,2,0,P|98:287|71:128,1,225.000008583069,2|0,1:3|0:0,0:0:0:0:
209,45,54180,2,0,P|192:130|219:289,1,225.000008583069,2|0,1:3|0:0,0:0:0:0:
349,372,54480,2,0,P|332:328|337:264,1,89.9999972534181,0|0,1:0|0:0,0:0:0:0:
468,109,54630,22,0,B|424:98|424:98|393:58|393:58|350:84|350:84|297:75,1,200,8|0,1:0|0:0,0:0:0:0:
296,74,54930,22,0,P|295:147|233:107,1,179.999994506836,0|0,0:0|0:0,0:0:0:0:
241,108,55230,22,0,P|291:141|289:80,1,150.000005722046,0|0,1:0|0:0,0:0:0:0:
52,32,55380,2,0,P|121:100|125:230,1,225.000008583069,0|0,0:0|0:0,0:0:0:0:
33,362,55680,22,0,B|55:350|55:350|30:349,3,50,0|0|0|0,0:0|0:0|0:0|0:0,0:0:0:0:
44,356,55830,22,0,B|95:341|95:341|123:300|123:300|168:323|168:323|213:314,1,200,8|0,1:0|0:0,0:0:0:0:
213,314,56130,21,0,1:0:0:0:
385,161,56280,2,0,P|315:243|210:223,1,225.000008583069,2|0,1:3|0:0,0:0:0:0:
211,105,56580,2,0,P|190:150|195:201,1,100.000003814697,2|0,1:3|0:0,0:0:0:0:
211,223,56730,1,0,1:0:0:0:
312,244,56880,1,0,1:0:0:0:
385,161,57030,6,0,B|470:129|451:180|354:146|445:108|505:108|529:122|468:134|529:119,3,150.000005722046,8|0|0|0,1:0|0:0|0:0|0:0,0:0:0:0:
160,330,57780,38,0,P|157:301|112:370,1,225.000008583069,0|0,0:0|0:0,0:0:0:0:
40,188,58080,1,0,0:0:0:0:
40,188,58230,22,0,B|93:198|93:198|136:172|136:172|167:212|167:212|224:226,1,200,8|0,1:0|0:0,0:0:0:0:
210,222,58530,21,0,1:0:0:0:
413,77,58680,2,0,P|291:92|203:159,1,225.000008583069,2|0,1:3|0:0,0:0:0:0:
160,20,58980,2,0,P|206:121|197:232,1,225.000008583069,2|0,1:3|0:0,0:0:0:0:
53,295,59280,2,0,P|96:271|139:276,1,89.9999972534181,0|0,1:0|0:0,0:0:0:0:
255,347,59430,22,0,B|308:338|308:338|351:364|351:364|382:324|382:324|426:313,1,200,8|0,1:0|0:0,0:0:0:0:
427,312,59730,22,0,P|490:352|493:277,1,179.999994506836,0|0,0:0|0:0,0:0:0:0:
492,285,60030,22,0,P|486:347|434:314,1,150.000005722046,0|0,1:0|0:0,0:0:0:0:
469,170,60180,2,0,B|427:242|312:186|266:265,1,225.000008583069,0|0,0:0|0:0,0:0:0:0:
159,271,60480,22,0,B|173:290|173:290|150:281,3,50,0|0|0|0,0:0|0:0|0:0|0:0,0:0:0:0:
161,282,60630,22,0,B|211:300|211:300|235:344|235:344|282:325|282:325|326:338,1,200,8|0,1:0|0:0,0:0:0:0:
326,338,60930,21,0,1:0:0:0:
106,348,61080,2,0,P|72:253|84:131,1,225.000008583069,2|0,1:3|0:0,0:0:0:0:
124,66,61380,1,2,1:3:0:0:
388,190,61530,2,0,P|257:201|168:117,1,255.000004863739,0|0,1:0|0:0,0:0:0:0:
171,123,61830,22,0,B|215:112|215:112|246:72|246:72|289:98|289:98|342:89,1,200,8|0,1:0|0:0,0:0:0:0:
342,89,61980,1,0,0:0:0:0:
250,322,62130,6,0,B|389:273|211:282|246:257|283:256|313:259|325:225|299:197|311:282|188:352|201:166|262:177|233:175|217:199|220:237|256:215|262:194|210:264|171:273|133:252|107:201,1,300,0|0,0:0|0:0,0:0:0:0:
142,240,62430,5,0,1:0:0:0:
388,197,62580,2,0,P|382:287|455:233,1,225.000008583069,0|0,0:0|0:0,0:0:0:0:
471,65,62880,1,0,0:0:0:0:
471,65,63030,22,0,B|418:75|418:75|375:49|375:49|344:89|344:89|287:103,1,200,8|0,1:0|0:0,0:0:0:0:
301,99,63330,21,0,1:0:0:0:
36,107,63480,2,0,P|85:24|223:41,1,225.000008583069,2|0,1:3|0:0,0:0:0:0:
300,215,63780,2,0,P|204:214|150:86,1,225.000008583069,2|0,1:3|0:0,0:0:0:0:
299,28,64080,2,0,P|293:72|264:106,1,89.9999972534181,0|0,1:0|0:0,0:0:0:0:
127,159,64230,22,0,B|117:212|117:212|143:255|143:255|103:286|103:286|89:343,1,200,8|0,1:0|0:0,0:0:0:0:
92,329,64530,22,0,P|148:349|125:269,1,179.999994506836,0|0,0:0|0:0,0:0:0:0:
127,277,64830,22,0,P|160:329|99:326,1,150.000005722046,0|0,1:0|0:0,0:0:0:0:
32,149,64980,2,0,P|99:67|201:100,1,225.000008583069,0|0,0:0|0:0,0:0:0:0:
223,186,65280,22,0,B|248:187|248:187|226:198,3,50,0|0|0|0,0:0|0:0|0:0|0:0,0:0:0:0:
236,186,65430,22,0,B|289:177|289:177|332:203|332:203|363:163|363:163|407:152,1,200,8|0,1:0|0:0,0:0:0:0:
407,152,65730,21,0,1:0:0:0:
272,371,65880,2,0,P|172:380|32:327,1,225.000008583069,2|0,1:3|0:0,0:0:0:0:
16,277,66180,1,2,1:3:0:0:
248,98,66330,2,0,P|189:226|89:275,1,255.000004863739,0|0,1:0|0:0,0:0:0:0:
108,27,66630,6,0,B|163:15|186:55|161:74|181:61|203:30|193:-12|245:8|287:-12|333:12|321:33|321:68|322:88|321:103|336:121|370:128|421:120|451:97|512:95|519:54|443:42|415:37|522:11|402:23|441:45|446:75|430:115|396:142|446:217,1,600.000022888185,8|0,1:0|0:0,0:0:0:0:
415,276,67380,38,0,P|504:266|439:204,1,225.000008583069,0|0,1:0|0:0,0:0:0:0:
240,326,67680,1,0,0:0:0:0:
240,326,67830,22,0,B|293:335|293:335|336:308|336:308|367:348|367:348|412:359,1,200,8|0,1:0|2:0,2:0:0:0:
411,359,68130,21,0,1:0:0:0:
276,250,68280,2,0,P|212:225|130:86,1,225.000008583069,2|0,1:3|0:0,0:0:0:0:
175,0,68580,2,0,P|111:25|29:164,1,225.000008583069,2|0,1:3|0:0,0:0:0:0:
108,290,68880,2,0,P|107:245|90:203,1,89.9999972534181,0|0,1:0|0:0,0:0:0:0:
13,307,69030,22,0,B|66:316|66:316|108:290|108:290|140:330|140:330|184:340,1,200,8|0,1:0|2:0,2:0:0:0:
184,340,69330,22,0,P|222:385|242:304,1,179.999994506836,0|0,0:0|0:0,0:0:0:0:
240,312,69630,22,0,P|242:373|191:340,1,150.000005722046,0|0,1:0|0:0,0:0:0:0:
215,180,69780,2,0,B|320:140|309:275|423:243,1,225.000008583069,0|0,0:0|0:0,0:0:0:0:
500,252,70080,22,0,B|486:230|486:230|488:255,3,50,0|0|0|0,0:0|0:0|0:0|0:0,0:0:0:0:
493,240,70230,22,0,B|474:189|474:189|430:165|430:165|449:118|449:118|436:74,1,200,8|0,1:0|0:0,0:0:0:0:
437,75,70530,21,0,1:0:0:0:
210,50,70680,2,0,P|145:73|88:209,1,225.000008583069,2|0,1:3|0:0,0:0:0:0:
108,302,70980,1,2,1:3:0:0:
165,165,71130,2,0,P|245:128|205:232,1,255.000004863739,0|0,1:0|0:0,0:0:0:0:
215,234,71430,22,0,B|258:245|258:245|289:285|289:285|333:258|333:258|386:268,1,200,8|0,1:0|2:0,2:0:0:0:
386,268,71580,1,0,0:0:0:0:
449,96,71730,6,0,B|408:42|442:27|470:31|453:74|393:87|361:62|354:27|364:8|314:11|284:21|270:36|256:56|184:48,1,300,0|0,0:0|0:0,0:0:0:0:
209,49,72030,5,0,1:0:0:0:
45,109,72180,2,0,P|53:21|128:87,1,225.000008583069,0|0,0:0|0:0,0:0:0:0:
32,210,72480,1,0,0:0:0:0:
32,210,72630,22,0,B|76:199|76:199|107:159|107:159|150:185|150:185|203:176,1,200,8|0,1:0|0:0,0:0:0:0:
203,175,72930,21,0,1:0:0:0:
96,304,73080,2,0,P|181:287|340:314,1,225.000008583069,2|0,1:3|0:0,0:0:0:0:
423,176,73380,2,0,P|338:193|179:166,1,225.000008583069,2|0,1:3|0:0,0:0:0:0:
96,36,73680,2,0,P|140:53|204:48,1,89.9999972534181,0|0,1:0|0:0,0:0:0:0:
321,38,73830,22,0,B|332:82|332:82|372:113|372:113|346:156|346:156|355:209,1,200,8|0,1:0|0:0,0:0:0:0:
355,209,74130,22,0,P|349:281|414:247,1,179.999994506836,0|0,0:0|0:0,0:0:0:0:
406,247,74430,22,0,P|353:275|360:214,1,150.000005722046,0|0,1:0|0:0,0:0:0:0:
322,367,74580,2,0,P|226:313|118:337,1,225.000008583069,0|0,0:0|0:0,0:0:0:0:
26,383,74880,22,0,B|26:357|26:357|13:379,3,50,0|0|0|0,0:0|0:0|0:0|0:0,0:0:0:0:
26,370,75030,22,0,B|38:318|38:318|17:273|17:273|59:246|59:246|74:202,1,200,8|0,1:0|0:0,0:0:0:0:
74,201,75330,21,0,1:0:0:0:
351,131,75480,2,0,P|281:49|176:69,1,225.000008583069,2|0,1:3|0:0,0:0:0:0:
160,186,75780,2,0,P|147:137|161:88,1,100.000003814697,2|0,1:3|0:0,0:0:0:0:
177,69,75930,1,0,1:0:0:0:
278,48,76080,1,0,1:0:0:0:
351,131,76230,6,0,B|436:163|417:112|320:146|401:211|463:177|382:171|434:158|363:209,4,150.000005722046,8|0|0|0|0,1:0|0:0|1:0|1:0|1:0,0:0:0:0:
351,131,77130,22,0,P|305:98|225:50,1,150,0|0,1:0|0:0,0:0:0:0:
152,70,77430,2,0,L|88:30,1,75.0000028610231,8|0,1:0|0:0,0:0:0:0:
49,345,77730,21,0,1:0:0:0:
113,304,77880,2,0,P|200:268|252:249,1,150,0|0,1:0|0:0,0:0:0:0:
252,248,78180,1,2,1:3:0:0:
153,208,78330,2,0,P|107:188|60:170,1,100,0|0,1:0|1:0,0:0:0:0:
280,341,78630,22,0,L|343:301,1,75.0000028610231,8|0,1:0|0:0,0:0:0:0:
427,155,78930,2,0,P|438:254|453:353,1,200,0|0,1:0|0:0,0:0:0:0:
445,41,79530,22,0,P|399:74|319:122,1,150,0|0,1:0|0:0,0:0:0:0:
239,115,79830,2,0,L|175:154,1,75.0000028610231,8|0,1:0|0:0,0:0:0:0:
288,54,79980,1,2,1:3:0:0:
267,246,80130,21,0,1:0:0:0:
97,145,80280,2,0,P|39:70|4:27,1,150,0|0,1:0|0:0,0:0:0:0:
4,27,80580,1,2,1:3:0:0:
123,43,80730,2,0,P|170:27|218:12,1,100,0|0,1:0|1:0,0:0:0:0:
107,234,81030,22,0,L|23:196,1,75.0000028610231,8|0,1:0|0:0,0:0:0:0:
163,345,81180,1,0,1:0:0:0:
264,89,81330,2,0,P|252:188|237:287,1,200,0|0,1:0|0:0,0:0:0:0:
234,305,81930,22,0,P|298:277|408:238,1,150,0|0,1:0|0:0,0:0:0:0:
440,294,82230,2,0,L|521:315,1,75.0000028610231,8|0,1:0|0:0,0:0:0:0:
402,27,82530,21,0,1:0:0:0:
423,119,82680,2,0,P|359:91|249:52,1,150,0|0,1:0|0:0,0:0:0:0:
283,63,82980,1,2,1:3:0:0:
236,220,83130,2,0,P|276:202|346:177,1,100,0|0,1:0|1:0,0:0:0:0:
162,115,83430,22,0,L|89:96,1,75.0000028610231,8|0,1:0|0:0,0:0:0:0:
60,366,83730,2,0,P|47:266|32:167,1,200,0|2,1:0|1:3,0:0:0:0:
112,220,84180,1,2,1:3:0:0:
32,167,84330,22,0,P|102:192|171:222,1,150,0|0,1:0|0:0,0:0:0:0:
204,298,84630,2,0,L|123:305,1,75.0000028610231,8|0,1:0|0:0,0:0:0:0:
276,60,84930,21,0,1:0:0:0:
364,106,85080,2,0,P|293:131|224:161,1,150,0|0,1:0|0:0,0:0:0:0:
224,161,85380,1,2,1:3:0:0:
332,196,85530,2,0,P|378:213|424:232,1,100,0|0,1:0|1:0,0:0:0:0:
276,311,85830,22,0,L|265:230,1,75.0000028610231,8|0,1:0|0:0,0:0:0:0:
345,361,85980,1,0,1:0:0:0:
198,326,86130,2,0,P|127:313|13:307,1,150,0|0,1:0|0:0,0:0:0:0:
0,313,86430,21,0,1:0:0:0:
48,225,86580,1,0,0:0:0:0:
16,135,86730,2,0,P|107:144|200:176,1,165.000005035401,0|0,1:0|0:0,0:0:0:0:
250,205,87030,2,0,L|344:193,1,80,8|0,1:0|0:0,0:0:0:0:
415,236,87180,1,0,0:0:0:0:
489,179,87330,21,0,1:0:0:0:
418,119,87480,2,0,P|420:189|435:307,1,165.000005035401,0|0,1:0|0:0,0:0:0:0:
456,363,87780,1,2,1:3:0:0:
346,323,87930,2,0,P|293:312|233:307,1,110.000003356934,0|0,1:0|1:0,0:0:0:0:
102,356,88230,22,0,L|23:335,1,80,8|0,1:0|0:0,0:0:0:0:
163,308,88380,1,0,0:0:0:0:
74,269,88530,2,0,P|57:215|36:96,1,165.000005035401,0|0,1:0|0:0,0:0:0:0:
45,65,88830,21,0,1:0:0:0:
140,101,88980,1,0,0:0:0:0:
223,48,89130,2,0,P|278:46|401:52,1,165.000005035401,0|0,1:0|0:0,0:0:0:0:
425,123,89430,2,0,L|508:111,1,80,8|0,1:0|0:0,0:0:0:0:
347,197,89580,1,2,1:3:0:0:
387,50,89730,21,0,1:0:0:0:
485,194,89880,2,0,P|494:272|492:366,1,165.000005035401,0|0,1:0|0:0,0:0:0:0:
423,384,90180,1,2,1:3:0:0:
318,326,90330,2,0,P|374:317|439:312,1,110.000003356934,0|0,1:0|1:0,0:0:0:0:
251,249,90630,22,0,L|230:161,1,80,8|0,1:0|0:0,0:0:0:0:
202,318,90780,1,0,1:0:0:0:
287,108,90930,2,0,P|328:167|379:254,1,165.000005035401,0|0,1:0|0:0,0:0:0:0:
427,312,91230,22,0,P|454:264|485:219,1,110.000003356934,0|0,1:0|0:0,0:0:0:0:
451,117,91530,2,0,P|359:118|256:100,1,165.000005035401,0|0,1:0|0:0,0:0:0:0:
220,57,91830,2,0,L|129:40,1,80,8|0,1:0|0:0,0:0:0:0:
64,88,91980,1,0,0:0:0:0:
8,22,92130,21,0,1:0:0:0:
27,174,92280,2,0,P|107:157|203:156,1,165.000005035401,0|0,1:0|0:0,0:0:0:0:
254,192,92580,1,2,1:3:0:0:
153,270,92730,2,0,P|91:256|17:256,1,110.000003356934,0|0,1:0|1:0,0:0:0:0:
266,321,93030,22,0,L|357:310,1,80,8|0,1:0|0:0,0:0:0:0:
223,264,93180,1,0,0:0:0:0:
420,375,93330,2,0,P|417:301|425:204,1,165.000005035401,0|0,1:0|0:0,0:0:0:0:
440,163,93630,21,0,1:0:0:0:
494,80,93780,1,0,0:0:0:0:
413,20,93930,2,0,P|335:46|244:86,1,165.000005035401,0|0,1:0|0:0,0:0:0:0:
199,136,94230,2,0,L|112:144,1,80,8|0,1:0|0:0,0:0:0:0:
53,224,94380,1,0,0:0:0:0:
110,300,94530,21,0,1:0:0:0:
272,289,94680,2,0,P|173:291|106:274,1,165.000005035401,0|0,1:0|0:0,0:0:0:0:
53,224,94980,1,2,1:3:0:0:
78,98,95130,2,0,P|97:149|125:196,1,110.000003356934,0|0,1:0|1:0,0:0:0:0:
182,110,95430,22,0,L|208:24,1,80,8|0,1:0|0:0,0:0:0:0:
245,200,95580,1,0,1:0:0:0:
391,18,95730,2,0,P|362:86|337:180,1,165.000005035401,0|0,1:0|0:0,0:0:0:0:
377,298,96030,6,0,B|368:270|368:270|372:241|372:241|344:249|344:249|315:246,1,112.500004291535,2|0,1:2|0:0,0:0:0:0:
306,323,96330,6,0,P|394:308|481:284,1,179.999994506836,0|0,1:0|0:0,0:0:0:0:
245,368,96630,2,0,B|156:321|156:321|35:338,1,200,8|0,1:0|0:0,0:0:0:0:
57,334,96930,21,0,1:0:0:0:
14,135,97080,2,0,B|-13:80|59:27|125:75|140:198|4:178|50:293,1,300.000011444092,0|2,1:0|1:3,0:0:0:0:
65,342,97455,1,0,0:0:0:0:
65,342,97530,1,0,1:0:0:0:
116,252,97680,1,0,1:0:0:0:
329,288,97830,22,0,B|240:335|240:335|141:321,1,200,8|0,1:0|0:0,0:0:0:0:
335,212,98130,2,0,P|407:228|522:268,1,179.999994506836,0|0,1:0|0:0,0:0:0:0:
496,139,98430,38,0,B|467:145|467:145|444:162|444:162|437:134|437:134|420:111,1,112.500004291535,2|0,1:2|0:0,0:0:0:0:
482,66,98730,38,0,P|410:82|295:122,1,179.999994506836,0|0,1:0|0:0,0:0:0:0:
179,182,99030,2,0,B|271:142|271:142|368:165,1,200,8|2,1:0|1:3,0:0:0:0:
369,166,99330,21,0,1:0:0:0:
308,351,99480,2,0,P|226:316|347:268,1,300.000011444092,0|2,1:0|1:3,0:0:0:0:
380,327,99855,1,0,0:0:0:0:
380,327,99930,1,0,1:0:0:0:
286,290,100080,1,0,1:0:0:0:
77,364,100230,22,0,B|157:303|157:303|186:208,1,200,8|0,1:0|1:0,0:0:0:0:
57,103,100455,1,0,0:0:0:0:
18,169,100530,2,0,B|105:212|139:94|236:144,1,225.000008583069,0|0,1:0|0:0,0:0:0:0:
337,208,100830,6,0,B|316:194|316:194|300:170|300:170|284:194|284:194|260:210,1,112.500004291535,2|0,1:2|0:0,0:0:0:0:
302,275,101130,6,0,P|330:200|380:94,1,179.999994506836,0|0,1:0|0:0,0:0:0:0:
189,13,101430,2,0,B|218:108|218:108|298:168,1,200,8|0,1:0|0:0,0:0:0:0:
298,168,101730,21,0,1:0:0:0:
141,325,101880,2,0,B|88:347|57:302|65:265|85:241|112:228|160:245|172:271|206:289|244:264|269:228,1,300.000011444092,0|2,1:0|1:3,0:0:0:0:
305,175,102255,1,0,0:0:0:0:
305,175,102330,1,0,1:0:0:0:
201,195,102480,1,0,1:0:0:0:
402,235,102630,22,0,B|389:135|389:135|321:62,1,200,8|0,1:0|0:0,0:0:0:0:
325,327,102930,2,0,P|403:313|520:304,1,179.999994506836,0|0,1:0|0:0,0:0:0:0:
454,358,103230,38,0,B|425:351|425:351|402:334|402:334|395:362|395:362|380:383,1,112.500004291535,2|0,1:2|0:0,0:0:0:0:
325,327,103530,6,0,P|246:340|129:349,1,179.999994506836,0|0,1:0|0:0,0:0:0:0:
0,376,103830,2,0,B|92:336|92:336|189:359,1,200,8|2,1:0|1:3,0:0:0:0:
189,359,104130,21,0,1:0:0:0:
2,192,104280,2,0,B|107:169|101:320|238:290|260:219,1,300.000011444092,0|2,1:0|1:3,0:0:0:0:
184,190,104655,1,0,0:0:0:0:
184,190,104730,1,0,1:0:0:0:
91,256,104880,1,0,1:0:0:0:
206,52,105030,22,0,B|251:141|251:141|340:186,1,200,8|0,1:0|1:0,3:0:0:0:
473,87,105255,1,0,0:0:0:0:
410,53,105330,2,0,B|375:118|446:162|469:220|433:273,1,225.000008583069,0|0,1:0|0:0,0:0:0:0:
381,330,105630,5,2,1:2:0:0:
378,318,105780,1,0,0:0:0:0:
238,350,105930,22,0,P|288:288|342:179,1,194.999991073609,0|0,1:0|0:0,0:0:0:0:
93,276,106230,2,0,B|187:240|187:240|234:147,1,200,8|0,1:0|0:0,0:0:0:0:
231,151,106530,21,0,1:0:0:0:
45,148,106680,2,0,B|173:172|144:41|275:77,1,240,0|0,1:0|0:0,0:0:0:0:
313,128,106980,2,0,P|333:95|333:55,1,80,2|0,1:3|0:0,0:0:0:0:
212,0,107130,1,0,1:0:0:0:
81,68,107280,1,0,1:0:0:0:
201,254,107430,22,0,B|214:139|214:139|135:20,1,220.000006713867,8|0,1:0|0:0,0:0:0:0:
10,28,107655,1,0,0:0:0:0:
9,45,107730,2,0,P|94:73|188:127,1,194.999991073609,0|0,1:0|0:0,0:0:0:0:
242,183,108030,21,2,1:2:0:0:
245,171,108180,1,0,0:0:0:0:
206,283,108330,22,0,P|290:234|382:202,1,194.999991073609,0|0,1:0|0:0,0:0:0:0:
192,367,108630,2,0,B|283:327|283:327|378:360,1,200,8|2,1:0|1:3,0:0:0:0:
378,360,108930,21,0,1:0:0:0:
166,212,109080,2,0,B|290:172|264:311|397:267,1,240,0|0,1:0|0:0,0:0:0:0:
438,220,109380,2,0,P|457:254|455:294,1,80,2|0,1:3|0:0,0:0:0:0:
348,193,109530,1,0,1:0:0:0:
434,90,109680,1,0,1:0:0:0:
310,26,109830,22,0,B|195:36|195:36|74:122,1,230.000004386902,8|0,1:0|1:0,0:0:0:0:
35,271,110055,1,0,0:0:0:0:
79,211,110130,2,0,P|102:104|34:8,1,225.000008583069,0|0,1:0|0:0,0:0:0:0:
0,81,110430,21,2,1:2:0:0:
12,84,110580,1,0,0:0:0:0:
259,177,110730,2,0,P|143:145|47:130,1,194.999991073609,0|0,1:0|0:0,0:0:0:0:
0,297,111030,2,0,B|83:242|83:242|182:258,1,200,8|0,1:0|0:0,0:0:0:0:
182,258,111330,21,0,1:0:0:0:
377,243,111480,2,0,B|263:219|290:374|149:344,1,240,0|0,1:0|0:0,0:0:0:0:
118,296,111780,2,0,P|111:237|132:203,1,80,2|0,1:3|0:0,0:0:0:0:
269,162,111930,1,0,1:0:0:0:
353,310,112080,1,0,1:0:0:0:
178,160,112230,22,0,B|212:41|212:41|344:98,1,239.999992675781,8|0,1:0|0:0,0:0:0:0:
457,190,112455,1,0,0:0:0:0:
437,200,112530,2,0,P|421:104|423:5,1,194.999991073609,0|0,1:0|0:0,0:0:0:0:
387,130,112830,21,2,1:2:0:0:
375,133,112980,1,0,0:0:0:0:
247,243,113130,2,0,P|362:211|458:196,1,194.999991073609,0|0,1:0|0:0,0:0:0:0:
506,363,113430,2,0,B|422:308|422:308|323:324,1,200,8|2,1:0|1:3,0:0:0:0:
323,324,113730,21,0,1:0:0:0:
150,379,113880,2,0,B|84:277|218:255|144:148,1,240,0|0,1:0|0:0,0:0:0:0:
91,210,114180,2,0,P|159:203|170:191,1,80,2|0,1:3|0:0,0:0:0:0:
233,70,114330,1,0,1:0:0:0:
39,11,114480,1,0,1:0:0:0:
262,170,114630,22,0,L|400:196,1,125,8|0,1:0|0:0,0:0:0:0:
424,4,114780,2,0,L|332:110,1,125,0|0,1:0|0:0,0:0:0:0:
422,298,114930,22,0,B|482:300|501:244|501:244|399:156|300:279,1,300,0|0,1:0|0:0,0:0:0:0:
256,360,115230,37,0,1:0:0:0:
171,329,115380,1,2,0:0:0:0:
86,360,115530,1,8,0:0:0:0:
1,329,115680,1,2,0:0:0:0:
70,270,115980,1,2,0:0:0:0:
1,211,116280,1,8,0:0:0:0:
86,180,116430,1,2,0:0:0:0:
17,122,116580,1,2,0:0:0:0:
102,91,116730,1,8,0:0:0:0:
187,122,116880,1,2,0:0:0:0:
272,91,117030,1,8,0:0:0:0:
256,180,117630,21,0,1:0:0:0:
171,211,117780,1,2,0:0:0:0:
86,180,117930,1,8,0:0:0:0:
1,211,118080,1,2,0:0:0:0:
70,269,118380,1,2,0:0:0:0:
54,358,118680,1,8,0:0:0:0:
139,327,118830,1,2,0:0:0:0:
155,238,118980,1,2,0:0:0:0:
240,269,119130,1,8,0:0:0:0:
325,238,119280,1,2,0:0:0:0:
341,327,119430,1,8,0:0:0:0:
411,269,119730,1,8,0:0:0:0:
395,180,119880,1,8,0:0:0:0:
309,149,120030,21,0,1:0:0:0:
325,238,120180,1,2,0:0:0:0:
395,180,120330,1,8,0:0:0:0:
379,91,120480,1,2,0:0:0:0:
293,60,120780,1,2,0:0:0:0:
363,2,121080,1,8,0:0:0:0:
379,91,121230,1,2,0:0:0:0:
309,149,121380,1,2,0:0:0:0:
223,118,121530,1,8,0:0:0:0:
137,149,121680,1,2,0:0:0:0:
51,118,121830,1,8,0:0:0:0:
67,207,122430,21,0,1:0:0:0:
153,176,122580,1,2,0:0:0:0:
239,207,122730,1,8,0:0:0:0:
325,176,122880,1,2,0:0:0:0:
256,118,123180,1,2,0:0:0:0:
187,60,123480,1,8,0:0:0:0:
170,149,123630,1,2,0:0:0:0:
239,207,123780,1,2,0:0:0:0:
222,296,123930,1,8,0:0:0:0:
291,354,124080,1,2,0:0:0:0:
308,265,124230,1,8,0:0:0:0:
85,179,124380,37,8,0:0:0:0:
256,118,124530,1,8,0:0:0:0:
427,57,124680,1,8,0:0:0:0:
509,22,124830,37,0,1:0:0:0:
427,57,124980,1,2,0:0:0:0:
373,128,125130,1,8,0:0:0:0:
362,216,125280,1,2,0:0:0:0:
396,297,125580,1,2,0:0:0:0:
362,216,125880,1,8,0:0:0:0:
291,162,126030,1,2,0:0:0:0:
203,150,126180,1,2,0:0:0:0:
120,185,126330,1,8,0:0:0:0:
65,256,126480,1,2,0:0:0:0:
53,345,126630,1,8,0:0:0:0:
135,308,127230,21,0,1:0:0:0:
124,219,127380,1,2,0:0:0:0:
158,137,127530,1,8,0:0:0:0:
229,83,127680,1,2,0:0:0:0:
316,72,127980,1,2,0:0:0:0:
387,126,128280,1,8,0:0:0:0:
316,72,128430,1,2,0:0:0:0:
228,60,128580,1,2,0:0:0:0:
145,95,128730,1,8,0:0:0:0:
90,166,128880,1,2,0:0:0:0:
78,255,129030,1,8,0:0:0:0:
162,221,129330,1,8,0:0:0:0:
90,166,129480,1,8,0:0:0:0:
78,255,129630,21,0,1:0:0:0:
149,309,129780,1,2,0:0:0:0:
237,320,129930,1,8,0:0:0:0:
319,286,130080,1,2,0:0:0:0:
372,216,130380,1,2,0:0:0:0:
384,127,130680,1,8,0:0:0:0:
350,45,130830,1,2,0:0:0:0:
296,116,130980,1,2,0:0:0:0:
284,202,131130,1,8,0:0:0:0:
317,285,131280,1,2,0:0:0:0:
387,340,131430,1,8,0:0:0:0:
475,352,132030,21,0,1:0:0:0:
440,269,132180,1,2,0:0:0:0:
369,216,132330,1,8,0:0:0:0:
281,204,132480,1,2,0:0:0:0:
200,238,132780,1,2,0:0:0:0:
112,226,133080,1,8,0:0:0:0:
41,173,133230,1,2,0:0:0:0:
6,90,133380,1,2,0:0:0:0:
93,100,133530,1,8,0:0:0:0:
165,154,133680,1,2,0:0:0:0:
200,238,133830,1,8,0:0:0:0:
2,374,133980,37,8,0:0:0:0:
172,350,134130,1,8,0:0:0:0:
342,326,134280,1,8,0:0:0:0:
488,376,134430,38,0,B|407:343|406:270|510:176|470:106|422:90|422:90|385:181|519:189|506:303|506:303|477:226|446:243|425:289|346:204|309:128|369:39,1,899.999972534181,2|0,0:0|0:0,0:0:0:0:
173,18,136830,2,0,B|120:3|93:69|93:69|144:15|216:13|261:49|261:49|181:65|163:172|233:230|250:303|187:346|187:346|157:292|176:212|198:230|248:220|280:192|273:107,1,899.999972534181,2|0,0:0|0:0,0:0:0:0:
119,199,139230,2,0,B|48:213|0:184|0:184|43:138|156:151|138:206|173:247|258:299|319:284|350:258|350:258|314:215|247:202|194:226|170:272|141:288|40:279|-17:255,1,899.999972534181,2|0,0:0|0:0,0:0:0:0:
192,83,141630,6,0,B|199:30|155:0|155:0|210:10|260:83|203:138|203:138|212:62|292:32|335:58|363:79|363:79|356:117|299:109|278:155|278:155|288:132|315:103|275:9|407:18,1,804.99997543335,8|0,0:3|0:0,0:0:0:0:
476,35,143430,2,0,B|466:24|466:24|459:1|459:1|466:34|466:34|446:63,1,100,0|0,0:0|0:0,0:0:0:0:
419,116,143630,2,0,B|437:137|437:137|445:163|445:163|435:173|435:173|460:169|460:169|465:202,1,116.666666666667
364,174,143880,2,0,B|337:214|337:214|344:218,1,50
400,278,144030,6,0,B|456:280|475:337|475:337|447:295|398:291|380:296|360:310|326:340|262:375|271:311|198:336|198:336|250:291|260:254|274:209|224:171|224:171|189:208|203:283|269:298|290:304|333:360|412:369,1,899.999972534181,2|0,0:0|0:0,0:0:0:0:
297,146,146430,2,0,B|329:196|325:240|325:240|377:211|392:107|318:142|302:108|323:28|419:9|419:9|383:33|382:73|382:73|362:89|338:88|338:88|301:57|255:79|238:100|238:100|193:117|134:106|126:27|216:-33|261:52|228:85|298:46|320:36|333:10,1,899.999972534181,2|0,0:0|0:0,0:0:0:0:
0,134,148830,2,0,B|43:153|89:120|97:65|97:65|39:78|55:152|85:186|118:247|18:240|47:338|47:338|0:326|-13:249|14:211|14:211|30:236|124:240|115:312|115:312|147:243|159:208|143:144,1,899.999972534181,2|0,0:0|0:0,0:0:0:0:
491,190,151230,38,0,B|512:249|465:314|397:242|387:360|387:360|410:312|449:332|443:289|381:228|349:167|265:235|265:235|290:254|290:288|290:288|326:216|352:294|427:247|447:144|411:22|272:-26|141:20|148:152|229:221|317:158|304:87,1,1125.00004291535,8|0,0:3|0:0,0:0:0:0:
160,24,153630,38,0,L|12:53,1,120,8|0,1:3|0:0,0:0:0:0:
2,110,153930,1,2,0:0:0:0:
42,47,154080,1,0,0:0:0:0:
52,168,154230,2,0,L|136:181,1,80,2|0,0:0|0:0,0:0:0:0:
216,287,154530,1,10,0:0:0:0:
131,180,154680,1,8,0:0:0:0:
162,343,154830,2,0,L|78:356,1,80,10|0,0:0|0:0,0:0:0:0:
216,287,155130,21,10,0:0:0:0:
287,312,155280,1,8,0:0:0:0:
320,191,155430,1,10,0:0:0:0:
270,242,155580,1,0,0:0:0:0:
393,274,155730,1,2,0:0:0:0:
320,117,155880,1,8,0:0:0:0:
357,346,156030,22,0,L|483:360,1,120,10|0,0:0|0:0,0:0:0:0:
512,295,156330,1,2,0:0:0:0:
476,359,156480,1,0,0:0:0:0:
468,232,156630,2,0,L|384:242,1,80,2|0,0:0|0:0,0:0:0:0:
259,80,156930,1,10,0:0:0:0:
352,177,157080,1,8,0:0:0:0:
230,216,157230,2,0,L|146:226,1,80,10|0,0:0|0:0,0:0:0:0:
44,140,157530,21,10,0:0:0:0:
114,161,157680,1,8,0:0:0:0:
24,280,157830,1,10,0:0:0:0:
58,214,157980,1,0,0:0:0:0:
175,299,158130,1,10,0:0:0:0:
31,358,158280,1,8,0:0:0:0:
214,365,158430,22,0,L|343:352,1,120,8|0,0:3|0:0,0:0:0:0:
395,313,158730,1,2,0:0:0:0:
421,246,158880,1,0,0:0:0:0:
383,183,159030,2,0,L|294:192,1,80,2|0,0:0|0:0,0:0:0:0:
450,365,159330,1,10,0:0:0:0:
512,274,159480,1,8,0:0:0:0:
462,174,159630,2,0,L|373:183,1,80,10|0,0:0|0:0,0:0:0:0:
350,46,159930,21,10,0:0:0:0:
396,106,160080,1,8,0:0:0:0:
271,31,160230,1,10,0:0:0:0:
278,106,160380,1,0,0:0:0:0:
165,4,160530,1,10,0:0:0:0:
113,171,160680,1,8,0:0:0:0:
40,5,160830,22,0,L|53:128,1,120,10|0,0:0|0:0,0:0:0:0:
113,171,161130,1,2,0:0:0:0:
67,238,161280,1,0,0:0:0:0:
185,116,161430,2,0,L|193:195,1,80,2|0,0:0|0:0,0:0:0:0:
208,311,161730,1,10,0:0:0:0:
193,195,161880,1,8,0:0:0:0:
133,321,162030,2,0,L|52:313,1,80,10|0,0:0|0:0,0:0:0:0:
272,359,162330,21,10,0:0:0:0:
208,311,162480,1,8,0:0:0:0:
334,254,162630,1,10,0:0:0:0:
254,244,162780,1,0,0:0:0:0:
375,129,162930,1,10,0:0:0:0:
233,171,163080,1,8,0:0:0:0:
321,70,163230,22,0,P|393:50|452:155,1,200,8|8,1:3|0:0,0:0:0:0:
306,183,163680,1,0,1:0:0:0:
160,25,163830,2,0,P|178:75|169:135,1,100,8|0,0:0|0:0,0:0:0:0:
73,224,164130,2,0,L|63:170,1,50,8|0,0:0|0:0,0:0:0:0:
152,232,164280,2,0,L|142:178,1,50,0|0,0:0|0:0,0:0:0:0:
225,238,164430,22,0,B|133:204|144:331|40:299,1,200,8|8,0:0|0:0,0:0:0:0:
200,302,164880,1,0,0:0:0:0:
308,177,165030,2,0,P|302:226|315:274,1,100,8|0,0:0|0:0,0:0:0:0:
489,351,165330,2,0,L|437:358,1,50,8|0,0:0|0:0,0:0:0:0:
426,218,165480,2,0,L|478:211,1,50,0|0,0:0|0:0,0:0:0:0:
368,330,165630,22,0,P|293:350|252:324,1,100,8|0,0:0|0:0,0:0:0:0:
186,218,165930,2,0,P|189:169|221:132,1,100,8|0,0:0|1:0,0:0:0:0:
292,160,166230,2,0,P|289:210|258:247,1,100,8|0,0:0|0:0,0:0:0:0:
105,262,166530,2,0,P|81:252|60:217,1,50,8|0,0:0|0:0,0:0:0:0:
38,163,166680,2,0,P|34:136|54:100,1,50,0|0,0:0|0:0,0:0:0:0:
211,80,166830,21,8,0:0:0:0:
104,149,166980,1,0,1:0:0:0:
290,88,167130,1,8,0:0:0:0:
221,238,167280,1,0,0:0:0:0:
359,60,167430,21,8,0:0:0:0:
352,275,167580,1,0,0:0:0:0:
377,303,167655,1,0,0:0:0:0:
390,267,167730,1,8,0:0:0:0:
185,165,167880,1,0,0:0:0:0:
113,306,168030,22,0,P|132:279|156:260,1,59.9999981689454,8|0,0:0|0:0,0:0:0:0:
278,250,168180,2,0,P|249:239|220:237,1,59.9999981689454,0|0,0:0|0:0,0:0:0:0:
108,309,168330,22,0,P|122:279|142:256,1,59.9999981689454,8|0,0:0|0:0,0:0:0:0:
285,248,168480,2,0,P|258:233|229:226,1,59.9999981689454,0|0,0:0|0:0,0:0:0:0:
103,312,168630,22,0,P|111:280|127:253,1,59.9999981689454,8|0,0:0|0:0,0:0:0:0:
292,247,168780,2,0,P|268:228|241:215,1,59.9999981689454,0|0,0:0|0:0,0:0:0:0:
99,316,168930,22,0,P|101:283|112:254,1,59.9999981689454,8|0,0:0|0:0,0:0:0:0:
299,247,169080,2,0,P|279:224|254:207,1,59.9999981689454,0|0,0:0|0:0,0:0:0:0:
54,167,169230,22,0,P|86:168|112:187,1,64.9999970245363,8|0,0:0|0:0,0:0:0:0:
244,110,169380,2,0,P|216:127|203:156,1,64.9999970245363,0|0,0:0|0:0,0:0:0:0:
44,155,169530,22,0,P|74:145|105:153,1,64.9999970245363,8|0,0:0|0:0,0:0:0:0:
246,94,169680,2,0,P|214:100|192:123,1,64.9999970245363,0|0,0:0|0:0,0:0:0:0:
30,147,169830,22,0,P|55:127|87:124,1,64.9999970245363,8|0,0:0|0:0,0:0:0:0:
253,79,169980,2,0,P|221:74|192:88,1,64.9999970245363,0|0,0:0|0:0,0:0:0:0:
14,144,170130,22,0,P|31:116|60:103,1,64.9999970245363,8|0,0:0|0:0,0:0:0:0:
264,68,170280,2,0,P|235:53|203:56,1,64.9999970245363,8|0,0:0|0:0,0:0:0:0:
172,218,170430,5,8,0:0:0:0:
203,260,170505,1,2,3:0:0:0:
252,278,170580,1,8,0:0:0:0:
303,267,170655,1,2,3:0:0:0:
340,230,170730,1,8,0:0:0:0:
349,178,170805,1,2,3:0:0:0:
304,149,170880,1,8,0:0:0:0:
262,181,170955,1,2,3:0:0:0:
277,231,171030,1,8,0:0:0:0:
323,255,171105,1,2,3:0:0:0:
375,251,171180,1,8,0:0:0:0:
414,216,171255,1,2,3:0:0:0:
420,163,171330,1,8,0:0:0:0:
395,116,171405,1,2,3:0:0:0:
345,98,171480,1,8,0:0:0:0:
293,106,171555,1,2,3:0:0:0:
244,86,171630,21,8,0:0:0:0:
193,41,171705,1,2,3:0:0:0:
127,55,171780,1,8,0:0:0:0:
95,114,171855,1,2,3:0:0:0:
116,177,171930,1,8,0:0:0:0:
162,225,172005,1,2,3:0:0:0:
172,291,172080,1,8,0:0:0:0:
133,346,172155,1,2,3:0:0:0:
65,347,172230,38,0,L|47:259,1,75.0000028610231,8|0,1:0|0:0,0:0:0:0:
204,363,172380,1,0,1:0:0:0:
176,125,172530,1,0,1:0:0:0:
0,384,172680,1,0,1:0:0:0:
442,37,173430,22,0,L|440:15,1,20,0|0,0:0|0:0,0:0:0:0:
434,3,173880,22,0,L|425:154,1,125,0|0,0:0|0:0,0:0:0:0:
434,384,174030,2,0,B|345:214|137:144|6:171|6:171|12:275|161:364|300:370|419:335|514:228|514:228|420:175|275:174|219:263|219:263|277:124|202:0|56:12|56:12|91:110|205:143|306:88,1,2100.00008010865,8|0,1:0|0:0,0:0:0:0:
288,96,176355,1,0,1:0:0:0:
264,26,176430,38,0,B|375:16|375:16|431:11|437:83|381:87|381:87|270:97|270:97|239:108|239:108|111:119|111:119|55:124|62:196|117:191|117:191|245:180|245:180|276:169|276:169|427:156|427:156|483:151|490:223|434:227|434:227|282:241|282:241|251:251|251:251|-3:274,1,1500,8|0,1:0|0:0,0:0:0:0:
7,273,177630,38,0,P|91:318|103:371,1,89.9999972534181,0|0,1:0|0:0,0:0:0:0:
151,347,177780,2,0,P|153:279|138:257,1,80,2|0,0:0|0:0,0:0:0:0:
30,207,177930,2,0,P|113:243|136:270,1,69.9999978637696,2|0,0:0|0:0,0:0:0:0:
226,287,178080,2,0,P|204:231|188:211,1,59.9999981689454,2|0,0:0|0:0,0:0:0:0:
108,162,178230,2,0,P|144:183|157:202,1,50,2|0,0:0|0:0,0:0:0:0:
235,218,178380,2,0,P|223:185|217:177,1,40,2|0,0:0|0:0,0:0:0:0:
185,142,178530,2,0,P|209:163|219:185,1,29.9999990844727,2|0,0:0|0:0,0:0:0:0:
321,364,178680,22,0,L|335:237,1,125,2|0,1:2|0:0,0:0:0:0:
359,30,178830,2,0,B|340:109|386:211|491:202|491:202|495:105|417:32|299:76|180:157|69:129|23:34|23:34|92:-29|224:17|257:72|266:130|281:190|299:308|378:364|470:335|470:335|440:250|381:216|265:188|190:342|115:299|99:207|99:207|188:189|218:231|224:336,1,2100.00008010865,8|0,1:0|0:0,0:0:0:0:
222,311,181155,1,0,1:0:0:0:
153,356,181230,38,0,B|41:365|41:365|-14:370|-20:298|35:294|35:294|170:282|170:282|201:271|201:271|313:261|313:261|369:256|362:185|307:189|307:189|195:199|195:199|139:204|134:148|134:148|127:61|127:61|122:5|194:0|198:54|198:54|222:325|222:325|227:381|291:376|291:376|442:362,1,1500,8|0,1:0|0:0,0:0:0:0:
367,368,182430,6,0,P|382:364|398:367,1,30,0|0,1:0|0:0,0:0:0:0:
499,321,183030,22,0,L|496:341,1,20,0|0,0:0|0:0,0:0:0:0:
492,359,183480,22,0,L|477:226,1,125,0|2,1:0|0:0,0:0:0:0:
463,67,183630,2,0,B|413:139|284:212|187:122|187:122|213:52|316:69|350:115,1,450.000017166138,8|0,1:0|0:0,0:0:0:0:
0,143,184230,6,0,B|99:204|101:349|101:349|142:274|88:161|88:161|167:208|167:313|167:313|186:243|157:169|157:169|209:216|227:282|227:282|215:236|226:170|226:170|243:227|277:259|277:259|266:205|287:167|287:167|299:214|319:236|319:236|310:200|327:169|327:169|330:203|357:221|357:221|349:191|360:172|360:172|364:195|387:207|387:207|377:191|383:174|383:174|384:191|393:199|393:199|390:189|394:180|394:180|394:190|402:195|402:195|408:186|408:186|416:182|416:182|427:183|427:183|445:177,1,1650.00006294251,0|0,0:0|0:0,0:0:0:0:
509,353,186030,22,0,B|497:225|497:225|479:195|479:195|466:51|466:51|461:-4|389:2|394:57|394:57|405:177|405:177|410:233|338:239|333:183|333:183|325:88|325:88|320:32|248:38|253:94|253:94|260:173|260:173|264:221|192:228|188:180|188:180|184:132|256:126|260:173|260:173|269:277|269:277|274:333|330:328|330:328|441:318,1,1500,8|0,1:0|0:0,0:0:0:0:
430,318,187230,6,0,P|401:328|385:354,1,60,0|0,1:0|0:0,0:0:0:0:
329,294,188280,22,0,L|186:312,1,125,0|0,1:0|0:0,0:0:0:0:
36,376,188430,2,0,B|145:299|193:140|157:6|157:6|70:25|-13:113|15:227|15:227|68:140|170:113|252:212|310:249|414:240|468:164|468:164|399:91|263:113|215:238|215:238|192:147|218:42|348:12|348:12|334:198|465:307,1,2100.00008010865,8|0,1:0|0:0,0:0:0:0:
425,268,190755,1,0,1:0:0:0:
378,325,190830,38,0,P|357:26|210:286,1,800,8|0,1:0|0:0,0:0:0:0:
0,343,192630,38,0,L|4:365,1,20,0|0,1:0|0:0,0:0:0:0:
10,384,193080,22,0,L|35:259,1,125,0|0,1:0|0:0,0:0:0:0:
49,39,193230,2,0,B|109:135|302:190|479:112|479:112|411:32|296:-9|169:12|169:12|271:102|284:246|221:371|221:371|159:346|206:236|87:218|87:218|168:183|248:222|258:357|416:378|520:306|520:306|498:236|380:214|314:251,1,2100.00008010865,8|0,1:0|0:0,0:0:0:0:
346,238,195555,1,0,1:0:0:0:
294,305,195630,6,0,B|405:315|405:315|461:320|467:248|411:244|411:244|300:234|300:234|269:223|269:223|141:212|141:212|85:207|92:135|147:140|147:140|275:151|275:151|306:162|306:162|457:175|457:175|513:180|520:108|464:104|464:104|312:90|312:90|281:80|281:80|27:57,1,1500,8|0,1:0|0:0,0:0:0:0:
35,57,196830,6,0,P|65:92|68:140,1,89.9999972534181,0|0,1:0|0:0,0:0:0:0:
48,201,196980,2,0,P|28:246|23:285,1,80,2|0,0:0|0:0,0:0:0:0:
47,348,197130,2,0,P|80:312|109:299,1,69.9999978637696,2|0,0:0|0:0,0:0:0:0:
143,312,197280,2,0,P|183:318|228:303,1,59.9999981689454,2|0,0:0|0:0,0:0:0:0:
232,300,197430,2,0,P|258:291|292:291,1,50,2|0,0:0|0:0,0:0:0:0:
299,297,197580,2,0,P|335:303|366:298,1,40,2|0,0:0|0:0,0:0:0:0:
349,296,197730,2,0,P|385:296|397:302,1,29.9999990844727,2|0,0:0|0:0,0:0:0:0:
478,376,197880,22,0,L|463:245,1,125,2|0,1:2|0:0,0:0:0:0:
469,26,198030,2,0,B|461:118|410:233|337:264|337:264|272:129|346:3|346:3|375:83|423:131|524:165|524:165|421:148|243:101|77:230|77:230|145:161|155:110|146:-6|146:-6|234:48|230:179|182:339|182:339|105:270|-3:325,1,2100.00008010865,8|0,1:0|0:0,0:0:0:0:
0,324,200355,1,0,1:0:0:0:
0,249,200430,6,0,B|350:279|350:279|383:274|383:274|470:282|470:282|526:287|520:358|464:353|464:353|376:346|376:346|344:351|344:351|224:340|224:340|153:334|159:262|159:262|176:63|176:63|181:7|253:14|248:69|248:69|242:133|242:133|237:197|301:203|301:203|404:212,1,1500,8|0,1:0|0:0,0:0:0:0:
355,207,201630,6,0,P|372:202|381:194,1,30,0|0,1:0|0:0,0:0:0:0:
478,34,202230,22,0,L|499:35,1,20,0|0,0:0|0:0,0:0:0:0:
506,24,202680,22,0,L|370:35,1,125,0|2,1:0|0:0,0:0:0:0:
114,226,202830,2,0,B|31:118|2:-15|123:-52|222:8|164:134|79:159,1,450.000017166138,8|0,1:0|0:0,0:0:0:0:
6,383,203430,6,0,B|105:322|107:177|107:177|148:252|94:365|94:365|173:318|173:213|173:213|192:283|163:357|163:357|215:310|233:244|233:244|221:290|232:356|232:356|249:299|283:267|283:267|272:321|293:359|293:359|305:312|325:290|325:290|316:326|333:357|333:357|336:323|363:305|363:305|355:335|366:354|366:354|370:331|393:319|393:319|383:335|389:352|389:352|390:335|399:327|399:327|396:337|400:346|400:346|400:336|408:331|408:331|414:340|414:340|422:344|422:344|433:343|433:343|451:349,1,1650.00006294251,0|0,0:0|0:0,0:0:0:0:
292,93,205230,22,0,B|475:110|475:110|531:114|537:43|481:38|481:38|306:22|306:22|226:15|219:95|219:95|209:207|209:207|199:238|199:238|192:310|192:310|188:357|116:351|121:303|121:303|127:232|127:232|138:200|138:200|152:41|152:41|156:-15|85:-21|80:35|80:35|60:258,1,1500,8|0,1:0|0:0,0:0:0:0:
65,200,206430,6,0,B|56:208|56:208|46:305,1,89.9999972534181,0|0,1:0|0:0,0:0:0:0:
117,324,206580,2,0,L|125:221,1,80,2|0,0:0|0:0,0:0:0:0:
195,221,206730,2,0,L|187:306,1,69.9999978637696,2|0,0:0|0:0,0:0:0:0:
250,326,206880,2,0,L|256:255,1,59.9999981689454,2|0,0:0|0:0,0:0:0:0:
309,240,207030,2,0,L|303:298,1,50,2|0,0:0|0:0,0:0:0:0:
342,313,207180,2,0,L|347:251,1,40,2|0,0:0|0:0,0:0:0:0:
371,260,207330,2,0,L|367:305,1,29.9999990844727,2|0,0:0|0:0,0:0:0:0:
454,14,207480,22,0,L|462:167,1,125,2|0,1:2|0:0,0:0:0:0:
461,368,207630,2,0,B|321:303|358:189|358:189|481:189|509:302|509:302|318:241|131:369|131:369|249:281|283:152|253:4|252:4|252:4|114:60|106:248|106:248|166:142|338:84|461:139|461:139|374:92|368:-22,1,2100.00008010865,8|0,1:0|0:0,0:0:0:0:
374,23,209955,1,0,1:0:0:0:
327,88,210030,38,0,B|255:182|149:191|84:144|60:56|140:-19|229:-17|276:32|283:111|279:174|269:243|156:323|21:289,1,750,8|0,1:0|0:0,0:0:0:0:
43,292,211230,37,12,1:0:0:0:
