osu file format v14

[General]
AudioFilename: audio.mp3
AudioLeadIn: 0
PreviewTime: 37680
Countdown: 0
SampleSet: Soft
StackLeniency: 0.4
Mode: 0
LetterboxInBreaks: 0
WidescreenStoryboard: 0

[Editor]
Bookmarks: 19230,38430,57630,76830,96030,115230,134430,153630,172830,211230
DistanceSpacing: 1
BeatDivisor: 12
GridSize: 32
TimelineZoom: 2.6

[Metadata]
Title:dragonlands
TitleUnicode:dragonlands
Artist:sakuraburst
ArtistUnicode:sakuraburst
Creator:Minorsonek
Version:Minoralao's Extra
Source:osu!
Tags:walaowey hazu- m2usonek High Tempo Beatmap Pack FA Featured Artist Gremio Mappers' Guild MG Electronic Instrumental
BeatmapID:2153280
BeatmapSetID:1009637

[Difficulty]
HPDrainRate:5.5
CircleSize:4
OverallDifficulty:8.4
ApproachRate:9.2
SliderMultiplier:1.8
SliderTickRate:1

[Events]
//Background and Video events
0,0,"fantasy-3756975_1920.jpg",0,0
//Break Periods
//Storyboard Layer 0 (Background)
//Storyboard Layer 1 (Fail)
//Storyboard Layer 2 (Pass)
//Storyboard Layer 3 (Foreground)
//Storyboard Layer 4 (Overlay)
//Storyboard Sound Samples

[TimingPoints]
30,300,4,2,2,40,1,0
30,-133.333333333333,4,2,2,40,0,0
19230,-142.857142857143,4,2,2,50,0,0
28830,-166.666666666667,4,2,2,40,0,0
36030,-166.666666666667,4,2,2,50,0,0
37830,-83.3333333333333,4,2,2,60,0,0
38430,-83.3333333333333,4,2,1,80,0,1
39030,-40,4,2,1,80,0,1
39330,-83.3333333333333,4,2,1,80,0,1
40230,-40,4,2,1,80,0,1
40530,-83.3333333333333,4,2,1,80,0,1
41430,-40,4,2,1,80,0,1
41730,-83.3333333333333,4,2,1,80,0,1
42630,-40,4,2,1,80,0,1
42930,-83.3333333333333,4,2,1,80,0,1
43830,-40,4,2,1,80,0,1
44130,-83.3333333333333,4,2,1,80,0,1
45030,-40,4,2,1,80,0,1
45330,-83.3333333333333,4,2,1,80,0,1
46230,-40,4,2,1,80,0,1
46530,-83.3333333333333,4,2,1,80,0,1
47430,-200,4,2,1,80,0,1
48180,-83.3333333333333,4,2,1,80,0,1
48630,-40,4,2,1,80,0,1
48930,-83.3333333333333,4,2,1,80,0,1
49830,-40,4,2,1,80,0,1
50130,-83.3333333333333,4,2,1,80,0,1
51030,-40,4,2,1,80,0,1
51330,-83.3333333333333,4,2,1,80,0,1
52230,-40,4,2,1,80,0,1
52530,-83.3333333333333,4,2,1,80,0,1
53430,-40,4,2,1,80,0,1
53730,-83.3333333333333,4,2,1,80,0,1
54630,-40,4,2,1,80,0,1
54930,-83.3333333333333,4,2,1,80,0,1
55830,-40,4,2,1,80,0,1
56130,-83.3333333333333,4,2,1,80,0,1
57030,-66.6666666666667,4,2,1,80,0,1
57630,-83.3333333333333,4,2,1,80,0,1
58230,-40,4,2,1,80,0,1
58530,-83.3333333333333,4,2,1,80,0,1
59430,-40,4,2,1,80,0,1
59730,-83.3333333333333,4,2,1,80,0,1
60630,-40,4,2,1,80,0,1
60930,-83.3333333333333,4,2,1,80,0,1
61830,-40,4,2,1,80,0,1
62130,-83.3333333333333,4,2,1,80,0,1
63030,-40,4,2,1,80,0,1
63330,-83.3333333333333,4,2,1,80,0,1
64230,-40,4,2,1,80,0,1
64530,-83.3333333333333,4,2,1,80,0,1
65430,-40,4,2,1,80,0,1
65730,-83.3333333333333,4,2,1,80,0,1
66630,-200,4,2,1,80,0,1
67380,-83.3333333333333,4,2,1,80,0,1
67830,-40,4,2,1,80,0,1
68130,-83.3333333333333,4,2,1,80,0,1
69030,-40,4,2,1,80,0,1
69330,-83.3333333333333,4,2,1,80,0,1
70230,-40,4,2,1,80,0,1
70530,-83.3333333333333,4,2,1,80,0,1
71430,-40,4,2,1,80,0,1
71730,-83.3333333333333,4,2,1,80,0,1
72630,-40,4,2,1,80,0,1
72930,-83.3333333333333,4,2,1,80,0,1
73830,-40,4,2,1,80,0,1
74130,-83.3333333333333,4,2,1,80,0,1
75030,-40,4,2,1,80,0,1
75330,-83.3333333333333,4,2,1,80,0,1
76230,-66.6666666666667,4,2,1,80,0,1
76830,-66.6666666666667,4,2,3,60,0,0
77130,-100,4,2,3,60,0,0
77430,-50,4,2,3,60,0,0
77730,-100,4,2,3,60,0,0
78630,-50,4,2,3,60,0,0
78930,-100,4,2,3,60,0,0
79830,-50,4,2,3,60,0,0
80130,-100,4,2,3,60,0,0
81030,-50,4,2,3,60,0,0
81180,-100,4,2,3,60,0,0
82230,-50,4,2,3,60,0,0
82530,-100,4,2,3,60,0,0
83430,-50,4,2,3,60,0,0
83730,-100,4,2,3,60,0,0
84630,-50,4,2,3,60,0,0
84930,-100,4,2,3,60,0,0
85830,-50,4,2,3,60,0,0
85980,-100,4,2,3,60,0,0
87030,-50,4,2,3,60,0,0
87330,-100,4,2,3,60,0,0
88230,-50,4,2,3,60,0,0
88530,-100,4,2,3,60,0,0
89430,-50,4,2,3,60,0,0
89730,-100,4,2,3,60,0,0
90630,-50,4,2,3,60,0,0
90780,-100,4,2,3,60,0,0
91830,-50,4,2,3,60,0,0
92130,-100,4,2,3,60,0,0
93030,-50,4,2,3,60,0,0
93330,-100,4,2,3,60,0,0
94230,-50,4,2,3,60,0,0
94530,-100,4,2,3,60,0,0
95430,-50,4,2,3,60,0,0
95580,-100,4,2,3,60,0,0
96330,-83.3333333333333,4,2,3,70,0,0
96630,-50,4,2,3,70,0,0
96930,-83.3333333333333,4,2,3,70,0,0
97830,-50,4,2,3,70,0,0
98130,-166.666666666667,4,2,3,70,0,0
98430,-83.3333333333333,4,2,3,70,0,0
99030,-50,4,2,3,70,0,0
99330,-83.3333333333333,4,2,3,70,0,0
100230,-50,4,2,3,70,0,0
100530,-83.3333333333333,4,2,3,70,0,0
101430,-50,4,2,3,70,0,0
101730,-83.3333333333333,4,2,3,70,0,0
102630,-50,4,2,3,70,0,0
102930,-166.666666666667,4,2,3,70,0,0
103230,-83.3333333333333,4,2,3,70,0,0
103830,-50,4,2,3,70,0,0
104130,-83.3333333333333,4,2,3,70,0,0
105030,-50,4,2,3,70,0,0
105330,-83.3333333333333,4,2,3,70,0,0
105630,-76.9230769230769,4,2,3,70,0,0
106230,-45.4545454545455,4,2,3,70,0,0
106680,-76.9230769230769,4,2,3,70,0,0
107430,-45.4545454545455,4,2,3,70,0,0
107730,-100,4,2,3,70,0,0
108030,-76.9230769230769,4,2,3,70,0,0
108630,-45.4545454545455,4,2,3,70,0,0
108930,-76.9230769230769,4,2,3,70,0,0
109830,-45.4545454545455,4,2,3,70,0,0
110130,-76.9230769230769,4,2,3,70,0,0
111030,-45.4545454545455,4,2,3,70,0,0
111330,-76.9230769230769,4,2,3,70,0,0
112230,-45.4545454545455,4,2,3,70,0,0
112530,-100,4,2,3,70,0,0
112830,-76.9230769230769,4,2,3,70,0,0
113430,-45.4545454545455,4,2,3,70,0,0
113880,-71.4285714285714,4,2,3,70,0,0
114630,-45.4545454545455,4,2,3,70,0,0
114930,-50,4,2,3,70,0,0
115230,-133.333333333333,4,2,2,40,0,0
134430,-133.333333333333,4,2,4,40,0,0
136680,-133.333333333333,4,2,4,5,0,0
136830,-133.333333333333,4,2,5,40,0,0
139080,-133.333333333333,4,2,5,5,0,0
139230,-133.333333333333,4,2,4,40,0,0
141480,-133.333333333333,4,2,4,5,0,0
141630,-111.111111111111,4,2,1,30,0,0
144030,-133.333333333333,4,2,4,40,0,0
146280,-133.333333333333,4,2,4,5,0,0
146430,-133.333333333333,4,2,5,40,0,0
148680,-133.333333333333,4,2,5,5,0,0
148830,-133.333333333333,4,2,4,40,0,0
151080,-133.333333333333,4,2,4,5,0,0
151230,-111.111111111111,4,2,1,30,0,0
153630,-133.333333333333,4,2,1,50,0,0
163230,-100,4,2,2,60,0,0
168030,-100,4,2,2,65,0,0
170430,-100,4,2,2,70,0,0
172230,-66.6666666666667,4,2,2,70,0,0
173880,-66.6666666666667,4,2,2,70,0,0
174030,-80,4,2,1,70,0,0
176430,-55.5555555555556,4,2,1,70,0,0
178680,-66.6666666666667,4,2,1,70,0,0
178830,-80,4,2,1,70,0,0
181230,-55.5555555555556,4,2,1,70,0,0
182430,-1000,4,2,1,70,0,0
183480,-66.6666666666667,4,2,1,70,0,0
183630,-62.5,4,2,1,70,0,0
184230,-40,4,2,1,70,0,0
186030,-55.5555555555556,4,2,1,70,0,0
187230,-1000,4,2,1,70,0,0
188280,-66.6666666666667,4,2,1,70,0,0
188430,-80,4,2,1,70,0,0
190830,-100,4,2,1,70,0,0
192030,-100,4,2,1,5,0,0
193080,-66.6666666666667,4,2,1,70,0,0
193230,-80,4,2,1,70,0,0
195630,-55.5555555555556,4,2,1,70,0,0
197880,-66.6666666666667,4,2,1,70,0,0
198030,-80,4,2,1,70,0,0
200430,-55.5555555555556,4,2,1,70,0,0
201555,-55.5555555555556,4,2,1,5,0,0
201630,-1000,4,2,1,70,0,0
202680,-66.6666666666667,4,2,1,70,0,0
202830,-62.5,4,2,1,70,0,0
203430,-40,4,2,1,70,0,0
205230,-55.5555555555556,4,2,1,70,0,0
206430,-1000,4,2,1,70,0,0
207480,-66.6666666666667,4,2,1,70,0,0
207630,-80,4,2,1,70,0,0
210030,-100,4,2,1,70,0,0
211230,-100,4,2,3,80,0,0

[Colours]
Combo1 : 0,0,160
Combo2 : 192,192,192
Combo3 : 0,128,255
Combo4 : 116,116,116

[HitObjects]
206,101,30,6,0,L|298:83,1,67.5000025749208,0|2,1:0|0:0,0:0:0:0:
345,122,330,1,8,0:0:0:0:
260,209,480,2,0,P|208:177|126:215,2,135.000005149842,2|2|2,0:0|0:0|0:0,0:0:0:0:
222,335,1230,21,8,0:0:0:0:
195,258,1380,1,2,0:0:0:0:
303,333,1530,1,8,0:0:0:0:
326,255,1680,1,2,0:0:0:0:
222,335,1830,2,0,P|166:337|115:260,1,135.000005149842,8|8,0:0|0:0,0:0:0:0:
195,258,2280,1,2,0:0:0:0:
303,333,2430,22,0,P|341:335|386:313,1,67.5000025749208,8|2,0:0|0:0,0:0:0:0:
326,255,2730,1,8,0:0:0:0:
446,187,2880,2,0,L|446:322,1,135.000005149842,2|2,0:0|0:0,0:0:0:0:
406,115,3480,21,2,0:0:0:0:
283,186,3630,1,8,0:0:0:0:
365,184,3780,1,2,0:0:0:0:
242,115,3930,1,8,0:0:0:0:
324,113,4080,1,2,0:0:0:0:
200,186,4230,2,0,P|161:129|187:56,1,135.000005149842,8|8,0:0|0:0,0:0:0:0:
242,115,4680,1,2,0:0:0:0:
159,259,4830,22,0,L|85:263,1,67.5000025749208,8|2,0:0|0:0,0:0:0:0:
24,217,5130,1,8,0:0:0:0:
83,342,5280,2,0,B|184:338|184:338|217:317,2,135.000005149842,2|2|2,0:0|0:0|0:0,0:0:0:0:
101,184,6030,21,8,0:0:0:0:
91,262,6180,1,2,0:0:0:0:
34,139,6330,1,8,0:0:0:0:
24,217,6480,1,2,0:0:0:0:
105,104,6630,2,0,B|133:85|133:85|234:81,1,135.000005149842,8|8,0:0|0:0,0:0:0:0:
315,83,7080,1,2,0:0:0:0:
297,214,7230,22,0,P|279:186|274:153,1,67.5000025749208,8|2,0:0|0:0,0:0:0:0:
355,156,7530,1,8,0:0:0:0:
327,258,7680,2,0,P|274:218|256:154,1,135.000005149842,2|2,0:0|0:0,0:0:0:0:
459,29,8280,21,2,0:0:0:0:
473,160,8430,2,0,L|461:247,1,67.5000025749208,8|2,0:0|0:0,0:0:0:0:
352,249,8730,1,8,0:0:0:0:
395,181,8880,1,2,0:0:0:0:
420,294,9030,1,8,0:0:0:0:
313,173,9180,37,2,0:0:0:0:
501,304,9330,1,8,0:0:0:0:
473,160,9480,1,2,0:0:0:0:
345,329,9630,6,0,P|310:319|281:288,1,67.5000025749208,8|2,0:0|0:0,0:0:0:0:
352,249,9930,1,8,0:0:0:0:
224,348,10080,2,0,B|186:357|186:357|215:266,2,135.000005149842,2|2|2,0:0|0:0|0:0,0:0:0:0:
203,186,10830,21,8,0:0:0:0:
140,237,10980,1,2,0:0:0:0:
279,221,11130,1,8,0:0:0:0:
269,140,11280,1,2,0:0:0:0:
215,266,11430,2,0,P|166:316|99:308,1,135.000005149842,8|8,0:0|0:0,0:0:0:0:
140,237,11880,1,2,0:0:0:0:
189,119,12030,22,0,L|203:186,1,67.5000025749208,8|2,0:0|0:0,0:0:0:0:
279,221,12330,1,8,0:0:0:0:
287,72,12480,2,0,B|250:49|250:49|268:139,1,135.000005149842,2|2,0:0|0:0,0:0:0:0:
367,332,13080,21,2,0:0:0:0:
344,169,13230,1,8,0:0:0:0:
356,250,13380,1,2,0:0:0:0:
498,232,13530,1,8,0:0:0:0:
421,202,13680,1,2,0:0:0:0:
289,296,13830,2,0,B|246:321|246:321|145:289,1,135.000005149842,8|8,0:0|0:0,0:0:0:0:
88,265,14280,1,2,0:0:0:0:
94,111,14430,22,0,L|158:90,1,67.5000025749208,8|2,0:0|0:0,0:0:0:0:
237,69,14730,1,8,0:0:0:0:
266,211,14880,2,0,B|245:240|245:240|216:146,2,135.000005149842,2|2|2,0:0|0:0|0:0,0:0:0:0:
319,54,15630,21,8,0:0:0:0:
295,132,15780,1,2,0:0:0:0:
429,176,15930,1,8,0:0:0:0:
373,116,16080,1,2,0:0:0:0:
478,238,16230,2,0,L|451:95,1,135.000005149842,8|8,0:0|0:0,0:0:0:0:
402,40,16680,1,2,0:0:0:0:
347,196,16830,22,0,L|333:265,1,67.5000025749208,8|2,0:0|0:0,0:0:0:0:
271,314,17130,1,8,0:0:0:0:
175,230,17280,2,0,L|203:373,1,135.000005149842,2|2,0:0|0:0,0:0:0:0:
161,148,17880,21,2,0:0:0:0:
235,30,18030,2,0,L|221:96,1,67.5000025749208,8|2,0:0|0:0,0:0:0:0:
238,175,18330,1,8,0:0:0:0:
298,120,18480,1,2,0:0:0:0:
221,96,18630,1,8,0:0:0:0:
319,196,18780,5,2,0:0:0:0:
161,148,18930,1,8,0:0:0:0:
275,43,19080,1,2,0:0:0:0:
238,175,19230,5,8,1:2:0:0:
103,348,19380,2,0,B|107:282|181:231|256:313|335:236|318:155,1,314.999990386963,2|8,0:0|0:0,0:0:0:0:
238,175,20280,1,2,0:0:0:0:
274,94,20430,22,0,P|270:48|255:7,1,62.9999980773926,8|2,0:0|0:0,0:0:0:0:
180,113,20730,2,0,P|147:80|109:58,1,62.9999980773926,8|2,0:0|0:0,0:0:0:0:
120,187,21030,2,0,P|74:182|31:190,1,62.9999980773926,8|2,0:0|0:0,0:0:0:0:
122,282,21330,2,0,P|84:308|56:341,2,62.9999980773926,8|2|8,0:0|0:0|0:0,0:0:0:0:
205,338,21780,22,0,P|272:337|337:308,1,125.999996154785,2|2,0:0|0:0,0:0:0:0:
421,244,22230,2,0,P|354:243|289:214,1,125.999996154785,8|8,0:0|0:0,0:0:0:0:
205,148,22680,2,0,P|272:147|337:118,1,125.999996154785,2|2,0:0|0:0,0:0:0:0:
421,54,23130,2,0,P|354:53|301:32,1,94.499997116089,8|0,0:0|0:0,0:0:0:0:
301,29,23430,1,8,0:0:0:0:
284,144,23580,1,2,0:0:0:0:
178,28,23730,1,8,0:0:0:0:
186,168,23880,1,2,0:0:0:0:
56,28,24030,21,8,0:0:0:0:
114,238,24180,2,0,P|164:187|35:196,1,314.999990386963,2|8,0:0|0:0,0:0:0:0:
36,272,25080,1,2,0:0:0:0:
162,337,25230,22,0,P|123:318|85:309,1,62.9999980773926,8|2,0:0|0:0,0:0:0:0:
251,287,25530,2,0,P|233:247|210:216,1,62.9999980773926,8|2,0:0|0:0,0:0:0:0:
351,305,25830,2,0,P|362:263|365:224,1,62.9999980773926,8|2,0:0|0:0,0:0:0:0:
415,383,26130,2,0,P|450:358|477:330,2,62.9999980773926,8|2|8,0:0|0:0|0:0,0:0:0:0:
464,261,26580,22,0,P|439:213|438:137,1,125.999996154785,2|2,0:0|0:0,0:0:0:0:
323,113,27030,2,0,P|348:161|349:237,1,125.999996154785,8|8,0:0|0:0,0:0:0:0:
261,278,27480,2,0,P|236:230|235:154,1,125.999996154785,2|2,0:0|0:0,0:0:0:0:
120,130,27930,2,0,P|145:178|146:245,1,94.499997116089,8|0,0:0|0:0,0:0:0:0:
140,254,28230,1,8,0:0:0:0:
37,322,28380,1,2,0:0:0:0:
69,194,28530,1,8,0:0:0:0:
127,356,28680,1,2,0:0:0:0:
219,163,28830,21,0,1:0:0:0:
401,304,28980,2,0,B|329:327|279:261|349:208|260:145|191:192,1,269.999991760254,2|0,0:0|0:0,0:0:0:0:
140,243,29880,1,2,0:0:0:0:
101,321,30030,22,0,P|70:299|56:225,3,107.999996704102,10|2|2|2,0:0|0:0|0:0|0:0,0:0:0:0:
82,143,31080,1,0,0:0:0:0:
82,143,31155,1,0,0:0:0:0:
82,143,31230,1,0,0:0:0:0:
201,189,31380,22,0,P|154:168|86:159,1,107.999996704102,2|0,0:0|0:0,0:0:0:0:
159,247,31830,2,0,P|206:226|274:217,1,107.999996704102,2|0,0:0|0:0,0:0:0:0:
209,303,32280,2,0,P|162:282|94:273,1,107.999996704102,2|0,0:0|0:0,0:0:0:0:
167,361,32730,2,0,P|214:340|260:334,1,80.9999975280763,2|0,0:0|0:0,0:0:0:0:
279,353,33030,2,0,L|338:362,1,53.9999983520508,2|10,0:0|0:0,0:0:0:0:
393,247,33330,2,0,L|340:256,1,53.9999983520508,2|2,0:0|0:0,0:0:0:0:
481,317,33630,21,0,0:0:0:0:
451,104,33780,2,0,P|495:135|379:163,1,269.999991760254,2|0,0:0|0:0,0:0:0:0:
369,92,34680,1,2,0:0:0:0:
333,17,34830,22,0,P|302:39|288:113,1,107.999996704102,10|2,0:0|0:0,0:0:0:0:
285,104,35430,2,0,P|277:156|237:191,1,107.999996704102,2|2,0:0|0:0,0:0:0:0:
141,166,35880,1,2,0:3:0:0:
38,263,36030,21,8,0:0:0:0:
80,93,36180,1,8,0:0:0:0:
293,346,36480,21,8,0:0:0:0:
140,260,36630,1,8,0:0:0:0:
468,139,36930,21,8,0:0:0:0:
414,316,37080,1,8,0:0:0:0:
171,85,37380,21,8,0:0:0:0:
345,59,37530,1,8,0:0:0:0:
285,234,37680,1,0,1:0:0:0:
239,44,37830,6,0,L|227:-32,1,53.9999983520508,8|0,1:0|0:0,0:0:0:0:
186,227,37980,1,0,1:0:0:0:
388,151,38130,1,0,1:0:0:0:
149,0,38280,1,0,1:0:0:0:
269,329,38430,21,0,1:0:0:0:
111,233,38580,2,0,B|94:195|94:195|141:147|141:147|193:185|193:185|185:226,1,215.999993408203,0|0,0:0|0:0,0:0:0:0:
271,376,39030,22,0,P|329:243|184:226,1,337.5,8|0,1:0|0:0,0:0:0:0:
251,289,39330,1,0,1:0:0:0:
428,162,39480,22,0,B|448:202|448:202|427:317,1,161.999995056153,2|0,1:3|0:0,0:0:0:0:
355,151,39780,2,0,B|392:176|392:176|432:285,1,161.999995056153,2|0,1:3|0:0,0:0:0:0:
353,352,40080,1,0,1:0:0:0:
184,225,40230,22,0,B|-4:192|-4:192|24:269|24:269|121:286,1,337.5,8|0,1:0|0:0,0:0:0:0:
184,225,40530,22,0,B|192:183|192:183|161:121|161:121|173:61,1,161.999995056153,0|0,0:0|0:0,0:0:0:0:
243,109,40830,21,0,1:0:0:0:
86,39,40980,2,0,B|49:21|49:21|70:138,1,161.999995056153,0|0,0:0|0:0,0:0:0:0:
71,140,41280,2,0,L|80:193,1,53.9999983520508,0|0,0:0|0:0,0:0:0:0:
242,30,41430,22,0,B|292:26|321:79|321:79|325:68|325:68|352:122|429:131|429:131|426:121|426:121|479:123|517:58,1,337.5,8|0,1:0|0:0,0:0:0:0:
419,20,41730,1,0,1:0:0:0:
484,203,41880,22,0,B|500:249|500:249|388:228,1,161.999995056153,2|0,1:3|0:0,0:0:0:0:
303,207,42180,1,2,1:3:0:0:
427,126,42330,1,0,1:0:0:0:
321,284,42480,1,0,1:0:0:0:
175,90,42630,22,0,B|127:58|127:58|71:90|71:90|71:154|71:154|119:186|119:186|119:298,1,337.5,8|0,1:0|0:0,0:0:0:0:
55,351,42930,22,0,B|88:350|88:350|120:319|120:319|152:350|152:350|193:351,1,161.999995056153,0|0,0:0|0:0,0:0:0:0:
279,351,43230,21,0,1:0:0:0:
231,171,43380,2,0,B|195:119|195:119|195:270,1,215.999993408203,0|0,0:0|0:0,0:0:0:0:
375,172,43830,22,0,P|441:132|420:284,1,337.5,8|0,1:0|0:0,0:0:0:0:
443,210,44130,1,0,1:0:0:0:
493,62,44280,22,0,P|425:54|326:106,1,161.999995056153,2|0,1:3|0:0,0:0:0:0:
445,43,44580,2,0,P|377:52|295:128,1,161.999995056153,2|0,1:3|0:0,0:0:0:0:
292,199,44880,1,0,1:0:0:0:
61,193,45030,22,0,B|48:149|87:102|87:102|225:142|225:142|161:139|128:177,1,337.5,8|0,1:0|0:0,0:0:0:0:
24,204,45330,22,0,P|33:119|89:56,1,161.999995056153,0|0,0:0|0:0,0:0:0:0:
164,41,45630,21,0,1:0:0:0:
207,234,45780,2,0,P|270:266|291:198,1,161.999995056153,0|0,0:0|0:0,0:0:0:0:
290,197,46080,2,0,P|265:201|251:224,1,53.9999983520508,0|0,0:0|0:0,0:0:0:0:
371,325,46230,22,0,B|415:342|432:285|432:285|382:269|349:265|348:374|226:368|171:313,1,337.5,8|0,1:0|0:0,0:0:0:0:
124,273,46530,1,0,1:0:0:0:
256,120,46680,22,0,B|308:111|308:111|366:140|366:140|437:129,1,161.999995056153,2|0,1:3|0:0,0:0:0:0:
383,58,46980,1,2,1:3:0:0:
290,197,47130,1,0,1:0:0:0:
358,37,47280,1,0,1:0:0:0:
467,234,47430,6,0,B|498:196|498:196|369:221,1,180,8|0,1:0|0:0,0:0:0:0:
162,334,48180,6,0,B|223:320|223:320|308:350|308:350|369:337,1,215.999993408203,0|0,0:0|0:0,0:0:0:0:
493,228,48630,22,0,B|528:172|528:172|328:211|328:211|406:269,1,337.5,8|0,1:0|0:0,0:0:0:0:
448,301,48930,1,0,1:0:0:0:
486,100,49080,22,0,B|307:136,1,161.999995056153,2|0,1:3|0:0,0:0:0:0:
288,49,49380,2,0,B|467:85,1,161.999995056153,2|0,1:3|0:0,0:0:0:0:
512,136,49680,1,0,1:0:0:0:
377,345,49830,22,0,P|278:329|404:243,1,337.5,8|0,1:0|0:0,0:0:0:0:
466,360,50130,22,0,B|510:290|510:290|413:285,1,161.999995056153,0|0,0:0|0:0,0:0:0:0:
336,280,50430,21,0,1:0:0:0:
185,367,50580,2,0,B|123:357|123:357|52:275,1,161.999995056153,0|0,0:0|0:0,0:0:0:0:
58,282,50880,2,0,L|99:246,1,53.9999983520508,0|0,0:0|0:0,0:0:0:0:
231,120,51030,22,0,B|322:90|322:90|354:189|354:189|263:218|263:218|283:179,1,337.5,8|0,1:0|0:0,0:0:0:0:
336,280,51330,1,0,1:0:0:0:
184,189,51480,22,0,B|109:156|109:156|3:178,1,161.999995056153,2|0,1:3|0:0,0:0:0:0:
98,246,51780,1,2,1:3:0:0:
56,80,51930,1,0,1:0:0:0:
13,257,52080,1,0,1:0:0:0:
183,99,52230,22,0,B|243:125|243:125|280:175|266:220|266:220|287:178|356:168|356:168|426:198,1,337.5,8|0,1:0|0:0,0:0:0:0:
406,324,52530,22,0,B|450:304|450:304|346:259,1,161.999995056153,0|0,0:0|0:0,0:0:0:0:
320,341,52830,21,0,1:0:0:0:
413,192,52980,2,0,B|448:104|448:104|428:68|428:68|390:84|390:84|408:118,1,215.999993408203,0|0,0:0|0:0,0:0:0:0:
510,59,53430,22,0,B|482:8|482:8|315:78|315:78|193:53,1,337.5,8|0,1:0|0:0,0:0:0:0:
136,35,53730,1,0,1:0:0:0:
234,179,53880,22,0,B|273:152|273:152|159:129,1,161.999995056153,2|0,1:3|0:0,0:0:0:0:
249,172,54180,2,0,B|288:145|288:145|174:122,1,161.999995056153,2|0,1:3|0:0,0:0:0:0:
77,105,54480,1,0,1:0:0:0:
190,250,54630,22,0,B|257:258|257:258|308:224|308:224|345:300|345:300|392:266|392:266|472:277,1,337.5,8|0,1:0|0:0,0:0:0:0:
275,338,54930,22,0,B|193:328|193:328|275:365,1,161.999995056153,0|0,0:0|0:0,0:0:0:0:
344,376,55230,21,0,1:0:0:0:
456,197,55380,2,0,B|374:186|374:186|327:102,1,161.999995056153,0|0,0:0|0:0,0:0:0:0:
335,116,55680,2,0,L|397:154,1,53.9999983520508,0|0,0:0|0:0,0:0:0:0:
195,86,55830,22,0,B|149:114|149:114|180:167|180:167|165:236|165:236|204:184|264:184|319:239,1,337.5,8|0,1:0|0:0,0:0:0:0:
236,279,56130,1,0,1:0:0:0:
78,237,56280,22,0,L|62:107,1,107.999996704102,2|0,1:3|0:0,0:0:0:0:
199,49,56580,2,0,L|194:85,3,35.9999989013672,2|2|2|0,1:3|1:3|1:3|1:0,0:0:0:0:
298,220,56880,1,0,1:0:0:0:
447,78,57030,6,0,L|441:111,1,33.7500012874604,8|0,1:0|0:0,0:0:0:0:
364,138,57180,2,0,L|369:171,1,33.7500012874604
460,192,57330,2,0,L|454:225,1,33.7500012874604
377,252,57480,2,0,L|382:285,1,33.7500012874604
467,318,57630,5,0,0:0:0:0:
288,307,57780,2,0,B|223:279|223:279|231:200|231:200|295:184,1,215.999993408203,0|0,0:0|0:0,0:0:0:0:
155,340,58230,22,0,P|66:215|187:117,1,337.5,8|0,1:0|0:0,0:0:0:0:
177,230,58530,1,0,1:0:0:0:
167,45,58680,22,0,B|119:35|119:35|28:111,1,161.999995056153,2|0,1:3|0:0,0:0:0:0:
0,47,58980,2,0,B|48:37|48:37|139:113,1,161.999995056153,2|0,1:3|0:0,0:0:0:0:
81,177,59280,2,0,L|27:184,1,53.9999983520508,0|0,1:0|0:0,0:0:0:0:
251,148,59430,22,0,B|362:142|377:57|377:57|340:138|428:219,1,337.5,8|0,1:0|0:0,0:0:0:0:
370,273,59730,22,0,B|324:208|324:208|245:234,1,161.999995056153,0|0,0:0|0:0,0:0:0:0:
295,299,60030,21,0,1:0:0:0:
73,259,60180,2,0,B|149:351|219:307,1,161.999995056153,0|0,0:0|0:0,0:0:0:0:
211,311,60480,2,0,L|230:372,1,53.9999983520508,0|0,0:0|0:0,0:0:0:0:
173,241,60630,22,0,B|225:194|208:125|208:125|216:136|216:136|223:63|277:41|277:41|268:52|268:52|242:89|253:127,1,337.5,8|0,1:0|0:0,0:0:0:0:
326,103,60930,21,0,1:0:0:0:
124,163,61080,2,0,P|58:139|21:93,1,107.999996704102,2|0,1:3|0:0,0:0:0:0:
335,231,61380,1,2,1:3:0:0:
176,109,61530,2,0,P|140:48|142:-10,1,107.999996704102,0|0,1:0|1:0,0:0:0:0:
382,159,61830,22,0,P|419:248|248:242,1,337.5,8|0,1:0|0:0,0:0:0:0:
470,321,62130,22,0,B|427:332|391:306|391:306|411:352|374:396,1,161.999995056153,0|0,0:0|0:0,0:0:0:0:
335,231,62430,21,0,1:0:0:0:
224,349,62580,2,0,B|176:373|120:365|134:290|60:273|18:302,1,215.999993408203,0|0,0:0|0:0,0:0:0:0:
53,70,63030,22,0,P|65:212|190:145,1,337.5,8|0,1:0|0:0,0:0:0:0:
106,137,63330,1,0,1:0:0:0:
258,211,63480,22,0,B|310:191|310:191|265:72,1,161.999995056153,2|0,1:3|0:0,0:0:0:0:
279,223,63780,2,0,B|331:203|331:203|286:84,1,161.999995056153,2|0,1:3|0:0,0:0:0:0:
259,22,64080,1,0,1:0:0:0:
446,118,64230,22,0,B|482:91|491:17|419:7|372:30|365:70|377:111|402:139|438:156|464:182|444:249,1,337.5,8|0,1:0|0:0,0:0:0:0:
414,337,64530,22,0,P|458:272|459:169,1,161.999995056153,0|0,0:0|0:0,0:0:0:0:
372,214,64830,21,0,1:0:0:0:
192,346,64980,2,0,P|150:298|223:279,1,161.999995056153,0|0,0:0|0:0,0:0:0:0:
218,274,65280,2,0,P|197:252|193:216,1,53.9999983520508,0|0,0:0|0:0,0:0:0:0:
284,90,65430,22,0,B|345:102|346:191|265:217|205:178|206:87|139:65|77:112,1,337.5,8|0,1:0|0:0,0:0:0:0:
128,168,65730,21,0,1:0:0:0:
304,246,65880,2,0,P|358:219|394:164,1,107.999996704102,2|0,1:3|0:0,0:0:0:0:
117,302,66180,1,2,1:3:0:0:
206,251,66330,2,0,P|239:200|242:134,1,107.999996704102,0|0,1:0|1:0,0:0:0:0:
65,363,66630,6,0,B|52:343|52:343|182:334|182:334|169:356,1,180,8|0,1:0|0:0,0:0:0:0:
108,223,67380,6,0,B|84:105|195:151|174:17,1,215.999993408203,0|0,1:0|0:0,0:0:0:0:
408,137,67830,22,0,P|318:32|286:179,1,337.5,8|0,1:0|0:0,0:0:0:0:
330,111,68130,1,0,1:0:0:0:
352,297,68280,22,0,B|410:292|410:292|471:183,1,161.999995056153,2|0,1:3|0:0,0:0:0:0:
326,315,68580,2,0,B|378:339|378:339|486:275,1,161.999995056153,2|0,1:3|0:0,0:0:0:0:
298,313,68880,1,0,1:0:0:0:
171,202,69030,22,0,B|231:250|240:321|198:381|106:384|98:348|88:304|120:274|172:277|180:348,1,337.5,8|0,1:0|0:0,0:0:0:0:
196,343,69330,22,0,P|104:346|113:273,1,161.999995056153,0|0,0:0|0:0,0:0:0:0:
144,323,69630,21,0,1:0:0:0:
141,131,69780,2,0,B|218:105|222:183|305:156,1,161.999995056153,0|0,0:0|0:0,0:0:0:0:
294,159,70080,2,0,L|277:86,1,53.9999983520508,0|0,0:0|0:0,0:0:0:0:
458,310,70230,22,0,P|514:245|353:232,1,337.5,8|0,1:0|0:0,0:0:0:0:
435,232,70530,21,0,1:0:0:0:
323,314,70680,2,0,P|269:322|216:312,1,107.999996704102,2|0,1:3|0:0,0:0:0:0:
415,317,70980,1,2,1:3:0:0:
214,239,71130,2,0,P|164:219|123:184,1,107.999996704102,0|0,1:0|1:0,0:0:0:0:
278,30,71430,22,0,B|361:34|361:34|392:114|392:114|317:155|317:155|250:105,1,337.5,8|0,1:0|0:0,0:0:0:0:
454,65,71730,22,0,B|441:95|441:95|401:115|401:115|419:155|419:155|406:194,1,161.999995056153,0|0,0:0|0:0,0:0:0:0:
495,146,72030,21,0,1:0:0:0:
477,303,72180,2,0,P|413:270|261:303,1,215.999993408203,0|0,0:0|0:0,0:0:0:0:
132,322,72630,22,0,B|153:369|153:369|180:293|154:212|72:166|72:166|89:209,1,337.5,8|0,1:0|0:0,0:0:0:0:
70,282,72930,21,0,1:0:0:0:
153,110,73080,2,0,B|208:125|208:125|247:239,1,161.999995056153,2|0,1:3|0:0,0:0:0:0:
163,95,73380,2,0,B|218:110|218:110|257:224,1,161.999995056153,2|0,1:3|0:0,0:0:0:0:
174,78,73680,1,0,1:0:0:0:
392,216,73830,22,0,B|371:263|371:263|344:187|370:106|452:60|452:60|434:103,1,337.5,8|0,1:0|0:0,0:0:0:0:
462,176,74130,22,0,L|281:117,1,161.999995056153,0|0,0:0|0:0,0:0:0:0:
174,78,74430,21,0,1:0:0:0:
113,248,74580,2,0,P|49:269|61:203,1,161.999995056153,0|0,0:0|0:0,0:0:0:0:
61,203,74880,2,0,P|27:207|-2:184,1,53.9999983520508,0|0,0:0|0:0,0:0:0:0:
16,68,75030,22,0,B|119:49|79:144|133:190|207:177|253:152|274:82|233:26,1,337.5,8|0,1:0|0:0,0:0:0:0:
174,78,75330,21,0,1:0:0:0:
315,157,75480,2,0,L|490:136,1,161.999995056153,2|0,1:3|0:0,0:0:0:0:
444,218,75780,2,0,L|439:254,3,35.9999989013672,2|2|2|0,1:3|1:3|1:3|1:0,0:0:0:0:
486,317,76080,1,0,1:0:0:0:
319,285,76230,6,0,L|286:291,1,33.7500012874604,8|0,1:0|0:0,0:0:0:0:
259,368,76380,2,0,L|226:363,1,33.7500012874604,8|0,1:0|0:0,0:0:0:0:
205,272,76530,2,0,L|172:278,1,33.7500012874604,0|0,1:0|0:0,0:0:0:0:
144,355,76680,2,0,L|111:350,1,33.7500012874604,0|0,1:0|0:0,0:0:0:0:
63,295,76830,2,0,L|30:301,1,33.7500012874604,0|0,1:0|0:0,0:0:0:0:
63,295,77130,22,0,P|98:255|28:223,1,135,0|0,1:0|0:0,0:0:0:0:
0,144,77430,22,0,B|81:161|81:161|183:110|183:110|271:127,1,270,8|0,1:0|0:0,0:0:0:0:
198,193,77730,1,0,1:0:0:0:
217,38,77880,22,0,B|310:56|310:56|347:148,1,180,0|2,1:0|1:3,0:0:0:0:
324,286,78330,1,0,1:0:0:0:
287,205,78480,1,0,1:0:0:0:
407,301,78630,22,0,B|441:242|441:242|217:324,1,270,8|0,1:0|0:0,0:0:0:0:
204,376,78930,22,0,B|227:324|227:324|167:189,1,180,0|0,1:0|0:0,0:0:0:0:
176,211,79530,2,0,B|216:302|216:302|232:253,1,135,0|0,1:0|0:0,0:0:0:0:
207,132,79830,22,0,B|156:134|131:92|131:92|141:139|90:185,1,180,8|2,1:0|1:3,0:0:0:0:
0,45,80130,1,0,1:0:0:0:
201,50,80280,22,0,P|262:70|276:179,1,180,0|2,1:0|1:3,0:0:0:0:
154,298,80730,2,0,L|176:211,1,90,0|0,1:0|1:0,0:0:0:0:
340,281,81030,22,0,B|372:314|372:314|310:327,1,90,8|0,1:0|0:0,0:0:0:0:
246,301,81180,22,0,L|258:257,1,45,0|0,1:0|0:0,0:0:0:0:
368,194,81330,2,0,B|431:261|431:261|482:166,1,180,0|0,1:0|0:0,0:0:0:0:
472,183,81930,2,0,B|432:261|432:261|488:249,1,135,0|0,1:0|0:0,0:0:0:0:
413,116,82230,22,0,B|365:108|365:108|326:122|326:122|287:104|287:104|246:118|246:118|199:97|199:97|138:113,1,270,8|0,1:0|0:0,0:0:0:0:
188,183,82530,1,0,1:0:0:0:
139,29,82680,22,0,B|51:55|51:55|83:137,1,180,0|2,1:0|1:3,0:0:0:0:
141,291,83130,1,0,1:0:0:0:
111,215,83280,1,0,1:0:0:0:
7,339,83430,22,0,B|65:300|124:323|124:323|141:291|141:291|203:318|270:274,1,270,8|0,1:0|0:0,0:0:0:0:
309,214,83730,22,0,B|304:243|273:270|273:270|312:254|359:261,1,135,0|0,1:0|0:0,0:0:0:0:
359,219,84030,1,2,1:3:0:0:
320,351,84180,1,2,1:3:0:0:
220,193,84330,2,0,P|252:143|337:130,1,135,0|0,1:0|0:0,0:0:0:0:
448,61,84630,22,0,B|493:59|514:108|461:157|405:133|427:23|339:17|268:48,1,270,8|0,1:0|0:0,0:0:0:0:
215,65,84930,1,0,1:0:0:0:
309,214,85080,22,0,B|364:238|364:238|312:98,1,180,0|2,1:0|1:3,0:0:0:0:
182,147,85530,2,0,L|148:238,1,90,0|0,1:0|1:0,0:0:0:0:
299,339,85830,22,0,B|331:309|331:309|289:289,1,90,8|0,1:0|0:0,0:0:0:0:
227,241,85980,22,0,L|211:283,1,45,0|0,1:0|0:0,0:0:0:0:
94,334,86130,2,0,B|51:350|51:350|8:217,1,180,0|0,1:0|1:0,0:0:0:0:
150,231,86580,1,0,0:0:0:0:
77,91,86730,2,0,B|57:70|57:70|25:143|25:143|61:143,1,135,0|0,1:0|0:0,0:0:0:0:
188,161,87030,22,0,B|213:109|213:109|331:141|331:141|378:116|378:116|311:97,1,270,8|0,1:0|0:0,0:0:0:0:
291,42,87330,1,0,1:0:0:0:
476,50,87480,22,0,B|510:92|510:92|505:218,1,180,0|2,1:0|1:3,0:0:0:0:
390,345,87930,1,0,1:0:0:0:
416,199,88080,1,0,1:0:0:0:
479,363,88230,22,0,B|439:332|386:345|386:345|323:366|272:325|272:325|297:304|332:322,1,270,8|0,1:0|0:0,0:0:0:0:
206,368,88530,22,0,B|177:319|198:261|261:244|261:244|219:236,1,180,0|0,1:0|1:0,0:0:0:0:
110,314,88980,1,0,0:0:0:0:
118,148,89130,2,0,B|149:115|149:115|171:205,1,135,0|0,1:0|0:0,0:0:0:0:
78,84,89430,22,0,B|128:32|128:32|248:67,1,180,8|2,1:0|1:3,0:0:0:0:
241,240,89730,1,0,1:0:0:0:
387,195,89880,22,0,P|380:122|323:168,1,180,0|2,1:0|1:3,0:0:0:0:
483,150,90330,2,0,P|480:195|461:235,1,90,0|0,1:0|1:0,0:0:0:0:
298,289,90630,22,0,B|266:258|266:258|312:251,1,90,8|0,1:0|0:0,0:0:0:0:
396,280,90780,22,0,L|377:337,1,45,0|0,1:0|0:0,0:0:0:0:
238,356,90930,2,0,B|197:316|197:316|60:348,1,180,0|0,1:0|1:0,0:0:0:0:
0,274,91380,1,0,0:0:0:0:
114,117,91530,2,0,L|144:248,1,135,0|0,1:0|0:0,0:0:0:0:
61,213,91830,22,0,B|43:133|43:133|98:122|98:122|127:251,1,270,8|0,1:0|0:0,0:0:0:0:
150,328,92130,1,0,1:0:0:0:
234,161,92280,22,0,B|253:110|253:110|405:73,1,180,0|2,1:0|1:3,0:0:0:0:
315,176,92730,1,0,1:0:0:0:
273,21,92880,1,0,1:0:0:0:
148,136,93030,22,0,B|66:157|35:88|35:88|85:23|161:70,1,270,8|0,1:0|0:0,0:0:0:0:
234,161,93330,22,0,B|204:149|179:144|179:144|100:175|50:143,1,180,0|0,1:0|1:0,0:0:0:0:
0,23,93780,1,0,0:0:0:0:
29,221,93930,2,0,B|68:240|68:240|60:148,1,135,0|0,1:0|0:0,0:0:0:0:
0,292,94230,22,0,B|63:321|63:321|201:292|201:292|266:317,1,270,8|0,1:0|0:0,0:0:0:0:
196,374,94530,1,0,1:0:0:0:
244,220,94680,22,0,B|299:240|299:240|433:216,1,180,0|2,1:0|1:3,0:0:0:0:
286,65,95130,2,0,L|308:177,1,90,0|0,1:0|1:0,0:0:0:0:
417,90,95430,22,0,B|388:56|388:56|361:130,1,90,8|0,1:0|0:0,0:0:0:0:
409,174,95580,22,0,L|422:235,1,45,0|0,1:0|0:0,0:0:0:0:
345,324,95730,2,0,B|301:336|301:336|207:311,1,135,0|0,1:0|0:0,0:0:0:0:
135,291,96030,5,2,1:2:0:0:
135,291,96330,6,0,L|127:97,1,161.999995056153,0|0,1:0|0:0,0:0:0:0:
136,322,96630,2,0,B|101:248|101:248|161:164|161:164|125:86,1,270,8|0,1:0|0:0,0:0:0:0:
86,19,96930,1,0,1:0:0:0:
222,106,97080,22,0,B|352:148|399:61|373:-2|321:-17|267:-5|263:29|271:67|291:90|331:75|327:31,1,323.999990112305,0|0,1:0|1:0,0:0:0:0:
318,52,97680,1,0,1:0:0:0:
385,217,97830,22,0,B|401:166|401:166|239:207|239:207|273:241,1,270,8|0,1:0|0:0,0:0:0:0:
342,281,98130,2,0,L|361:364,1,80.9999975280763,0|0,1:0|0:0,0:0:0:0:
360,359,98430,1,2,1:2:0:0:
225,327,98730,22,0,L|233:133,1,161.999995056153,0|0,1:0|0:0,0:0:0:0:
224,358,99030,2,0,B|258:284|258:284|198:200|198:200|234:122,1,270,8|0,1:0|0:0,0:0:0:0:
274,55,99330,1,0,1:0:0:0:
143,134,99480,22,0,P|51:111|96:41,1,161.999995056153,0|0,1:0|0:0,0:0:0:0:
118,22,99780,1,2,1:3:0:0:
21,228,99930,2,0,P|51:173|28:121,1,107.999996704102,0|0,1:0|1:0,0:0:0:0:
0,360,100230,22,0,L|105:337,1,90,8|0,1:0|0:0,0:0:0:0:
184,243,100380,2,0,L|79:266,1,90,0|0,1:0|0:0,0:0:0:0:
270,362,100530,2,0,P|310:332|235:299,1,161.999995056153,0|0,1:0|0:0,0:0:0:0:
179,357,100830,5,2,1:2:0:0:
456,194,101130,6,0,L|262:202,1,161.999995056153,0|0,1:0|0:0,0:0:0:0:
487,193,101430,2,0,B|413:227|413:227|329:167|329:167|251:203,1,270,8|0,1:0|0:0,0:0:0:0:
184,243,101730,1,0,1:0:0:0:
115,40,101880,22,0,B|186:13|234:68|264:164|194:220|94:203|111:93|183:85|206:133,1,323.999990112305,0|0,1:0|1:0,0:0:0:0:
176,138,102480,1,0,1:0:0:0:
128,303,102630,22,0,B|144:353|144:353|-17:312|-17:312|16:278,1,270,8|0,1:0|0:0,0:0:0:0:
85,239,102930,2,0,L|104:156,1,80.9999975280763,0|0,1:0|0:0,0:0:0:0:
103,160,103230,1,2,1:2:0:0:
31,39,103530,22,0,L|225:47,1,161.999995056153,0|0,1:0|0:0,0:0:0:0:
0,38,103830,2,0,B|73:72|73:72|157:12|157:12|235:48,1,270,8|0,1:0|0:0,0:0:0:0:
303,88,104130,1,0,1:0:0:0:
216,306,104280,22,0,P|219:225|263:143,1,161.999995056153,0|0,1:0|0:0,0:0:0:0:
303,88,104580,1,2,1:3:0:0:
289,302,104730,2,0,P|288:248|311:199,1,107.999996704102,0|0,1:0|1:0,0:0:0:0:
492,86,105030,22,0,L|469:191,1,90,8|0,1:0|0:0,0:0:0:0:
399,87,105180,2,0,L|422:-18,1,90,0|0,1:0|0:0,0:0:0:0:
303,88,105330,2,0,P|273:48|240:123,1,161.999995056153,0|0,1:0|0:0,0:0:0:0:
300,175,105630,37,2,1:2:0:0:
191,212,105780,1,0,0:0:0:0:
61,163,105930,22,0,P|134:146|209:213,1,175.499991966248,0|0,1:0|0:0,0:0:0:0:
49,151,106230,2,0,B|121:98|241:137|176:203|259:226|321:192,1,297.000009063721,8|0,1:0|0:0,0:0:0:0:
387,150,106530,1,0,1:0:0:0:
419,341,106680,22,0,P|495:300|427:279,1,175.499991966248,0|0,1:0|0:0,0:0:0:0:
340,343,106980,2,0,P|315:360|287:366,1,58.4999973220826,2|0,1:3|0:0,0:0:0:0:
155,288,107130,2,0,P|144:360|212:335,1,175.499991966248,0|0,1:0|0:0,0:0:0:0:
279,280,107430,22,0,B|250:149|250:149|313:88|313:88|335:181,1,297.000009063721,8|0,1:0|0:0,0:0:0:0:
360,233,107730,2,0,L|326:100,1,135,0|0,1:0|0:0,0:0:0:0:
326,102,108030,21,2,1:2:0:0:
222,58,108180,1,0,0:0:0:0:
102,122,108330,22,0,P|175:139|250:72,1,175.499991966248,0|0,1:0|0:0,0:0:0:0:
90,134,108630,2,0,B|162:187|282:148|217:82|300:59|362:93,1,297.000009063721,8|0,1:0|0:0,0:0:0:0:
428,135,108930,1,0,1:0:0:0:
325,244,109080,22,0,P|384:209|381:292,1,175.499991966248,0|0,1:0|0:0,0:0:0:0:
282,359,109380,2,0,P|255:369|229:359,1,58.4999973220826,2|0,1:3|0:0,0:0:0:0:
118,287,109530,2,0,P|119:212|187:244,1,175.499991966248,0|0,1:0|0:0,0:0:0:0:
71,350,109830,22,0,L|-28:322,1,99.0000030212403,8|0,1:0|0:0,0:0:0:0:
36,108,109980,2,0,L|135:136,1,99.0000030212403,0|0,1:0|0:0,0:0:0:0:
0,304,110130,2,0,L|52:128,1,175.499991966248,0|0,1:0|0:0,0:0:0:0:
80,43,110430,21,2,1:2:0:0:
194,97,110580,1,0,0:0:0:0:
315,15,110730,22,0,P|298:88|365:163,1,175.499991966248,0|0,1:0|0:0,0:0:0:0:
303,3,111030,2,0,B|250:75|289:195|355:130|378:213|344:275,1,297.000009063721,8|0,1:0|0:0,0:0:0:0:
302,341,111330,1,0,1:0:0:0:
127,216,111480,22,0,P|201:186|288:236,1,175.499991966248,0|0,1:0|0:0,0:0:0:0:
199,285,111780,2,0,P|216:235|210:213,1,58.4999973220826,2|0,1:3|0:0,0:0:0:0:
170,111,111930,2,0,P|96:81|9:131,1,175.499991966248,0|0,1:0|0:0,0:0:0:0:
6,148,112230,22,0,B|171:111|171:111|290:180,1,297.000009063721,8|0,1:0|0:0,0:0:0:0:
367,182,112530,2,0,L|240:108,1,135,0|0,1:0|0:0,0:0:0:0:
215,42,112830,21,2,1:2:0:0:
156,190,112980,1,0,0:0:0:0:
43,56,113130,22,0,P|60:129|-7:204,1,175.499991966248,0|0,1:0|0:0,0:0:0:0:
55,44,113430,2,0,B|108:116|69:236|3:171|-20:254|14:316,1,297.000009063721,8|0,1:0|0:0,0:0:0:0:
56,382,113730,1,0,1:0:0:0:
153,278,113880,22,0,P|180:263|211:257,1,62.9999980773926,0|0,1:0|0:0,0:0:0:0:
318,316,114030,2,0,P|348:309|376:295,1,62.9999980773926,2|0,1:2|0:0,0:0:0:0:
460,200,114180,1,2,1:3:0:0:
343,114,114330,2,0,B|250:89|260:197|159:170,1,188.999994232178,0|0,1:0|0:0,0:0:0:0:
55,44,114630,22,0,L|73:141,1,99.0000030212403,8|0,1:0|0:0,0:0:0:0:
244,356,114780,2,0,L|225:258,1,99.0000030212403,0|0,1:0|0:0,0:0:0:0:
54,309,114930,2,0,B|180:320|103:176|217:158|272:198,1,270,0|0,1:0|0:0,0:0:0:0:
346,247,115230,38,0,L|438:229,1,67.5000025749208,0|2,1:0|0:0,0:0:0:0:
491,219,115530,1,8,0:0:0:0:
440,101,115680,2,0,L|307:75,2,135.000005149842,2|2|8,0:0|0:0|0:0,0:0:0:0:
346,247,116430,21,2,0:0:0:0:
359,167,116580,1,2,0:0:0:0:
409,302,116730,1,8,0:0:0:0:
422,222,116880,1,2,0:0:0:0:
332,328,117030,2,0,P|274:283|274:209,1,135.000005149842,8|8,0:0|0:0,0:0:0:0:
346,247,117480,1,8,0:0:0:0:
187,207,117630,22,0,L|101:223,1,67.5000025749208,0|2,1:0|0:0,0:0:0:0:
51,262,117930,1,8,0:0:0:0:
70,151,118080,2,0,L|216:123,1,135.000005149842,2|2,0:0|0:0,0:0:0:0:
427,89,118680,21,8,0:0:0:0:
330,191,118830,1,2,0:0:0:0:
347,112,118980,1,2,0:0:0:0:
472,220,119130,1,8,0:0:0:0:
410,169,119280,1,2,0:0:0:0:
304,269,119430,2,0,B|272:300|272:300|245:187,1,135.000005149842,8|8,0:0|0:0,0:0:0:0:
330,191,119880,1,8,0:0:0:0:
188,299,120030,22,0,L|172:233,1,67.5000025749208,0|2,1:0|0:0,0:0:0:0:
153,155,120330,1,8,0:0:0:0:
263,72,120480,2,0,P|328:98|406:64,2,135.000005149842,2|2|8,0:0|0:0|0:0,0:0:0:0:
127,77,121230,21,2,0:0:0:0:
192,29,121380,1,2,0:0:0:0:
242,153,121530,1,8,0:0:0:0:
263,72,121680,1,2,0:0:0:0:
153,155,121830,2,0,P|93:154|43:77,1,135.000005149842,8|8,0:0|0:0,0:0:0:0:
127,77,122280,1,8,0:0:0:0:
242,153,122430,22,0,L|222:224,1,67.5000025749208,0|2,1:0|0:0,0:0:0:0:
197,295,122730,1,8,0:0:0:0:
305,243,122880,2,0,P|370:246|412:297,1,135.000005149842,2|2,0:0|0:0,0:0:0:0:
242,153,123480,21,8,0:0:0:0:
391,147,123630,2,0,L|381:228,1,67.5000025749208,2|2,0:0|0:0,0:0:0:0:
305,243,123930,1,8,0:0:0:0:
228,270,124080,1,2,0:0:0:0:
153,301,124230,1,8,0:0:0:0:
173,135,124380,5,8,0:0:0:0:
305,243,124530,1,8,0:0:0:0:
249,111,124680,1,8,0:0:0:0:
162,217,124830,6,0,P|129:207|99:173,1,67.5000025749208,0|2,1:0|0:0,0:0:0:0:
173,135,125130,1,8,0:0:0:0:
305,243,125280,2,0,P|371:223|399:158,2,135.000005149842,2|2|8,0:0|0:0|0:0,0:0:0:0:
250,108,126030,21,2,0:0:0:0:
316,159,126180,1,2,0:0:0:0:
162,217,126330,1,8,0:0:0:0:
173,135,126480,1,2,0:0:0:0:
228,270,126630,2,0,P|177:302|99:273,1,135.000005149842,8|8,0:0|0:0,0:0:0:0:
162,217,127080,1,8,0:0:0:0:
41,176,127230,22,0,L|32:257,1,67.5000025749208,0|2,1:0|0:0,0:0:0:0:
108,283,127530,1,8,0:0:0:0:
113,119,127680,2,0,B|133:273,1,135.000005149842,2|2,0:0|0:0,0:0:0:0:
382,252,128280,21,8,0:0:0:0:
329,116,128430,1,2,0:0:0:0:
319,197,128580,1,2,0:0:0:0:
463,221,128730,1,8,0:0:0:0:
397,171,128880,1,2,0:0:0:0:
301,280,129030,2,0,L|151:256,1,135.000005149842,8|8,0:0|0:0,0:0:0:0:
87,243,129480,1,8,0:0:0:0:
149,119,129630,22,0,L|215:106,1,67.5000025749208,0|2,1:0|0:0,0:0:0:0:
295,123,129930,1,8,0:0:0:0:
301,280,130080,2,0,L|152:255,2,135.000005149842,2|2|8,0:0|0:0|0:0,0:0:0:0:
398,213,130830,21,2,0:0:0:0:
384,293,130980,1,2,0:0:0:0:
315,200,131130,1,8,0:0:0:0:
301,280,131280,1,2,0:0:0:0:
463,272,131430,2,0,P|412:240|384:293,1,135.000005149842,8|8,0:0|0:0,0:0:0:0:
443,347,131880,1,8,0:0:0:0:
487,181,132030,22,0,L|474:114,1,67.5000025749208,0|2,1:0|0:0,0:0:0:0:
457,35,132330,1,8,0:0:0:0:
358,91,132480,2,0,P|369:139|383:88,1,135.000005149842,2|2,0:0|0:0,0:0:0:0:
128,99,133080,21,8,0:0:0:0:
224,18,133230,2,0,L|208:83,1,67.5000025749208,2|2,0:0|0:0,0:0:0:0:
184,161,133530,1,8,0:0:0:0:
289,109,133680,1,2,0:0:0:0:
265,186,133830,1,8,0:0:0:0:
128,99,133980,5,8,0:0:0:0:
206,243,134130,1,8,0:0:0:0:
269,25,134280,1,8,0:0:0:0:
350,172,134430,6,0,B|329:119|336:72|375:25|375:25|433:54|471:107|470:198|419:256|419:256|410:201|375:166|301:160|268:162|239:195|214:264|174:306|84:293|30:247|30:247|77:186|146:197,1,1012.50003862381,2|0,0:0|0:0,0:0:0:0:
401,329,136830,2,0,B|377:322|352:310|342:262|342:262|301:227|243:332|243:332|294:197|251:172|245:68|292:3|292:3|222:17|194:155|194:155|172:69|82:57|82:57|141:57|171:6,1,1012.50003862381,2|0,0:0|0:0,0:0:0:0:
104,208,139230,2,0,B|139:161|116:111|45:91|-8:142|6:230|56:251|130:227|128:297|115:332|72:371|72:371|62:320|106:295|106:295|152:272|213:299|222:365|222:365|223:296|268:220|370:201|419:255|432:303|421:357|346:376|321:333,1,1012.50003862381,2|0,0:0|0:0,0:0:0:0:
476,22,141630,38,0,B|455:80|498:114|498:114|490:62|432:39|372:47|358:85|332:131|296:148|244:159|202:129|202:129|242:88|220:27|220:27|307:38|358:91|255:118|332:199|446:158,1,850.499974044801,8|0,0:3|0:0,0:0:0:0:
456,274,143280,2,0,B|486:287|486:287|486:286|432:301|432:301|432:300|363:249,1,161.999995056153,0|0,0:0|0:0,0:0:0:0:
347,290,143630,2,0,B|356:275|356:275|406:298|406:298|412:265,1,94.4999971160889
373,256,143880,2,0,B|338:256|338:256|338:242,1,40.4999987640381
219,297,144030,38,0,B|184:274|116:270|136:356|85:387|13:368|13:368|-22:331|17:264|78:263|78:263|38:218|38:150|105:94|172:148|179:192|230:209|282:204|317:172|335:107|327:48|254:15|173:23|150:87|161:190|128:213,1,1012.50003862381,2|0,0:0|0:0,0:0:0:0:
16,19,146430,2,0,B|79:30|104:83|104:83|128:23|185:-31|270:-35|340:-5|341:47|379:139|488:123|488:123|440:84|448:26|448:26|394:52|373:148|426:180|474:143|516:231|501:272|448:318,1,1012.50003862381,2|0,0:0|0:0,0:0:0:0:
147,201,148830,2,0,B|227:227|297:187|318:106|289:67|234:43|173:58|151:119|174:180|237:238|285:254|285:254|348:201|412:244|412:244|358:267|343:306|356:357|356:357|305:264|194:284|219:352|180:367|114:351,1,1012.50003862381,2|0,0:0|0:0,0:0:0:0:
89,49,151230,6,0,B|26:110|-28:97|-28:97|12:38|77:70|112:127|112:127|110:87|140:2|204:-15|261:-12|320:18|341:49|356:114|356:114|378:129|461:126|494:56|494:56|455:47|409:73|400:113|403:152|414:176|466:233|482:271|441:316|441:316|451:262|413:220,1,1255.49996168518,8|0,0:3|0:0,0:0:0:0:
350,293,153630,6,0,P|301:306|249:286,1,101.250003862381,8|0,1:3|0:0,0:0:0:0:
218,271,153930,2,0,P|231:310|221:363,1,67.5000025749208,2|0,0:0|0:0,0:0:0:0:
142,234,154230,2,0,P|169:203|220:185,1,67.5000025749208,2|0,0:0|0:0,0:0:0:0:
150,317,154530,1,10,0:0:0:0:
150,317,154680,1,8,0:0:0:0:
64,213,154830,22,0,L|68:280,1,67.5000025749208,10|0,0:0|0:0,0:0:0:0:
136,154,155130,1,10,0:0:0:0:
142,234,155280,1,8,0:0:0:0:
49,120,155430,2,0,L|55:203,1,67.5000025749208,10|0,0:0|0:0,0:0:0:0:
124,71,155730,1,2,0:0:0:0:
124,71,155880,1,8,0:0:0:0:
215,192,156030,22,0,L|293:185,1,67.5000025749208,10|0,0:0|0:0,0:0:0:0:
418,144,156330,2,0,L|340:137,1,67.5000025749208,2|0,0:0|0:0,0:0:0:0:
204,111,156630,2,0,L|287:104,1,67.5000025749208,2|0,0:0|0:0,0:0:0:0:
397,47,156930,1,10,0:0:0:0:
397,47,157080,1,8,0:0:0:0:
264,38,157230,22,0,L|270:105,1,67.5000025749208,10|0,0:0|0:0,0:0:0:0:
351,220,157530,1,10,0:0:0:0:
350,137,157680,1,8,0:0:0:0:
269,241,157830,2,0,L|261:320,1,67.5000025749208,10|0,0:0|0:0,0:0:0:0:
351,220,158130,1,10,0:0:0:0:
351,220,158280,1,8,0:0:0:0:
220,173,158430,22,0,B|192:193|192:193|126:176,1,101.250003862381,8|0,0:3|0:0,0:0:0:0:
113,137,158730,2,0,L|181:154,1,67.5000025749208,2|0,0:0|0:0,0:0:0:0:
95,249,159030,2,0,L|27:266,1,67.5000025749208,2|0,0:0|0:0,0:0:0:0:
0,142,159330,1,10,0:0:0:0:
0,142,159480,1,8,0:0:0:0:
136,55,159630,22,0,L|206:71,1,67.5000025749208,10|0,0:0|0:0,0:0:0:0:
357,110,159930,1,10,0:0:0:0:
278,91,160080,1,8,0:0:0:0:
438,126,160230,2,0,L|503:111,1,67.5000025749208,10|0,0:0|0:0,0:0:0:0:
373,31,160530,1,10,0:0:0:0:
373,31,160680,1,8,0:0:0:0:
298,172,160830,22,0,P|299:215|321:253,1,67.5000025749208,10|0,0:0|0:0,0:0:0:0:
437,215,161130,2,0,P|399:194|355:194,1,67.5000025749208,2|0,0:0|0:0,0:0:0:0:
330,314,161430,2,0,P|366:291|388:253,1,67.5000025749208,2|0,0:0|0:0,0:0:0:0:
298,172,161730,1,10,0:0:0:0:
298,172,161880,1,8,0:0:0:0:
251,291,162030,22,0,L|180:304,1,67.5000025749208,10|0,0:0|0:0,0:0:0:0:
106,206,162330,1,10,0:0:0:0:
191,215,162480,1,8,0:0:0:0:
99,294,162630,2,0,L|13:309,1,67.5000025749208,10|0,0:0|0:0,0:0:0:0:
40,150,162930,1,10,0:0:0:0:
40,150,163080,1,8,0:0:0:0:
191,215,163230,22,0,P|254:191|276:86,1,180,8|8,1:3|0:0,0:0:0:0:
147,18,163680,1,0,1:0:0:0:
114,160,163830,2,0,P|149:132|193:124,1,90,8|0,0:0|0:0,0:0:0:0:
331,215,164130,1,8,0:0:0:0:
331,215,164280,1,0,0:0:0:0:
191,215,164430,21,8,0:0:0:0:
277,89,164580,1,0,1:0:0:0:
114,160,164730,2,0,P|97:202|105:254,1,90,8|0,0:0|0:0,0:0:0:0:
270,357,165030,2,0,P|274:312|257:271,1,90,8|0,0:0|0:0,0:0:0:0:
158,321,165330,1,8,0:0:0:0:
172,324,165405,1,0,0:0:0:0:
186,326,165480,1,0,0:0:0:0:
363,352,165630,22,0,B|451:335,1,90,8|0,0:0|0:0,0:0:0:0:
297,205,165930,2,0,B|385:221,1,90,8|0,0:0|1:0,0:0:0:0:
186,326,166230,2,0,B|280:309,1,90,8|0,0:0|0:0,0:0:0:0:
168,181,166530,1,8,0:0:0:0:
168,181,166680,1,0,0:0:0:0:
62,328,166830,21,8,0:0:0:0:
86,191,166980,1,0,1:0:0:0:
186,326,167130,2,0,L|296:306,1,90,8|0,0:0|0:0,0:0:0:0:
359,201,167430,5,8,0:0:0:0:
235,241,167580,1,0,0:0:0:0:
222,244,167655,1,0,0:0:0:0:
208,247,167730,1,8,0:0:0:0:
362,285,167880,1,0,0:0:0:0:
279,172,168030,6,0,P|308:135|358:117,1,90,8|0,0:0|0:0,0:0:0:0:
210,130,168330,2,0,P|173:101|155:51,1,90,8|0,0:0|0:0,0:0:0:0:
166,199,168630,2,0,P|137:236|87:254,1,90,8|0,0:0|0:0,0:0:0:0:
235,241,168930,2,0,P|272:270|290:320,1,90,8|0,0:0|0:0,0:0:0:0:
166,199,169230,21,8,0:0:0:0:
210,130,169380,1,0,0:0:0:0:
235,241,169530,1,8,0:0:0:0:
279,172,169680,1,0,0:0:0:0:
158,279,169830,21,8,0:0:0:0:
125,123,169980,1,0,0:0:0:0:
319,243,170130,1,8,0:0:0:0:
285,88,170280,1,8,0:0:0:0:
166,199,170430,37,8,0:0:0:0:
133,215,170505,1,2,3:0:0:0:
99,206,170580,1,8,0:0:0:0:
82,173,170655,1,2,3:0:0:0:
92,139,170730,1,8,0:0:0:0:
125,123,170805,1,2,3:0:0:0:
158,132,170880,1,8,0:0:0:0:
175,163,170955,1,2,3:0:0:0:
166,199,171030,21,8,0:0:0:0:
178,251,171105,1,2,3:0:0:0:
219,285,171180,1,8,0:0:0:0:
272,292,171255,1,2,3:0:0:0:
322,273,171330,1,8,0:0:0:0:
354,230,171405,1,2,3:0:0:0:
404,212,171480,1,8,0:0:0:0:
455,227,171555,1,2,3:0:0:0:
492,266,171630,22,0,L|506:320,1,45,8|2,0:0|3:0,0:0:0:0:
396,341,171780,2,0,L|407:297,1,45,8|2,0:0|3:0,0:0:0:0:
500,137,171930,2,0,L|514:191,1,45,8|2,0:0|3:0,0:0:0:0:
404,212,172080,2,0,L|415:168,1,45,8|2,0:0|3:0,0:0:0:0:
503,42,172230,6,0,B|495:51|495:51|441:65,1,67.5000025749208,8|0,1:0|0:0,0:0:0:0:
340,95,172380,1,0,1:0:0:0:
238,122,172530,1,0,1:0:0:0:
137,152,172680,1,0,1:0:0:0:
186,354,173880,22,0,L|280:342,1,67.5000025749208
459,374,174030,2,0,B|374:375|323:313|302:223|346:120|436:62|536:105|570:161|568:229|512:300|446:308|398:279|344:235|310:195|310:195|272:149|226:51|259:-35|342:-60|412:-8|430:51|389:132|290:153|218:137|218:137|157:127|57:79|96:-13|178:-28|227:1|253:73|193:161|126:174|79:177,1,1631.25,8|0,1:0|0:0,0:0:0:0:
27,25,176355,1,0,1:0:0:0:
27,25,176430,6,0,B|51:303|51:303|56:367|144:360|139:296|139:296|119:73|119:73|113:1|200:-7|207:65|207:65|223:256|223:256|229:320|317:312|311:249|311:249|300:121,1,1214.99996292114,8|0,1:0|0:0,0:0:0:0:
304,177,177630,5,0,1:0:0:0:
357,122,177780,1,2,0:0:0:0:
430,118,177930,1,2,0:0:0:0:
489,166,178080,1,2,0:0:0:0:
471,236,178230,1,2,0:0:0:0:
410,271,178380,1,2,0:0:0:0:
342,251,178530,1,2,0:0:0:0:
237,94,178680,22,0,L|218:162,1,67.5000025749208,2|0,1:2|0:0,0:0:0:0:
61,182,178830,2,0,B|28:156|-21:170|-59:223|-11:316|81:314|97:223|159:224|201:279|231:342|198:405|146:441|76:401|55:376|39:284|72:249|164:211|164:211|248:284|290:180|345:173|397:203|434:265|410:325|354:360|290:346|258:301|245:246|259:199|286:167|343:118|343:118|389:44|453:62|502:101|470:193|399:248|290:106|299:63|332:19|332:19,1,1575,8|0,1:0|0:0,0:0:0:0:
459,222,181155,1,0,1:0:0:0:
459,222,181230,6,0,B|113:252|113:252|56:257|50:179|106:174|106:174|297:157|297:157|360:152|353:74|290:80|290:80|128:94|128:94|64:100|57:22|121:17|121:17|276:3,1,1214.99996292114,8|0,1:0|0:0,0:0:0:0:
246,13,182430,6,0,L|200:18,1,45,0|0,1:0|0:0,0:0:0:0:
422,148,183330,21,0,0:0:0:0:
422,148,183480,2,0,L|432:81,1,67.5000025749208,0|2,1:0|0:0,0:0:0:0:
417,342,183630,2,0,B|504:349|520:290|496:215|436:211|390:225|364:261|353:310|326:345|258:346|196:296,1,432,8|0,1:0|0:0,0:0:0:0:
0,0,184230,38,0,B|19:78|19:78|39:83|39:83|56:136|56:136|48:169|48:169|66:221|66:221|97:258|97:258|91:308|91:308|118:373|118:373|162:315|162:315|170:250|170:250|160:223|160:223|129:184|129:184|122:167|122:167|129:129|129:129|106:56|106:56|122:26|122:26|171:39|171:39|186:84|186:84|198:122|198:122|191:157|191:157|218:191|218:191|222:236|222:236|191:268|191:268|216:330|216:330|263:290|263:290|246:243|246:243|266:211|266:211|259:172|259:172|241:119|241:119|221:55|221:55|269:68|269:68|268:100|268:100|313:116|313:116|294:158|294:158|318:183|318:183|317:236|317:236|356:205|356:205|333:164|333:164|354:139|354:139|325:117|325:117|345:102|345:102|322:79|322:79|362:91|362:91|359:116|359:116|380:127|380:127|393:178|393:178|388:118|388:118|400:96|400:96|402:127|402:127|422:158|422:158|412:121|412:121|431:102|431:102|428:126|428:126|443:143|443:143|443:116|443:116|455:104|455:104|456:121|456:121|466:133|466:133|465:120|465:120|474:108|474:108|475:121|475:121|480:128|480:128|484:111|484:111|493:122|493:122|501:113|501:113|512:120|512:120|519:114|519:114|531:114,1,2587.5
512,117,186030,22,0,B|161:147|161:147|89:153|80:50|152:44|152:44|224:37|233:141|161:147|161:147|89:153|97:249|169:243|169:243|424:221|424:221|496:214|502:286,1,1214.99996292114,8|0,1:0|0:0,0:0:0:0:
482,294,187230,6,0,L|434:298,1,45,0|0,1:0|0:0,0:0:0:0:
478,222,188130,21,0,0:0:0:0:
478,222,188280,2,0,L|491:144,1,67.5000025749208,0|0,1:0|0:0,0:0:0:0:
417,0,188430,2,0,B|485:17|542:119|505:179|457:241|360:252|273:230|244:177|165:96|264:15|342:-11|382:2|468:31|454:119|459:198|439:254|396:301|355:295|344:340|261:359|183:344|41:336|12:247|124:68|191:43|285:116|326:210|325:287|207:321|110:325|64:258|64:258|45:218|17:156|104:88|133:198|102:248|-12:234,1,1575,8|0,1:0|0:0,0:0:0:0:
367,132,190755,1,0,1:0:0:0:
367,132,190830,38,0,P|378:232|309:78,1,720,8|0,1:0|0:0,0:0:0:0:
128,40,193080,38,0,L|206:46,1,67.5000025749208,0|0,1:0|0:0,0:0:0:0:
450,91,193230,2,0,B|335:40|255:83|221:158|211:205|248:262|313:321|345:320|397:302|437:240|428:190|389:149|318:130|269:145|222:155|163:211|163:211|164:211|124:227|89:263|86:318|98:366|138:408|222:395|249:334|244:280|219:211|130:208|74:169|76:169|76:169|19:153|-44:240|-25:282|46:287|88:264|79:191|68:153|65:99|-12:67,1,1575,8|0,1:0|0:0,0:0:0:0:
3,74,195555,1,0,1:0:0:0:
3,74,195630,38,0,B|414:109|414:109|488:116|480:206|406:200|406:200|176:180|176:180|110:174|102:265|168:270|168:270|455:295,1,1214.99996292114,8|0,1:0|0:0,0:0:0:0:
503,301,196830,5,0,1:0:0:0:
426,293,196980,1,2,0:0:0:0:
365,334,197130,1,2,0:0:0:0:
288,326,197280,1,2,0:0:0:0:
228,284,197430,1,2,0:0:0:0:
151,276,197580,1,2,0:0:0:0:
90,317,197730,1,2,0:0:0:0:
44,90,197880,22,0,L|27:161,1,67.5000025749208,2|0,1:2|0:0,0:0:0:0:
23,381,198030,2,0,B|150:400|212:315|244:241|211:155|138:100|56:79|21:110|-7:160|-17:208|7:270|15:331|89:358|223:342|274:328|303:302|342:261|368:208|415:98|375:53|314:38|218:45|182:65|174:117|201:196|224:222|275:262|355:254|387:214|412:165|412:165|453:94|432:43|396:31|348:57|358:119|402:165|465:182|509:153,1,1575,8|0,1:0|0:0,0:0:0:0:
473,351,200355,1,0,1:0:0:0:
473,351,200430,6,0,B|449:73|449:73|444:9|356:16|361:80|361:80|381:303|381:303|387:375|300:383|293:311|293:311|277:120|277:120|271:56|183:64|189:127|189:127|200:255,1,1214.99996292114,8|0,1:0|0:0,0:0:0:0:
185,218,201630,6,0,L|181:171,1,45,0|0,1:0|0:0,0:0:0:0:
74,341,202530,21,0,0:0:0:0:
74,341,202680,2,0,L|80:261,1,67.5000025749208,0|2,1:0|0:0,0:0:0:0:
101,34,202830,2,0,B|4:1|-19:147|76:185|152:139|188:62|237:45|298:54|333:119,1,432,8|0,1:0|0:0,0:0:0:0:
507,374,203430,38,0,B|498:291|498:291|479:282|479:282|471:227|471:227|485:196|485:196|476:142|476:142|452:100|452:100|467:52|467:52|451:-16|451:-16|398:32|398:32|379:95|379:95|384:123|384:123|408:167|408:167|412:185|412:185|398:221|398:221|408:297|408:297|387:324|387:324|341:303|341:303|334:256|334:256|329:216|329:216|342:183|342:183|321:145|321:145|325:100|325:100|361:74|361:74|347:8|347:8|294:40|294:40|303:89|303:89|278:117|278:117|278:156|278:156|286:212|286:212|295:278|295:278|250:257|250:257|256:226|256:226|215:202|215:202|241:164|241:164|222:135|222:135|232:83|232:83|188:107|188:107|203:152|203:152|178:172|178:172|203:199|203:199|181:210|181:210|200:237|200:237|162:218|162:218|170:194|170:194|151:180|151:180|147:127|147:127|141:187|141:187|126:207|126:207|129:176|129:176|115:142|115:142|118:180|118:180|96:196|96:196|103:172|103:172|91:153|91:153|87:180|87:180|73:189|73:189|75:172|75:172|67:159|67:159|66:172|66:172|55:182|55:182|56:169|56:169|52:161|52:161|46:177|46:177|39:165|39:165|29:173|29:173|20:164|20:164|12:168|12:168|0:166,1,2587.5
1,167,205230,22,0,B|347:197|347:197|404:201|410:123|354:119|354:119|163:102|163:102|100:97|107:19|170:25|170:25|361:41|361:41|464:50|496:150|474:220|430:256,1,1214.99996292114,8|0,1:0|0:0,0:0:0:0:
421,261,206430,5,0,1:0:0:0:
345,293,206580,1,2,0:0:0:0:
347,169,206730,1,2,0:0:0:0:
297,234,206880,1,2,0:0:0:0:
236,126,207030,1,2,0:0:0:0:
226,206,207180,1,2,0:0:0:0:
119,144,207330,1,2,0:0:0:0:
59,360,207480,22,0,L|68:272,1,67.5000025749208,2|0,1:2|0:0,0:0:0:0:
41,103,207630,2,0,B|103:191|173:183|216:171|301:143|290:8|280:-18|199:-80|115:-36|92:22|90:71|102:101|128:136|166:164|212:188|255:209|300:205|347:190|377:164|377:164|407:137|438:85|450:40|389:-3|318:-8|252:34|264:129|308:175|341:236|390:235|430:246|452:262|441:268|471:327|436:395|402:411|319:373|274:320|312:265|329:238|433:259|450:204|480:137,1,1575,8|0,1:0|0:0,0:0:0:0:
276,269,209955,1,0,1:0:0:0:
276,269,210030,38,0,P|185:265|346:208,1,675,8|0,1:0|0:0,0:0:0:0:
235,153,211230,37,12,1:0:0:0:
