osu file format v14

[General]
AudioFilename: audio.mp3
AudioLeadIn: 0
PreviewTime: 37680
Countdown: 0
SampleSet: Soft
StackLeniency: 0.4
Mode: 0
LetterboxInBreaks: 0
WidescreenStoryboard: 0

[Editor]
Bookmarks: 30,19230,38430,76830,115230,134430,153630,172680,174030
DistanceSpacing: 1.2
BeatDivisor: 4
GridSize: 32
TimelineZoom: 1.7

[Metadata]
Title:dragonlands
TitleUnicode:dragonlands
Artist:sakuraburst
ArtistUnicode:sakuraburst
Creator:Minorsonek
Version:Hazu's Hard
Source:osu!
Tags:walaowey hazu- m2usonek High Tempo Beatmap Pack FA Featured Artist Gremio Mappers' Guild MG Electronic Instrumental
BeatmapID:2113586
BeatmapSetID:1009637

[Difficulty]
HPDrainRate:4.3
CircleSize:3.5
OverallDifficulty:6
ApproachRate:8
SliderMultiplier:1.4
SliderTickRate:1

[Events]
//Background and Video events
0,0,"fantasy-3756975_1920.jpg",0,0
//Break Periods
2,134630,152880
//Storyboard Layer 0 (Background)
//Storyboard Layer 1 (Fail)
//Storyboard Layer 2 (Pass)
//Storyboard Layer 3 (Foreground)
//Storyboard Layer 4 (Overlay)
//Storyboard Sound Samples

[TimingPoints]
30,300,4,2,2,40,1,0
30,-100,4,2,2,40,0,0
19230,-100,4,2,2,50,0,0
28830,-100,4,2,2,40,0,0
36030,-100,4,2,2,50,0,0
37230,-100,4,2,2,60,0,0
38430,-90.9090909090909,4,2,1,80,0,1
76830,-100,4,2,3,60,0,0
96330,-100,4,2,3,70,0,0
115230,-111.111111111111,4,2,2,40,0,0
134430,-111.111111111111,4,2,4,40,0,0
153630,-111.111111111111,4,2,1,50,0,0
163230,-111.111111111111,4,2,2,60,0,0
168030,-111.111111111111,4,2,2,65,0,0
170430,-111.111111111111,4,2,2,70,0,0
174030,-333.333333333333,4,2,1,70,0,1
176430,-100,4,2,1,70,0,1
177555,-100,4,2,1,70,0,1
177630,-100,4,2,1,70,0,1
178830,-333.333333333333,4,2,1,70,0,1
181230,-100,4,2,1,70,0,1
182355,-100,4,2,1,70,0,1
182430,-100,4,2,1,70,0,1
183630,-333.333333333333,4,2,1,70,0,1
186030,-100,4,2,1,70,0,1
187155,-100,4,2,1,70,0,1
187230,-100,4,2,1,70,0,1
188430,-333.333333333333,4,2,1,70,0,1
190830,-100,4,2,1,70,0,1
192030,-100,4,2,1,5,0,1
193080,-100,4,2,1,70,0,1
193230,-333.333333333333,4,2,1,70,0,1
195630,-100,4,2,1,70,0,1
196755,-100,4,2,1,70,0,1
196830,-100,4,2,1,70,0,1
198030,-333.333333333333,4,2,1,70,0,1
200430,-100,4,2,1,70,0,1
201555,-100,4,2,1,70,0,1
201630,-100,4,2,1,70,0,1
202830,-333.333333333333,4,2,1,70,0,1
205230,-100,4,2,1,70,0,1
206355,-100,4,2,1,70,0,1
206430,-100,4,2,1,70,0,1
207630,-333.333333333333,4,2,1,70,0,1
210030,-100,4,2,1,70,0,1
211230,-100,4,2,3,80,0,0

[Colours]
Combo1 : 0,0,160
Combo2 : 192,192,192
Combo3 : 0,128,255
Combo4 : 116,116,116

[HitObjects]
116,193,30,6,0,P|84:204|35:191,2,70,0|2|8,1:0|0:0|0:0,0:0:0:0:
177,135,480,2,0,B|247:121|240:181|316:159,1,140,2|2,0:0|0:0,0:0:0:0:
462,90,1080,1,2,0:0:0:0:
510,158,1230,2,0,P|495:213|488:245,1,70,8|2,0:0|0:0,0:0:0:0:
408,232,1530,2,0,P|423:177|430:145,1,70,8|2,0:0|0:0,0:0:0:0:
377,95,1830,2,0,P|321:73|238:111,1,140,8|8,0:0|0:0,0:0:0:0:
181,253,2430,22,0,P|196:198|203:166,2,70,8|2|8,0:0|0:0|0:0,0:0:0:0:
215,329,2880,1,2,0:0:0:0:
58,268,3180,2,0,B|37:232|37:232|69:113,1,140,2|2,0:0|0:0,0:0:0:0:
130,87,3630,1,8,0:0:0:0:
130,87,3780,1,2,0:0:0:0:
187,147,3930,2,0,P|228:158|273:168,1,70,8|2,0:0|0:0,0:0:0:0:
327,122,4230,2,0,B|442:102|442:102|426:127,1,140,8|8,0:0|0:0,0:0:0:0:
378,189,4680,1,2,0:0:0:0:
469,224,4830,22,0,P|486:269|472:313,1,70,8|2,0:0|0:0,0:0:0:0:
422,347,5130,1,8,0:0:0:0:
348,306,5280,2,0,B|305:302|305:302|255:318|255:318|201:313,1,140,2|2,0:0|0:0,0:0:0:0:
43,304,5880,1,2,0:0:0:0:
106,249,6030,2,0,P|114:210|101:173,1,70,8|2,0:0|0:0,0:0:0:0:
31,143,6330,2,0,P|23:104|36:67,1,70,8|2,0:0|0:0,0:0:0:0:
108,42,6630,2,0,B|206:25|206:25|267:43,1,140,8|8,0:0|0:0,0:0:0:0:
366,153,7230,22,0,P|356:200|347:248,1,70,8|2,0:0|0:0,0:0:0:0:
430,251,7530,1,8,0:0:0:0:
430,251,7680,2,0,P|445:165|458:101,2,140,2|2|2,0:0|0:0|0:0,0:0:0:0:
371,310,8430,2,0,P|330:314|292:296,1,70,8|2,0:0|0:0,0:0:0:0:
238,249,8730,2,0,P|197:245|159:263,1,70,8|2,0:0|0:0,0:0:0:0:
112,315,9030,1,8,0:0:0:0:
112,315,9180,38,0,P|123:352|133:391,2,70,2|8|2,0:0|0:0|0:0,0:0:0:0:
31,258,9630,38,0,P|22:224|12:190,1,70,8|2,0:0|0:0,0:0:0:0:
56,119,9930,1,8,0:0:0:0:
129,158,10080,2,0,B|172:162|172:162|222:146|222:146|276:151,1,140,2|2,0:0|0:0,0:0:0:0:
433,160,10680,1,2,0:0:0:0:
388,88,10830,2,0,P|400:53|418:8,1,70,8|2,0:0|0:0,0:0:0:0:
328,7,11130,2,0,P|316:42|298:87,1,70,8|2,0:0|0:0,0:0:0:0:
225,103,11430,2,0,P|168:89|73:62,1,140,8|8,0:0|0:0,0:0:0:0:
12,216,12030,22,0,P|69:230|106:241,1,70,8|2,0:0|0:0,0:0:0:0:
128,306,12330,1,8,0:0:0:0:
128,306,12480,2,0,P|185:320|280:347,1,140,2|2,0:0|0:0,0:0:0:0:
419,277,13080,1,2,0:0:0:0:
341,244,13230,2,0,P|334:194|350:156,1,70,8|2,0:0|0:0,0:0:0:0:
410,131,13530,2,0,P|415:96|407:62,1,70,8|2,0:0|0:0,0:0:0:0:
330,30,13830,2,0,P|273:44|178:71,1,140,8|8,0:0|0:0,0:0:0:0:
115,39,14280,1,2,0:0:0:0:
67,124,14430,22,0,P|64:166|90:210,1,70,8|2,0:0|0:0,0:0:0:0:
148,235,14730,1,8,0:0:0:0:
148,235,14880,2,0,P|215:215|283:199,2,140,2|2|2,0:0|0:0|0:0,0:0:0:0:
74,275,15630,2,0,P|66:321|82:359,1,70,8|2,0:0|0:0,0:0:0:0:
149,375,15930,1,8,0:0:0:0:
220,331,16080,1,2,0:0:0:0:
297,363,16230,2,0,P|364:343|432:327,1,140,8|8,0:0|0:0,0:0:0:0:
475,164,16830,21,8,0:0:0:0:
475,164,16980,2,0,P|433:174|388:186,1,70,2|8,0:0|0:0,0:0:0:0:
327,152,17280,1,2,0:0:0:0:
162,183,17580,2,0,B|47:203|47:203|63:178,1,140,2|2,0:0|0:0,0:0:0:0:
107,113,18030,1,8,0:0:0:0:
107,113,18180,1,2,0:0:0:0:
159,47,18330,2,0,P|201:37|246:25,1,70,8|2,0:0|0:0,0:0:0:0:
306,57,18630,1,8,0:0:0:0:
306,57,18780,38,0,P|339:48|373:40,2,70,2|8|2,0:0|0:0|0:0,0:0:0:0:
234,124,19230,37,8,1:2:0:0:
234,124,19380,2,0,P|178:178|304:136,1,420,2|2,0:0|0:0,0:0:0:0:
304,69,20430,2,0,B|379:54|369:118|443:102,2,140,8|8|8,0:0|0:0|0:0,0:0:0:0:
173,175,21330,2,0,P|128:169|99:162,1,70,8|2,0:0|0:0,0:0:0:0:
53,95,21630,21,8,0:0:0:0:
0,162,21780,2,0,P|18:221|40:312,1,140,2|2,0:0|0:0,0:0:0:0:
105,346,22230,2,0,P|170:364|226:325,1,140,8|8,0:0|0:0,0:0:0:0:
273,255,22680,2,0,B|381:234|381:234|352:286,1,140,2|2,0:0|0:0,0:0:0:0:
324,333,23130,1,8,0:0:0:0:
489,304,23430,2,0,P|477:249|470:218,1,70,8|2,0:0|0:0,0:0:0:0:
507,158,23730,2,0,P|499:123|492:89,1,70,8|2,0:0|0:0,0:0:0:0:
405,42,24030,21,8,0:0:0:0:
405,42,24180,2,0,B|336:1|226:55|333:119|185:177|122:108|122:108|87:164|38:155,1,420,2|2,0:0|0:0,0:0:0:0:
11,229,25230,2,0,P|-1:297|49:363,2,140,8|8|8,0:0|0:0|0:0,0:0:0:0:
164,161,26130,2,0,P|209:168|246:176,1,70,8|2,0:0|0:0,0:0:0:0:
287,237,26430,21,8,0:0:0:0:
357,191,26580,2,0,P|371:143|327:70,1,140,2|2,0:0|0:0,0:0:0:0:
246,46,27030,2,0,B|155:27|155:27|103:51,1,140,8|8,0:0|0:0,0:0:0:0:
71,120,27480,2,0,B|162:139|162:139|204:119,1,140,2|2,0:0|0:0,0:0:0:0:
280,154,27930,1,8,0:0:0:0:
207,305,28230,2,0,P|198:270|191:236,1,70,8|2,0:0|0:0,0:0:0:0:
107,231,28530,2,0,P|115:265|122:299,1,70,8|2,0:0|0:0,0:0:0:0:
43,356,28830,21,0,1:0:0:0:
42,355,28980,2,0,B|-2:142|-2:142|94:64|94:64|115:147,1,420,2|2,0:0|0:0,0:0:0:0:
142,219,30030,2,0,P|197:237|270:197,1,140,10|2,0:0|0:0,0:0:0:0:
355,58,30630,2,0,P|289:40|231:75,2,140,2|2|0,0:0|0:0|0:0,0:0:0:0:
421,110,31380,22,0,B|408:183|408:183|429:246|429:246|417:319,1,210,2|2,0:0|0:0,0:0:0:0:
170,363,32280,2,0,B|183:290|183:290|162:227|162:227|174:154,1,210,2|2,0:0|0:0,0:0:0:0:
330,100,33030,1,2,0:0:0:0:
330,100,33180,2,0,P|323:129|311:188,2,70,10|2|2,0:0|0:0|0:0,0:0:0:0:
247,47,33630,21,0,0:0:0:0:
247,47,33780,2,0,B|43:21|43:21|93:173|93:173|135:105,1,420,2|2,0:0|0:0,0:0:0:0:
206,130,34830,1,10,0:0:0:0:
349,217,35130,2,0,P|285:202|212:246,2,140,2|2|2,0:0|0:0|0:0,0:0:0:0:
393,288,35880,1,2,0:3:0:0:
459,236,36030,22,0,P|453:200|443:158,1,70,8|8,0:0|0:0,0:0:0:0:
365,19,36480,1,8,0:0:0:0:
365,19,36630,2,0,P|359:55|340:167,1,140,8|8,0:0|0:0,0:0:0:0:
275,208,37080,1,8,0:0:0:0:
116,152,37380,1,8,0:0:0:0:
116,152,37530,2,0,P|122:116|132:57,1,70,8|0,0:0|1:0,0:0:0:0:
211,73,37830,6,0,P|205:107|199:142,3,70,8|0|0|0,1:0|1:0|1:0|1:0,0:0:0:0:
237,234,38430,21,0,1:0:0:0:
309,190,38580,2,0,B|387:179|374:259|462:237,1,154.000004699707,0|0,0:0|0:0,0:0:0:0:
505,177,39030,1,8,1:0:0:0:
388,54,39330,1,0,1:0:0:0:
313,94,39480,2,0,P|281:88|224:76,1,77.0000023498536,2|0,1:3|0:0,0:0:0:0:
166,125,39780,2,0,P|134:119|77:107,1,77.0000023498536,2|0,1:3|0:0,0:0:0:0:
47,36,40080,1,0,1:0:0:0:
4,109,40230,1,8,1:0:0:0:
106,244,40530,22,0,P|162:230|219:220,1,115.50000352478,0|0,0:0|0:0,0:0:0:0:
247,188,40830,1,0,1:0:0:0:
324,222,40980,2,0,P|289:163|335:73,1,154.000004699707,0|0,0:0|0:0,0:0:0:0:
388,43,41430,1,8,1:0:0:0:
469,191,41730,1,0,1:0:0:0:
417,258,41880,2,0,P|427:304|438:347,1,77.0000023498536,2|0,1:3|0:0,0:0:0:0:
356,366,42180,1,2,1:3:0:0:
356,366,42330,2,0,P|346:320|335:277,1,77.0000023498536,0|0,1:0|1:0,0:0:0:0:
267,243,42630,2,0,B|95:204|95:204|148:267,1,231.000007049561,8|0,1:0|0:0,0:0:0:0:
202,315,43230,21,0,1:0:0:0:
263,373,43380,2,0,B|366:355|366:355|423:375,1,154.000004699707,0|0,0:0|0:0,0:0:0:0:
493,345,43830,1,8,1:0:0:0:
337,277,44130,1,0,1:0:0:0:
412,239,44280,2,0,P|421:195|402:153,1,77.0000023498536,2|0,1:3|0:0,0:0:0:0:
329,141,44580,2,0,P|320:97|339:55,1,77.0000023498536,2|0,1:3|0:0,0:0:0:0:
394,12,44880,1,0,1:0:0:0:
466,55,45030,1,8,1:0:0:0:
474,224,45330,22,0,B|435:231|435:231|393:219|393:219|338:228,1,115.50000352478,0|0,0:0|0:0,0:0:0:0:
329,252,45630,1,0,1:0:0:0:
262,199,45780,2,0,B|216:203|216:203|166:234|166:234|106:240,1,154.000004699707,0|0,0:0|0:0,0:0:0:0:
54,296,46230,1,8,1:0:0:0:
24,129,46530,1,0,1:0:0:0:
90,76,46680,2,0,P|137:68|180:61,1,77.0000023498536,2|0,1:3|0:0,0:0:0:0:
238,107,46980,1,2,1:3:0:0:
238,107,47130,2,0,P|285:99|328:92,1,77.0000023498536,0|0,1:0|1:0,0:0:0:0:
372,156,47430,38,0,P|341:112|454:145,1,308.000009399414,8|0,1:0|0:0,0:0:0:0:
435,224,48180,38,0,P|352:203|265:186,1,154.000004699707,0|0,0:0|0:0,0:0:0:0:
235,120,48630,1,8,1:0:0:0:
68,88,48930,1,0,1:0:0:0:
4,143,49080,2,0,P|18:195|27:237,1,77.0000023498536,2|0,1:3|0:0,0:0:0:0:
101,250,49380,2,0,P|115:302|124:344,1,77.0000023498536,2|0,1:3|0:0,0:0:0:0:
193,367,49680,1,0,1:0:0:0:
255,310,49830,1,8,1:0:0:0:
416,361,50130,22,0,P|428:307|401:234,1,115.50000352478,0|0,0:0|0:0,0:0:0:0:
376,226,50430,1,0,1:0:0:0:
301,186,50580,2,0,B|187:166|187:166|126:204,1,154.000004699707,0|0,0:0|0:0,0:0:0:0:
88,240,51030,1,8,1:0:0:0:
88,70,51330,1,0,1:0:0:0:
163,31,51480,2,0,P|204:22|244:34,1,77.0000023498536,2|0,1:3|0:0,0:0:0:0:
293,94,51780,1,2,1:3:0:0:
293,94,51930,2,0,P|330:102|367:93,1,77.0000023498536,0|0,1:0|1:0,0:0:0:0:
423,29,52230,2,0,B|404:100|404:100|425:178|425:178|402:259,1,231.000007049561,8|0,1:0|0:0,0:0:0:0:
323,310,52830,21,0,1:0:0:0:
278,238,52980,2,0,B|231:221|231:221|128:239,1,154.000004699707,0|0,0:0|0:0,0:0:0:0:
45,259,53430,1,8,1:0:0:0:
15,92,53730,1,0,1:0:0:0:
95,119,53880,2,0,P|137:112|199:103,1,77.0000023498536,2|0,1:3|0:0,0:0:0:0:
229,45,54180,2,0,P|271:38|333:29,1,77.0000023498536,2|0,1:3|0:0,0:0:0:0:
385,59,54480,1,0,1:0:0:0:
320,114,54630,1,8,1:0:0:0:
478,174,54930,22,0,P|458:240|444:302,1,115.50000352478,0|0,0:0|0:0,0:0:0:0:
459,326,55230,1,0,1:0:0:0:
380,357,55380,2,0,B|297:368|325:289|216:317,1,154.000004699707,0|0,0:0|0:0,0:0:0:0:
171,363,55830,1,8,1:0:0:0:
221,201,56130,1,0,1:0:0:0:
141,172,56280,2,0,P|131:134|113:87,1,77.0000023498536,2|0,1:3|0:0,0:0:0:0:
173,34,56580,1,2,1:3:0:0:
173,34,56730,2,0,P|210:44|260:52,1,77.0000023498536,0|0,1:0|1:0,0:0:0:0:
278,130,57030,38,0,P|250:157|218:196,3,77.0000023498536,8|0|0|0,1:0|0:0|0:0|0:0,0:0:0:0:
155,258,57630,37,0,0:0:0:0:
224,307,57780,2,0,B|328:288|328:288|374:321,1,154.000004699707,0|0,0:0|0:0,0:0:0:0:
432,370,58230,1,8,1:0:0:0:
397,204,58530,1,0,1:0:0:0:
470,162,58680,2,0,P|478:122|457:70,1,77.0000023498536,2|0,1:3|0:0,0:0:0:0:
393,47,58980,2,0,P|385:87|406:139,1,77.0000023498536,2|0,1:3|0:0,0:0:0:0:
324,170,59280,1,0,1:0:0:0:
261,112,59430,1,8,1:0:0:0:
148,238,59730,22,0,P|92:224|35:214,1,115.50000352478,0|0,0:0|0:0,0:0:0:0:
13,176,60030,1,0,1:0:0:0:
54,102,60180,2,0,P|120:62|209:92,1,154.000004699707,0|0,0:0|0:0,0:0:0:0:
243,144,60630,1,8,1:0:0:0:
374,36,60930,1,0,1:0:0:0:
427,101,61080,2,0,P|417:147|406:190,1,77.0000023498536,2|0,1:3|0:0,0:0:0:0:
450,250,61380,1,2,1:3:0:0:
450,250,61530,2,0,P|440:287|432:325,1,77.0000023498536,0|0,1:0|1:0,0:0:0:0:
352,354,61830,2,0,P|314:271|169:275,1,231.000007049561,8|0,1:0|0:0,0:0:0:0:
133,346,62430,21,0,1:0:0:0:
57,307,62580,2,0,P|78:226|104:137,1,154.000004699707,0|0,0:0|0:0,0:0:0:0:
124,77,63030,1,8,1:0:0:0:
288,37,63330,1,0,1:0:0:0:
260,117,63480,2,0,P|250:157|236:213,1,77.0000023498536,2|0,1:3|0:0,0:0:0:0:
313,236,63780,2,0,P|323:196|337:140,1,77.0000023498536,2|0,1:3|0:0,0:0:0:0:
403,115,64080,1,0,1:0:0:0:
471,164,64230,1,8,1:0:0:0:
465,333,64530,22,0,B|390:354|390:354|329:337,1,115.50000352478,0|0,0:0|0:0,0:0:0:0:
316,322,64830,1,0,1:0:0:0:
240,284,64980,2,0,B|203:273|203:273|79:308,1,154.000004699707,0|0,0:0|0:0,0:0:0:0:
11,334,65430,1,8,1:0:0:0:
69,174,65730,1,0,1:0:0:0:
33,97,65880,2,0,P|80:89|117:105,1,77.0000023498536,2|0,1:3|0:0,0:0:0:0:
157,165,66180,1,2,1:3:0:0:
157,165,66330,2,0,P|204:173|241:157,1,77.0000023498536,0|0,1:0|1:0,0:0:0:0:
281,96,66630,38,0,P|250:184|383:130,1,308.000009399414,8|0,1:0|0:0,0:0:0:0:
358,55,67380,38,0,B|285:76|285:76|201:44,1,154.000004699707,0|0,1:0|0:0,0:0:0:0:
128,65,67830,1,8,1:0:0:0:
67,223,68130,1,0,1:0:0:0:
151,214,68280,2,0,P|163:172|179:129,1,77.0000023498536,2|0,1:3|0:0,0:0:0:0:
255,165,68580,2,0,P|243:207|227:250,1,77.0000023498536,2|0,1:3|0:0,0:0:0:0:
287,302,68880,1,0,1:0:0:0:
212,341,69030,1,8,1:0:0:0:
378,370,69330,22,0,P|397:302|420:236,1,115.50000352478,0|0,0:0|0:0,0:0:0:0:
440,228,69630,1,0,1:0:0:0:
363,191,69780,2,0,P|328:132|374:42,1,154.000004699707,0|0,0:0|0:0,0:0:0:0:
437,40,70230,1,8,1:0:0:0:
270,11,70530,1,0,1:0:0:0:
203,63,70680,2,0,P|204:109|224:152,1,77.0000023498536,2|0,1:3|0:0,0:0:0:0:
275,197,70980,1,2,1:3:0:0:
275,197,71130,2,0,P|236:188|195:202,1,77.0000023498536,0|0,1:0|1:0,0:0:0:0:
130,245,71430,2,0,B|81:295|81:295|135:125,1,231.000007049561,8|0,1:0|0:0,0:0:0:0:
212,83,72030,21,0,1:0:0:0:
283,128,72180,2,0,B|329:144|329:144|432:126,1,154.000004699707,0|0,0:0|0:0,0:0:0:0:
494,67,72630,1,8,1:0:0:0:
496,236,72930,1,0,1:0:0:0:
432,292,73080,2,0,P|402:285|352:277,1,77.0000023498536,2|0,1:3|0:0,0:0:0:0:
290,331,73380,2,0,P|260:338|210:346,1,77.0000023498536,2|0,1:3|0:0,0:0:0:0:
147,292,73680,1,0,1:0:0:0:
94,358,73830,1,8,1:0:0:0:
27,202,74130,22,0,B|66:195|66:195|108:207|108:207|163:198,1,115.50000352478,0|0,0:0|0:0,0:0:0:0:
168,170,74430,1,0,1:0:0:0:
238,216,74580,2,0,B|346:195|346:195|400:224,1,154.000004699707,0|0,0:0|0:0,0:0:0:0:
415,294,75030,1,8,1:0:0:0:
493,143,75330,1,0,1:0:0:0:
435,81,75480,2,0,P|388:73|346:91,1,77.0000023498536,2|0,1:3|0:0,0:0:0:0:
299,141,75780,1,2,1:3:0:0:
299,141,75930,2,0,P|261:150|224:141,1,77.0000023498536,0|0,1:0|1:0,0:0:0:0:
188,64,76230,38,0,P|150:55|113:64,3,77.0000023498536,8|0|0|0,1:0|0:0|1:0|1:0,0:0:0:0:
58,127,76830,21,0,1:0:0:0:
120,282,77130,2,0,P|192:268|239:259,1,105,0|0,1:0|0:0,0:0:0:0:
259,283,77430,2,0,P|331:269|418:253,1,140,8|0,1:0|1:0,0:0:0:0:
469,190,77880,22,0,P|481:140|413:63,1,140,0|2,1:0|1:3,0:0:0:0:
354,44,78330,1,0,1:0:0:0:
354,44,78480,1,0,1:0:0:0:
284,91,78630,2,0,B|209:104|226:49|135:66,2,140,8|0|0,1:0|1:0|0:0,0:0:0:0:
416,194,79530,2,0,P|363:174|307:191,1,105,0|0,1:0|0:0,0:0:0:0:
298,222,79830,1,8,1:0:0:0:
222,184,79980,2,0,P|186:181|139:201,1,70,2|0,1:3|1:0,0:0:0:0:
84,261,80280,22,0,P|108:185|56:120,1,140,0|2,1:0|1:3,0:0:0:0:
130,67,80730,2,0,B|164:58|164:58|213:69,1,70,0|0,1:0|1:0,0:0:0:0:
256,126,81030,1,8,1:0:0:0:
318,70,81180,1,0,1:0:0:0:
393,106,81330,2,0,P|407:155|434:250,1,140,0|0,1:0|0:0,0:0:0:0:
319,366,81930,2,0,P|305:317|289:257,1,105,0|0,1:0|0:0,0:0:0:0:
255,242,82230,2,0,B|213:238|213:238|160:255|160:255|110:251,1,140,8|0,1:0|1:0,0:0:0:0:
50,323,82680,22,0,P|38:270|13:167,1,140,0|2,1:0|1:3,0:0:0:0:
71,121,83130,1,0,1:0:0:0:
71,121,83280,1,0,1:0:0:0:
132,177,83430,2,0,B|214:200|214:200|275:170,1,140,8|0,1:0|1:0,0:0:0:0:
404,85,84030,1,2,1:3:0:0:
404,85,84180,1,2,1:3:0:0:
462,145,84330,2,0,P|450:196|435:268,1,105,0|0,1:0|0:0,0:0:0:0:
454,286,84630,2,0,B|358:257|358:257|291:277,1,140,8|0,1:0|1:0,0:0:0:0:
225,293,85080,22,0,B|186:304|186:304|90:275,1,140,0|2,1:0|1:3,0:0:0:0:
35,212,85530,2,0,P|28:172|14:118,1,70,0|0,1:0|1:0,0:0:0:0:
96,105,85830,1,8,1:0:0:0:
96,105,85980,2,0,P|103:145|117:199,1,70,0|0,1:0|1:0,0:0:0:0:
148,337,86430,1,0,1:0:0:0:
148,337,86580,1,0,0:0:0:0:
196,268,86730,2,0,P|250:255|302:278,1,105,0|0,1:0|0:0,0:0:0:0:
314,309,87030,2,0,B|359:304|359:304|408:322|408:322|470:313,1,140,8|0,1:0|1:0,0:0:0:0:
502,233,87480,21,0,1:0:0:0:
502,233,87630,2,0,P|492:188|484:153,1,70,0|2,1:0|1:3,0:0:0:0:
417,116,87930,1,0,1:0:0:0:
417,116,88080,1,0,1:0:0:0:
352,170,88230,2,0,B|265:153|265:153|213:176,1,140,8|0,1:0|1:0,0:0:0:0:
89,281,88830,1,0,1:0:0:0:
89,281,88980,1,0,0:0:0:0:
156,330,89130,2,0,P|201:313|265:332,1,105,0|0,1:0|0:0,0:0:0:0:
283,356,89430,2,0,B|384:371|384:371|438:342,1,140,8|0,1:0|1:0,0:0:0:0:
493,290,89880,21,0,1:0:0:0:
493,290,90030,2,0,P|500:246|485:211,1,70,0|2,1:0|1:3,0:0:0:0:
414,189,90330,2,0,P|407:233|422:268,2,70,0|0|8,1:0|1:0|1:0,0:0:0:0:
478,134,90780,1,0,1:0:0:0:
421,71,90930,2,0,B|379:67|379:67|326:84|326:84|276:80,1,140,0|0,1:0|1:0,0:0:0:0:
127,18,91530,2,0,P|145:79|159:130,1,105,0|0,1:0|0:0,0:0:0:0:
194,134,91830,2,0,P|176:195|154:281,1,140,8|0,1:0|1:0,0:0:0:0:
60,285,92280,21,0,1:0:0:0:
60,285,92430,2,0,P|75:236|88:196,1,70,0|2,1:0|1:3,0:0:0:0:
48,140,92730,2,0,P|63:91|76:51,1,70,0|0,1:0|1:0,0:0:0:0:
146,42,93030,2,0,B|219:27|204:96|295:67,1,140,8|0,1:0|1:0,0:0:0:0:
438,23,93630,2,0,P|426:66|413:114,1,70,0|0,1:0|0:0,0:0:0:0:
361,152,93930,2,0,P|374:207|391:279,1,105,0|0,1:0|0:0,0:0:0:0:
354,283,94230,2,0,P|340:214|325:146,1,140,8|0,1:0|1:0,0:0:0:0:
229,123,94680,21,0,1:0:0:0:
229,123,94830,2,0,P|237:162|248:217,1,70,0|2,1:0|1:3,0:0:0:0:
185,253,95130,1,0,1:0:0:0:
108,218,95280,2,0,P|100:179|89:124,1,70,0|8,1:0|1:0,0:0:0:0:
10,150,95580,1,0,1:0:0:0:
10,150,95730,2,0,P|18:189|39:305,1,140,0|2,1:0|1:2,0:0:0:0:
189,357,96330,2,0,P|214:320|195:256,1,105,0|0,1:0|0:0,0:0:0:0:
165,241,96630,2,0,B|210:246|210:246|259:228|259:228|321:237,1,140,8|0,1:0|1:0,0:0:0:0:
397,218,97080,21,0,1:0:0:0:
397,218,97230,2,0,P|386:258|373:303,1,70,2|2,1:2|1:3,0:0:0:0:
453,324,97530,2,0,P|464:284|477:239,1,70,0|0,1:0|1:0,0:0:0:0:
497,175,97830,1,8,1:0:0:0:
389,46,98130,1,0,1:0:0:0:
222,69,98430,2,0,P|211:109|198:154,1,70,2|0,1:2|0:0,0:0:0:0:
257,200,98730,2,0,P|268:240|286:312,1,105,0|0,1:0|0:0,0:0:0:0:
257,334,99030,2,0,P|190:350|131:315,1,140,8|0,1:0|1:0,0:0:0:0:
74,234,99480,21,0,1:0:0:0:
74,234,99630,2,0,P|83:200|92:166,1,70,2|2,1:2|1:3,0:0:0:0:
165,123,99930,1,0,1:0:0:0:
165,123,100080,1,0,1:0:0:0:
228,177,100230,2,0,P|273:188|307:180,1,70,8|0,1:0|1:0,0:0:0:0:
347,118,100530,2,0,B|420:103|405:172|496:143,1,140,0|2,1:0|1:2,0:0:0:0:
368,20,101130,2,0,P|320:20|264:54,1,105,0|0,1:0|0:0,0:0:0:0:
265,88,101430,2,0,P|175:90|139:48,1,140,8|0,1:0|1:0,0:0:0:0:
49,30,101880,21,0,1:0:0:0:
49,30,102030,2,0,P|57:66|66:105,1,70,2|2,1:2|1:3,0:0:0:0:
18,168,102330,2,0,P|10:204|1:243,1,70,0|0,1:0|1:0,0:0:0:0:
58,299,102630,2,0,P|155:276|209:264,1,140,8|0,1:0|1:0,0:0:0:0:
358,227,103230,1,2,1:2:0:0:
219,131,103530,2,0,B|187:114|187:114|96:129,1,105,0|0,1:0|0:0,0:0:0:0:
79,138,103830,2,0,P|49:218|73:272,1,140,8|0,1:0|1:0,0:0:0:0:
154,311,104280,21,0,1:0:0:0:
154,311,104430,2,0,P|200:300|237:293,1,70,2|2,1:2|1:3,0:0:0:0:
272,228,104730,2,0,P|318:217|355:210,2,70,0|0|8,1:0|1:0|1:0,0:0:0:0:
313,301,105180,1,0,1:0:0:0:
313,301,105330,2,0,P|401:278|477:258,1,140,0|2,1:0|1:2,0:0:0:0:
485,100,105930,2,0,P|448:110|378:128,1,105,0|0,1:0|0:0,0:0:0:0:
361,163,106230,2,0,P|273:140|197:120,1,140,8|0,1:0|1:0,0:0:0:0:
132,97,106680,22,0,P|139:127|152:178,2,70,0|2|2,1:0|1:2|1:3,0:0:0:0:
55,133,107130,2,0,P|48:103|35:52,2,70,0|0|8,1:0|1:0|1:0,0:0:0:0:
192,36,107730,2,0,B|265:21|250:90|341:61,1,140,0|2,1:0|1:2,0:0:0:0:
482,9,108330,2,0,P|459:70|491:127,1,105,0|0,1:0|0:0,0:0:0:0:
500,135,108630,2,0,P|490:175|463:291,1,140,8|0,1:0|1:0,0:0:0:0:
369,279,109080,21,0,1:0:0:0:
369,279,109230,2,0,P|378:239|390:194,1,70,2|2,1:2|1:3,0:0:0:0:
312,167,109530,2,0,P|303:207|291:252,1,70,0|0,1:0|1:0,0:0:0:0:
245,302,109830,1,8,1:0:0:0:
181,247,109980,1,0,1:0:0:0:
115,299,110130,2,0,B|2:280|2:280|28:315,1,140,0|2,1:0|1:2,0:0:0:0:
174,361,110730,2,0,P|235:348|303:334,1,105,0|0,1:0|0:0,0:0:0:0:
315,354,111030,2,0,B|425:325|425:325|387:303,1,140,8|0,1:0|1:0,0:0:0:0:
324,251,111480,21,0,1:0:0:0:
324,251,111630,2,0,P|287:241|242:255,1,70,2|2,1:2|1:3,0:0:0:0:
182,288,111930,2,0,P|147:282|114:292,1,70,0|0,1:0|1:0,0:0:0:0:
59,356,112230,2,0,B|87:271|87:271|70:220,1,140,8|0,1:0|1:0,0:0:0:0:
9,66,112830,1,2,1:2:0:0:
158,143,113130,2,0,P|233:148|265:126,1,105,0|0,1:0|0:0,0:0:0:0:
282,100,113430,2,0,B|378:80|378:80|428:111,1,140,8|0,1:0|1:0,0:0:0:0:
494,158,113880,21,0,1:0:0:0:
494,158,114030,2,0,P|483:205|474:246,1,70,2|2,1:2|1:3,0:0:0:0:
400,259,114330,2,0,P|389:306|380:347,1,70,0|0,1:0|1:0,0:0:0:0:
304,355,114630,1,8,1:0:0:0:
304,355,114780,1,0,1:0:0:0:
225,304,114930,2,0,P|176:314|101:328,1,105,0|0,1:0|0:0,0:0:0:0:
85,305,115230,22,0,P|46:312|0:323,2,62.9999980773926,0|2|8,1:0|0:0|0:0,0:0:0:0:
100,224,115680,2,0,B|140:216|140:216|182:228|182:228|222:220,1,125.999996154785,2|2,0:0|0:0,0:0:0:0:
383,187,116280,1,8,0:0:0:0:
353,263,116430,2,0,P|360:293|366:340,1,62.9999980773926,2|2,0:0|0:0,0:0:0:0:
446,328,116730,2,0,P|439:298|433:251,1,62.9999980773926,8|2,0:0|0:0,0:0:0:0:
485,202,117030,2,0,P|500:144|462:84,1,125.999996154785,8|8,0:0|0:0,0:0:0:0:
312,39,117630,21,0,1:0:0:0:
312,39,117780,2,0,P|267:47|226:57,1,62.9999980773926,2|8,0:0|0:0,0:0:0:0:
188,104,118080,2,0,B|114:88|114:88|53:107,2,125.999996154785,2|2|8,0:0|0:0|0:0,0:0:0:0:
260,158,118830,1,2,0:0:0:0:
260,158,118980,1,2,0:0:0:0:
192,204,119130,2,0,P|183:246|174:282,1,62.9999980773926,8|2,0:0|0:0,0:0:0:0:
119,323,119430,1,8,0:0:0:0:
276,367,119730,2,0,P|285:325|294:289,1,62.9999980773926,8|8,0:0|0:0,0:0:0:0:
364,272,120030,21,0,1:0:0:0:
364,272,120180,2,0,P|373:230|382:194,1,62.9999980773926,2|8,0:0|0:0,0:0:0:0:
332,142,120480,1,2,0:0:0:0:
179,200,120780,2,0,B|79:173|79:173|101:208,1,125.999996154785,2|8,0:0|0:0,0:0:0:0:
120,268,121230,1,2,0:0:0:0:
167,342,121380,1,2,0:0:0:0:
167,342,121530,2,0,P|206:350|246:361,1,62.9999980773926,8|2,0:0|0:0,0:0:0:0:
303,323,121830,2,0,P|328:266|296:194,1,125.999996154785,8|8,0:0|0:0,0:0:0:0:
167,124,122430,22,0,P|134:129|92:135,2,62.9999980773926,0|2|8,1:0|0:0|0:0,0:0:0:0:
227,69,122880,2,0,B|321:53|321:53|365:75,1,125.999996154785,2|2,0:0|0:0,0:0:0:0:
490,149,123480,1,8,0:0:0:0:
427,201,123630,2,0,P|436:237|447:277,1,62.9999980773926,2|2,0:0|0:0,0:0:0:0:
370,300,123930,2,0,P|361:264|350:224,1,62.9999980773926,8|2,0:0|0:0,0:0:0:0:
272,232,124230,1,8,0:0:0:0:
272,232,124380,6,0,P|281:268|292:308,2,62.9999980773926,8|8|8,0:0|0:0|0:0,0:0:0:0:
211,159,124830,6,0,P|219:128|226:98,2,62.9999980773926,0|2|8,1:0|0:0|0:0,0:0:0:0:
183,236,125280,2,0,P|121:258|61:232,1,125.999996154785,2|2,0:0|0:0,0:0:0:0:
7,85,125880,1,8,0:0:0:0:
69,32,126030,2,0,P|103:38|140:45,1,62.9999980773926,2|2,0:0|0:0,0:0:0:0:
195,93,126330,2,0,P|229:87|266:80,1,62.9999980773926,8|2,0:0|0:0,0:0:0:0:
320,29,126630,2,0,P|375:40|467:52,1,125.999996154785,8|8,0:0|0:0,0:0:0:0:
479,210,127230,21,0,1:0:0:0:
479,210,127380,2,0,P|448:203|417:198,1,62.9999980773926,2|8,0:0|0:0,0:0:0:0:
343,160,127680,2,0,P|367:228|389:295,2,125.999996154785,2|2|8,0:0|0:0|0:0,0:0:0:0:
266,130,128430,1,2,0:0:0:0:
266,130,128580,1,2,0:0:0:0:
206,186,128730,2,0,P|169:181|124:175,1,62.9999980773926,8|2,0:0|0:0,0:0:0:0:
81,124,129030,1,8,0:0:0:0:
26,278,129330,2,0,P|63:283|108:289,1,62.9999980773926,8|8,0:0|0:0,0:0:0:0:
158,341,129630,21,0,1:0:0:0:
158,341,129780,2,0,P|195:346|240:352,1,62.9999980773926,2|8,0:0|0:0,0:0:0:0:
297,319,130080,1,2,0:0:0:0:
454,362,130380,2,0,P|464:308|430:228,1,125.999996154785,2|8,0:0|0:0,0:0:0:0:
373,194,130830,1,2,0:0:0:0:
299,230,130980,1,2,0:0:0:0:
299,230,131130,2,0,P|262:225|217:219,1,62.9999980773926,8|2,0:0|0:0,0:0:0:0:
168,175,131430,2,0,P|179:219|203:327,1,125.999996154785,8|8,0:0|0:0,0:0:0:0:
33,313,132030,22,0,P|40:343|48:374,2,62.9999980773926,0|2|8,1:0|0:0|0:0,0:0:0:0:
62,236,132480,2,0,P|48:174|33:113,1,125.999996154785,2|2,0:0|0:0,0:0:0:0:
169,21,133080,1,8,0:0:0:0:
219,85,133230,2,0,P|260:90|295:74,1,62.9999980773926,2|2,0:0|0:0,0:0:0:0:
339,27,133530,2,0,P|380:22|415:38,1,62.9999980773926,8|2,0:0|0:0,0:0:0:0:
469,83,133830,1,8,0:0:0:0:
469,83,133980,6,0,P|478:47|489:7,2,62.9999980773926,8|8|8,0:0|0:0|0:0,0:0:0:0:
402,149,134430,5,2,0:0:0:0:
402,149,153630,22,0,P|371:134|288:167,1,125.999996154785,8|2,1:3|0:0,0:0:0:0:
162,266,154230,2,0,B|218:257|218:257|281:285|281:285|356:273,1,188.999994232178,2|8,0:0|0:0,0:0:0:0:
385,345,154830,2,0,P|400:282|419:216,1,125.999996154785,10|10,0:0|0:0,0:0:0:0:
492,189,155280,2,0,P|507:126|473:70,1,125.999996154785,8|0,0:0|0:0,0:0:0:0:
408,32,155730,1,2,0:0:0:0:
408,32,155880,1,8,0:0:0:0:
357,96,156030,22,0,P|313:85|226:68,1,125.999996154785,10|2,0:0|0:0,0:0:0:0:
74,30,156630,2,0,B|116:155|116:155|94:220,1,188.999994232178,2|8,0:0|0:0,0:0:0:0:
50,276,157230,2,0,B|132:250|132:250|183:264,1,125.999996154785,10|10,0:0|0:0,0:0:0:0:
244,296,157680,2,0,B|282:306|282:306|364:280,1,125.999996154785,8|0,0:0|0:0,0:0:0:0:
421,221,158130,1,10,0:0:0:0:
421,221,158280,1,8,0:0:0:0:
355,165,158430,22,0,P|370:91|383:31,1,125.999996154785,8|2,0:3|0:0,0:0:0:0:
246,135,159030,2,0,P|161:164|84:91,1,188.999994232178,2|8,0:0|0:0,0:0:0:0:
48,35,159630,2,0,P|34:96|18:157,1,125.999996154785,10|10,0:0|0:0,0:0:0:0:
69,222,160080,2,0,P|85:282|98:344,1,125.999996154785,8|0,0:0|0:0,0:0:0:0:
180,357,160530,1,10,0:0:0:0:
180,357,160680,1,8,0:0:0:0:
203,278,160830,22,0,B|255:265|255:265|335:292,1,125.999996154785,10|2,0:0|0:0,0:0:0:0:
470,360,161430,2,0,P|423:293|474:191,1,188.999994232178,2|8,0:0|0:0,0:0:0:0:
495,126,162030,2,0,P|453:142|364:168,1,125.999996154785,10|10,0:0|0:0,0:0:0:0:
323,228,162480,2,0,P|281:212|192:186,1,125.999996154785,8|0,0:0|0:0,0:0:0:0:
139,136,162930,1,10,0:0:0:0:
139,136,163080,1,8,0:0:0:0:
60,188,163230,22,0,P|44:246|83:319,1,125.999996154785,8|8,1:3|0:0,0:0:0:0:
220,365,163830,2,0,P|236:307|197:234,1,125.999996154785,8|8,0:0|0:0,0:0:0:0:
123,109,164430,2,0,P|195:127|268:142,1,125.999996154785,8|8,0:0|0:0,0:0:0:0:
407,164,165030,1,8,0:0:0:0:
300,288,165330,2,0,P|296:267|288:243,2,31.4999990386963,8|0|0,0:0|0:0|0:0,0:0:0:0:
362,341,165630,22,0,P|302:323|242:356,1,125.999996154785,8|8,0:0|0:0,0:0:0:0:
166,206,166230,2,0,P|110:232|51:214,1,125.999996154785,8|8,0:0|0:0,0:0:0:0:
41,50,166830,2,0,P|96:23|155:41,1,125.999996154785,8|8,0:0|0:0,0:0:0:0:
205,183,167430,2,0,P|152:195|117:204,1,62.9999980773926,8|0,0:0|0:0,0:0:0:0:
110,215,167655,1,0,0:0:0:0:
110,215,167730,2,0,P|114:197|120:170,2,31.4999990386963,8|0|0,0:0|0:0|0:0,0:0:0:0:
33,254,168030,22,0,P|20:311|13:345,1,62.9999980773926,8|0,0:0|0:0,0:0:0:0:
90,356,168330,2,0,P|103:299|110:265,1,62.9999980773926,8|0,0:0|0:0,0:0:0:0:
187,282,168630,2,0,P|174:339|167:373,1,62.9999980773926,8|0,0:0|0:0,0:0:0:0:
244,384,168930,2,0,P|257:327|264:293,1,62.9999980773926,8|0,0:0|0:0,0:0:0:0:
327,278,169230,22,0,P|366:270|409:259,1,62.9999980773926,8|0,0:0|0:0,0:0:0:0:
425,191,169530,2,0,P|404:167|382:144,1,62.9999980773926,8|0,0:0|0:0,0:0:0:0:
301,145,169829,2,0,P|290:174|281:205,1,62.9999980773926,8|0,0:0|0:0,0:0:0:0:
217,256,170130,2,0,P|186:263|166:267,2,31.4999990386963,8|0|8,0:0|0:0|0:0,0:0:0:0:
176,169,170430,37,8,0:0:0:0:
176,169,170580,2,0,B|91:147|91:147|41:175,1,125.999996154785,8|8,0:0|0:0,0:0:0:0:
0,224,171030,1,8,0:0:0:0:
155,276,171330,21,8,0:0:0:0:
155,276,171480,2,0,B|240:298|240:298|290:270,1,125.999996154785,8|8,0:0|0:0,0:0:0:0:
331,221,171930,1,8,0:0:0:0:
438,344,172230,38,0,P|430:314|422:280,3,62.9999980773926,8|0|0|0,1:0|1:0|1:0|1:0,0:0:0:0:
422,282,173880,21,0,0:0:0:0:
357,221,174030,2,0,B|259:204|116:174|116:174|173:225,1,314.999990386963,8|0,1:0|1:0,0:0:0:0:
247,274,176430,6,0,B|246:205|132:140|45:260|74:327|119:375|201:374|201:374|254:289|350:327,1,525,8|0,1:0|0:0,0:0:0:0:
365,334,177630,6,0,P|379:274|363:241,1,70,0|2,1:0|0:0,0:0:0:0:
443,202,177930,2,0,P|410:149|375:137,1,70,2|2,0:0|0:0,0:0:0:0:
406,67,178230,2,0,P|346:52|313:68,1,70,2|2,0:0|0:0,0:0:0:0:
300,28,178530,2,0,P|247:60|235:95,1,70,2|2,0:0|1:2,0:0:0:0:
124,112,178830,22,0,B|192:75|282:126|234:166|326:244|407:177,1,314.999990386963,8|0,1:0|1:0,0:0:0:0:
432,89,181230,6,0,P|298:205|493:149,1,525,8|0,1:0|0:0,0:0:0:0:
489,153,182430,5,0,1:0:0:0:
489,153,183480,5,0,1:0:0:0:
422,224,183630,2,0,B|387:247|387:247|304:255|304:255|233:211|233:211|147:220|147:220|126:239,1,314.999990386963,8|0,1:0|0:0,0:0:0:0:
96,329,186030,22,0,B|174:42|174:42|16:125|16:125|71:168,1,525,8|0,1:0|0:0,0:0:0:0:
53,179,187230,5,0,1:0:0:0:
53,179,188280,21,0,1:0:0:0:
109,244,188430,2,0,B|194:256|194:256|273:233|273:233|356:249|356:249|414:229,1,314.999990386963,8|0,1:0|1:0,0:0:0:0:
404,133,190830,38,0,B|557:238|439:476|231:367|283:246|283:246|248:274|208:268,1,560,8|0,1:0|0:0,0:0:0:0:
209,268,193080,5,0,1:0:0:0:
152,329,193230,2,0,P|144:214|290:250,1,314.999990386963,8|0,1:0|1:0,0:0:0:0:
309,343,195630,6,0,B|381:59|381:59|262:99|262:99|165:50,1,525,8|0,1:0|0:0,0:0:0:0:
116,44,196830,6,0,P|128:91|139:138,1,70,0|2,1:0|0:0,0:0:0:0:
46,153,197130,2,0,P|58:200|69:247,1,70,2|2,0:0|0:0,0:0:0:0:
144,233,197430,2,0,P|156:280|167:327,1,70,2|2,0:0|0:0,0:0:0:0:
109,309,197730,2,0,P|121:356|132:403,1,70,2|2,0:0|1:2,0:0:0:0:
227,368,198030,22,0,B|466:332|466:332|393:309,1,314.999990386963,8|0,1:0|1:0,0:0:0:0:
300,248,200430,6,0,B|295:363|485:397|547:239|455:130|354:164|354:164|414:136|426:89,1,525,8|0,1:0|0:0,0:0:0:0:
419,74,201630,5,0,1:0:0:0:
419,74,202680,5,0,1:0:0:0:
350,135,202830,2,0,B|290:169|206:124|277:82|176:43|127:72|127:72|106:132,1,314.999990386963,8|0,1:0|0:0,0:0:0:0:
32,199,205230,22,0,B|164:150|164:150|84:361|84:361|237:301,1,525,8|0,1:0|0:0,0:0:0:0:
272,294,206430,6,0,P|263:333|252:389,1,70,0|2,1:0|0:0,0:0:0:0:
356,349,206730,2,0,P|363:314|371:280,1,70,2|2,0:0|0:0,0:0:0:0:
454,257,207030,2,0,P|446:291|438:325,1,70,2|2,0:0|0:0,0:0:0:0:
483,346,207330,2,0,P|490:311|498:277,1,70,2|2,0:0|1:2,0:0:0:0:
450,167,207630,22,0,B|366:154|366:154|261:229|261:229|155:214,1,314.999990386963,8|0,1:0|1:0,0:0:0:0:
95,129,210030,38,0,P|171:322|205:115,1,560,8|12,1:0|1:0,0:0:0:0:
