osu file format v14

[General]
AudioFilename: audio.mp3
AudioLeadIn: 0
PreviewTime: 34
Countdown: 0
SampleSet: Soft
StackLeniency: 0.7
Mode: 0
LetterboxInBreaks: 0
WidescreenStoryboard: 1

[Editor]
Bookmarks: 34,9634,19234,28984,36034,38434,57634,76834,96034,115234,124834,134434,153634,163234,172834,174034,193234,211234
DistanceSpacing: 1.2
BeatDivisor: 4
GridSize: 8
TimelineZoom: 1.9

[Metadata]
Title:dragonlands
TitleUnicode:dragonlands
Artist:sakuraburst
ArtistUnicode:sakuraburst
Creator:GreenHue
Version:Xenon's Hard
Source:osu!
Tags:Xenon- Xenon Xehn sammish Featured Artist FA ttlapik kkipalt prelude
BeatmapID:1857888
BeatmapSetID:882439

[Difficulty]
HPDrainRate:5
CircleSize:4
OverallDifficulty:6.5
ApproachRate:8
SliderMultiplier:1.5
SliderTickRate:1

[Events]
//Background and Video events
0,0,"tumblr_ovp2kgSy7Y1u3cyo2o1_1280.png",0,0
//Break Periods
2,29184,35284
2,134634,152884
//Storyboard Layer 0 (Background)
//Storyboard Layer 1 (Fail)
//Storyboard Layer 2 (Pass)
//Storyboard Layer 3 (Foreground)
//Storyboard Sound Samples

[TimingPoints]
34,300,4,2,0,57,1,0
34,-142.857142857143,4,2,0,57,0,0
19234,-117.647058823529,4,2,0,57,0,0
19384,-117.647058823529,4,2,0,47,0,0
36034,-117.647058823529,4,2,0,70,0,0
36484,-117.647058823529,4,2,0,75,0,0
36934,-117.647058823529,4,2,0,80,0,0
37384,-117.647058823529,4,2,0,85,0,0
37834,-117.647058823529,4,2,0,100,0,0
37984,-117.647058823529,4,2,0,65,0,0
38434,-100,4,2,0,95,0,1
47434,-111.111111111111,4,2,0,95,0,0
48034,-100,4,2,0,95,0,1
57034,-100,4,2,0,95,0,0
57634,-100,4,2,0,95,0,1
66634,-125,4,2,0,95,0,0
67234,-100,4,2,0,95,0,1
76234,-100,4,2,0,95,0,0
76834,-100,4,2,0,95,0,0
115234,-142.857142857143,4,2,0,95,0,0
153634,-125,4,2,0,95,0,0
163234,-111.111111111111,4,2,0,95,0,0
168034,-111.111111111111,4,2,0,55,0,0
170134,-111.111111111111,4,2,0,60,0,0
171334,-111.111111111111,4,2,0,65,0,0
174034,-166.666666666667,4,2,0,65,0,1
176434,-90.9090909090909,4,2,0,65,0,1
177634,-125,4,2,0,65,0,1
177934,-111.111111111111,4,2,0,65,0,1
178234,-100,4,2,0,65,0,1
178534,-90.9090909090909,4,2,0,65,0,1
178834,-166.666666666667,4,2,0,65,0,1
181234,-90.9090909090909,4,2,0,65,0,1
183634,-166.666666666667,4,2,0,65,0,1
186034,-89.2857142857143,4,2,0,65,0,1
188434,-166.666666666667,4,2,0,65,0,1
193234,-166.666666666667,4,2,0,65,0,1
195634,-90.9090909090909,4,2,0,65,0,1
196834,-125,4,2,0,65,0,1
197134,-111.111111111111,4,2,0,65,0,1
197434,-100,4,2,0,65,0,1
197734,-90.9090909090909,4,2,0,65,0,1
198034,-166.666666666667,4,2,0,65,0,1
200434,-90.9090909090909,4,2,0,65,0,1
202834,-166.666666666667,4,2,0,65,0,1
205234,-90.9090909090909,4,2,0,65,0,1
206434,-125,4,2,0,65,0,1
207634,-166.666666666667,4,2,0,65,0,1
211234,-100,4,2,0,65,0,0

[Colours]
Combo1 : 255,168,81
Combo2 : 255,151,151
Combo3 : 255,232,138
Combo4 : 241,122,92

[HitObjects]
142,164,34,6,0,L|149:107,2,52.4999983978272,0|0|0,0:0|0:0|0:0,0:0:0:0:
165,239,484,1,0,0:0:0:0:
158,246,784,1,0,0:0:0:0:
151,253,1084,1,0,3:0:0:0:
216,297,1234,6,0,L|267:289,1,52.4999983978272,0|0,0:0|0:0,0:0:0:0:
301,217,1534,2,0,L|352:209,1,52.4999983978272,0|0,0:0|0:0,0:0:0:0:
414,260,1834,1,0,0:0:0:0:
327,82,2434,6,0,L|384:89,2,52.4999983978272,0|0|0,0:0|0:0|0:0,0:0:0:0:
252,105,2884,1,0,0:0:0:0:
245,98,3184,1,0,0:0:0:0:
238,91,3484,1,0,3:0:0:0:
180,143,3634,6,0,L|188:194,1,52.4999983978272,0|0,0:0|0:0,0:0:0:0:
260,228,3934,2,0,L|268:279,1,52.4999983978272,0|0,0:0|0:0,0:0:0:0:
217,341,4234,1,0,0:0:0:0:
210,335,4534,2,0,L|159:343,1,52.4999983978272,0|0,3:0|3:0,0:0:0:0:
268,279,4834,6,0,L|319:287,2,52.4999983978272,0|0|0,0:0|0:0|0:0,0:0:0:0:
210,223,5284,1,0,0:0:0:0:
217,216,5584,1,0,0:0:0:0:
224,209,5884,1,0,3:0:0:0:
287,163,6034,6,0,L|338:171,1,52.4999983978272,0|0,0:0|0:0,0:0:0:0:
390,85,6334,2,0,L|339:93,1,52.4999983978272,0|0,0:0|0:0,0:0:0:0:
419,160,6634,1,0,0:0:0:0:
149,178,7234,6,0,L|141:229,2,52.4999983978272,0|0|0,0:0|0:0|0:0,0:0:0:0:
205,120,7684,1,0,0:0:0:0:
212,127,7984,1,0,0:0:0:0:
219,134,8284,1,0,3:0:0:0:
265,197,8434,6,0,L|257:248,1,52.4999983978272,0|0,0:0|0:0,0:0:0:0:
343,300,8734,2,0,L|335:249,1,52.4999983978272,0|0,0:0|0:0,0:0:0:0:
269,327,9034,1,0,0:0:0:0:
197,294,9184,6,0,P|163:291|128:305,1,52.4999983978272,0|0,0:0|3:0,0:0:0:0:
76,334,9484,1,0,3:0:0:0:
77,255,9634,6,0,L|20:248,2,52.4999983978272,0|0|0,0:0|0:0|0:0,0:0:0:0:
133,200,10084,1,0,0:0:0:0:
140,207,10384,1,0,0:0:0:0:
147,214,10684,1,0,3:0:0:0:
200,271,10834,6,0,L|251:279,1,52.4999983978272,0|0,0:0|0:0,0:0:0:0:
285,351,11134,2,0,L|336:359,1,52.4999983978272,0|0,0:0|0:0,0:0:0:0:
398,308,11434,1,0,0:0:0:0:
415,126,12034,6,0,L|472:119,2,52.4999983978272,0|0|0,0:0|0:0|0:0,0:0:0:0:
359,71,12484,1,0,0:0:0:0:
352,78,12784,1,0,0:0:0:0:
345,85,13084,1,0,3:0:0:0:
292,142,13234,6,0,L|241:150,1,52.4999983978272,0|0,0:0|0:0,0:0:0:0:
207,222,13534,2,0,L|156:230,1,52.4999983978272,0|0,0:0|0:0,0:0:0:0:
94,179,13834,1,0,0:0:0:0:
87,186,14134,2,0,L|36:178,1,52.4999983978272,0|0,3:0|3:0,0:0:0:0:
156,230,14434,6,0,L|207:222,2,52.4999983978272,0|0|0,0:0|0:0|0:0,0:0:0:0:
98,286,14884,1,0,0:0:0:0:
105,293,15184,1,0,0:0:0:0:
112,300,15484,1,0,3:0:0:0:
175,346,15634,6,0,L|226:338,1,52.4999983978272,0|0,0:0|0:0,0:0:0:0:
281,264,15934,2,0,L|230:256,1,52.4999983978272,0|0,0:0|0:0,0:0:0:0:
309,340,16234,1,0,0:0:0:0:
262,148,16834,6,0,L|313:140,2,52.4999983978272,0|0|0,0:0|0:0|0:0,0:0:0:0:
204,204,17284,1,0,0:0:0:0:
211,211,17584,1,0,0:0:0:0:
218,218,17884,1,0,3:0:0:0:
281,264,18034,6,0,L|332:256,1,52.4999983978272,0|0,0:0|0:0,0:0:0:0:
387,182,18334,2,0,L|336:174,1,52.4999983978272,0|0,0:0|0:0,0:0:0:0:
413,256,18634,1,0,0:0:0:0:
464,196,18784,6,0,P|465:167|444:131,1,52.4999983978272,0|0,0:0|3:0,0:0:0:0:
389,103,19084,1,0,3:0:0:0:
387,182,19234,5,0,3:0:0:0:
320,141,19384,2,0,P|255:136|185:124,1,127.50000243187,2|0,0:0|0:0,0:0:0:0:
122,83,19834,2,0,L|111:15,2,63.7500012159348,0|0|0,0:0|0:0|3:0,0:0:0:0:
119,165,20284,1,2,3:2:0:0:
119,165,20434,6,0,L|110:236,1,63.7500012159348,2|0,0:0|0:0,0:0:0:0:
195,206,20734,2,0,L|202:269,1,63.7500012159348,2|0,0:0|0:0,0:0:0:0:
288,162,21034,2,0,L|279:233,1,63.7500012159348,2|0,0:0|0:0,0:0:0:0:
364,203,21334,2,0,L|371:266,1,63.7500012159348,2|0,3:2|3:0,0:0:0:0:
326,336,21634,5,2,0:0:0:0:
326,336,21784,2,0,P|261:331|191:319,1,127.50000243187,2|0,0:0|0:0,0:0:0:0:
160,247,22234,2,0,P|225:242|295:230,1,127.50000243187,2|2,0:0|3:2,0:0:0:0:
326,158,22684,2,0,P|261:153|191:141,1,127.50000243187,0|0,3:0|0:0,0:0:0:0:
160,69,23134,2,0,P|192:66|227:60,1,63.7500012159348,2|0,0:0|0:0,0:0:0:0:
280,0,23434,6,0,P|332:5|356:22,1,63.7500012159348,2|2,0:0|0:0,0:0:0:0:
423,31,23734,2,0,P|392:73|365:85,1,63.7500012159348,2|2,3:2|3:2,0:0:0:0:
302,82,24034,5,2,0:0:0:0:
345,151,24184,2,0,P|350:216|362:286,1,127.50000243187,2|0,0:0|0:0,0:0:0:0:
403,349,24634,2,0,L|471:360,2,63.7500012159348,0|0|0,0:0|0:0|3:0,0:0:0:0:
321,352,25084,1,2,3:2:0:0:
321,352,25234,6,0,L|250:361,1,63.7500012159348,2|0,0:0|0:0,0:0:0:0:
280,276,25534,2,0,L|217:269,1,63.7500012159348,2|0,0:0|0:0,0:0:0:0:
324,183,25834,2,0,L|253:192,1,63.7500012159348,2|0,0:0|0:0,0:0:0:0:
283,107,26134,2,0,L|220:100,1,63.7500012159348,2|0,3:2|3:0,0:0:0:0:
156,151,26434,5,2,0:0:0:0:
156,151,26584,2,0,P|161:216|173:286,1,127.50000243187,2|0,0:0|0:0,0:0:0:0:
245,317,27034,2,0,P|250:252|262:182,1,127.50000243187,2|2,0:0|3:2,0:0:0:0:
334,151,27484,2,0,P|339:216|351:286,1,127.50000243187,0|0,3:0|0:0,0:0:0:0:
423,317,27934,2,0,P|425:284|431:249,1,63.7500012159348,2|0,0:0|0:0,0:0:0:0:
492,197,28234,6,0,P|487:145|470:121,1,63.7500012159348,2|2,0:0|0:0,0:0:0:0:
461,54,28534,2,0,P|418:84|406:111,1,63.7500012159348,2|2,3:2|3:2,0:0:0:0:
410,175,28834,5,2,0:0:0:0:
339,131,28984,1,2,0:0:0:0:
0,128,36034,5,8,0:0:0:0:
62,73,36184,2,0,P|114:78|138:95,1,63.7500012159348,8|0,0:0|0:0,0:0:0:0:
184,27,36484,5,8,0:0:0:0:
202,108,36634,2,0,P|186:135|161:155,1,63.7500012159348,8|0,0:0|0:0,0:0:0:0:
181,237,36934,5,8,0:0:0:0:
102,212,37084,2,0,P|85:184|80:153,1,63.7500012159348,8|0,0:0|0:0,0:0:0:0:
0,128,37384,5,8,0:0:0:0:
62,73,37534,2,0,P|114:78|138:95,1,63.7500012159348,8|0,0:0|0:0,0:0:0:0:
162,156,37834,6,0,L|225:147,1,63.7500012159348,0|2,1:0|3:0,0:0:0:0:
275,215,38134,2,0,L|266:278,1,63.7500012159348,2|2,3:0|3:0,0:0:0:0:
338,335,38434,5,0,3:0:0:0:
402,272,38584,2,0,B|391:188|391:188|395:188|395:188|391:188|391:188|381:105,1,150,2|0,0:0|3:0,0:0:0:0:
320,67,39034,1,8,1:0:0:0:
282,209,39334,5,0,3:0:0:0:
296,297,39484,2,0,P|264:236|203:265,1,150,2|2,0:0|0:0,0:0:0:0:
134,323,39934,1,0,3:0:0:0:
134,323,40084,1,0,3:0:0:0:
65,266,40234,1,8,1:0:0:0:
188,126,40534,6,0,P|243:149|290:120,1,112.5,2|0,0:0|0:0,0:0:0:0:
301,107,40834,1,0,3:0:0:0:
361,175,40984,2,0,B|354:236|354:236|363:262|363:262|356:322,1,150,2|0,0:0|3:0,0:0:0:0:
283,375,41434,1,8,1:0:0:0:
123,227,41734,6,0,P|115:267|112:315,2,75,0|2|0,3:0|0:0|0:0,0:0:0:0:
183,160,42184,1,0,0:0:0:0:
243,227,42334,2,0,P|283:235|331:238,1,75,2|0,0:0|3:0,0:0:0:0:
382,176,42634,1,0,1:0:0:0:
265,309,42934,6,0,B|237:319|210:309|210:309|183:298|156:309,1,112.5,2|0,0:0|0:0,0:0:0:0:
137,324,43234,1,0,3:0:0:0:
69,384,43384,2,0,B|41:354|41:354|54:243,1,150,2|0,0:0|3:0,0:0:0:0:
65,156,43834,1,8,1:0:0:0:
128,311,44134,5,0,3:0:0:0:
199,365,44284,2,0,B|285:387|254:326|341:348,1,150,2|2,0:0|0:0,0:0:0:0:
412,291,44734,1,0,3:0:0:0:
412,291,44884,1,0,3:0:0:0:
372,209,45034,1,8,1:0:0:0:
187,197,45334,6,0,P|198:141|202:84,1,112.5,2|0,0:0|0:0,0:0:0:0:
203,63,45634,1,0,3:0:0:0:
284,103,45784,2,0,B|328:97|328:97|352:77|352:77|380:91|380:91|423:85,1,150,2|0,0:0|3:0,0:0:0:0:
512,70,46234,1,8,1:0:0:0:
424,239,46534,6,0,P|432:279|435:327,2,75,0|2|0,3:0|0:0|0:0,0:0:0:0:
364,172,46984,1,0,0:0:0:0:
304,239,47134,2,0,P|264:247|216:250,1,75,2|0,0:0|3:0,0:0:0:0:
163,201,47434,2,0,B|233:217|228:275|196:336|91:319|62:217,1,269.999991760254,0|0,1:0|0:0,0:0:0:0:
41,150,48184,6,0,B|20:317,1,150,2|0,0:0|3:0,0:0:0:0:
78,364,48634,1,8,1:0:0:0:
211,233,48934,5,0,3:0:0:0:
203,143,49084,2,0,P|234:203|295:174,1,150,2|2,0:0|0:0,0:0:0:0:
365,116,49534,1,0,3:0:0:0:
365,116,49684,1,0,3:0:0:0:
432,175,49834,1,8,1:0:0:0:
320,317,50134,6,0,P|265:294|218:323,1,112.5,2|0,0:0|0:0,0:0:0:0:
207,336,50434,1,0,3:0:0:0:
147,268,50584,2,0,B|154:207|154:207|145:181|145:181|152:121,1,150,2|0,0:0|3:0,0:0:0:0:
225,68,51034,1,8,1:0:0:0:
389,157,51334,6,0,P|397:117|400:69,2,75,0|2|0,3:0|0:0|0:0,0:0:0:0:
329,224,51784,1,0,0:0:0:0:
269,157,51934,2,0,P|229:149|181:146,1,75,2|0,0:0|3:0,0:0:0:0:
130,208,52234,1,8,1:0:0:0:
247,75,52534,6,0,B|275:65|302:75|302:75|329:86|356:75,1,112.5,2|0,0:0|0:0,0:0:0:0:
375,60,52834,1,0,3:0:0:0:
443,0,52984,2,0,B|471:30|471:30|458:141,1,150,2|0,0:0|3:0,0:0:0:0:
447,228,53434,1,8,1:0:0:0:
384,73,53734,5,0,3:0:0:0:
315,14,53884,2,0,B|228:-8|259:52|172:30,1,150,2|2,0:0|0:0,0:0:0:0:
105,91,54334,1,0,3:0:0:0:
105,91,54484,1,0,3:0:0:0:
142,172,54634,1,8,1:0:0:0:
292,96,54934,6,0,P|348:107|405:111,1,112.5,2|0,0:0|0:0,0:0:0:0:
426,112,55234,1,0,3:0:0:0:
490,164,55384,2,0,B|484:208|484:208|464:232|464:232|478:260|478:260|472:303,1,150,2|0,0:0|3:0,0:0:0:0:
417,375,55834,1,8,1:0:0:0:
253,297,56134,6,0,P|290:300|327:307,2,75,0|2|0,3:0|0:0|0:0,0:0:0:0:
188,361,56584,1,0,0:0:0:0:
110,316,56734,2,0,P|102:276|99:228,1,75,2|0,0:0|3:0,0:0:0:0:
153,173,57034,5,8,1:0:0:0:
89,112,57184,2,0,L|14:120,2,75,0|2|0,3:0|3:2|3:0,0:0:0:0:
134,37,57634,5,0,3:0:0:0:
134,37,57784,2,0,L|284:55,1,150,2|0,0:0|3:0,0:0:0:0:
371,69,58234,1,8,1:0:0:0:
493,227,58534,5,0,3:0:0:0:
421,285,58684,2,0,P|389:224|328:253,1,150,2|2,0:0|0:0,0:0:0:0:
264,316,59134,1,0,3:0:0:0:
264,316,59284,1,0,3:0:0:0:
334,372,59434,1,8,1:0:0:0:
135,313,59734,6,0,P|147:348|169:304,1,112.5,2|0,0:0|0:0,0:0:0:0:
151,295,60034,1,0,3:0:0:0:
80,240,60184,2,0,B|86:197|86:197|82:192|82:192|89:141|89:141|93:137|93:137|99:94,1,150,2|0,0:0|3:0,0:0:0:0:
173,44,60634,1,8,1:0:0:0:
221,212,60934,6,0,P|229:252|232:300,2,75,0|2|0,3:0|0:0|0:0,0:0:0:0:
153,154,61384,1,0,0:0:0:0:
240,133,61534,2,0,P|277:136|314:143,1,75,2|0,0:0|3:0,0:0:0:0:
381,201,61834,1,8,1:0:0:0:
348,25,62134,6,0,B|360:34|363:46|363:46|344:66|315:72|286:64|269:46,1,112.5,2|0,0:0|0:0,0:0:0:0:
264,46,62434,1,0,3:0:0:0:
240,133,62584,2,0,B|167:119|167:119|94:133,1,150,2|0,0:0|3:0,0:0:0:0:
6,155,63034,1,8,1:0:0:0:
85,309,63334,5,0,3:0:0:0:
59,225,63484,2,0,B|145:202|114:263|201:241,1,150,2|2,0:0|0:0,0:0:0:0:
248,166,63934,1,0,3:0:0:0:
248,166,64084,1,0,3:0:0:0:
329,204,64234,1,8,1:0:0:0:
153,265,64534,6,0,B|143:237|153:210|153:210|164:183|153:156,1,112.5,2|0,0:0|0:0,0:0:0:0:
142,136,64834,1,0,3:0:0:0:
54,116,64984,2,0,B|94:111|94:111|116:104|116:104|143:108|143:108|164:102|164:102|201:97,1,150,2|0,0:0|3:0,0:0:0:0:
290,84,65434,1,8,1:0:0:0:
270,262,65734,6,0,P|310:254|358:251,2,75,0|2|0,3:0|0:0|0:0,0:0:0:0:
215,333,66184,1,2,0:0:0:0:
178,250,66334,2,0,P|186:210|189:162,1,75,2|0,0:0|3:0,0:0:0:0:
236,102,66634,2,0,B|206:84|175:89|175:89|266:53|254:138|349:107,1,240,8|0,1:0|0:0,0:0:0:0:
384,29,67384,6,0,L|366:179,1,150,2|0,0:0|3:0,0:0:0:0:
352,266,67834,1,8,1:0:0:0:
292,114,68134,5,0,3:0:0:0:
220,56,68284,2,0,P|188:116|127:87,1,150,2|2,0:0|0:0,0:0:0:0:
63,24,68734,1,0,3:0:0:0:
63,24,68884,1,0,3:0:0:0:
3,92,69034,1,8,1:0:0:0:
122,221,69334,6,0,P|110:186|88:230,1,112.5,2|0,0:0|0:0,0:0:0:0:
106,239,69634,1,0,3:0:0:0:
186,280,69784,2,0,B|229:274|229:274|234:278|234:278|285:271|285:271|289:267|289:267|332:261,1,150,2|0,0:0|3:0,0:0:0:0:
382,187,70234,1,8,1:0:0:0:
207,116,70534,6,0,P|215:76|218:28,2,75,0|2|0,3:0|0:0|0:0,0:0:0:0:
139,174,70984,1,0,0:0:0:0:
226,195,71134,2,0,P|263:192|300:185,1,75,2|0,0:0|3:0,0:0:0:0:
367,127,71434,1,8,1:0:0:0:
470,274,71734,6,0,B|482:265|485:253|485:253|466:233|437:227|408:235|391:253,1,112.5,2|0,0:0|0:0,0:0:0:0:
386,253,72034,1,0,3:0:0:0:
331,324,72184,2,0,B|258:338|258:338|185:324,1,150,2|0,0:0|3:0,0:0:0:0:
97,302,72634,1,8,1:0:0:0:
86,122,72934,5,0,3:0:0:0:
155,63,73084,2,0,B|241:40|210:101|297:79,1,150,2|2,0:0|0:0,0:0:0:0:
365,140,73534,1,0,3:0:0:0:
365,140,73684,1,0,3:0:0:0:
328,221,73834,1,8,1:0:0:0:
161,160,74134,6,0,B|151:188|161:215|161:215|172:242|161:269,1,112.5,2|0,0:0|0:0,0:0:0:0:
150,289,74434,1,0,3:0:0:0:
62,309,74584,2,0,B|102:314|102:314|124:321|124:321|151:317|151:317|172:323|172:323|209:328,1,150,2|0,0:0|3:0,0:0:0:0:
298,341,75034,1,8,1:0:0:0:
343,166,75334,6,0,P|383:158|431:155,2,75,0|2|0,3:0|0:0|0:0,0:0:0:0:
288,237,75784,1,0,0:0:0:0:
251,154,75934,2,0,P|259:114|262:66,1,75,2|0,0:0|3:0,0:0:0:0:
204,9,76234,6,0,L|278:0,1,75,8|0,1:0|0:0,0:0:0:0:
346,58,76534,2,0,L|420:48,1,75,2|0,0:0|3:0,0:0:0:0:
488,107,76834,5,2,3:2:0:0:
495,100,77134,2,0,P|483:160|478:232,1,112.5,2|0,3:2|0:0,0:0:0:0:
478,234,77434,1,8,0:0:0:0:
364,373,77734,1,0,3:0:0:0:
400,290,77884,2,0,L|388:194,1,75,2|0,0:0|0:0,0:0:0:0:
310,184,78184,5,0,3:0:0:0:
310,184,78334,2,0,P|270:176|222:173,1,75,2|0,3:2|3:0,0:0:0:0:
146,176,78634,1,8,0:0:0:0:
63,336,78934,2,0,B|99:361|99:361|86:255,1,150,2|2,0:0|3:2,0:0:0:0:
93,62,79534,6,0,P|153:74|225:79,1,112.5,2|0,3:2|0:0,0:0:0:0:
226,81,79834,2,0,P|229:118|237:155,1,75,8|0,0:0|0:0,0:0:0:0:
261,241,80134,1,0,3:0:0:0:
324,177,80284,2,0,L|398:186,1,75,2|0,0:0|0:0,0:0:0:0:
481,151,80584,1,0,3:0:0:0:
481,151,80734,6,0,P|473:111|470:63,1,75,2|0,3:2|3:0,0:0:0:0:
390,42,81034,1,8,0:0:0:0:
390,42,81184,1,0,0:0:0:0:
330,111,81334,2,0,B|224:123|224:123|249:87,1,150,2|2,0:0|3:2,0:0:0:0:
397,189,81934,6,0,P|385:249|380:321,1,112.5,2|0,3:2|0:0,0:0:0:0:
380,323,82234,1,8,0:0:0:0:
473,145,82534,1,0,3:0:0:0:
390,109,82684,2,0,L|294:120,1,75,2|0,0:0|0:0,0:0:0:0:
228,92,82984,5,0,3:0:0:0:
228,92,83134,2,0,P|236:132|239:180,1,75,2|0,3:2|3:0,0:0:0:0:
241,257,83434,1,8,0:0:0:0:
75,110,83734,2,0,P|63:170|58:242,1,112.5,2|0,0:0|0:0,0:0:0:0:
56,243,84034,2,0,P|93:247|130:255,1,75,2|0,3:2|0:0,0:0:0:0:
155,341,84334,6,0,P|210:336|266:325,1,112.5,2|0,3:2|0:0,0:0:0:0:
287,317,84634,1,8,0:0:0:0:
236,144,84934,1,0,3:0:0:0:
262,230,85084,2,0,L|336:221,1,75,2|0,0:0|0:0,0:0:0:0:
408,166,85384,1,0,3:0:0:0:
408,166,85534,6,0,P|416:126|419:78,1,75,2|0,3:2|3:0,0:0:0:0:
329,79,85834,1,8,0:0:0:0:
329,79,85984,1,0,0:0:0:0:
385,10,86134,2,0,P|329:-9|265:19,1,112.5,2|0,0:0|0:0,0:0:0:0:
262,20,86434,5,2,3:2:0:0:
100,102,86734,2,0,P|112:162|117:234,1,112.5,2|0,3:2|0:0,0:0:0:0:
117,236,87034,1,8,0:0:0:0:
238,369,87334,1,0,3:0:0:0:
189,293,87484,2,0,L|285:281,1,75,2|0,0:0|0:0,0:0:0:0:
340,234,87784,5,0,3:0:0:0:
340,234,87934,2,0,P|348:194|351:146,1,75,2|0,3:2|3:0,0:0:0:0:
323,74,88234,1,8,0:0:0:0:
450,202,88534,2,0,L|438:106,1,75,2|0,0:0|0:0,0:0:0:0:
429,38,88834,5,2,3:2:0:0:
334,271,89134,2,0,P|346:211|351:139,1,112.5,2|0,3:2|0:0,0:0:0:0:
351,137,89434,1,8,0:0:0:0:
225,8,89734,1,0,3:0:0:0:
193,92,89884,2,0,L|97:104,1,75,2|0,0:0|0:0,0:0:0:0:
69,176,90184,5,0,3:0:0:0:
69,176,90334,2,0,P|77:216|80:264,1,75,2|0,3:2|3:0,0:0:0:0:
35,328,90634,1,8,0:0:0:0:
35,328,90784,1,0,0:0:0:0:
114,370,90934,2,0,L|210:358,1,75,2|0,0:0|0:0,0:0:0:0:
278,349,91234,5,2,3:2:0:0:
422,241,91534,2,0,P|366:246|310:257,1,112.5,2|0,3:2|0:0,0:0:0:0:
291,267,91834,1,8,0:0:0:0:
432,155,92134,1,0,3:0:0:0:
359,101,92284,2,0,L|284:110,1,75,2|0,0:0|0:0,0:0:0:0:
233,184,92584,5,0,3:0:0:0:
233,184,92734,2,0,P|195:180|158:173,1,75,2|0,3:2|3:0,0:0:0:0:
99,104,93034,1,8,0:0:0:0:
99,104,93184,1,0,0:0:0:0:
72,190,93334,2,0,L|84:286,1,75,2|0,0:0|0:0,0:0:0:0:
91,353,93634,5,2,3:2:0:0:
187,174,93934,2,0,P|181:229|170:285,1,112.5,2|0,3:2|0:0,0:0:0:0:
161,305,94234,1,8,0:0:0:0:
325,376,94534,1,0,3:0:0:0:
258,315,94684,2,0,L|267:240,1,75,2|0,0:0|0:0,0:0:0:0:
348,202,94984,5,0,3:0:0:0:
348,202,95134,2,0,P|344:164|337:127,1,75,2|0,3:2|3:0,0:0:0:0:
292,48,95434,1,8,0:0:0:0:
292,48,95584,1,0,0:0:0:0:
225,109,95734,2,0,L|150:99,1,75,2|0,0:0|0:0,0:0:0:0:
61,85,96034,5,6,3:2:0:0:
189,211,96334,2,0,P|141:187|106:244,1,112.5,2|0,3:2|0:0,0:0:0:0:
99,246,96634,1,12,0:0:0:0:
256,333,96934,1,0,3:0:0:0:
256,333,97084,1,2,0:0:0:0:
296,252,97234,6,0,L|286:177,1,75,4|0,0:0|3:0,0:0:0:0:
383,111,97534,2,0,P|376:147|372:185,1,75,2|0,3:2|3:0,0:0:0:0:
386,274,97834,1,12,0:0:0:0:
308,101,98134,2,0,L|383:111,1,75,2|0,0:0|0:0,0:0:0:0:
472,125,98434,5,6,3:2:0:0:
379,279,98734,2,0,P|355:231|412:196,1,112.5,2|0,3:2|0:0,0:0:0:0:
414,189,99034,1,12,0:0:0:0:
358,360,99334,1,0,3:0:0:0:
358,360,99484,1,2,0:0:0:0:
287,303,99634,6,0,L|212:313,1,75,4|0,0:0|3:0,0:0:0:0:
144,254,99934,2,0,P|150:217|154:179,1,75,2|0,3:2|3:0,0:0:0:0:
145,89,100234,1,12,0:0:0:0:
145,89,100384,1,0,0:0:0:0:
228,123,100534,2,0,L|303:113,1,75,2|0,0:0|0:0,0:0:0:0:
392,99,100834,5,6,3:2:0:0:
485,252,101134,2,0,P|437:275|402:218,1,112.5,2|0,3:2|0:0,0:0:0:0:
395,217,101434,1,12,0:0:0:0:
264,100,101734,1,0,3:0:0:0:
264,100,101884,1,2,0:0:0:0:
304,181,102034,6,0,L|294:256,1,75,4|0,0:0|3:0,0:0:0:0:
391,322,102334,2,0,P|384:285|380:247,1,75,2|0,3:2|3:0,0:0:0:0:
394,159,102634,1,12,0:0:0:0:
316,332,102934,2,0,L|391:322,1,75,2|0,0:0|0:0,0:0:0:0:
480,308,103234,5,6,3:2:0:0:
387,154,103534,2,0,P|363:201|420:236,1,112.5,2|0,3:2|0:0,0:0:0:0:
422,244,103834,1,12,0:0:0:0:
366,73,104134,1,0,3:0:0:0:
366,73,104284,1,2,0:0:0:0:
295,130,104434,6,0,L|220:120,1,75,4|0,0:0|3:0,0:0:0:0:
152,179,104734,2,0,P|158:215|162:253,1,75,2|0,3:2|3:0,0:0:0:0:
153,344,105034,1,12,0:0:0:0:
153,344,105184,1,0,0:0:0:0:
236,310,105334,2,0,L|311:320,1,75,2|0,0:0|0:0,0:0:0:0:
395,347,105634,6,0,B|405:319|395:292|395:292|384:265|395:238,1,112.5,6|0,3:2|0:0,0:0:0:0:
406,216,105934,2,0,P|369:253|322:230,1,112.5,2|0,3:2|0:0,0:0:0:0:
310,211,106234,1,12,0:0:0:0:
157,306,106534,1,0,3:0:0:0:
157,306,106684,1,2,0:0:0:0:
214,235,106834,6,0,L|204:160,1,75,4|0,0:0|3:0,0:0:0:0:
247,81,107134,2,0,P|284:84|321:91,1,75,2|0,3:2|3:0,0:0:0:0:
395,40,107434,2,0,P|410:103|386:153,1,112.5,10|0,0:0|0:0,0:0:0:0:
379,164,107734,2,0,L|389:239,1,75,2|0,0:0|0:0,0:0:0:0:
460,292,108034,6,0,P|404:281|347:277,1,112.5,6|0,3:2|0:0,0:0:0:0:
326,278,108334,2,0,P|363:315|340:362,1,112.5,2|0,3:2|0:0,0:0:0:0:
321,374,108634,1,12,0:0:0:0:
262,203,108934,1,0,3:0:0:0:
262,203,109084,1,2,0:0:0:0:
205,274,109234,6,0,L|215:349,1,75,4|0,0:0|3:0,0:0:0:0:
115,297,109534,2,0,P|118:259|125:222,1,75,2|0,3:2|3:0,0:0:0:0:
181,151,109834,1,12,0:0:0:0:
181,151,109984,1,0,0:0:0:0:
253,204,110134,2,0,L|328:194,1,75,2|0,0:0|0:0,0:0:0:0:
413,219,110434,6,0,B|423:191|413:164|413:164|402:137|413:110,1,112.5,6|0,3:2|0:0,0:0:0:0:
424,88,110734,2,0,P|387:125|340:102,1,112.5,2|0,3:2|0:0,0:0:0:0:
328,83,111034,1,12,0:0:0:0:
305,268,111334,1,0,3:0:0:0:
305,268,111484,1,2,0:0:0:0:
248,197,111634,6,0,L|258:122,1,75,4|0,0:0|3:0,0:0:0:0:
215,43,111934,2,0,P|177:46|140:53,1,75,2|0,3:2|3:0,0:0:0:0:
67,2,112234,2,0,P|52:65|76:115,1,112.5,12|0,0:0|0:0,0:0:0:0:
83,126,112534,2,0,L|73:201,1,75,2|0,0:0|0:0,0:0:0:0:
2,254,112834,6,0,P|58:243|115:239,1,112.5,6|0,3:2|0:0,0:0:0:0:
136,240,113134,2,0,P|99:277|122:324,1,112.5,2|0,3:2|0:0,0:0:0:0:
141,336,113434,1,12,0:0:0:0:
224,176,113734,1,0,3:0:0:0:
224,176,113884,1,2,0:0:0:0:
295,233,114034,6,0,L|370:223,1,75,4|0,0:0|3:0,0:0:0:0:
318,323,114334,2,0,P|280:319|243:312,1,75,2|0,3:2|3:0,0:0:0:0:
172,257,114634,1,12,0:0:0:0:
225,185,114784,1,0,0:0:0:0:
172,113,114934,2,0,L|182:38,1,75,2|0,0:0|0:0,0:0:0:0:
273,64,115234,6,0,L|266:7,2,52.4999983978272,0|0|0,0:0|0:0|0:0,0:0:0:0:
250,139,115684,1,0,0:0:0:0:
257,146,115984,1,0,0:0:0:0:
264,153,116284,1,0,3:0:0:0:
199,197,116434,6,0,L|148:189,1,52.4999983978272,0|0,0:0|0:0,0:0:0:0:
114,117,116734,2,0,L|63:109,1,52.4999983978272,0|0,0:0|0:0,0:0:0:0:
1,160,117034,1,0,0:0:0:0:
185,302,117634,6,0,L|128:295,2,52.4999983978272,0|0|0,0:0|0:0|0:0,0:0:0:0:
260,279,118084,1,0,0:0:0:0:
267,286,118384,1,0,0:0:0:0:
274,293,118684,1,0,3:0:0:0:
332,241,118834,6,0,L|324:190,1,52.4999983978272,0|0,0:0|0:0,0:0:0:0:
252,156,119134,2,0,L|244:105,1,52.4999983978272,0|0,0:0|0:0,0:0:0:0:
295,43,119434,1,0,0:0:0:0:
302,49,119734,2,0,L|353:41,1,52.4999983978272,0|0,3:0|3:0,0:0:0:0:
244,105,120034,6,0,L|193:97,2,52.4999983978272,0|0|0,0:0|0:0|0:0,0:0:0:0:
302,161,120484,1,0,0:0:0:0:
295,168,120784,1,0,0:0:0:0:
288,175,121084,1,0,3:0:0:0:
225,221,121234,6,0,L|174:213,1,52.4999983978272,0|0,0:0|0:0,0:0:0:0:
122,299,121534,2,0,L|173:291,1,52.4999983978272,0|0,0:0|0:0,0:0:0:0:
93,224,121834,1,0,0:0:0:0:
363,206,122434,6,0,L|371:155,2,52.4999983978272,0|0|0,0:0|0:0|0:0,0:0:0:0:
307,264,122884,1,0,0:0:0:0:
300,257,123184,1,0,0:0:0:0:
293,250,123484,1,0,3:0:0:0:
247,187,123634,6,0,L|255:136,1,52.4999983978272,0|0,0:0|0:0,0:0:0:0:
169,84,123934,2,0,L|177:135,1,52.4999983978272,0|0,0:0|0:0,0:0:0:0:
243,57,124234,1,0,0:0:0:0:
315,90,124384,6,0,P|349:93|384:79,1,52.4999983978272,0|0,0:0|3:0,0:0:0:0:
436,50,124684,1,0,3:0:0:0:
435,129,124834,6,0,L|492:136,2,52.4999983978272,0|0|0,0:0|0:0|0:0,0:0:0:0:
379,184,125284,1,0,0:0:0:0:
372,177,125584,1,0,0:0:0:0:
365,170,125884,1,0,3:0:0:0:
312,113,126034,6,0,L|261:105,1,52.4999983978272,0|0,0:0|0:0,0:0:0:0:
227,33,126334,2,0,L|176:25,1,52.4999983978272,0|0,0:0|0:0,0:0:0:0:
114,76,126634,1,0,0:0:0:0:
97,258,127234,6,0,L|40:265,2,52.4999983978272,0|0|0,0:0|0:0|0:0,0:0:0:0:
153,313,127684,1,0,0:0:0:0:
160,306,127984,1,0,0:0:0:0:
167,299,128284,1,0,3:0:0:0:
220,242,128434,6,0,L|271:234,1,52.4999983978272,0|0,0:0|0:0,0:0:0:0:
305,162,128734,2,0,L|356:154,1,52.4999983978272,0|0,0:0|0:0,0:0:0:0:
418,205,129034,1,0,0:0:0:0:
425,198,129334,2,0,L|476:206,1,52.4999983978272,0|0,3:0|3:0,0:0:0:0:
356,154,129634,6,0,L|305:162,2,52.4999983978272,0|0|0,0:0|0:0|0:0,0:0:0:0:
414,98,130084,1,0,0:0:0:0:
407,91,130384,1,0,0:0:0:0:
400,84,130684,1,0,3:0:0:0:
337,38,130834,6,0,L|286:46,1,52.4999983978272,0|0,0:0|0:0,0:0:0:0:
231,120,131134,2,0,L|282:128,1,52.4999983978272,0|0,0:0|0:0,0:0:0:0:
203,44,131434,1,0,0:0:0:0:
250,236,132034,6,0,L|199:244,2,52.4999983978272,0|0|0,0:0|0:0|0:0,0:0:0:0:
308,180,132484,1,0,0:0:0:0:
301,173,132784,1,0,0:0:0:0:
294,166,133084,1,0,3:0:0:0:
231,120,133234,6,0,L|180:128,1,52.4999983978272,0|0,0:0|0:0,0:0:0:0:
125,202,133534,2,0,L|176:210,1,52.4999983978272,0|0,0:0|0:0,0:0:0:0:
99,128,133834,1,0,0:0:0:0:
48,188,133984,6,0,P|47:217|68:253,1,52.4999983978272,0|0,0:0|3:0,0:0:0:0:
123,281,134284,1,0,3:0:0:0:
125,202,134434,5,2,0:0:0:0:
234,361,153634,5,2,0:0:0:0:
227,354,153934,1,2,0:0:0:0:
220,347,154234,2,0,L|228:275,1,60,2|0,0:0|0:0,0:0:0:0:
144,304,154534,2,0,L|135:232,1,60,0|0,3:0|3:0,0:0:0:0:
212,203,154834,6,0,L|284:211,3,60,2|0|2|0,0:0|0:0|0:0|0:0,0:0:0:0:
315,137,155434,2,0,L|387:129,1,60,2|0,0:0|0:0,0:0:0:0:
358,213,155734,2,0,L|430:222,1,60,0|0,3:0|3:0,0:0:0:0:
457,146,156034,5,2,0:0:0:0:
450,139,156334,1,2,0:0:0:0:
443,132,156634,2,0,L|451:60,1,60,2|0,0:0|0:0,0:0:0:0:
357,38,156934,2,0,L|363:97,1,60,0|0,3:0|3:0,0:0:0:0:
271,132,157234,6,0,L|279:60,3,60,2|0|2|0,0:0|0:0|0:0|0:0,0:0:0:0:
212,19,157834,2,0,L|152:25,1,60,2|0,0:0|0:0,0:0:0:0:
125,105,158134,2,0,L|197:113,1,60,0|0,3:0|3:0,0:0:0:0:
209,191,158434,5,2,0:0:0:0:
216,198,158734,1,2,0:0:0:0:
223,205,159034,2,0,L|215:277,1,60,2|0,0:0|0:0,0:0:0:0:
299,248,159334,2,0,L|308:320,1,60,0|0,3:0|3:0,0:0:0:0:
386,272,159634,6,0,L|394:200,3,60,2|0|2|0,0:0|0:0|0:0|0:0,0:0:0:0:
320,169,160234,2,0,L|312:97,1,60,2|0,0:0|0:0,0:0:0:0:
396,126,160534,2,0,L|405:54,1,60,0|0,3:0|3:0,0:0:0:0:
329,27,160834,5,2,0:0:0:0:
322,34,161134,1,2,0:0:0:0:
315,41,161434,2,0,L|243:33,1,60,2|0,0:0|0:0,0:0:0:0:
221,127,161734,2,0,L|280:120,1,60,0|0,3:0|3:0,0:0:0:0:
313,214,162034,6,0,L|241:206,3,60,2|0|2|0,0:0|0:0|0:0|0:0,0:0:0:0:
200,273,162634,2,0,L|206:332,1,60,2|0,0:0|0:0,0:0:0:0:
286,360,162934,2,0,L|294:288,1,60,0|0,3:0|3:0,0:0:0:0:
372,267,163234,6,0,P|360:201|355:132,1,134.999995880127,2|2,3:2|0:0,0:0:0:0:
293,79,163684,1,0,3:0:0:0:
293,79,163834,2,0,P|259:81|226:87,1,67.4999979400635,2|0,0:0|0:0,0:0:0:0:
187,166,164134,2,0,P|153:163|120:157,1,67.4999979400635,0|0,3:0|3:0,0:0:0:0:
65,91,164434,6,0,P|36:134|64:223,1,134.999995880127,2|2,0:0|0:0,0:0:0:0:
133,246,164884,1,0,0:0:0:0:
133,246,165034,2,0,P|130:279|124:312,1,67.4999979400635,2|0,0:0|0:0,0:0:0:0:
206,346,165334,2,0,L|210:385,2,33.7499989700318,0|0|0,3:0|0:0|3:0,0:0:0:0:
267,282,165634,6,0,P|334:286|400:298,1,134.999995880127,2|2,0:0|0:0,0:0:0:0:
455,233,166084,1,0,3:0:0:0:
455,233,166234,2,0,P|452:199|446:166,1,67.4999979400635,2|0,0:0|0:0,0:0:0:0:
366,137,166534,2,0,P|368:103|374:70,1,67.4999979400635,0|0,3:0|3:0,0:0:0:0:
441,15,166834,6,0,P|397:-13|309:14,1,134.999995880127,2|2,0:0|0:0,0:0:0:0:
286,83,167284,1,0,0:0:0:0:
286,83,167434,2,0,P|252:80|219:74,1,67.4999979400635,2|0,0:0|0:0,0:0:0:0:
186,156,167734,2,0,L|146:160,2,33.7499989700318,0|0|0,3:0|0:0|3:0,0:0:0:0:
228,233,168034,6,0,L|217:320,1,67.4999979400635,0|8,3:0|3:2,0:0:0:0:
315,336,168334,2,0,L|306:269,1,67.4999979400635,0|8,3:0|3:2,0:0:0:0:
406,245,168634,2,0,L|395:332,1,67.4999979400635,0|8,3:0|3:2,0:0:0:0:
493,349,168934,2,0,L|484:282,1,67.4999979400635,0|8,3:0|3:2,0:0:0:0:
476,194,169234,6,0,P|449:169|412:157,1,67.4999979400635,0|8,3:0|3:2,0:0:0:0:
410,71,169534,2,0,P|375:81|346:107,1,67.4999979400635,0|8,3:0|3:2,0:0:0:0:
271,65,169834,2,0,P|263:100|271:138,1,67.4999979400635,0|8,3:0|3:2,0:0:0:0:
209,196,170134,2,0,L|205:236,2,33.7499989700318,0|0|8,3:0|0:0|3:2,0:0:0:0:
156,125,170434,6,0,P|121:117|83:125,1,67.4999979400635,0|8,3:0|3:2,0:0:0:0:
82,261,170734,2,0,P|106:234|118:197,1,67.4999979400635,0|8,3:0|3:2,0:0:0:0:
0,129,171034,2,0,P|10:163|36:192,1,67.4999979400635,0|8,3:0|3:2,0:0:0:0:
94,125,171334,1,0,3:0:0:0:
94,125,171484,1,8,3:2:0:0:
179,145,171634,6,0,L|245:136,1,67.4999979400635,0|8,3:0|3:2,0:0:0:0:
295,227,171934,2,0,L|228:218,1,67.4999979400635,0|8,3:0|3:2,0:0:0:0:
156,268,172234,1,0,3:0:0:0:
228,317,172384,1,8,3:2:0:0:
156,366,172534,2,0,L|89:357,1,67.4999979400635,0|8,3:0|3:2,0:0:0:0:
340,9,173884,5,0,3:0:0:0:
400,62,174034,2,0,B|392:138|392:138|425:200|425:200|334:212|334:212|334:216|334:216|334:212|334:212|293:217|293:217|301:149|301:149|227:157|227:157|220:167|220:167|145:177|145:177|136:169|136:169|45:180|45:180|98:199,1,674.999979400635,8|0,1:0|3:0,0:0:0:0:
148,255,176434,2,0,B|137:275|143:299|163:311|163:311|182:322|206:317|220:299|220:299|233:281|229:255|211:241|211:241|182:221|151:220|115:201|89:169|89:169|66:136|57:95|76:63|76:63|94:31|134:18|170:28|170:28|209:41|223:87,1,618.750018882752,8|0,1:0|0:0,0:0:0:0:
224,84,177634,6,0,L|287:76,1,60,0|0,3:0|0:0,0:0:0:0:
326,147,177934,2,0,L|260:156,1,67.4999979400635,0|0,3:0|0:0,0:0:0:0:
296,228,178234,2,0,L|373:218,1,75,0|0,3:0|0:0,0:0:0:0:
413,289,178534,2,0,L|332:300,1,82.5000025177003,0|0,3:0|3:0,0:0:0:0:
250,300,178834,6,0,B|146:310|146:310|135:329|135:329|21:343|21:343|3:329|3:329|0:305|0:305|14:286|14:286|104:275|104:275|118:257|118:257|167:251|167:251|181:233|181:233|138:156|138:156|161:70,1,674.999979400635,8|0,1:0|3:0,0:0:0:0:
127,0,181234,2,0,B|179:-7|215:15|215:15|250:34|270:74|265:114|261:137|241:154|217:156|217:156|194:157|179:140|165:120|159:79|179:38|217:19|217:19|253:-3|297:20|297:20|338:41|384:26,1,618.750018882752,8|0,1:0|0:0,0:0:0:0:
396,20,182434,5,0,3:0:0:0:
28,175,183484,1,0,3:0:0:0:
96,131,183634,6,0,B|66:77|66:77|16:42|16:42|107:30|107:30|146:11|146:11|226:2|226:2|220:44|220:44|209:60|209:60|203:102|203:102|220:139|220:139|167:203|167:203|184:241|184:241|172:312,1,674.999979400635,8|0,0:0|3:0,0:0:0:0:
226,370,186034,2,0,B|194:352|181:329|185:299|185:299|190:268|215:244|246:241|246:241|276:238|306:256|322:291|322:291|334:311|360:323|391:311|391:311|405:302|418:292|418:292|425:270|424:258|422:251|420:245|416:239|416:239|413:235|406:230|401:228|391:228|383:231|378:236|375:243|374:251|377:258|377:258|381:266|387:272|394:278|401:281|408:283|418:293|418:293|470:298|494:264,1,630.00000769043,8|0,1:0|0:0,0:0:0:0:
499,263,187234,5,0,3:0:0:0:
83,111,188284,1,0,3:0:0:0:
119,184,188434,6,0,B|224:202|224:202|240:185|240:185|230:140|230:140|238:131|238:131|307:129|307:129|315:137|315:137|309:183|309:183|317:199|317:199|379:187|379:187|391:95|391:95|422:186|422:186|422:186|422:186|397:273,1,674.999979400635,8|0,0:0|3:0,0:0:0:0:
342,332,190834,2,0,P|352:205|466:312,1,359.999989013672,8|0,1:0|0:0,0:0:0:0:
0,221,193084,5,0,3:0:0:0:
43,153,193234,2,0,B|8:87|8:87|16:77|16:77|127:64|127:64|137:71|137:71|125:186|125:186|135:193|135:193|220:183|220:183|228:173|228:173|214:131|214:131|259:143|259:143|300:121|300:121|345:133|345:133|394:109,1,674.999979400635,8|0,0:0|3:0,0:0:0:0:
400,32,195634,2,0,B|382:24|362:29|351:44|351:44|339:59|339:80|350:95|350:95|361:110|382:115|405:112|405:112|436:107|465:118|481:143|481:143|498:172|496:208|475:234|475:234|455:259|420:269|395:255|395:255|388:248|383:237|380:225|385:215|396:210|406:211|418:221|420:229|422:241|422:241|420:253|414:260|404:262|404:262|378:290|336:294,1,618.750018882752,8|0,1:0|0:0,0:0:0:0:
338,301,196834,6,0,L|330:360,1,60,0|0,3:0|0:0,0:0:0:0:
253,345,197134,2,0,L|262:279,1,67.4999979400635,0|0,3:0|0:0,0:0:0:0:
186,257,197434,2,0,L|176:331,1,75,0|0,3:0|0:0,0:0:0:0:
99,317,197734,2,0,L|110:235,1,82.5000025177003,0|0,3:0|3:0,0:0:0:0:
65,171,198034,6,0,B|37:167|37:167|30:158|30:158|39:94|39:94|48:87|48:87|111:95|111:95|118:104|118:104|166:110|166:110|175:103|175:103|182:39|182:39|191:32|191:32|223:36|223:36|230:45|230:45|218:140|218:140|225:149|225:149|257:153|257:153|266:146|266:146|279:43|279:43|305:87,1,674.999979400635,8|0,1:0|3:0,0:0:0:0:
378,111,200434,2,0,B|398:76|442:63|478:81|478:81|515:98|531:140|517:178|517:178|504:216|463:236|435:234|435:234|411:233|392:243|381:258|376:276|376:276|371:298|350:316|326:317|326:317|303:318|280:302|274:279|274:279|268:256|278:231|300:220,1,618.750018882752,8|0,1:0|0:0,0:0:0:0:
309,212,201634,5,0,3:0:0:0:
248,0,202684,1,0,3:0:0:0:
329,7,202834,6,0,B|376:1|376:1|385:8|385:8|390:47|390:47|383:56|383:56|296:67|296:67|331:159|331:159|284:165|284:165|254:189|254:189|220:173|220:173|172:179|172:179|174:130|174:130|166:123|166:123|126:128|126:128|125:124|125:124|126:128|126:128|86:133|86:133|79:142|79:142|94:197,1,674.999979400635,8|0,0:0|3:0,0:0:0:0:
59,258,205234,2,0,B|58:234|72:213|94:205|94:205|116:198|140:206|154:224|154:224|167:245|167:270|149:290|149:290|136:304|133:329|145:347|145:347|156:365|181:374|201:366|201:366|222:359|235:339|233:316|233:316|232:290|249:268|274:262|274:262|298:255|325:267|337:290|337:290|348:312|342:341|321:357,1,618.750018882752,8|0,1:0|0:0,0:0:0:0:
312,371,206434,6,0,L|375:363,3,60,0|0|0|0,3:0|0:0|3:0|0:0,0:0:0:0:
420,299,207034,2,0,L|483:291,3,60,0|0|0|0,3:0|0:0|3:0|3:0,0:0:0:0:
490,211,207634,6,0,B|491:155|491:155|482:148|482:148|396:159|396:159|389:167|389:167|412:220|412:220|357:227|357:227|348:220|348:220|302:226|302:226|295:234|295:234|248:240|248:240|271:301|271:301|264:309|264:309|171:321|171:321|162:314|162:314|169:242|169:242|158:212,1,674.999979400635,8|0,1:0|3:0,0:0:0:0:
84,184,210034,2,0,P|146:294|204:149,1,359.999989013672,8|12,1:0|0:0,0:0:0:0:
