osu file format v14

[General]
AudioFilename: audio.mp3
AudioLeadIn: 0
PreviewTime: 34
Countdown: 0
SampleSet: Soft
StackLeniency: 0.7
Mode: 0
LetterboxInBreaks: 0
WidescreenStoryboard: 1

[Editor]
Bookmarks: 34,9634,19234,28984,36034,38434,57634,76834,96034,115234,124834,134434,153634,163234,172834,174034,193234,211234
DistanceSpacing: 1.8
BeatDivisor: 4
GridSize: 8
TimelineZoom: 0.8999997

[Metadata]
Title:dragonlands
TitleUnicode:dragonlands
Artist:sakuraburst
ArtistUnicode:sakuraburst
Creator:GreenHue
Version:KKip's Insane
Source:osu!
Tags:Xenon- Xenon Xehn sammish Featured Artist FA ttlapik kkipalt prelude
BeatmapID:1971217
BeatmapSetID:882439

[Difficulty]
HPDrainRate:5
CircleSize:4.5
OverallDifficulty:7
ApproachRate:9
SliderMultiplier:1.63
SliderTickRate:1

[Events]
//Background and Video events
0,0,"tumblr_ovp2kgSy7Y1u3cyo2o1_1280.png",0,0
//Break Periods
//Storyboard Layer 0 (Background)
//Storyboard Layer 1 (Fail)
//Storyboard Layer 2 (Pass)
//Storyboard Layer 3 (Foreground)
//Storyboard Sound Samples

[TimingPoints]
34,300,4,2,0,57,1,0
34,-142.857142857143,4,2,0,57,0,0
19234,-117.647058823529,4,2,0,57,0,0
19384,-117.647058823529,4,2,0,47,0,0
36034,-117.647058823529,4,2,0,70,0,0
36484,-117.647058823529,4,2,0,75,0,0
36934,-117.647058823529,4,2,0,80,0,0
37384,-117.647058823529,4,2,0,85,0,0
37834,-117.647058823529,4,2,0,100,0,0
37984,-117.647058823529,4,2,0,65,0,0
38434,-100,4,2,0,95,0,1
47434,-125,4,2,0,95,0,0
48034,-100,4,2,0,95,0,1
52534,-151.515151515152,4,2,0,95,0,1
52834,-100,4,2,0,95,0,1
57034,-100,4,2,0,95,0,0
57634,-100,4,2,0,95,0,1
66634,-125,4,2,0,95,0,0
67234,-100,4,2,0,95,0,1
76234,-100,4,2,0,95,0,0
76834,-100,4,2,0,95,0,0
96034,-66.6666666666667,4,2,0,95,0,0
96334,-133.333333333333,4,2,0,95,0,0
96634,-133.333333333333,4,2,0,95,0,0
97234,-66.6666666666667,4,2,0,95,0,0
97834,-133.333333333333,4,2,0,95,0,0
98434,-66.6666666666667,4,2,0,95,0,0
99034,-133.333333333333,4,2,0,95,0,0
99634,-66.6666666666667,4,2,0,95,0,0
100234,-133.333333333333,4,2,0,95,0,0
100834,-66.6666666666667,4,2,0,95,0,0
101434,-133.333333333333,4,2,0,95,0,0
102034,-66.6666666666667,4,2,0,95,0,0
102634,-133.333333333333,4,2,0,95,0,0
103234,-66.6666666666667,4,2,0,95,0,0
103834,-133.333333333333,4,2,0,95,0,0
104434,-66.6666666666667,4,2,0,95,0,0
105034,-133.333333333333,4,2,0,95,0,0
105634,-100,4,2,0,95,0,0
115234,-142.857142857143,4,2,0,95,0,0
134434,-1000,4,2,0,95,0,0
144034,-666.666666666667,4,2,0,95,0,0
153634,-125,4,2,0,95,0,0
163234,-111.111111111111,4,2,0,95,0,0
168034,-111.111111111111,4,2,0,55,0,0
170134,-111.111111111111,4,2,0,60,0,0
171334,-111.111111111111,4,2,0,65,0,0
174034,-200,4,2,0,65,0,1
176434,-66.6666666666667,4,2,0,65,0,1
177634,-125,4,2,0,65,0,1
177934,-111.111111111111,4,2,0,65,0,1
178234,-100,4,2,0,65,0,1
178534,-90.9090909090909,4,2,0,65,0,1
178834,-200,4,2,0,65,0,1
181234,-66.6666666666667,4,2,0,65,0,1
183634,-200,4,2,0,65,0,1
186034,-66.6666666666667,4,2,0,65,0,1
188434,-200,4,2,0,65,0,1
193234,-200,4,2,0,65,0,1
195634,-66.6666666666667,4,2,0,65,0,1
196834,-125,4,2,0,65,0,1
197134,-111.111111111111,4,2,0,65,0,1
197434,-100,4,2,0,65,0,1
197734,-90.9090909090909,4,2,0,65,0,1
198034,-200,4,2,0,65,0,1
200434,-66.6666666666667,4,2,0,65,0,1
202084,-200,4,2,0,65,0,1
202834,-200,4,2,0,65,0,1
205234,-66.6666666666667,4,2,0,65,0,1
206434,-200,4,2,0,65,0,1
207634,-200,4,2,0,65,0,1
211234,-100,4,2,0,65,0,0

[Colours]
Combo1 : 255,168,81
Combo2 : 255,151,151
Combo3 : 255,232,138
Combo4 : 241,122,92

[HitObjects]
249,289,34,6,0,P|277:293|304:302,2,57.0499982589722,0|0|0,0:0|0:0|0:0,0:0:0:0:
117,219,484,2,0,P|47:267|16:267,2,114.099996517944,0|0|0,0:0|0:0|3:0,0:0:0:0:
191,233,1234,2,0,L|185:176,1,57.0499982589722,0|0,0:0|0:0,0:0:0:0:
160,104,1534,1,0,0:0:0:0:
232,120,1684,1,0,0:0:0:0:
210,50,1834,1,0,0:0:0:0:
210,50,2134,1,0,3:0:0:0:
210,50,2284,1,0,3:0:0:0:
284,68,2434,6,0,P|312:64|339:55,1,57.0499982589722,0|0,0:0|0:0,0:0:0:0:
392,0,2734,1,0,0:0:0:0:
466,144,2884,2,0,P|412:161|372:120,2,114.099996517944,0|0|0,0:0|0:0|3:0,0:0:0:0:
506,215,3634,1,0,0:0:0:0:
506,215,3784,1,0,0:0:0:0:
460,278,3934,1,0,0:0:0:0:
384,279,4084,1,0,0:0:0:0:
356,205,4234,1,0,0:0:0:0:
356,205,4534,2,0,L|343:272,1,57.0499982589722,0|0,3:0|3:0,0:0:0:0:
207,378,4834,6,0,P|179:374|152:365,2,57.0499982589722,0|0|0,0:0|0:0|0:0,0:0:0:0:
250,239,5284,2,0,P|180:287|149:287,2,114.099996517944,0|0|0,0:0|0:0|3:0,0:0:0:0:
247,164,6034,2,0,L|190:158,1,57.0499982589722,0|0,0:0|0:0,0:0:0:0:
122,118,6334,1,0,0:0:0:0:
74,178,6484,1,0,0:0:0:0:
8,157,6634,1,0,0:0:0:0:
8,157,6934,1,0,3:0:0:0:
8,157,7084,1,0,3:0:0:0:
0,81,7234,6,0,P|9:53|13:25,2,57.0499982589722,0|0|0,0:0|0:0|0:0,0:0:0:0:
74,178,7684,2,0,P|91:231|50:272,2,114.099996517944,0|0|0,0:0|0:0|3:0,0:0:0:0:
122,118,8434,1,0,0:0:0:0:
122,118,8584,1,0,0:0:0:0:
190,158,8734,1,0,0:0:0:0:
255,105,8884,1,0,0:0:0:0:
230,31,9034,1,0,0:0:0:0:
386,54,9184,1,0,0:0:0:0:
336,118,9334,1,0,3:0:0:0:
255,105,9484,1,0,3:0:0:0:
364,192,9634,6,0,P|392:196|419:205,2,57.0499982589722,0|0|0,0:0|0:0|0:0,0:0:0:0:
271,320,10084,2,0,P|311:281|367:271,2,114.099996517944,0|0|0,0:0|0:0|3:0,0:0:0:0:
196,344,10834,2,0,L|202:287,1,57.0499982589722,0|0,0:0|0:0,0:0:0:0:
106,255,11134,1,0,0:0:0:0:
122,327,11284,1,0,0:0:0:0:
52,309,11434,1,0,0:0:0:0:
52,309,11734,1,0,3:0:0:0:
52,309,11884,1,0,3:0:0:0:
106,255,12034,6,0,P|96:227|92:199,1,57.0499982589722,0|0,0:0|0:0,0:0:0:0:
124,132,12334,1,0,0:0:0:0:
0,46,12484,2,0,P|54:29|94:70,2,114.099996517944,0|0|0,0:0|0:0|3:0,0:0:0:0:
36,115,13234,1,0,0:0:0:0:
36,115,13384,1,0,0:0:0:0:
92,65,13534,1,0,0:0:0:0:
157,109,13684,1,0,0:0:0:0:
217,60,13834,1,0,0:0:0:0:
217,60,14134,2,0,L|204:-7,1,57.0499982589722,0|0,3:0|3:0,0:0:0:0:
327,121,14434,6,0,P|300:112|272:108,2,57.0499982589722,0|0|0,0:0|0:0|0:0,0:0:0:0:
410,235,14884,2,0,P|480:187|511:187,2,114.099996517944,0|0|0,0:0|0:0|3:0,0:0:0:0:
379,301,15634,2,0,L|385:358,1,57.0499982589722,0|0,0:0|0:0,0:0:0:0:
307,283,15934,1,0,0:0:0:0:
258,339,16084,1,0,0:0:0:0:
188,327,16234,1,0,0:0:0:0:
188,327,16534,1,0,3:0:0:0:
188,327,16684,1,0,3:0:0:0:
162,251,16834,6,0,P|171:223|175:195,2,57.0499982589722,0|0|0,0:0|0:0|0:0,0:0:0:0:
0,291,17284,2,0,P|-17:344|24:385,2,114.099996517944,0|0|0,0:0|0:0|3:0,0:0:0:0:
56,235,18034,1,0,0:0:0:0:
56,235,18184,1,0,0:0:0:0:
3,174,18334,2,0,L|17:113,2,57.0499982589722,0|0|0,0:0|0:0|0:0,0:0:0:0:
56,235,18784,1,0,0:0:0:0:
180,121,18934,1,0,3:0:0:0:
159,222,19084,1,0,3:0:0:0:
141,51,19234,5,0,3:0:0:0:
141,51,19384,2,0,B|175:84|175:84|232:116|332:86|336:40,1,207.825003963947,2|0,0:0|0:0,0:0:0:0:
326,46,20284,1,2,3:2:0:0:
364,185,20434,2,0,P|380:135|436:139,1,103.912501981974,2|0,0:0|0:0,0:0:0:0:
434,121,20734,2,0,P|469:159|437:206,1,103.912501981974,2|0,0:0|0:0,0:0:0:0:
454,213,21034,2,0,P|402:224|378:173,1,103.912501981974,2|0,0:0|0:0,0:0:0:0:
364,185,21334,1,2,3:2:0:0:
247,271,21484,1,0,3:0:0:0:
363,301,21634,1,2,0:0:0:0:
363,301,21784,2,0,B|329:268|329:268|213:291,1,138.550002642632,2|0,0:0|0:0,0:0:0:0:
92,325,22234,2,0,B|126:358|126:358|200:354,1,103.912501981974,2|0,0:0|0:0,0:0:0:0:
190,345,22534,1,2,3:2:0:0:
35,372,22684,2,0,B|49:353|49:353|49:220,1,138.550002642632,0|0,3:0|0:0,0:0:0:0:
13,151,23134,2,0,P|61:166|160:136,1,138.550002642632,2|2,0:0|0:0,0:0:0:0:
286,52,23584,1,2,0:0:0:0:
269,129,23734,1,2,3:2:0:0:
398,99,23884,1,2,3:2:0:0:
449,159,24034,5,2,0:0:0:0:
449,159,24184,2,0,B|412:119|412:119|419:18|512:31,1,207.825003963947,2|0,0:0|0:0,0:0:0:0:
497,23,25084,1,2,3:2:0:0:
510,212,25234,2,0,P|461:205|448:158,1,103.912501981974,2|0,0:0|0:0,0:0:0:0:
440,147,25534,2,0,P|488:153|501:200,1,103.912501981974,2|0,0:0|0:0,0:0:0:0:
427,220,25834,2,0,P|368:216|309:225,1,103.912501981974,2|0,0:0|0:0,0:0:0:0:
314,235,26134,1,2,3:2:0:0:
455,303,26284,1,0,3:0:0:0:
299,359,26434,1,2,0:0:0:0:
299,359,26584,2,0,B|332:325|332:325|309:209,1,138.550002642632,2|0,0:0|0:0,0:0:0:0:
156,280,27034,2,0,B|190:313|190:313|264:309,1,103.912501981974,2|0,0:0|0:0,0:0:0:0:
254,300,27334,1,2,3:2:0:0:
103,216,27484,2,0,B|75:276|75:276|99:344,1,138.550002642632,0|0,3:0|0:0,0:0:0:0:
217,237,27934,2,0,P|214:202|201:170,1,69.2750013213158,2|0,0:0|0:0,0:0:0:0:
82,142,28234,1,2,0:0:0:0:
177,46,28384,1,2,0:0:0:0:
153,117,28534,1,2,3:2:0:0:
173,34,28684,1,2,3:2:0:0:
56,43,28834,1,2,0:0:0:0:
234,99,28984,6,0,B|332:73|332:73|369:90,2,138.550002642632,2|0|8,0:0|0:0|0:0,0:0:0:0:
392,221,29884,1,2,0:0:0:0:
454,171,30034,2,0,P|468:202|450:275,1,103.912501981974,10|0,0:0|0:0,0:0:0:0:
461,284,30334,2,0,P|440:311|368:332,1,103.912501981974,2|0,0:0|0:0,0:0:0:0:
363,340,30634,1,2,0:0:0:0:
296,293,30784,1,8,0:0:0:0:
187,356,30934,1,2,0:0:0:0:
79,321,31084,2,0,L|89:288,2,34.6375006606579,0|0|0,0:0|0:0|0:0,0:0:0:0:
8,218,31384,2,0,P|60:254|132:208,1,138.550002642632,2|0,0:0|0:0,0:0:0:0:
55,84,31834,1,2,0:0:0:0:
98,149,31984,2,0,P|75:124|66:91,1,69.2750013213158,8|0,0:0|0:0,0:0:0:0:
211,94,32284,1,2,0:0:0:0:
176,164,32434,2,0,P|186:131|210:106,1,69.2750013213158,8|0,0:0|0:0,0:0:0:0:
201,0,32734,2,0,P|218:63|283:76,1,138.550002642632,2|2,0:0|0:0,0:0:0:0:
339,24,33184,1,10,0:0:0:0:
424,155,33334,1,2,0:0:0:0:
491,102,33484,2,0,L|477:53,2,34.6375006606579,2|0|8,0:0|0:0|0:0,0:0:0:0:
351,210,33784,6,0,P|436:204|450:216,1,103.912501981974,2|0,0:0|0:0,0:0:0:0:
466,243,34084,2,0,L|452:292,2,34.6375006606579,0|0|0,0:0|0:0|0:0,0:0:0:0:
322,314,34384,1,8,0:0:0:0:
322,314,34684,1,2,0:0:0:0:
368,377,34834,2,0,P|287:359|248:373,1,103.912501981974,8|0,0:0|0:0,0:0:0:0:
253,355,35134,2,0,P|172:373|133:359,1,103.912501981974,2|0,0:0|0:0,0:0:0:0:
136,353,35434,1,2,0:0:0:0:
162,282,35584,1,8,0:0:0:0:
28,164,35734,1,0,0:0:0:0:
90,294,35884,1,8,0:0:0:0:
218,196,36034,5,8,0:0:0:0:
15,169,36184,2,0,P|67:205|139:159,1,138.550002642632,8|8,0:0|0:0,0:0:0:0:
226,33,36634,2,0,P|269:16|316:14,2,69.2750013213158,8|0|8,0:0|0:0|0:0,0:0:0:0:
212,113,37084,1,8,0:0:0:0:
132,50,37234,1,0,0:0:0:0:
212,127,37384,1,8,0:0:0:0:
429,37,37534,2,0,L|415:152,1,103.912501981974,8|0,0:0|0:0,0:0:0:0:
407,147,37834,1,0,1:0:0:0:
484,127,37984,1,2,3:0:0:0:
407,147,38134,1,2,3:0:0:0:
328,160,38284,1,2,3:0:0:0:
407,147,38434,6,0,L|422:206,1,40.75,0|0,3:0|0:0,0:0:0:0:
468,262,38584,2,0,P|403:226|330:247,1,122.25,2|0,0:0|0:0,0:0:0:0:
350,243,38884,1,0,3:0:0:0:
257,371,39034,2,0,L|263:340,1,20.375,8|0,1:0|0:0,0:0:0:0:
247,366,39334,2,0,L|236:326,1,40.75,0|0,3:0|0:0,0:0:0:0:
215,230,39484,2,0,P|158:282|87:252,1,163,2|2,0:0|0:0,0:0:0:0:
144,210,39934,1,0,3:0:0:0:
144,210,40084,1,0,3:0:0:0:
257,371,40234,2,0,L|263:340,1,20.375,8|0,1:0|0:0,0:0:0:0:
454,339,40534,2,0,B|396:357|396:357|327:332,1,122.25,2|0,0:0|0:0,0:0:0:0:
331,327,40834,1,0,3:0:0:0:
373,151,40984,2,0,L|395:288,1,122.25,2|0,0:0|0:0,0:0:0:0:
383,261,41284,2,0,L|337:254,1,27.1666666666667,0|0,3:0|0:0,0:0:0:0:
451,209,41434,2,0,L|457:178,1,20.375,8|0,1:0|0:0,0:0:0:0:
463,211,41734,2,0,L|452:171,1,40.75,0|0,3:0|0:0,0:0:0:0:
512,39,41884,2,0,P|492:77|397:75,1,122.25,2|0,0:0|0:0,0:0:0:0:
413,81,42184,1,0,0:0:0:0:
292,159,42334,2,0,P|365:150|403:152,1,81.5,2|0,0:0|3:0,0:0:0:0:
463,211,42634,2,0,B|482:170|482:170|478:129,1,81.5,0|0,1:0|0:0,0:0:0:0:
256,38,42934,2,0,B|270:93|261:131|261:131|288:166,1,122.25,2|0,0:0|0:0,0:0:0:0:
292,159,43234,6,0,L|238:166,1,40.75,0|0,3:0|0:0,0:0:0:0:
44,122,43384,2,0,P|109:158|182:137,1,122.25,2|0,0:0|0:0,0:0:0:0:
163,140,43684,1,0,3:0:0:0:
256,38,43834,2,0,L|259:17,1,20.375,8|0,1:0|0:0,0:0:0:0:
247,48,44134,2,0,L|249:92,1,40.75,0|0,3:0|0:0,0:0:0:0:
420,137,44284,2,0,P|349:106|292:159,1,163,2|2,0:0|0:0,0:0:0:0:
363,179,44734,1,0,3:0:0:0:
363,179,44884,1,0,3:0:0:0:
255,37,45034,2,0,L|259:17,1,20.375,8|0,1:0|0:0,0:0:0:0:
54,90,45334,2,0,L|174:70,1,122.25,2|0,0:0|0:0,0:0:0:0:
174,57,45634,1,0,3:0:0:0:
148,277,45784,2,0,L|128:156,1,122.25,2|0,0:0|0:0,0:0:0:0:
140,148,46084,2,0,L|166:152,1,27.1666666666667,0|0,3:0|0:0,0:0:0:0:
57,195,46234,2,0,L|61:175,1,20.375,8|0,1:0|0:0,0:0:0:0:
48,206,46534,2,0,L|54:247,1,40.75,0|0,3:0|0:0,0:0:0:0:
0,379,46684,2,0,P|23:342|127:382,1,163,2|0,0:0|0:0,0:0:0:0:
284,258,47134,1,2,0:0:0:0:
198,382,47284,1,0,3:0:0:0:
57,195,47434,2,0,B|77:229|77:229|299:245,1,260.8,0|0,1:0|0:0,0:0:0:0:
399,273,48184,6,0,P|363:208|384:135,1,122.25,2|0,0:0|0:0,0:0:0:0:
380,155,48484,1,0,3:0:0:0:
275,34,48634,2,0,L|272:55,1,20.375,8|0,1:0|0:0,0:0:0:0:
262,50,48934,2,0,L|251:10,1,40.75,0|0,3:0|0:0,0:0:0:0:
185,174,49084,2,0,P|128:226|57:196,1,163,2|2,0:0|0:0,0:0:0:0:
114,154,49534,1,0,3:0:0:0:
114,154,49684,1,0,3:0:0:0:
275,34,49834,2,0,L|272:55,1,20.375,8|0,1:0|0:0,0:0:0:0:
448,104,50134,2,0,B|390:86|390:86|321:111,1,122.25,2|0,0:0|0:0,0:0:0:0:
325,116,50434,1,0,3:0:0:0:
373,286,50584,2,0,L|393:166,1,122.25,2|0,0:0|0:0,0:0:0:0:
383,174,50884,2,0,L|357:179,1,27.1666666666667,0|0,3:0|0:0,0:0:0:0:
460,203,51034,2,0,L|457:224,1,20.375,8|0,1:0|0:0,0:0:0:0:
474,209,51334,2,0,L|485:249,1,40.75,0|0,3:0|0:0,0:0:0:0:
512,384,51484,2,0,P|480:355|391:389,1,122.25,2|0,0:0|0:0,0:0:0:0:
403,377,51784,1,0,0:0:0:0:
218,249,51934,2,0,P|291:258|329:256,1,81.5,2|0,0:0|3:0,0:0:0:0:
460,203,52234,2,0,B|441:244|441:244|445:285,1,81.5,8|0,1:0|0:0,0:0:0:0:
334,329,52534,2,0,P|293:327|253:336,1,80.6849997537689,2|0,0:0|0:0,0:0:0:0:
245,327,52834,6,0,L|191:334,1,40.75,0|0,3:0|0:0,0:0:0:0:
33,221,52984,2,0,P|98:185|171:206,1,122.25,2|0,0:0|0:0,0:0:0:0:
152,203,53284,1,0,3:0:0:0:
254,337,53434,2,0,L|257:357,1,20.375,8|0,1:0|0:0,0:0:0:0:
245,327,53734,2,0,L|253:283,1,40.75,0|0,3:0|0:0,0:0:0:0:
344,186,53884,2,0,P|272:216|215:164,1,163,2|2,0:0|0:0,0:0:0:0:
287,145,54334,1,0,3:0:0:0:
287,145,54484,1,0,3:0:0:0:
254,337,54634,2,0,L|257:357,1,20.375,8|0,1:0|0:0,0:0:0:0:
46,344,54934,2,0,L|166:324,1,122.25,2|0,0:0|0:0,0:0:0:0:
166,311,55234,1,0,3:0:0:0:
139,108,55384,2,0,L|119:228,1,122.25,2|0,0:0|0:0,0:0:0:0:
131,237,55684,2,0,L|157:232,1,27.1666666666667,0|0,3:0|0:0,0:0:0:0:
41,209,55834,2,0,L|44:229,1,20.375,8|0,1:0|0:0,0:0:0:0:
31,199,56134,2,0,L|37:158,1,40.75,0|0,3:0|0:0,0:0:0:0:
0,2,56284,2,0,P|20:40|120:8,1,163,2|0,0:0|0:0,0:0:0:0:
117,14,56659,1,0,0:0:0:0:
117,14,56734,1,2,0:0:0:0:
204,34,56884,1,0,3:0:0:0:
31,199,57034,2,0,B|51:165|51:165|119:147,1,81.5,8|0,1:0|3:0,0:0:0:0:
279,164,57334,2,8,B|238:153|238:153|218:119,1,81.5,2|0,3:2|3:0,0:0:0:0:
424,214,57634,5,0,3:0:0:0:
424,214,57709,1,0,0:0:0:0:
424,214,57784,2,0,P|355:160|365:111,1,122.25,2|0,0:0|0:0,0:0:0:0:
359,123,58084,1,0,3:0:0:0:
506,47,58234,2,0,L|512:16,1,20.375,8|0,1:0|0:0,0:0:0:0:
496,50,58534,2,0,L|507:90,1,40.75,0|0,3:0|0:0,0:0:0:0:
424,214,58684,2,0,P|492:249|489:326,1,163,2|2,0:0|0:0,0:0:0:0:
512,206,59134,1,0,3:0:0:0:
512,206,59284,1,0,3:0:0:0:
506,47,59434,2,0,L|512:16,1,20.375,8|0,1:0|0:0,0:0:0:0:
424,214,59734,2,0,B|366:232|366:232|297:207,1,122.25,2|0,0:0|0:0,0:0:0:0:
300,198,60034,1,0,3:0:0:0:
312,349,60184,2,0,B|369:328|369:328|427:346,1,122.25,2|0,0:0|0:0,0:0:0:0:
430,359,60484,2,0,L|384:352,1,27.1666666666667,0|0,3:0|0:0,0:0:0:0:
509,384,60634,2,0,L|515:353,1,20.375,8|0,1:0|0:0,0:0:0:0:
510,354,60934,2,0,L|499:314,1,40.75,0|0,3:0|0:0,0:0:0:0:
424,214,61084,2,0,P|386:194|388:99,1,122.25,2|0,0:0|0:0,0:0:0:0:
382,115,61384,1,0,0:0:0:0:
503,197,61534,2,0,P|510:237|511:277,1,81.5,2|0,0:0|3:0,0:0:0:0:
509,384,61834,2,0,B|468:365|468:365|427:369,1,81.5,8|0,1:0|0:0,0:0:0:0:
294,384,62134,2,0,B|308:329|299:291|299:291|326:256,1,122.25,2|0,0:0|0:0,0:0:0:0:
330,263,62434,6,0,L|276:256,1,40.75,0|0,3:0|0:0,0:0:0:0:
218,337,62584,2,0,P|153:373|80:352,1,122.25,2|0,0:0|0:0,0:0:0:0:
99,355,62884,1,0,3:0:0:0:
11,321,63034,2,0,L|14:300,1,20.375,8|0,1:0|0:0,0:0:0:0:
2,331,63334,2,0,L|4:375,1,40.75,0|0,3:0|0:0,0:0:0:0:
0,202,63484,2,0,P|71:233|128:180,1,163,2|2,0:0|0:0,0:0:0:0:
57,160,63934,1,0,3:0:0:0:
57,160,64084,1,0,3:0:0:0:
10,320,64234,2,0,L|14:300,1,20.375,8|0,1:0|0:0,0:0:0:0:
172,259,64534,2,0,L|292:239,1,122.25,2|0,0:0|0:0,0:0:0:0:
309,253,64834,1,0,3:0:0:0:
167,180,64984,2,0,L|147:59,1,122.25,2|0,0:0|0:0,0:0:0:0:
135,48,65284,2,0,L|109:44,1,27.1666666666667,0|0,3:0|0:0,0:0:0:0:
30,19,65434,2,0,L|34:-1,1,20.375,8|0,1:0|0:0,0:0:0:0:
21,30,65734,2,0,L|27:71,1,40.75,0|0,3:0|0:0,0:0:0:0:
167,180,65884,2,0,L|147:59,1,122.25,2|0,0:0|0:0,0:0:0:0:
135,48,66334,1,2,0:0:0:0:
241,71,66484,1,0,3:0:0:0:
28,18,66634,2,0,B|48:52|48:52|270:68,1,260.8,8|0,1:0|0:0,0:0:0:0:
386,156,67384,6,0,P|451:120|524:141,1,122.25,2|0,0:0|0:0,0:0:0:0:
504,137,67684,1,0,3:0:0:0:
490,25,67834,2,0,L|511:22,1,20.375,8|0,1:0|0:0,0:0:0:0:
506,12,68134,2,0,L|466:1,1,40.75,0|0,3:0|0:0,0:0:0:0:
347,97,68284,2,0,P|316:168|368:225,1,163,2|2,0:0|0:0,0:0:0:0:
394,157,68734,1,0,3:0:0:0:
394,157,68884,1,0,3:0:0:0:
490,25,69034,2,0,L|511:22,1,20.375,8|0,1:0|0:0,0:0:0:0:
484,228,69334,2,0,B|426:246|426:246|357:221,1,122.25,2|0,0:0|0:0,0:0:0:0:
352,228,69634,1,0,3:0:0:0:
279,351,69784,2,0,L|399:371,1,122.25,2|0,0:0|0:0,0:0:0:0:
391,361,70084,2,0,L|386:335,1,27.1666666666667,0|0,3:0|0:0,0:0:0:0:
467,330,70234,2,0,L|488:327,1,20.375,8|0,1:0|0:0,0:0:0:0:
463,341,70534,2,0,L|474:301,1,40.75,0|0,3:0|0:0,0:0:0:0:
352,228,70684,2,0,P|320:199|231:233,1,122.25,2|0,0:0|0:0,0:0:0:0:
243,221,70984,1,0,0:0:0:0:
198,359,71134,2,0,P|238:357|278:350,1,81.5,2|0,0:0|3:0,0:0:0:0:
468,335,71434,2,0,B|464:298|464:298|483:257,1,81.5,8|0,1:0|0:0,0:0:0:0:
358,147,71734,2,0,P|360:188|351:228,1,81.5,2|0,0:0|3:0,0:0:0:0:
360,236,72034,6,0,L|308:244,1,40.75,0|0,3:0|0:0,0:0:0:0:
197,282,72184,2,0,P|132:246|59:267,1,122.25,2|0,0:0|0:0,0:0:0:0:
78,264,72484,1,0,3:0:0:0:
20,369,72634,2,0,L|0:372,1,20.375,8|0,1:0|0:0,0:0:0:0:
30,359,72934,2,0,L|22:318,1,40.75,0|0,3:0|0:0,0:0:0:0:
78,264,73084,2,0,P|131:214|100:135,1,163,2|2,0:0|0:0,0:0:0:0:
60,193,73534,1,0,3:0:0:0:
60,193,73684,1,0,3:0:0:0:
20,369,73834,2,0,L|0:372,1,20.375,8|0,1:0|0:0,0:0:0:0:
210,208,74134,2,0,L|190:88,1,122.25,2|0,0:0|0:0,0:0:0:0:
197,78,74434,1,0,3:0:0:0:
101,1,74584,2,0,L|81:121,1,122.25,2|0,0:0|0:0,0:0:0:0:
93,130,74884,2,0,L|119:125,1,27.1666666666667,0|0,3:0|0:0,0:0:0:0:
15,71,75034,2,0,L|12:51,1,20.375,8|0,1:0|0:0,0:0:0:0:
2,41,75334,2,0,L|56:56,1,40.75,0|0,3:0|0:0,0:0:0:0:
198,80,75484,2,0,P|218:42|318:74,1,163,2|0,0:0|0:0,0:0:0:0:
315,68,75859,1,0,0:0:0:0:
315,68,75934,1,2,0:0:0:0:
268,151,76084,1,0,3:0:0:0:
347,276,76234,2,0,B|306:287|306:287|272:267,1,81.5,8|0,1:0|0:0,0:0:0:0:
281,160,76534,2,0,B|318:146|318:146|356:164,1,81.5,2|0,0:0|3:0,0:0:0:0:
357,285,76834,5,2,3:2:0:0:
116,371,77134,2,0,P|132:311|83:277,1,122.25,2|0,3:2|0:0,0:0:0:0:
69,284,77434,1,8,0:0:0:0:
0,0,77734,1,0,3:0:0:0:
122,22,77884,2,0,B|110:81|126:129|126:129|98:122,1,122.25,2|0,0:0|0:0,0:0:0:0:
100,136,78184,2,0,P|41:132|11:132,2,81.5,0|2|0,3:0|3:2|3:0,0:0:0:0:
159,197,78634,1,8,0:0:0:0:
390,22,78934,6,0,B|404:84|386:129|386:129|412:113|455:126,1,163,2|2,0:0|3:2,0:0:0:0:
477,198,79534,2,0,P|483:158|458:127,1,81.5,2|0,3:2|0:0,0:0:0:0:
438,121,79834,1,8,0:0:0:0:
217,4,80134,1,0,3:0:0:0:
122,22,80284,2,0,B|110:81|126:129|126:129|98:122,1,122.25,2|0,0:0|0:0,0:0:0:0:
100,136,80584,2,0,P|41:132|11:132,2,81.5,0|2|0,3:0|3:2|3:0,0:0:0:0:
159,197,81034,1,8,0:0:0:0:
159,197,81184,1,0,0:0:0:0:
281,290,81334,6,0,L|259:115,1,163,2|2,0:0|3:2,0:0:0:0:
306,34,81934,2,0,B|324:96|324:96|281:134,1,122.25,2|0,3:2|0:0,0:0:0:0:
260,128,82234,1,8,0:0:0:0:
129,314,82534,1,0,3:0:0:0:
110,221,82684,2,0,B|86:267|106:328|106:328|135:320,1,122.25,2|0,0:0|0:0,0:0:0:0:
129,314,82984,2,0,P|169:314|210:318,2,81.5,0|2|0,3:0|3:2|3:0,0:0:0:0:
40,368,83434,1,8,0:0:0:0:
375,223,83734,6,0,B|389:285|371:330|371:330|353:308|315:298,1,163,2|2,0:0|3:2,0:0:0:0:
443,357,84334,2,0,B|396:312|396:312|338:312,1,122.25,2|0,3:2|0:0,0:0:0:0:
325,301,84634,1,8,0:0:0:0:
77,146,84934,1,0,3:0:0:0:
110,221,85084,2,0,B|86:267|106:328|106:328|135:320,1,122.25,2|0,0:0|0:0,0:0:0:0:
110,311,85384,2,0,P|51:307|21:307,2,81.5,0|2|0,3:0|3:2|3:0,0:0:0:0:
110,221,85834,1,8,0:0:0:0:
110,221,85984,1,0,0:0:0:0:
258,384,86134,6,0,L|280:209,1,163,2|2,0:0|3:2,0:0:0:0:
232,129,86734,2,0,P|214:190|257:229,1,122.25,2|0,3:2|0:0,0:0:0:0:
278,222,87034,1,8,0:0:0:0:
512,52,87334,1,0,3:0:0:0:
403,27,87484,2,0,B|459:42|424:90|438:122|466:124|478:101,1,122.25,2|0,0:0|0:0,0:0:0:0:
467,130,87784,1,0,3:0:0:0:
315,155,87934,2,0,P|355:155|396:159,1,81.5,2|0,3:2|3:0,0:0:0:0:
278,222,88234,1,8,0:0:0:0:
112,46,88534,6,0,B|40:59|85:119|67:159|32:162|19:147,1,163,2|2,0:0|3:2,0:0:0:0:
20,149,89134,2,0,P|58:105|113:123,1,122.25,2|0,3:2|0:0,0:0:0:0:
119,149,89434,1,8,0:0:0:0:
303,5,89734,1,0,3:0:0:0:
403,27,89884,2,0,B|459:42|424:90|438:122|466:124|478:101,1,122.25,2|0,0:0|0:0,0:0:0:0:
467,130,90184,1,0,3:0:0:0:
315,155,90334,2,0,P|355:155|396:159,1,81.5,2|0,3:2|3:0,0:0:0:0:
456,205,90634,1,8,0:0:0:0:
273,293,90934,6,0,B|264:220|264:220|241:200|241:200|234:134,1,163,2|2,0:0|3:2,0:0:0:0:
188,47,91534,2,0,B|170:109|170:109|213:147,1,122.25,2|0,3:2|0:0,0:0:0:0:
234,141,91834,1,8,0:0:0:0:
470,225,92134,1,0,3:0:0:0:
382,251,92284,2,0,B|433:265|402:309|436:309|446:342|423:365,1,122.25,2|0,0:0|0:0,0:0:0:0:
421,363,92584,1,0,3:0:0:0:
270,315,92734,2,0,P|309:317|350:323,1,81.5,2|0,3:2|3:0,0:0:0:0:
235,382,93034,1,8,0:0:0:0:
140,215,93334,6,0,B|74:232|115:288|71:288|58:331|87:360,1,163,2|2,0:0|3:2,0:0:0:0:
80,351,93934,2,0,P|97:295|53:258,1,122.25,2|0,3:2|0:0,0:0:0:0:
22,259,94234,1,8,0:0:0:0:
344,337,94534,1,0,3:0:0:0:
382,251,94684,2,0,B|433:265|402:309|436:309|446:342|423:365,1,122.25,2|0,0:0|0:0,0:0:0:0:
421,363,94984,1,0,3:0:0:0:
270,315,95134,2,0,P|309:317|350:323,1,81.5,2|0,3:2|3:0,0:0:0:0:
253,197,95434,1,8,0:0:0:0:
253,197,95584,1,0,0:0:0:0:
199,375,95734,2,0,B|201:325|201:325|231:308|231:308|233:253,1,122.25,2|0,0:0|0:0,0:0:0:0:
201,250,96034,6,0,P|178:191|387:133,1,366.750013990403,6|0,3:2|0:0,0:0:0:0:
314,172,96634,2,0,P|228:168|200:250,1,183.375006995201,12|2,0:0|0:0,0:0:0:0:
258,311,97234,2,0,B|276:265|252:207|182:206|137:222|128:289|128:289|124:328|87:336|55:328|42:309|50:265,1,366.750013990403,4|0,0:0|3:0,0:0:0:0:
95,168,97834,2,0,P|15:194|5:115,1,183.375006995201,12|0,0:0|0:0,0:0:0:0:
181,16,98434,6,0,P|158:75|367:133,1,366.750013990403,6|0,3:2|0:0,0:0:0:0:
479,57,99034,2,0,P|393:53|365:135,1,183.375006995201,12|2,0:0|0:0,0:0:0:0:
454,149,99634,2,0,B|409:131|352:154|351:224|366:269|434:279|434:279|473:283|481:320|473:351|453:365|421:358,1,366.750013990403,4|0,0:0|3:0,0:0:0:0:
255,320,100234,2,0,P|334:346|344:267,1,183.375006995201,12|0,0:0|0:0,0:0:0:0:
184,372,100834,6,0,P|207:313|-2:255,1,366.750013990403,6|0,3:2|0:0,0:0:0:0:
71,294,101434,2,0,P|156:290|184:372,1,183.375006995201,12|2,0:0|0:0,0:0:0:0:
259,321,102034,2,0,B|240:275|264:217|334:216|379:232|388:299|388:299|392:338|429:346|461:338|474:319|466:275,1,366.750013990403,4|0,0:0|3:0,0:0:0:0:
512,181,102634,2,0,P|432:207|422:128,1,183.375006995201,12|0,0:0|0:0,0:0:0:0:
415,2,103234,6,0,P|438:61|229:119,1,366.750013990403,6|0,3:2|0:0,0:0:0:0:
116,43,103834,2,0,P|201:39|229:121,1,183.375006995201,12|2,0:0|0:0,0:0:0:0:
16,88,104434,2,0,B|-1:132|21:189|91:190|136:175|146:107|146:107|150:68|187:60|218:68|232:88|229:120,1,366.750013990403,4|0,0:0|3:0,0:0:0:0:
226,265,105034,2,0,P|305:291|315:212,1,183.375006995201,12|0,0:0|0:0,0:0:0:0:
205,196,105634,6,0,P|215:254|216:279,1,81.5,6|0,3:2|0:0,0:0:0:0:
65,351,105934,1,2,3:2:0:0:
118,286,106084,1,0,0:0:0:0:
255,374,106234,2,0,B|307:339|307:339|414:350,1,163,12|0,0:0|3:0,0:0:0:0:
512,384,106684,1,2,0:0:0:0:
512,384,106834,1,4,0:0:0:0:
436,281,106984,1,0,3:0:0:0:
489,217,107134,1,2,3:2:0:0:
489,217,107284,1,0,3:0:0:0:
424,168,107434,2,0,P|382:132|452:50,1,163,10|2,0:0|0:0,0:0:0:0:
188,0,108034,6,0,P|198:58|199:83,1,81.5,6|0,3:2|0:0,0:0:0:0:
264,197,108334,2,0,P|266:156|274:116,1,81.5,2|0,3:2|0:0,0:0:0:0:
151,142,108634,2,0,B|99:107|99:107|-8:118,1,163,12|0,0:0|3:0,0:0:0:0:
71,189,109084,1,2,0:0:0:0:
71,189,109234,1,4,0:0:0:0:
9,319,109384,1,0,3:0:0:0:
83,374,109534,1,2,3:2:0:0:
83,374,109684,1,0,3:0:0:0:
144,314,109834,2,0,P|179:271|262:339,1,163,12|2,0:0|0:0,0:0:0:0:
480,384,110434,6,0,P|477:343|469:303,1,81.5,6|0,3:2|0:0,0:0:0:0:
362,244,110734,1,2,3:2:0:0:
509,242,110884,1,0,0:0:0:0:
407,168,111034,2,0,B|442:116|442:116|431:9,1,163,12|0,0:0|3:0,0:0:0:0:
314,0,111484,1,2,0:0:0:0:
314,0,111634,1,4,0:0:0:0:
215,56,111784,1,0,3:0:0:0:
161,0,111934,1,2,3:2:0:0:
161,0,112084,1,0,3:0:0:0:
141,73,112234,2,0,P|105:115|23:45,1,163,12|2,0:0|0:0,0:0:0:0:
197,335,112834,2,0,P|195:294|187:255,1,81.5,6|0,3:2|0:0,0:0:0:0:
17,384,113134,2,0,P|50:361|81:334,1,81.5,2|0,3:2|0:0,0:0:0:0:
110,209,113434,2,0,B|162:174|162:174|269:185,1,163,12|0,0:0|3:0,0:0:0:0:
346,296,113884,1,2,0:0:0:0:
346,296,114034,1,4,0:0:0:0:
438,253,114184,1,0,3:0:0:0:
509,299,114334,1,2,3:2:0:0:
509,299,114484,1,0,3:0:0:0:
436,371,114634,2,0,P|394:335|464:253,1,163,12|2,0:0|0:0,0:0:0:0:
264,69,115234,6,0,P|273:41|277:13,2,57.0499982589722,0|0|0,0:0|0:0|0:0,0:0:0:0:
260,158,115684,2,0,P|313:175|354:134,2,114.099996517944,0|0|0,0:0|0:0|3:0,0:0:0:0:
201,113,116434,2,0,P|160:117|135:122,1,57.0499982589722,0|0,0:0|0:0,0:0:0:0:
143,194,116734,2,0,P|102:187|76:185,1,57.0499982589722,0|0,0:0|0:0,0:0:0:0:
45,116,117034,2,0,P|37:173|14:225,1,114.099996517944,0|0,0:0|3:0,0:0:0:0:
9,302,117484,1,0,3:0:0:0:
75,329,117634,6,0,P|84:357|88:385,2,57.0499982589722,0|0|0,0:0|0:0|0:0,0:0:0:0:
134,278,118084,2,0,P|187:261|228:302,2,114.099996517944,0|0|0,0:0|0:0|3:0,0:0:0:0:
178,344,118834,2,0,P|206:339|234:337,1,57.0499982589722,0|0,0:0|0:0,0:0:0:0:
302,299,119134,2,0,P|330:302|358:307,1,57.0499982589722,0|0,0:0|0:0,0:0:0:0:
417,363,119434,1,0,0:0:0:0:
417,363,119734,1,0,3:0:0:0:
431,292,119884,1,0,3:0:0:0:
495,248,120034,6,0,P|504:220|508:192,2,57.0499982589722,0|0|0,0:0|0:0|0:0,0:0:0:0:
431,206,120484,2,0,P|378:223|337:182,2,114.099996517944,0|0|0,0:0|0:0|3:0,0:0:0:0:
448,130,121234,2,0,P|407:134|382:139,1,57.0499982589722,0|0,0:0|0:0,0:0:0:0:
342,80,121534,2,0,P|301:87|275:89,1,57.0499982589722,0|0,0:0|0:0,0:0:0:0:
226,139,121834,2,0,P|169:130|117:107,1,114.099996517944,0|0,0:0|3:0,0:0:0:0:
97,36,122284,1,0,3:0:0:0:
25,67,122434,6,0,P|20:38|12:11,2,57.0499982589722,0|0|0,0:0|0:0|0:0,0:0:0:0:
42,145,122884,2,0,P|25:198|66:239,2,114.099996517944,0|0|0,0:0|0:0|3:0,0:0:0:0:
115,195,123634,2,0,P|143:199|171:201,1,57.0499982589722,0|0,0:0|0:0,0:0:0:0:
182,284,123934,2,0,P|153:278|125:275,1,57.0499982589722,0|0,0:0|0:0,0:0:0:0:
74,340,124234,1,0,0:0:0:0:
132,384,124384,1,0,0:0:0:0:
199,351,124534,1,0,3:0:0:0:
182,284,124684,1,0,3:0:0:0:
263,228,124834,6,0,P|272:200|276:172,2,57.0499982589722,0|0|0,0:0|0:0|0:0,0:0:0:0:
301,291,125284,2,0,P|354:308|395:267,2,114.099996517944,0|0|0,0:0|0:0|3:0,0:0:0:0:
363,384,126034,2,0,P|391:379|419:377,1,57.0499982589722,0|0,0:0|0:0,0:0:0:0:
454,314,126334,2,0,P|482:317|511:323,1,57.0499982589722,0|0,0:0|0:0,0:0:0:0:
461,238,126634,2,0,P|452:181|429:129,1,114.099996517944,0|0,0:0|3:0,0:0:0:0:
487,82,127084,1,0,3:0:0:0:
383,62,127234,6,0,P|392:34|396:6,2,57.0499982589722,0|0|0,0:0|0:0|0:0,0:0:0:0:
348,130,127684,2,0,P|295:147|254:106,2,114.099996517944,0|0|0,0:0|0:0|3:0,0:0:0:0:
284,222,128434,2,0,P|255:217|227:215,1,57.0499982589722,0|0,0:0|0:0,0:0:0:0:
189,147,128734,2,0,P|160:141|132:138,1,57.0499982589722,0|0,0:0|0:0,0:0:0:0:
81,196,129034,1,0,0:0:0:0:
81,196,129334,1,0,3:0:0:0:
58,120,129484,1,0,3:0:0:0:
121,64,129634,6,0,P|130:36|134:8,2,57.0499982589722,0|0|0,0:0|0:0|0:0,0:0:0:0:
58,120,130084,2,0,P|21:79|39:27,2,114.099996517944,0|0|0,0:0|0:0|3:0,0:0:0:0:
81,196,130834,2,0,P|85:237|90:262,1,57.0499982589722,0|0,0:0|0:0,0:0:0:0:
44,323,131134,2,0,P|85:330|111:332,1,57.0499982589722,0|0,0:0|0:0,0:0:0:0:
163,281,131434,2,0,P|215:304|272:313,1,114.099996517944,0|0,0:0|3:0,0:0:0:0:
340,339,131884,1,0,3:0:0:0:
421,321,132034,6,0,P|416:349|408:376,2,57.0499982589722,0|0|0,0:0|0:0|0:0,0:0:0:0:
360,266,132484,2,0,P|343:213|384:172,2,114.099996517944,0|0|0,0:0|0:0|3:0,0:0:0:0:
437,241,133234,2,0,P|465:245|493:247,1,57.0499982589722,0|0,0:0|0:0,0:0:0:0:
453,160,133534,2,0,P|481:165|509:168,1,57.0499982589722,0|0,0:0|0:0,0:0:0:0:
407,100,133834,1,0,0:0:0:0:
335,118,133984,1,0,0:0:0:0:
284,64,134134,1,0,3:0:0:0:
211,78,134284,1,0,3:0:0:0:
211,78,134434,6,0,L|221:191,1,114.1,2|0,0:0|0:0,0:0:0:0:
293,222,136834,2,0,L|283:335,1,114.1,0|0,0:0|0:0,0:0:0:0:
214,377,139234,6,0,P|164:344|110:344,1,114.1,0|0,0:0|0:0,0:0:0:0:
33,384,141634,2,0,P|86:357|113:310,1,114.1,0|0,0:0|0:0,0:0:0:0:
93,233,144034,6,0,B|80:149|80:149|85:141|85:141|74:62,1,171.149994776917,0|0,0:0|0:0,0:0:0:0:
152,73,146434,2,0,B|162:149|162:149|158:158|158:158|170:241,1,171.149994776917,0|0,0:0|0:0,0:0:0:0:
198,322,148834,6,0,P|285:350|328:291,1,171.149994776917,0|0,0:0|0:0,0:0:0:0:
338,214,151234,2,0,P|393:155|467:187,1,171.149994776917,0|0,0:0|0:0,0:0:0:0:
512,261,153634,5,2,0:0:0:0:
512,261,153934,1,2,0:0:0:0:
452,367,154234,2,0,L|375:348,1,65.2,2|0,0:0|0:0,0:0:0:0:
322,383,154534,1,0,3:0:0:0:
246,351,154684,1,0,3:0:0:0:
251,353,154834,2,0,P|185:367|111:367,1,130.4,2|2,0:0|0:0,0:0:0:0:
67,316,155284,1,0,0:0:0:0:
67,316,155434,2,0,L|2:310,1,65.2,2|0,0:0|0:0,0:0:0:0:
133,275,155734,1,0,3:0:0:0:
133,275,155884,1,0,3:0:0:0:
56,208,156034,5,2,0:0:0:0:
56,208,156334,1,2,0:0:0:0:
0,21,156634,1,2,0:0:0:0:
0,21,156784,1,0,0:0:0:0:
68,61,156934,1,0,3:0:0:0:
135,21,157084,1,0,3:0:0:0:
135,21,157234,2,0,P|201:7|275:7,1,130.4,2|2,0:0|0:0,0:0:0:0:
312,63,157684,1,0,0:0:0:0:
312,63,157834,2,0,L|306:127,1,65.2,2|0,0:0|0:0,0:0:0:0:
366,180,158134,1,0,3:0:0:0:
366,180,158284,1,0,3:0:0:0:
512,159,158434,5,2,0:0:0:0:
512,159,158734,1,2,0:0:0:0:
446,207,159034,2,0,L|462:271,1,65.2,2|0,0:0|0:0,0:0:0:0:
512,338,159334,1,0,3:0:0:0:
427,347,159484,1,0,3:0:0:0:
432,345,159634,2,0,P|366:331|292:331,1,130.4,2|2,0:0|0:0,0:0:0:0:
255,264,160084,1,0,0:0:0:0:
255,264,160234,2,0,L|319:258,1,65.2,2|0,0:0|0:0,0:0:0:0:
356,191,160534,1,0,3:0:0:0:
356,191,160684,1,0,3:0:0:0:
283,145,160834,5,2,0:0:0:0:
283,145,161134,1,2,0:0:0:0:
194,309,161434,1,2,0:0:0:0:
194,309,161584,1,0,0:0:0:0:
123,338,161734,1,0,3:0:0:0:
130,260,161884,1,0,3:0:0:0:
130,260,162034,2,0,P|64:246|-10:246,1,130.4,2|2,0:0|0:0,0:0:0:0:
39,168,162484,1,0,0:0:0:0:
39,168,162634,2,0,L|33:103,1,65.2,2|0,0:0|0:0,0:0:0:0:
0,33,162934,1,0,3:0:0:0:
0,33,163084,1,0,3:0:0:0:
108,88,163234,6,0,P|189:74|270:79,1,146.699995523071,2|2,3:2|0:0,0:0:0:0:
324,30,163684,2,0,P|359:62|381:103,1,73.3499977615357,0|2,3:0|0:0,0:0:0:0:
329,146,163984,1,0,0:0:0:0:
451,69,164134,2,0,P|511:111|502:186,1,146.699995523071,0|2,3:0|0:0,0:0:0:0:
432,246,164584,2,0,P|371:231|336:231,2,73.3499977615357,0|2|0,3:0|0:0|0:0,0:0:0:0:
496,371,165034,2,0,L|488:297,1,73.3499977615357,2|0,0:0|0:0,0:0:0:0:
432,246,165334,1,0,3:0:0:0:
280,370,165634,6,0,P|199:384|118:379,1,146.699995523071,2|2,0:0|0:0,0:0:0:0:
62,265,166084,2,0,P|85:297|118:314,1,73.3499977615357,0|2,3:0|0:0,0:0:0:0:
171,256,166384,1,0,0:0:0:0:
206,132,166534,2,0,P|147:170|149:241,1,146.699995523071,0|2,3:0|0:0,0:0:0:0:
299,230,166984,2,0,P|336:234|371:246,2,73.3499977615357,0|2|0,3:0|0:0|0:0,0:0:0:0:
281,377,167434,2,0,L|273:303,1,73.3499977615357,2|0,0:0|0:0,0:0:0:0:
299,230,167734,1,0,3:0:0:0:
488,315,168034,6,0,P|465:271|476:233,1,73.3499977615357,0|8,3:0|3:2,0:0:0:0:
418,190,168334,2,0,P|440:145|478:133,1,73.3499977615357,0|8,3:0|3:2,0:0:0:0:
278,157,168634,2,0,P|304:115|343:105,1,73.3499977615357,0|8,3:0|3:2,0:0:0:0:
351,33,168934,2,0,P|400:30|430:56,1,73.3499977615357,0|8,3:0|3:2,0:0:0:0:
279,158,169234,5,0,3:0:0:0:
279,158,169384,1,8,3:2:0:0:
208,114,169534,1,0,3:0:0:0:
208,114,169684,1,8,3:2:0:0:
99,135,169834,1,0,3:0:0:0:
99,135,169984,1,8,3:2:0:0:
52,272,170134,1,0,3:0:0:0:
52,272,170284,1,8,3:2:0:0:
186,376,170434,6,0,L|193:315,7,36.6749988807679,0|0|8|0|0|0|8|0,3:0|0:0|3:2|0:0|3:0|0:0|3:2|0:0,0:0:0:0:
262,349,171034,2,0,L|255:288,7,36.6749988807679,0|0|8|0|0|0|8|0,3:0|0:0|3:2|0:0|3:0|0:0|3:2|0:0,0:0:0:0:
329,384,171634,2,0,L|336:323,7,36.6749988807679,0|0|8|0|0|0|8|0,3:0|0:0|3:2|0:0|3:0|0:0|3:2|0:0,0:0:0:0:
401,325,172234,5,0,3:0:0:0:
387,232,172384,1,8,3:2:0:0:
458,223,172534,1,0,3:0:0:0:
447,148,172684,1,8,3:2:0:0:
447,148,173284,5,0,0:0:0:0:
447,148,173434,2,0,P|384:210|269:145,1,220.049993284607,0|0,0:0|3:0,0:0:0:0:
378,9,174034,6,0,B|359:46|359:46|236:41|236:41|198:22|198:22|162:61|166:114|166:114|329:118|329:118|353:129,1,489,8|0,1:0|0:0,0:0:0:0:
60,244,176434,2,0,B|2:214|4:161|4:161|22:116|75:101|75:101|121:112|152:163|152:163|182:240|151:315|151:315|178:383|245:382|245:382|328:376|372:315|372:315|368:240|299:179,1,855.750032644273,8|0,1:0|0:0,0:0:0:0:
257,180,177634,5,0,3:0:0:0:
257,180,177784,1,0,0:0:0:0:
259,260,177934,1,0,3:0:0:0:
259,260,178084,1,0,0:0:0:0:
357,312,178234,1,0,3:0:0:0:
357,312,178384,1,0,0:0:0:0:
483,174,178534,1,0,3:0:0:0:
483,174,178684,1,0,3:0:0:0:
456,61,178834,6,0,B|411:60|338:88|338:88|320:112|320:112|225:58|225:58|206:84|206:84|52:101|52:101|92:65,1,489,8|0,1:0|0:0,0:0:0:0:
139,363,181234,2,0,B|118:389|38:365|38:365|-17:295|21:221|21:221|97:187|174:247|174:247|263:257|325:192|325:192|333:116|301:58|301:58|221:-6|163:21|163:21|127:63|83:74,1,978.000037307741,8|0,1:0|3:0,0:0:0:0:
386,356,183484,1,0,3:0:0:0:
340,251,183634,6,0,B|320:192|320:192|516:216|516:216|416:232|416:232|422:254|422:254|499:261|499:261|484:287|484:287|444:289|444:289|447:311|447:311|472:318|472:318|461:334|461:334|461:362,1,611.25,8|0,0:0|3:0,0:0:0:0:
386,356,186034,2,0,B|340:313|266:309|266:309|177:317|146:364|146:364|97:373|46:361|46:361|0:273|42:211|42:211|102:184|157:239|157:239|213:247|246:191|246:191|246:135|184:69|184:69|126:84|99:139,1,978.000037307741,8|0,1:0|3:0,0:0:0:0:
501,43,188284,1,0,3:0:0:0:
354,90,188434,6,0,B|342:118|342:118|443:105|443:105|481:119|481:119|513:116|513:116|500:172|500:172|488:181|488:181|482:245|482:245|493:256|493:256|491:323|491:323|451:302|451:302|422:308,1,489,8|0,0:0|0:0,0:0:0:0:
62,321,190834,2,0,P|224:322|381:364,1,326,8|0,1:0|0:0,0:0:0:0:
381,364,192484,6,0,L|331:372,1,40.75,0|0,0:0|0:0,0:0:0:0:
264,381,192784,1,0,0:0:0:0:
218,317,192934,1,0,0:0:0:0:
273,234,193084,1,0,3:0:0:0:
219,130,193234,2,0,B|210:161|210:161|316:153|316:153|284:116|284:116|387:93|387:93|385:164|385:164|490:161|490:161|476:134,1,489,8|0,0:0|0:0,0:0:0:0:
127,321,195634,2,0,B|133:314|132:357|132:357|83:382|13:352|13:352|-30:294|11:225|11:225|113:171|216:268|216:268|210:353|304:370|304:370|370:345|359:285|359:285|324:299|289:293,1,855.750032644273,8|0,1:0|0:0,0:0:0:0:
307,222,196834,5,0,3:0:0:0:
307,222,196984,1,0,0:0:0:0:
424,254,197134,1,0,3:0:0:0:
424,254,197284,1,0,0:0:0:0:
295,146,197434,1,0,3:0:0:0:
295,146,197584,1,0,0:0:0:0:
478,193,197734,1,0,3:0:0:0:
478,193,197884,1,0,3:0:0:0:
403,85,198034,6,0,B|358:84|285:112|285:112|267:136|267:136|210:156|150:144|150:144|153:108|153:108|80:101|-1:125|-1:125|29:142,1,489,8|0,1:0|0:0,0:0:0:0:
377,318,200434,2,0,B|337:279|324:201|324:201|417:171|517:178|517:178|502:308|439:377|439:377|354:411|286:349|286:349|273:267|243:238|243:238|209:221|169:244|169:244|137:294|170:350,1,978.000037307741,8|0,1:0|3:0,0:0:0:0:
155,313,202084,6,0,L|205:321,1,40.75,0|0,0:0|0:0,0:0:0:0:
96,366,202384,1,0,0:0:0:0:
0,328,202534,1,0,0:0:0:0:
0,225,202684,1,0,3:0:0:0:
110,208,202834,2,0,B|142:140|127:30|127:30|161:120|161:120|171:43|171:43|191:99|191:99|203:50|203:50|217:84|217:84|228:55|228:55|241:75|241:75|255:63,1,570.5,8|0,0:0|0:0,0:0:0:0:
509,93,205234,2,0,B|436:35|316:47|316:47|290:132|338:188|338:188|381:201|432:174|432:174|478:182|503:212|503:212|521:271|475:300|475:300|416:311|366:277|366:277|309:296|310:343|310:343|353:384,1,855.750032644273,8|0,1:0|0:0,0:0:0:0:
402,374,206434,5,0,3:0:0:0:
402,374,206584,1,0,0:0:0:0:
240,305,206734,1,0,3:0:0:0:
240,305,206884,1,0,0:0:0:0:
154,363,207034,1,0,3:0:0:0:
154,363,207184,1,0,0:0:0:0:
90,310,207334,1,0,3:0:0:0:
90,310,207484,1,0,3:0:0:0:
24,352,207634,6,0,B|12:324|12:324|113:337|113:337|151:323|151:323|183:326|183:326|170:270|170:270|158:261|158:261|198:198|198:198|186:187|186:187|318:201,1,489,8|0,1:0|0:0,0:0:0:0:
0,107,210034,2,0,P|162:106|319:64,1,326,8|12,1:0|0:0,0:0:0:0:
