osu file format v14

[General]
AudioFilename: audio.mp3
AudioLeadIn: 0
PreviewTime: 37605
Countdown: 0
SampleSet: Normal
StackLeniency: 0.7
Mode: 1
LetterboxInBreaks: 0
StoryFireInFront: 0
EpilepsyWarning: 1
WidescreenStoryboard: 1

[Editor]
Bookmarks: 38580,39480,39780,40530,40980,41880,42330,42630,43380,44280,44580,45330,45780,46680,47130,47430,48180,49080,49380,50130,50580,51480,51930,52230,52980,53430,53880,54180,54630,55380,56280,57780,58680,58980,59730,60180,61080,61530,61830,62580,63480,63780,64530,64980,65880,66330,66630,67380,68280,68580,69330,69780,70680,71130,71430,72180,73080,73380,74130,74580,75480,75780,115230,153630
DistanceSpacing: 0.9
BeatDivisor: 4
GridSize: 32
TimelineZoom: 2.899999

[Metadata]
Title:dragonlands
TitleUnicode:dragonlands
Artist:sakuraburst
ArtistUnicode:sakuraburst
Creator:Faputa
Version:Ura Oni
Source:osu!
Tags:-GN Jr. Junior featured artist fa experimental SV neurofunk storyboard glitch
BeatmapID:1954961
BeatmapSetID:935765

[Difficulty]
HPDrainRate:6
CircleSize:2
OverallDifficulty:6.5
ApproachRate:10
SliderMultiplier:1.4
SliderTickRate:1

[Events]
//Background and Video events
0,0,"dragon.jpg",0,0
//Break Periods
2,191030,192180
//Storyboard Layer 0 (Background)
//Storyboard Layer 1 (Fail)
//Storyboard Layer 2 (Pass)
//Storyboard Layer 3 (Foreground)
//Storyboard Sound Samples

[TimingPoints]
30,300,4,1,0,75,1,0
30,-133.333333333333,4,1,0,75,0,0
18030,-138.437045753444,4,1,0,75,0,0
18180,-143.947027493882,4,1,0,75,0,0
18330,-149.913574824114,4,1,0,75,0,0
18480,-156.396377234318,4,1,0,75,0,0
18630,-163.465200710747,4,1,0,76,0,0
18780,-171.203267927978,4,1,0,77,0,0
18930,-179.71001991187,4,1,0,78,0,0
19080,-189.106697781022,4,1,0,79,0,0
19230,-200,4,1,0,80,0,0
28830,-196.078431372549,4,1,0,85,0,0
28980,-192.839484270083,4,1,0,85,0,0
29280,-186.67268997213,4,1,0,85,0,0
29355,-185.192044149783,4,1,0,85,0,0
29430,-183.734701789392,4,1,0,85,0,0
29580,-180.887760953206,4,1,0,85,0,0
29880,-175.450908835708,4,1,0,85,0,0
30030,-172.853078340472,4,1,0,85,0,0
30330,-167.881569625523,4,1,0,85,0,0
30480,-165.50180976229,4,1,0,85,0,0
30630,-163.188307884117,4,1,0,85,0,0
30780,-160.938593879505,4,1,0,85,0,0
30930,-158.750065484402,4,1,0,85,0,0
31080,-156.620505383047,4,1,0,85,0,0
31155,-155.576886875378,4,1,0,85,0,0
31230,-154.547084314707,4,1,0,85,0,0
31380,-152.527843957915,4,1,0,85,0,0
31680,-148.643626904496,4,1,0,85,0,0
31755,-147.703505890416,4,1,0,85,0,0
31830,-146.774986606782,4,1,0,85,0,0
31980,-144.952535292319,4,1,0,85,0,0
32280,-141.440114962525,4,1,0,85,0,0
32430,-139.747169421083,4,1,0,85,0,0
32730,-136.479644061088,4,1,0,85,0,0
33030,-133.361605993804,4,1,0,85,0,0
33180,-131.85532306532,4,1,0,85,0,0
33330,-130.382686222331,4,1,0,85,0,0
33480,-128.942580579442,4,1,0,85,0,0
33555,-128.234391950984,4,1,0,85,0,0
33630,-127.53410261904,4,1,0,85,0,0
33780,-126.155903465503,4,1,0,85,0,0
34080,-123.486975828659,4,1,0,85,0,0
34155,-122.837295859769,4,1,0,85,0,0
34230,-122.194565518893,4,1,0,85,0,0
34380,-120.928781412763,4,1,0,85,0,0
34680,-118.474288117621,4,1,0,85,0,0
34830,-117.284030254588,4,1,0,85,0,0
35130,-114.973981388012,4,1,0,85,0,0
35280,-113.852683735461,4,1,0,85,0,0
35430,-112.753046023538,4,1,0,85,0,0
35580,-111.674571365076,4,1,0,85,0,0
35730,-110.616409944415,4,1,0,85,0,0
35805,-110.094813653518,4,1,0,85,0,0
35880,-109.578113305961,4,1,0,85,0,0
35955,-109.066240290378,4,1,0,85,0,0
36030,-108.559127271464,4,1,0,90,0,0
36180,-107.559033775688,4,1,0,90,0,0
36480,-105.612903362081,4,1,0,90,0,0
36630,-104.666010759666,4,1,0,90,0,0
36780,-103.736053984242,4,1,0,90,0,0
36855,-103.277191851843,4,1,0,90,0,0
36930,-102.822371268962,4,1,0,90,0,0
37080,-101.924643034419,4,1,0,90,0,0
37380,-100.175407137898,4,1,0,90,0,0
37530,-99.3232116359129,4,1,0,90,0,0
37680,-98.4852961452855,4,1,0,90,0,0
37755,-98.0716177795997,4,1,0,90,0,0
37830,-97.6614001128966,4,1,0,90,0,0
37980,-96.8511746110457,4,1,0,90,0,0
38055,-96.4511754504752,4,1,0,90,0,0
38130,-96.0543744602945,4,1,0,90,0,0
38280,-95.2704872037445,4,1,0,90,0,0
38430,-94.3396226415094,4,1,0,95,0,1
38580,-80,4,1,0,95,0,1
38880,-93.3857663282678,4,1,0,95,0,1
39030,-79.3650793650794,4,1,0,95,0,1
39330,-92.4510055895878,4,1,0,95,0,1
39480,-78.7401574803149,4,1,0,95,0,1
39630,-91.838159122468,4,1,0,95,0,1
39680,-91.7368071004289,4,1,0,95,0,1
39780,-78.125,4,1,0,95,0,1
39930,-91.2333841199172,4,1,0,95,0,1
39980,-91.1333618276978,4,1,0,95,0,1
40030,-91.0335586110464,4,1,0,95,0,1
40080,-90.9339737509991,4,1,0,95,0,1
40230,-77.5193798449612,4,1,0,95,0,1
40530,-90.0474189708301,4,1,0,95,0,1
40605,-89.9012973656223,4,1,0,95,0,1
40680,-89.7557297813999,4,1,0,95,0,1
40755,-89.610552538667,4,1,0,95,0,1
40830,-89.4659242187835,4,1,0,95,0,1
40980,-76.9230769230769,4,1,0,95,0,1
41280,-88.6076285851754,4,1,0,95,0,1
41355,-88.4661387007509,4,1,0,95,0,1
41430,-76.3358778625954,4,1,0,95,0,1
41730,-87.7656446649898,4,1,0,95,0,1
41880,-76.3358778625954,4,1,0,95,0,1
42030,-87.2130798688664,4,1,0,95,0,1
42080,-87.1216741300901,4,1,0,95,0,1
42130,-87.0304597906221,4,1,0,95,0,1
42180,-86.9394362499196,4,1,0,95,0,1
42330,-75.7575757575758,4,1,0,95,0,1
42480,-86.3972684639602,4,1,0,95,0,1
42530,-86.3075639085934,4,1,0,95,0,1
42630,-75.187969924812,4,1,0,95,0,1
42930,-85.4700854700855,4,1,0,95,0,1
42980,-85.3975340608065,4,1,0,95,0,1
43030,-85.325105717806,4,1,0,95,0,1
43080,-85.2528728086815,4,1,0,95,0,1
43230,-85.0366890795033,4,1,0,95,0,1
43380,-74.6268656716418,4,1,0,95,0,1
43680,-84.3948090440853,4,1,0,95,0,1
43830,-74.0740740740741,4,1,0,95,0,1
44130,-83.7625465824462,4,1,0,95,0,1
44280,-73.5294117647059,4,1,0,95,0,1
44430,-83.3462520023937,4,1,0,95,0,1
44480,-83.2773293293593,4,1,0,95,0,1
44580,-72.992700729927,4,1,0,95,0,1
44730,-82.9341436552063,4,1,0,95,0,1
44780,-82.8658319315197,4,1,0,95,0,1
44830,-82.7976326500873,4,1,0,95,0,1
44880,-82.7295455335146,4,1,0,95,0,1
45030,-72.463768115942,4,1,0,95,0,1
45330,-82.1218984611999,4,1,0,95,0,1
45405,-82.0214682991126,4,1,0,95,0,1
45480,-81.9213505881543,4,1,0,95,0,1
45555,-81.8214100447236,4,1,0,95,0,1
45630,-81.721713050549,4,1,0,95,0,1
45780,-71.9424460431655,4,1,0,95,0,1
46080,-81.1287277636298,4,1,0,95,0,1
46155,-81.0307762991462,4,1,0,95,0,1
46230,-71.4285714285714,4,1,0,95,0,1
46530,-80.54428606753,4,1,0,95,0,1
46680,-70.9219858156028,4,1,0,95,0,1
46830,-80.1592925461477,4,1,0,95,0,1
46880,-80.0955379576759,4,1,0,95,0,1
46930,-80.0318206518912,4,1,0,95,0,1
46980,-79.9682046418344,4,1,0,95,0,1
47130,-70.4225352112676,4,1,0,95,0,1
47280,-79.5886856724448,4,1,0,95,0,1
47330,-79.5258351604394,4,1,0,95,0,1
47430,-69.9300699300699,4,1,0,95,0,1
47580,-76.9230769230769,4,1,0,95,0,1
47655,-75.187969924812,4,1,0,95,0,1
47730,-73.5294117647059,4,1,0,95,0,1
47805,-71.9424460431655,4,1,0,95,0,1
47880,-70.4225352112676,4,1,0,95,0,1
47955,-68.9655172413793,4,1,0,95,0,0
48030,-66.6666666666667,4,1,0,95,0,0
48180,-80,4,1,0,95,0,1
48480,-94.3396226415094,4,1,0,95,0,1
48630,-79.3650793650794,4,1,0,95,0,1
48930,-93.414903226831,4,1,0,95,0,1
49080,-78.7401574803149,4,1,0,95,0,1
49230,-92.8084581916458,4,1,0,95,0,1
49280,-92.7081343971283,4,1,0,95,0,1
49380,-78.125,4,1,0,95,0,1
49530,-92.2098363920873,4,1,0,95,0,1
49580,-92.1108019258526,4,1,0,95,0,1
49630,-92.0119799597908,4,1,0,95,0,1
49680,-91.913369810686,4,1,0,95,0,1
49830,-77.5193798449612,4,1,0,95,0,1
50130,-91.0354646859777,4,1,0,95,0,1
50205,-90.8907475036856,4,1,0,95,0,1
50280,-90.7464896989122,4,1,0,95,0,1
50355,-90.6026890878121,4,1,0,95,0,1
50430,-90.4594253293628,4,1,0,95,0,1
50580,-76.9230769230769,4,1,0,95,0,1
50880,-89.6088662596632,4,1,0,95,0,1
50955,-89.4686457131098,4,1,0,95,0,1
51030,-76.3358778625954,4,1,0,95,0,1
51330,-88.7741532277394,4,1,0,95,0,1
51480,-75.7575757575758,4,1,0,95,0,1
51630,-88.226289846301,4,1,0,95,0,1
51680,-88.1356230968214,4,1,0,95,0,1
51730,-88.0451425054654,4,1,0,95,0,1
51780,-87.9548474994877,4,1,0,95,0,1
51930,-75.187969924812,4,1,0,95,0,1
52080,-87.4170193943399,4,1,0,95,0,1
52130,-87.3280074892499,4,1,0,95,0,1
52230,-74.6268656716418,4,1,0,95,0,1
52530,-86.6225353723123,4,1,0,95,0,1
52580,-86.5351332641052,4,1,0,95,0,1
52630,-86.4479073555066,4,1,0,95,0,1
52680,-86.3608571142347,4,1,0,95,0,1
52830,-86.1007551036223,4,1,0,95,0,1
52980,-74.0740740740741,4,1,0,95,0,1
53280,-85.3299110350348,4,1,0,95,0,1
53430,-73.5294117647059,4,1,0,95,0,1
53730,-84.5726754143004,4,1,0,95,0,1
53880,-72.992700729927,4,1,0,95,0,1
54030,-84.0752978367426,4,1,0,95,0,1
54080,-83.9929580303987,4,1,0,95,0,1
54180,-72.463768115942,4,1,0,95,0,1
54330,-83.5837362765953,4,1,0,95,0,1
54380,-83.5023560189751,4,1,0,95,0,1
54430,-83.4211340769493,4,1,0,95,0,1
54480,-83.3400699889908,4,1,0,95,0,1
54630,-71.9424460431655,4,1,0,95,0,1
54930,-82.6175896152995,4,1,0,95,0,1
55005,-82.4984490291582,4,1,0,95,0,1
55080,-82.3795837030117,4,1,0,95,0,1
55155,-82.2610604108775,4,1,0,95,0,1
55230,-82.1428776785766,4,1,0,95,0,1
55380,-71.4285714285714,4,1,0,95,0,1
55680,-81.4409841980058,4,1,0,95,0,1
55755,-81.3251444334565,4,1,0,95,0,1
55830,-70.9219858156028,4,1,0,95,0,1
56130,-80.7509189454576,4,1,0,95,0,1
56280,-70.4225352112676,4,1,0,95,0,1
56430,-80.2973571730834,4,1,0,95,0,1
56480,-80.2222477150698,4,1,0,95,0,1
56530,-80.1472786392274,4,1,0,95,0,1
56580,-80.072449552355,4,1,0,95,0,1
56630,-79.9977600627182,4,1,0,95,0,1
56680,-79.9232097800433,4,1,0,95,0,1
56730,-79.8488620738666,4,1,0,95,0,1
56880,-79.626456367887,4,1,0,95,0,1
57030,-76.9230769230769,4,1,0,95,0,1
57180,-74.0740740740741,4,1,0,95,0,1
57330,-71.4285714285714,4,1,0,95,0,1
57480,-68.9655172413793,4,1,0,95,0,0
57630,-66.6666666666667,4,1,0,95,0,0
57780,-80,4,1,0,95,0,1
58080,-94.3396226415094,4,1,0,95,0,1
58230,-79.3650793650794,4,1,0,95,0,1
58530,-93.3554274511634,4,1,0,95,0,1
58680,-78.7401574803149,4,1,0,95,0,1
58830,-92.7106269556148,4,1,0,95,0,1
58880,-92.6039966032854,4,1,0,95,0,1
58980,-78.125,4,1,0,95,0,1
59130,-92.0746725594457,4,1,0,95,0,1
59180,-91.9694992352736,4,1,0,95,0,1
59230,-91.8645659077735,4,1,0,95,0,1
59280,-91.7599559552211,4,1,0,95,0,1
59430,-77.5193798449612,4,1,0,95,0,1
59730,-90.8285012570665,4,1,0,95,0,1
59805,-90.6751490246074,4,1,0,95,0,1
59880,-90.5222318075208,4,1,0,95,0,1
59955,-90.3699111573403,4,1,0,95,0,1
60030,-90.2180208692326,4,1,0,95,0,1
60180,-76.9230769230769,4,1,0,95,0,1
60480,-89.3175336570796,4,1,0,95,0,1
60555,-89.1692369699223,4,1,0,95,0,1
60630,-76.3358778625954,4,1,0,95,0,1
60930,-88.4348447437866,4,1,0,95,0,1
61080,-75.7575757575758,4,1,0,95,0,1
61230,-87.856014534899,4,1,0,95,0,1
61280,-87.7602530303615,4,1,0,95,0,1
61330,-87.6647000552288,4,1,0,95,0,1
61380,-87.5694316130902,4,1,0,95,0,1
61530,-75.187969924812,4,1,0,95,0,1
61680,-87.0018383488443,4,1,0,95,0,1
61730,-86.9079288710747,4,1,0,95,0,1
61830,-74.6268656716418,4,1,0,95,0,1
62130,-86.1641116135436,4,1,0,95,0,1
62180,-86.0720009502349,4,1,0,95,0,1
62230,-85.9800870118481,4,1,0,95,0,1
62280,-85.8883691688239,4,1,0,95,0,1
62430,-85.6144592547946,4,1,0,95,0,1
62580,-74.0740740740741,4,1,0,95,0,1
62880,-84.8031126134454,4,1,0,95,0,1
63030,-73.5294117647059,4,1,0,95,0,1
63330,-84.0069994631953,4,1,0,95,0,1
63480,-72.992700729927,4,1,0,95,0,1
63630,-83.4845098666168,4,1,0,95,0,1
63680,-83.3980363098371,4,1,0,95,0,1
63780,-72.463768115942,4,1,0,95,0,1
63930,-82.9684794449741,4,1,0,95,0,1
63980,-82.883071049855,4,1,0,95,0,1
64030,-82.7978383140373,4,1,0,95,0,1
64080,-82.7128491102579,4,1,0,95,0,1
64230,-71.9424460431655,4,1,0,95,0,1
64530,-81.9553228752878,4,1,0,95,0,1
64605,-81.8303819842231,4,1,0,95,0,1
64680,-81.7058882165402,4,1,0,95,0,1
64755,-81.5817061182201,4,1,0,95,0,1
64830,-81.4579672815929,4,1,0,95,0,1
64980,-71.4285714285714,4,1,0,95,0,1
65280,-80.7230851071559,4,1,0,95,0,1
65355,-80.6019352524654,4,1,0,95,0,1
65430,-70.9219858156028,4,1,0,95,0,1
65730,-80.0014080247812,4,1,0,95,0,1
65880,-70.4225352112676,4,1,0,95,0,1
66030,-79.5274162814889,4,1,0,95,0,1
66080,-79.4489421373355,4,1,0,95,0,1
66130,-79.370685707165,4,1,0,95,0,1
66180,-79.2925204158417,4,1,0,95,0,1
66330,-69.9300699300699,4,1,0,95,0,1
66480,-78.8268670340524,4,1,0,95,0,1
66530,-78.7497686725545,4,1,0,95,0,1
66630,-69.4444444444444,4,1,0,95,0,0
66930,-76.9230769230769,4,1,0,95,0,0
66980,-75.7575757575758,4,1,0,95,0,0
67030,-74.6268656716418,4,1,0,95,0,0
67080,-73.5294117647059,4,1,0,95,0,0
67130,-72.463768115942,4,1,0,95,0,0
67180,-71.4285714285714,4,1,0,95,0,0
67230,-70.4225352112676,4,1,0,95,0,0
67380,-80,4,1,0,95,0,1
67680,-94.3396226415094,4,1,0,95,0,1
67830,-79.3650793650794,4,1,0,95,0,1
68130,-93.414903226831,4,1,0,95,0,1
68280,-78.7401574803149,4,1,0,95,0,1
68430,-92.8084581916458,4,1,0,95,0,1
68480,-92.7081343971283,4,1,0,95,0,1
68580,-78.125,4,1,0,95,0,1
68730,-92.2098363920873,4,1,0,95,0,1
68780,-92.1108019258526,4,1,0,95,0,1
68830,-92.0119799597908,4,1,0,95,0,1
68880,-91.913369810686,4,1,0,95,0,1
69030,-77.5193798449612,4,1,0,95,0,1
69330,-91.0354646859777,4,1,0,95,0,1
69405,-90.8907475036856,4,1,0,95,0,1
69480,-90.7464896989122,4,1,0,95,0,1
69555,-90.6026890878121,4,1,0,95,0,1
69630,-90.4594253293628,4,1,0,95,0,1
69780,-76.9230769230769,4,1,0,95,0,1
70080,-89.6088662596632,4,1,0,95,0,1
70155,-89.4686457131098,4,1,0,95,0,1
70230,-76.3358778625954,4,1,0,95,0,1
70530,-88.7741532277394,4,1,0,95,0,1
70680,-75.7575757575758,4,1,0,95,0,1
70830,-88.226289846301,4,1,0,95,0,1
70880,-88.1356230968214,4,1,0,95,0,1
70930,-88.0451425054654,4,1,0,95,0,1
70980,-87.9548474994877,4,1,0,95,0,1
71130,-75.187969924812,4,1,0,95,0,1
71280,-87.4170193943399,4,1,0,95,0,1
71330,-87.3280074892499,4,1,0,95,0,1
71430,-74.6268656716418,4,1,0,95,0,1
71730,-86.6225353723123,4,1,0,95,0,1
71780,-86.5351332641052,4,1,0,95,0,1
71830,-86.4479073555066,4,1,0,95,0,1
71880,-86.3608571142347,4,1,0,95,0,1
72030,-86.1007551036223,4,1,0,95,0,1
72180,-74.0740740740741,4,1,0,95,0,1
72480,-85.3299110350348,4,1,0,95,0,1
72630,-73.5294117647059,4,1,0,95,0,1
72930,-84.5726754143004,4,1,0,95,0,1
73080,-72.992700729927,4,1,0,95,0,1
73230,-84.0752978367426,4,1,0,95,0,1
73280,-83.9929580303987,4,1,0,95,0,1
73380,-72.463768115942,4,1,0,95,0,1
73530,-83.5837362765953,4,1,0,95,0,1
73580,-83.5023560189751,4,1,0,95,0,1
73630,-83.4211340769493,4,1,0,95,0,1
73680,-83.3400699889908,4,1,0,95,0,1
73830,-71.9424460431655,4,1,0,95,0,1
74130,-82.6175896152995,4,1,0,95,0,1
74205,-82.4984490291582,4,1,0,95,0,1
74280,-82.3795837030117,4,1,0,95,0,1
74355,-82.2610604108775,4,1,0,95,0,1
74430,-82.1428776785766,4,1,0,95,0,1
74580,-71.4285714285714,4,1,0,95,0,1
74880,-81.4409841980058,4,1,0,95,0,1
74955,-81.3251444334565,4,1,0,95,0,1
75030,-70.9219858156028,4,1,0,95,0,1
75330,-80.7509189454576,4,1,0,95,0,1
75480,-70.4225352112676,4,1,0,95,0,1
75630,-80.2973571730834,4,1,0,95,0,1
75680,-80.2222477150698,4,1,0,95,0,1
75730,-80.1472786392274,4,1,0,95,0,1
75780,-80.072449552355,4,1,0,95,0,1
75830,-79.9977600627182,4,1,0,95,0,1
75880,-79.9232097800433,4,1,0,95,0,1
75930,-79.8488620738666,4,1,0,95,0,1
76080,-79.626456367887,4,1,0,95,0,1
76230,-69.9300699300699,4,1,0,95,0,1
76380,-76.9230769230769,4,1,0,95,0,1
76530,-74.0740740740741,4,1,0,95,0,1
76680,-71.4285714285714,4,1,0,95,0,1
76830,-68.9655172413793,4,1,0,95,0,0
76980,-100,4,1,0,60,0,0
81630,-98.0392156862745,4,1,0,63,0,0
86430,-95.2380952380952,4,1,0,66,0,0
90930,-94.3396226415094,4,1,0,66,0,0
91230,-93.4579439252336,4,1,0,69,0,0
96030,-90.9090909090909,4,1,0,72,0,0
100830,-89.2857142857143,4,1,0,75,0,0
105630,-86.9565217391304,4,1,0,78,0,0
105780,-86.486860483721,4,1,0,80,0,0
105930,-86.0221713544449,4,1,0,80,0,0
106005,-85.7917679366994,4,1,0,80,0,0
106080,-85.5625222462558,4,1,0,80,0,0
106155,-85.3344984336853,4,1,0,80,0,0
106230,-85.1077591892975,4,1,0,80,0,0
106380,-84.6577330182937,4,1,0,80,0,0
106455,-84.4345712285821,4,1,0,80,0,0
106530,-84.2125119581767,4,1,0,80,0,0
106680,-83.7719492978654,4,1,0,80,0,0
106730,-83.6260943519772,4,1,0,80,0,0
106780,-83.4807464180499,4,1,0,80,0,0
106830,-83.3359028570048,4,1,0,80,0,0
106980,-82.9044410250968,4,1,0,80,0,0
107055,-82.690346976965,4,1,0,80,0,0
107130,-82.4773558419536,4,1,0,80,0,0
107280,-82.0547157255401,4,1,0,80,0,0
107430,-81.6363850102535,4,1,0,80,0,0
107730,-80.8123254958846,4,1,0,80,0,0
107780,-80.6765861218523,4,1,0,80,0,0
107830,-80.5413019823631,4,1,0,80,0,0
107880,-80.4065354432008,4,1,0,80,0,0
108030,-80.0047362803878,4,1,0,80,0,0
108080,-79.8717579055069,4,1,0,80,0,0
108180,-79.6069961812524,4,1,0,80,0,0
108230,-79.4752724611028,4,1,0,80,0,0
108330,-79.2131912143065,4,1,0,80,0,0
108405,-78.7401574803149,4,1,0,80,0,0
108480,-78.8232011363153,4,1,0,80,0,0
108555,-78.6297044152152,4,1,0,80,0,0
108630,-78.4370938429234,4,1,0,80,0,0
108780,-78.0547507243481,4,1,0,80,0,0
108855,-77.8649432559226,4,1,0,80,0,0
108930,-77.6760566662369,4,1,0,80,0,0
109080,-77.3010792003667,4,1,0,80,0,0
109130,-77.1768700920334,4,1,0,80,0,0
109180,-77.0530595073073,4,1,0,80,0,0
109230,-76.9297047130214,4,1,0,80,0,0
109380,-76.5618229063787,4,1,0,80,0,0
109455,-76.3791982781074,4,1,0,80,0,0
109530,-76.1975008743663,4,1,0,80,0,0
109680,-75.8365721869372,4,1,0,80,0,0
109830,-75.4791036101655,4,1,0,80,0,0
109980,-75.1249892007828,4,1,0,80,0,0
110017,-75.0369369322049,4,1,0,80,0,0
110130,-74.7741260587082,4,1,0,80,0,0
110180,-74.6579545810868,4,1,0,80,0,0
110230,-74.5420879537004,4,1,0,80,0,0
110280,-74.4265804112217,4,1,0,80,0,0
110430,-74.0822505595062,4,1,0,80,0,0
110505,-73.5294117647059,4,1,0,80,0,0
110580,-73.7410376986307,4,1,0,80,0,0
110630,-73.6280516986728,4,1,0,80,0,0
110730,-73.403007468022,4,1,0,80,0,0
110805,-72.992700729927,4,1,0,80,0,0
110880,-73.06806216923,4,1,0,80,0,0
110955,-72.9017066289522,4,1,0,80,0,0
111030,-72.7361068580693,4,1,0,80,0,0
111180,-72.407206544453,4,1,0,80,0,0
111255,-72.243843199073,4,1,0,80,0,0
111330,-72.0812673040092,4,1,0,80,0,0
111480,-71.7581978359163,4,1,0,80,0,0
111530,-71.6511506100021,4,1,0,80,0,0
111580,-71.5444734756019,4,1,0,80,0,0
111630,-71.4380624854445,4,1,0,80,0,0
111780,-71.1207708922599,4,1,0,80,0,0
111855,-70.9631545109148,4,1,0,80,0,0
111930,-70.8062351970715,4,1,0,80,0,0
112080,-70.4945190511438,4,1,0,80,0,0
112230,-70.1854862029371,4,1,0,80,0,0
112530,-69.5755750769158,4,1,0,80,0,0
112580,-69.4749362220086,4,1,0,80,0,0
112630,-69.3745880883832,4,1,0,80,0,0
112680,-69.2745294181217,4,1,0,80,0,0
112830,-68.9761252937521,4,1,0,80,0,0
112905,-68.4931506849315,4,1,0,80,0,0
112980,-68.6802809298211,4,1,0,80,0,0
113030,-68.5822136143924,4,1,0,80,0,0
113130,-68.3869167621804,4,1,0,80,0,0
113205,-68.0272108843537,4,1,0,80,0,0
113280,-68.096094484693,4,1,0,80,0,0
113355,-67.9515858541107,4,1,0,80,0,0
113430,-67.8077352352047,4,1,0,80,0,0
113580,-67.5217622639777,4,1,0,80,0,0
113655,-67.379723823988,4,1,0,80,0,0
113730,-67.2382365024283,4,1,0,80,0,0
113880,-66.957081849676,4,1,0,80,0,0
113930,-66.8638705087538,4,1,0,80,0,0
113980,-66.7709183271481,4,1,0,80,0,0
114030,-66.6666666666667,4,1,0,80,0,0
114180,-68.0775975688128,4,1,0,80,0,0
114255,-68.8056982127032,4,1,0,80,0,0
114330,-69.5495415294222,4,1,0,80,0,0
114480,-71.0865436016424,4,1,0,80,0,0
114630,-72.6930144920794,4,1,0,80,0,0
114780,-74.3737728327483,4,1,0,80,0,0
114817,-74.806177194888,4,1,0,80,0,0
114930,-76.1340934561224,4,1,0,80,0,0
114980,-76.7395513345392,4,1,0,80,0,0
115030,-77.3547162396944,4,1,0,80,0,0
115080,-77.9798235004675,4,1,0,80,0,0
115230,-80,4,1,0,75,0,0
115380,-80.5029826355067,4,1,0,75,0,0
115530,-81.0123300766377,4,1,0,75,0,0
115680,-81.5281639042207,4,1,0,75,0,0
115980,-82.5797927247203,4,1,0,75,0,0
116280,-83.6589059088285,4,1,0,75,0,0
116430,-84.2091080571275,4,1,0,75,0,0
116580,-84.7665951801714,4,1,0,75,0,0
116730,-85.3315129277242,4,1,0,75,0,0
116880,-85.904010858267,4,1,0,75,0,0
117030,-86.4841677758261,4,1,0,75,0,0
117630,-88.8856495007738,4,1,0,75,0,0
117780,-89.507004370627,4,1,0,75,0,0
117930,-90.1371075543009,4,1,0,75,0,0
118080,-90.7761451183766,4,1,0,75,0,0
118380,-92.0817944163442,4,1,0,75,0,0
118680,-93.425550580126,4,1,0,75,0,0
118830,-94.1122439088203,4,1,0,75,0,0
118980,-94.8091066043076,4,1,0,75,0,0
119130,-95.5163662517754,4,1,0,75,0,0
119280,-96.2342572784375,4,1,0,75,0,0
119430,-96.9630212126002,4,1,0,75,0,0
119730,-98.4541710601841,4,1,0,75,0,0
119880,-99.2170780372084,4,1,0,75,0,0
120030,-99.9919006560469,4,1,0,75,0,0
120180,-100.778920274804,4,1,0,75,0,0
120330,-101.578427179949,4,1,0,75,0,0
120480,-102.390720943305,4,1,0,75,0,0
120780,-104.054807748337,4,1,0,75,0,0
121080,-105.773990598808,4,1,0,75,0,0
121230,-106.655062595856,4,1,0,75,0,0
121380,-107.550936123348,4,1,0,75,0,0
121530,-108.461987327301,4,1,0,75,0,0
121680,-109.388605207773,4,1,0,75,0,0
121830,-110.331192172664,4,1,0,75,0,0
122430,-114.269781813279,4,1,0,75,0,0
122580,-115.29876215249,4,1,0,75,0,0
122730,-116.346442474828,4,1,0,75,0,0
122880,-117.413337215801,4,1,0,75,0,0
123180,-119.606923805605,4,1,0,75,0,0
123480,-121.884034654069,4,1,0,75,0,0
123630,-123.055416776391,4,1,0,75,0,0
123780,-124.249532821757,4,1,0,75,0,0
123930,-125.467051097711,4,1,0,75,0,0
124080,-126.708666365945,4,1,0,75,0,0
124230,-127.974937388262,4,1,0,75,0,0
124380,-129.266940109334,4,1,0,75,0,0
124530,-130.585296356801,4,1,0,75,0,0
124680,-131.930820754829,4,1,0,75,0,0
124830,-133.304361852024,4,1,0,75,0,0
124980,-134.706803905958,4,1,0,75,0,0
125130,-136.139068781542,4,1,0,75,0,0
125280,-137.6021179718,4,1,0,75,0,0
125580,-140.624626465836,4,1,0,75,0,0
125880,-143.782899324652,4,1,0,75,0,0
126030,-145.415838402287,4,1,0,75,0,0
126180,-147.086294057861,4,1,0,75,0,0
126330,-148.79557422444,4,1,0,75,0,0
126480,-150.545048347542,4,1,0,75,0,0
126630,-152.33615104434,4,1,0,75,0,0
126930,-156.049330314299,4,1,0,75,0,0
127230,-159.948048873726,4,1,0,75,0,0
127380,-161.971386134925,4,1,0,75,0,0
127530,-164.046569540161,4,1,0,75,0,0
127680,-166.175341573415,4,1,0,75,0,0
127980,-170.603629762827,4,1,0,75,0,0
128280,-175.274392060771,4,1,0,75,0,0
128430,-177.707010896994,4,1,0,75,0,0
128580,-180.208104318867,4,1,0,75,0,0
128730,-182.780604784465,4,1,0,75,0,0
128880,-185.42761462208,4,1,0,75,0,0
129030,-188.152418511188,4,1,0,75,0,0
129330,-193.849541739683,4,1,0,75,0,0
129480,-196.829470883016,4,1,0,75,0,0
129630,-199.902447605568,4,1,0,75,0,0
129780,-203.072899109322,4,1,0,75,0,0
129930,-206.345537984087,4,1,0,75,0,0
130080,-209.725385580121,4,1,0,75,0,0
130380,-216.828492998608,4,1,0,75,0,0
130680,-224.429612140744,4,1,0,75,0,0
130830,-228.433585219433,4,1,0,75,0,0
130980,-232.583020509171,4,1,0,75,0,0
131130,-236.885991510006,4,1,0,75,0,0
131280,-241.350597946106,4,1,0,75,0,0
131430,-245.98733165242,4,1,0,75,0,0
131730,-255.816630639158,4,1,0,75,0,0
132030,-266.464153909695,4,1,0,75,0,0
132180,-272.127355602422,4,1,0,75,0,0
132330,-278.036506193263,4,1,0,75,0,0
132480,-284.207983402254,4,1,0,75,0,0
132780,-297.41103692358,4,1,0,75,0,0
133080,-311.900566099528,4,1,0,75,0,0
133230,-319.687984527102,4,1,0,75,0,0
133380,-327.874227446352,4,1,0,75,0,0
133530,-336.490738092434,4,1,0,75,0,0
133680,-345.572354211663,4,1,0,75,0,0
133830,-355.157778843251,4,1,0,75,0,0
133980,-365.290131687092,4,1,0,75,0,0
134130,-376.017597623569,4,1,0,75,0,0
134280,-387.394192961048,4,1,0,75,0,0
134430,-399.480675122341,4,1,0,50,0,0
153630,-133.333333333333,4,1,0,80,0,0
163530,-131.578947368421,4,1,0,85,0,0
163680,-130.065058542283,4,1,0,85,0,0
163755,-129.320935766291,4,1,0,85,0,0
163830,-128.585444384867,4,1,0,85,0,0
163980,-127.139277264064,4,1,0,85,0,0
164130,-125.725119627451,4,1,0,85,0,0
164280,-124.342229605388,4,1,0,85,0,0
164430,-122.989430288361,4,1,0,85,0,0
164580,-121.665602092648,4,1,0,85,0,0
164730,-120.370114026609,4,1,0,85,0,0
164880,-119.101782000862,4,1,0,85,0,0
165030,-117.860038846669,4,1,0,85,0,0
165105,-117.248826632367,4,1,0,85,0,0
165180,-116.643785044167,4,1,0,85,0,0
165255,-116.045090480357,4,1,0,85,0,0
165330,-115.452510341659,4,1,0,85,0,0
165480,-114.285322450323,4,1,0,85,0,0
165555,-113.710404615733,4,1,0,85,0,0
165630,-113.141370141992,4,1,0,85,0,0
165930,-110.92094331607,4,1,0,85,0,0
166080,-109.843154959034,4,1,0,85,0,0
166155,-109.312077235541,4,1,0,85,0,0
166230,-108.786110189451,4,1,0,85,0,0
166380,-107.749099756272,4,1,0,85,0,0
166530,-106.731787287817,4,1,0,85,0,0
166680,-105.733393248923,4,1,0,85,0,0
166830,-104.753614261576,4,1,0,85,0,0
166980,-103.791719081485,4,1,0,85,0,0
167130,-102.847434059368,4,1,0,85,0,0
167280,-101.920176118064,4,1,0,85,0,0
167430,-101.009386802316,4,1,0,85,0,0
167505,-100.560119867663,4,1,0,85,0,0
167580,-100.114831711974,4,1,0,85,0,0
167655,-99.6734697132195,4,1,0,85,0,0
167730,-99.2358836955443,4,1,0,85,0,0
167880,-98.3723314045798,4,1,0,85,0,0
167955,-97.9461668277881,4,1,0,85,0,0
168030,-97.5236787492003,4,1,0,85,0,0
168180,-96.6894499240505,4,1,0,85,0,0
168330,-95.8694641376302,4,1,0,85,0,0
168480,-95.0631789887559,4,1,0,85,0,0
168630,-94.2704317020149,4,1,0,85,0,0
168780,-93.4907093607573,4,1,0,85,0,0
168930,-92.723865546686,4,1,0,85,0,0
169080,-91.9694992352736,4,1,0,85,0,0
169230,-91.227225123248,4,1,0,85,0,0
169380,-90.4969185799224,4,1,0,85,0,0
169530,-89.7781313041081,4,1,0,85,0,0
169680,-89.0707515700947,4,1,0,85,0,0
169830,-88.3744318628712,4,1,0,85,0,0
169980,-87.6888379124445,4,1,0,85,0,0
170130,-87.0138752325446,4,1,0,85,0,0
170280,-86.3491493313554,4,1,0,85,0,0
170430,-85.6945759618145,4,1,0,90,0,0
170505,-85.3709967405353,4,1,0,90,0,0
170580,-85.049779636021,4,1,0,90,0,0
170655,-84.7310424883813,4,1,0,90,0,0
170730,-84.4146854539991,4,1,0,90,0,0
170805,-84.1006819724301,4,1,0,90,0,0
170880,-83.7890058769609,4,1,0,90,0,0
170955,-83.4795616989093,4,1,0,90,0,0
171030,-83.1724639260231,4,1,0,90,0,0
171105,-82.8676173239726,4,1,0,90,0,0
171180,-82.5649972299443,4,1,0,90,0,0
171255,-82.2645793400736,4,1,0,90,0,0
171330,-81.9662725181842,4,1,0,90,0,0
171405,-81.6701880129398,4,1,0,90,0,0
171480,-81.3762348843644,4,1,0,90,0,0
171555,-81.0843902007893,4,1,0,90,0,0
171630,-80.7946313583355,4,1,0,90,0,0
171705,-80.5068712614622,4,1,0,90,0,0
171780,-80.2212180308419,4,1,0,90,0,0
171855,-79.9375847338398,4,1,0,90,0,0
171930,-79.6559500206707,4,1,0,90,0,0
172005,-79.376229835461,4,1,0,90,0,0
172080,-79.0985298747238,4,1,0,90,0,0
172155,-78.8227662219223,4,1,0,90,0,0
172230,-78.5489186955852,4,1,0,90,0,0
172380,-78.0068318383324,4,1,0,90,0,0
172530,-77.4722358874638,4,1,0,90,0,0
172680,-76.9449174419508,4,1,0,90,0,0
172830,-66.6666666666667,4,1,0,90,0,0
173430,-80,4,1,0,90,0,0
173580,-76.9230769230769,4,1,0,90,0,0
173730,-74.0740740740741,4,1,0,90,0,0
173880,-71.4285714285714,4,1,0,90,0,0
174030,-68.9655172413793,4,1,0,95,0,1
174180,-25,4,1,0,95,0,1
176130,-66.6666666666667,4,1,0,95,0,1
177180,-83.3333333333333,4,1,0,95,0,1
177255,-80,4,1,0,95,0,1
177330,-76.9230769230769,4,1,0,95,0,1
177405,-74.0740740740741,4,1,0,95,0,1
177480,-71.4285714285714,4,1,0,95,0,1
177555,-68.9655172413793,4,1,0,95,0,1
177630,-66.6666666666667,4,1,0,95,0,0
177780,-100,4,1,0,95,0,0
177930,-93.3701585238552,4,1,0,95,0,0
178080,-87.5647541356833,4,1,0,95,0,0
178230,-82.4390075003009,4,1,0,95,0,0
178380,-77.8801642336903,4,1,0,95,0,0
178530,-73.7991040788765,4,1,0,95,0,0
178680,-70.1244568860814,4,1,0,95,0,0
178755,-68.421074238234,4,1,0,95,0,0
178830,-66.6666666666667,4,1,0,95,0,1
178980,-25,4,1,0,95,0,1
180930,-66.6666666666667,4,1,0,95,0,1
181980,-83.3333333333333,4,1,0,95,0,1
182055,-80,4,1,0,95,0,1
182130,-76.9230769230769,4,1,0,95,0,1
182205,-74.0740740740741,4,1,0,95,0,1
182280,-71.4285714285714,4,1,0,95,0,1
182355,-68.9655172413793,4,1,0,95,0,1
182430,-66.6666666666667,4,1,0,95,0,0
183030,-80,4,1,0,95,0,0
183180,-76.9230769230769,4,1,0,95,0,0
183330,-74.0740740740741,4,1,0,95,0,0
183480,-71.4285714285714,4,1,0,95,0,0
183630,-68.9655172413793,4,1,0,95,0,1
183780,-25,4,1,0,95,0,1
186030,-66.6666666666667,4,1,0,95,0,1
186780,-83.3333333333333,4,1,0,95,0,1
186855,-80,4,1,0,95,0,1
186930,-76.9230769230769,4,1,0,95,0,1
187005,-74.0740740740741,4,1,0,95,0,1
187080,-71.4285714285714,4,1,0,95,0,1
187155,-68.9655172413793,4,1,0,95,0,1
187230,-66.6666666666667,4,1,0,95,0,0
188280,-71.4285714285714,4,1,0,95,0,0
188430,-68.9655172413793,4,1,0,95,0,1
188580,-25,4,1,0,95,0,1
190530,-66.6666666666667,4,1,0,95,0,1
190830,-66.6666666666667,4,1,0,95,0,0
192030,-33.3333333333333,4,1,0,95,0,0
192630,-80,4,1,0,95,0,0
192780,-76.9230769230769,4,1,0,95,0,0
192930,-74.0740740740741,4,1,0,95,0,0
193080,-71.4285714285714,4,1,0,95,0,0
193230,-68.9655172413793,4,1,0,95,0,1
193380,-25,4,1,0,95,0,1
195330,-66.6666666666667,4,1,0,95,0,1
196380,-83.3333333333333,4,1,0,95,0,1
196455,-80,4,1,0,95,0,1
196530,-76.9230769230769,4,1,0,95,0,1
196605,-74.0740740740741,4,1,0,95,0,1
196680,-71.4285714285714,4,1,0,95,0,1
196755,-68.9655172413793,4,1,0,95,0,1
196830,-66.6666666666667,4,1,0,95,0,0
196980,-100,4,1,0,95,0,0
197130,-93.3701585238552,4,1,0,95,0,0
197280,-87.5647541356833,4,1,0,95,0,0
197430,-82.4390075003009,4,1,0,95,0,0
197580,-77.8801642336903,4,1,0,95,0,0
197730,-73.7991040788765,4,1,0,95,0,0
197880,-70.1244568860814,4,1,0,95,0,0
197955,-68.421074238234,4,1,0,95,0,0
198030,-66.6666666666667,4,1,0,95,0,1
198180,-25,4,1,0,95,0,1
200130,-66.6666666666667,4,1,0,95,0,1
201180,-83.3333333333333,4,1,0,95,0,1
201255,-80,4,1,0,95,0,1
201330,-76.9230769230769,4,1,0,95,0,1
201405,-74.0740740740741,4,1,0,95,0,1
201480,-71.4285714285714,4,1,0,95,0,1
201555,-68.9655172413793,4,1,0,95,0,1
201630,-66.6666666666667,4,1,0,95,0,0
202230,-80,4,1,0,95,0,0
202380,-76.9230769230769,4,1,0,95,0,0
202530,-74.0740740740741,4,1,0,95,0,0
202680,-71.4285714285714,4,1,0,95,0,0
202830,-68.9655172413793,4,1,0,95,0,1
202980,-25,4,1,0,95,0,1
205230,-66.6666666666667,4,1,0,95,0,1
205980,-58.8235294117647,4,1,0,95,0,1
206055,-57.1428571428571,4,1,0,95,0,1
206130,-55.5555555555556,4,1,0,95,0,1
206205,-54.054054054054,4,1,0,95,0,1
206280,-52.6315789473684,4,1,0,95,0,1
206355,-51.2820512820513,4,1,0,95,0,1
206430,-50,4,1,0,95,0,0
206580,-53.8216608503392,4,1,0,95,0,0
206730,-58.2758733222376,4,1,0,95,0,0
206880,-63.5338546497887,4,1,0,95,0,0
207030,-69.834694295134,4,1,0,95,0,0
207180,-77.5229254671338,4,1,0,95,0,0
207330,-87.1134016128175,4,1,0,95,0,0
207480,-99.4117804948122,4,1,0,95,0,0
207630,-66.6666666666667,4,1,0,95,0,1
207780,-25,4,1,0,95,0,1
209730,-66.6666666666667,4,1,0,95,0,1
211230,-66.6666666666667,4,1,0,95,0,0
211380,-25,4,1,0,30,0,0
211530,-100,4,1,0,30,0,0

[HitObjects]
256,192,30,5,8,0:0:0:0:
256,192,180,1,0,0:0:0:0:
256,192,330,1,8,0:0:0:0:
256,192,480,1,8,0:0:0:0:
256,192,780,1,8,0:0:0:0:
256,192,1080,1,8,0:0:0:0:
256,192,1230,1,0,0:0:0:0:
256,192,1380,1,0,0:0:0:0:
256,192,1530,1,8,0:0:0:0:
256,192,1680,1,0,0:0:0:0:
256,192,1830,1,8,0:0:0:0:
256,192,2430,1,8,0:0:0:0:
256,192,2580,1,0,0:0:0:0:
256,192,2730,1,8,0:0:0:0:
256,192,2880,1,8,0:0:0:0:
256,192,3180,1,8,0:0:0:0:
256,192,3480,1,8,0:0:0:0:
256,192,3630,1,0,0:0:0:0:
256,192,3780,1,0,0:0:0:0:
256,192,3930,1,8,0:0:0:0:
256,192,4080,1,8,0:0:0:0:
256,192,4230,1,0,0:0:0:0:
256,192,4530,1,0,0:0:0:0:
256,192,4680,1,8,0:0:0:0:
256,192,4830,1,8,0:0:0:0:
256,192,4980,1,0,0:0:0:0:
256,192,5130,1,8,0:0:0:0:
256,192,5280,1,8,0:0:0:0:
256,192,5580,1,8,0:0:0:0:
256,192,5880,1,8,0:0:0:0:
256,192,6030,1,0,0:0:0:0:
256,192,6180,1,0,0:0:0:0:
256,192,6330,1,8,0:0:0:0:
256,192,6480,1,0,0:0:0:0:
256,192,6630,1,8,0:0:0:0:
256,192,7230,1,8,0:0:0:0:
256,192,7380,1,0,0:0:0:0:
256,192,7530,1,8,0:0:0:0:
256,192,7680,1,8,0:0:0:0:
256,192,7980,1,8,0:0:0:0:
256,192,8280,1,8,0:0:0:0:
256,192,8430,1,8,0:0:0:0:
256,192,8580,1,0,0:0:0:0:
256,192,8730,1,0,0:0:0:0:
256,192,8880,1,8,0:0:0:0:
256,192,9030,1,0,0:0:0:0:
256,192,9180,1,8,0:0:0:0:
256,192,9330,1,0,0:0:0:0:
256,192,9480,1,0,0:0:0:0:
256,192,9630,1,8,0:0:0:0:
256,192,9780,1,0,0:0:0:0:
256,192,9930,1,8,0:0:0:0:
256,192,10080,1,8,0:0:0:0:
256,192,10380,1,8,0:0:0:0:
256,192,10680,1,8,0:0:0:0:
256,192,10830,1,0,0:0:0:0:
256,192,10980,1,0,0:0:0:0:
256,192,11130,1,8,0:0:0:0:
256,192,11280,1,0,0:0:0:0:
256,192,11430,1,8,0:0:0:0:
256,192,11730,1,0,0:0:0:0:
256,192,12030,1,8,0:0:0:0:
256,192,12180,1,0,0:0:0:0:
256,192,12330,1,8,0:0:0:0:
256,192,12480,1,8,0:0:0:0:
256,192,12780,1,8,0:0:0:0:
256,192,13080,1,8,0:0:0:0:
256,192,13230,1,0,0:0:0:0:
256,192,13380,1,0,0:0:0:0:
256,192,13530,1,8,0:0:0:0:
256,192,13680,1,8,0:0:0:0:
256,192,13830,1,0,0:0:0:0:
256,192,14130,1,0,0:0:0:0:
256,192,14280,1,8,0:0:0:0:
256,192,14430,1,8,0:0:0:0:
256,192,14580,1,0,0:0:0:0:
256,192,14730,1,8,0:0:0:0:
256,192,14880,1,8,0:0:0:0:
256,192,15180,1,8,0:0:0:0:
256,192,15480,1,8,0:0:0:0:
256,192,15630,1,0,0:0:0:0:
256,192,15780,1,0,0:0:0:0:
256,192,15930,1,8,0:0:0:0:
256,192,16080,1,0,0:0:0:0:
256,192,16230,1,8,0:0:0:0:
256,192,16530,1,0,0:0:0:0:
256,192,16830,1,8,0:0:0:0:
256,192,16980,1,0,0:0:0:0:
256,192,17130,1,8,0:0:0:0:
256,192,17280,1,8,0:0:0:0:
256,192,17580,1,8,0:0:0:0:
256,192,17880,1,8,0:0:0:0:
256,192,18030,1,8,0:0:0:0:
256,192,18180,1,0,0:0:0:0:
256,192,18330,1,0,0:0:0:0:
256,192,18480,1,8,0:0:0:0:
256,192,18630,1,0,0:0:0:0:
256,192,18780,1,8,0:0:0:0:
256,192,18930,1,0,0:0:0:0:
256,192,19080,1,0,0:0:0:0:
256,192,19230,1,8,0:0:0:0:
256,192,19380,1,8,0:0:0:0:
256,192,19530,1,0,0:0:0:0:
256,192,20280,1,8,0:0:0:0:
256,192,20430,1,0,0:0:0:0:
256,192,20730,1,0,0:0:0:0:
256,192,21030,1,8,0:0:0:0:
256,192,21330,1,8,0:0:0:0:
256,192,21630,1,0,0:0:0:0:
256,192,21780,1,8,0:0:0:0:
256,192,22080,1,0,0:0:0:0:
256,192,22230,1,8,0:0:0:0:
256,192,22530,1,0,0:0:0:0:
256,192,22680,1,8,0:0:0:0:
256,192,23130,1,0,0:0:0:0:
256,192,23430,1,8,0:0:0:0:
256,192,23580,1,8,0:0:0:0:
256,192,23730,1,0,0:0:0:0:
256,192,23880,1,8,0:0:0:0:
256,192,24030,1,0,0:0:0:0:
256,192,24180,1,8,0:0:0:0:
256,192,24330,1,0,0:0:0:0:
256,192,25080,1,8,0:0:0:0:
256,192,25230,1,0,0:0:0:0:
256,192,25530,1,0,0:0:0:0:
256,192,25830,1,8,0:0:0:0:
256,192,26130,1,8,0:0:0:0:
256,192,26430,1,0,0:0:0:0:
256,192,26580,1,8,0:0:0:0:
256,192,26880,1,0,0:0:0:0:
256,192,27030,1,8,0:0:0:0:
256,192,27330,1,0,0:0:0:0:
256,192,27480,1,8,0:0:0:0:
256,192,27930,1,0,0:0:0:0:
256,192,28230,1,8,0:0:0:0:
256,192,28380,1,8,0:0:0:0:
256,192,28530,1,0,0:0:0:0:
256,192,28680,1,8,0:0:0:0:
256,192,28830,1,0,0:0:0:0:
256,192,28980,1,8,0:0:0:0:
256,192,29280,1,0,0:0:0:0:
256,192,29355,1,0,0:0:0:0:
256,192,29430,1,0,0:0:0:0:
256,192,29580,1,8,0:0:0:0:
256,192,29880,1,8,0:0:0:0:
256,192,30030,1,8,0:0:0:0:
256,192,30330,1,0,0:0:0:0:
256,192,30480,1,8,0:0:0:0:
256,192,30630,1,0,0:0:0:0:
256,192,30780,1,8,0:0:0:0:
256,192,30930,1,8,0:0:0:0:
256,192,31080,1,0,0:0:0:0:
256,192,31155,1,0,0:0:0:0:
256,192,31230,1,0,0:0:0:0:
256,192,31380,1,8,0:0:0:0:
256,192,31680,1,0,0:0:0:0:
256,192,31755,1,0,0:0:0:0:
256,192,31830,1,8,0:0:0:0:
256,192,31980,1,8,0:0:0:0:
256,192,32280,1,0,0:0:0:0:
256,192,32430,1,8,0:0:0:0:
256,192,32730,1,0,0:0:0:0:
256,192,33030,1,8,0:0:0:0:
256,192,33180,1,8,0:0:0:0:
256,192,33330,1,0,0:0:0:0:
256,192,33480,1,8,0:0:0:0:
256,192,33555,1,8,0:0:0:0:
256,192,33630,1,0,0:0:0:0:
256,192,33780,1,8,0:0:0:0:
256,192,34080,1,0,0:0:0:0:
256,192,34155,1,0,0:0:0:0:
256,192,34230,1,0,0:0:0:0:
256,192,34380,1,8,0:0:0:0:
256,192,34680,1,0,0:0:0:0:
256,192,34830,1,8,0:0:0:0:
256,192,35130,1,0,0:0:0:0:
256,192,35280,1,8,0:0:0:0:
256,192,35430,1,0,0:0:0:0:
256,192,35580,1,8,0:0:0:0:
256,192,35730,1,0,0:0:0:0:
256,192,35805,1,0,0:0:0:0:
256,192,35880,1,8,0:0:0:0:
256,192,35955,1,0,0:0:0:0:
256,192,36030,1,8,0:0:0:0:
256,192,36180,1,8,0:0:0:0:
256,192,36480,1,8,0:0:0:0:
256,192,36630,1,8,0:0:0:0:
256,192,36780,1,0,0:0:0:0:
256,192,36855,1,0,0:0:0:0:
256,192,36930,1,8,0:0:0:0:
256,192,37080,1,8,0:0:0:0:
256,192,37380,1,8,0:0:0:0:
256,192,37530,1,8,0:0:0:0:
256,192,37680,1,0,0:0:0:0:
256,192,37755,1,0,0:0:0:0:
256,192,37830,1,12,0:0:0:0:
256,192,37980,1,0,0:0:0:0:
256,192,38055,1,0,0:0:0:0:
256,192,38130,1,0,0:0:0:0:
256,192,38280,1,8,0:0:0:0:
256,192,38430,1,0,0:0:0:0:
256,192,38580,1,12,0:0:0:0:
256,192,38880,1,0,0:0:0:0:
256,192,39030,1,12,0:0:0:0:
256,192,39330,1,0,0:0:0:0:
256,192,39480,1,12,0:0:0:0:
256,192,39630,1,0,0:0:0:0:
256,192,39680,1,0,0:0:0:0:
256,192,39780,1,12,0:0:0:0:
256,192,39930,1,0,0:0:0:0:
256,192,39980,1,0,0:0:0:0:
256,192,40030,1,0,0:0:0:0:
256,192,40080,1,0,0:0:0:0:
256,192,40230,1,12,0:0:0:0:
256,192,40530,1,8,0:0:0:0:
256,192,40605,1,8,0:0:0:0:
256,192,40680,1,8,0:0:0:0:
256,192,40755,1,8,0:0:0:0:
256,192,40830,1,0,0:0:0:0:
256,192,40980,1,12,0:0:0:0:
256,192,41280,1,0,0:0:0:0:
256,192,41355,1,0,0:0:0:0:
256,192,41430,1,12,0:0:0:0:
256,192,41730,1,0,0:0:0:0:
256,192,41880,1,12,0:0:0:0:
256,192,42030,1,0,0:0:0:0:
256,192,42080,1,0,0:0:0:0:
256,192,42130,1,0,0:0:0:0:
256,192,42180,1,0,0:0:0:0:
256,192,42330,1,12,0:0:0:0:
256,192,42480,1,0,0:0:0:0:
256,192,42530,1,0,0:0:0:0:
256,192,42630,1,12,0:0:0:0:
256,192,42930,1,0,0:0:0:0:
256,192,42980,1,0,0:0:0:0:
256,192,43030,1,8,0:0:0:0:
256,192,43080,1,8,0:0:0:0:
256,192,43230,1,0,0:0:0:0:
256,192,43380,1,12,0:0:0:0:
256,192,43680,1,0,0:0:0:0:
256,192,43830,1,12,0:0:0:0:
256,192,44130,1,0,0:0:0:0:
256,192,44280,1,12,0:0:0:0:
256,192,44430,1,0,0:0:0:0:
256,192,44480,1,0,0:0:0:0:
256,192,44580,1,12,0:0:0:0:
256,192,44730,1,0,0:0:0:0:
256,192,44780,1,0,0:0:0:0:
256,192,44830,1,0,0:0:0:0:
256,192,44880,1,0,0:0:0:0:
256,192,45030,1,12,0:0:0:0:
256,192,45330,1,8,0:0:0:0:
256,192,45405,1,8,0:0:0:0:
256,192,45480,1,8,0:0:0:0:
256,192,45555,1,8,0:0:0:0:
256,192,45630,1,0,0:0:0:0:
256,192,45780,1,12,0:0:0:0:
256,192,46080,1,0,0:0:0:0:
256,192,46155,1,0,0:0:0:0:
256,192,46230,1,12,0:0:0:0:
256,192,46530,1,0,0:0:0:0:
256,192,46680,1,12,0:0:0:0:
256,192,46830,1,0,0:0:0:0:
256,192,46880,1,0,0:0:0:0:
256,192,46930,1,0,0:0:0:0:
256,192,46980,1,0,0:0:0:0:
256,192,47130,1,12,0:0:0:0:
256,192,47280,1,0,0:0:0:0:
256,192,47330,1,0,0:0:0:0:
256,192,47430,1,12,0:0:0:0:
256,192,47580,1,0,0:0:0:0:
256,192,47655,1,0,0:0:0:0:
256,192,47730,1,8,0:0:0:0:
256,192,47805,1,8,0:0:0:0:
256,192,47880,1,8,0:0:0:0:
256,192,47955,1,8,0:0:0:0:
256,192,48180,1,12,0:0:0:0:
256,192,48480,1,0,0:0:0:0:
256,192,48630,1,12,0:0:0:0:
256,192,48930,1,0,0:0:0:0:
256,192,49080,1,12,0:0:0:0:
256,192,49230,1,0,0:0:0:0:
256,192,49280,1,0,0:0:0:0:
256,192,49380,1,12,0:0:0:0:
256,192,49530,1,0,0:0:0:0:
256,192,49580,1,0,0:0:0:0:
256,192,49630,1,0,0:0:0:0:
256,192,49680,1,0,0:0:0:0:
256,192,49830,1,12,0:0:0:0:
256,192,50130,1,8,0:0:0:0:
256,192,50205,1,8,0:0:0:0:
256,192,50280,1,8,0:0:0:0:
256,192,50355,1,8,0:0:0:0:
256,192,50430,1,0,0:0:0:0:
256,192,50580,1,12,0:0:0:0:
256,192,50880,1,0,0:0:0:0:
256,192,50955,1,0,0:0:0:0:
256,192,51030,1,12,0:0:0:0:
256,192,51330,1,0,0:0:0:0:
256,192,51480,1,12,0:0:0:0:
256,192,51630,1,0,0:0:0:0:
256,192,51680,1,0,0:0:0:0:
256,192,51730,1,0,0:0:0:0:
256,192,51780,1,0,0:0:0:0:
256,192,51930,1,12,0:0:0:0:
256,192,52080,1,0,0:0:0:0:
256,192,52130,1,0,0:0:0:0:
256,192,52230,1,12,0:0:0:0:
256,192,52530,1,0,0:0:0:0:
256,192,52580,1,0,0:0:0:0:
256,192,52630,1,8,0:0:0:0:
256,192,52680,1,8,0:0:0:0:
256,192,52830,1,0,0:0:0:0:
256,192,52980,1,12,0:0:0:0:
256,192,53280,1,0,0:0:0:0:
256,192,53430,1,12,0:0:0:0:
256,192,53730,1,0,0:0:0:0:
256,192,53880,1,12,0:0:0:0:
256,192,54030,1,0,0:0:0:0:
256,192,54080,1,0,0:0:0:0:
256,192,54180,1,12,0:0:0:0:
256,192,54330,1,0,0:0:0:0:
256,192,54380,1,0,0:0:0:0:
256,192,54430,1,0,0:0:0:0:
256,192,54480,1,0,0:0:0:0:
256,192,54630,1,12,0:0:0:0:
256,192,54930,1,8,0:0:0:0:
256,192,55005,1,8,0:0:0:0:
256,192,55080,1,8,0:0:0:0:
256,192,55155,1,8,0:0:0:0:
256,192,55230,1,0,0:0:0:0:
256,192,55380,1,12,0:0:0:0:
256,192,55680,1,0,0:0:0:0:
256,192,55755,1,0,0:0:0:0:
256,192,55830,1,12,0:0:0:0:
256,192,56130,1,0,0:0:0:0:
256,192,56280,1,12,0:0:0:0:
256,192,56430,1,0,0:0:0:0:
256,192,56480,1,0,0:0:0:0:
256,192,56530,1,0,0:0:0:0:
256,192,56580,1,8,0:0:0:0:
256,192,56630,1,8,0:0:0:0:
256,192,56680,1,8,0:0:0:0:
256,192,56730,1,0,0:0:0:0:
256,192,56880,1,0,0:0:0:0:
256,192,57030,1,8,0:0:0:0:
256,192,57067,1,8,0:0:0:0:
256,192,57180,1,8,0:0:0:0:
256,192,57217,1,8,0:0:0:0:
256,192,57330,1,0,0:0:0:0:
256,192,57367,1,0,0:0:0:0:
256,192,57480,1,8,0:0:0:0:
256,192,57517,1,8,0:0:0:0:
256,192,57780,1,12,0:0:0:0:
256,192,58080,1,0,0:0:0:0:
256,192,58230,1,12,0:0:0:0:
256,192,58530,1,0,0:0:0:0:
256,192,58680,1,12,0:0:0:0:
256,192,58830,1,0,0:0:0:0:
256,192,58880,1,0,0:0:0:0:
256,192,58980,1,12,0:0:0:0:
256,192,59130,1,0,0:0:0:0:
256,192,59180,1,0,0:0:0:0:
256,192,59230,1,0,0:0:0:0:
256,192,59280,1,0,0:0:0:0:
256,192,59430,1,12,0:0:0:0:
256,192,59730,1,8,0:0:0:0:
256,192,59805,1,8,0:0:0:0:
256,192,59880,1,8,0:0:0:0:
256,192,59955,1,8,0:0:0:0:
256,192,60030,1,0,0:0:0:0:
256,192,60180,1,12,0:0:0:0:
256,192,60480,1,0,0:0:0:0:
256,192,60555,1,0,0:0:0:0:
256,192,60630,1,12,0:0:0:0:
256,192,60930,1,0,0:0:0:0:
256,192,61080,1,12,0:0:0:0:
256,192,61230,1,0,0:0:0:0:
256,192,61280,1,0,0:0:0:0:
256,192,61330,1,0,0:0:0:0:
256,192,61380,1,0,0:0:0:0:
256,192,61530,1,12,0:0:0:0:
256,192,61680,1,0,0:0:0:0:
256,192,61730,1,0,0:0:0:0:
256,192,61830,1,12,0:0:0:0:
256,192,62130,1,0,0:0:0:0:
256,192,62180,1,0,0:0:0:0:
256,192,62230,1,8,0:0:0:0:
256,192,62280,1,8,0:0:0:0:
256,192,62430,1,0,0:0:0:0:
256,192,62580,1,12,0:0:0:0:
256,192,62880,1,0,0:0:0:0:
256,192,63030,1,12,0:0:0:0:
256,192,63330,1,0,0:0:0:0:
256,192,63480,1,12,0:0:0:0:
256,192,63630,1,0,0:0:0:0:
256,192,63680,1,0,0:0:0:0:
256,192,63780,1,12,0:0:0:0:
256,192,63930,1,0,0:0:0:0:
256,192,63980,1,0,0:0:0:0:
256,192,64030,1,0,0:0:0:0:
256,192,64080,1,0,0:0:0:0:
256,192,64230,1,12,0:0:0:0:
256,192,64530,1,8,0:0:0:0:
256,192,64605,1,8,0:0:0:0:
256,192,64680,1,8,0:0:0:0:
256,192,64755,1,8,0:0:0:0:
256,192,64830,1,0,0:0:0:0:
256,192,64980,1,12,0:0:0:0:
256,192,65280,1,0,0:0:0:0:
256,192,65355,1,0,0:0:0:0:
256,192,65430,1,12,0:0:0:0:
256,192,65730,1,0,0:0:0:0:
256,192,65880,1,12,0:0:0:0:
256,192,66030,1,0,0:0:0:0:
256,192,66080,1,0,0:0:0:0:
256,192,66130,1,0,0:0:0:0:
256,192,66180,1,0,0:0:0:0:
256,192,66330,1,12,0:0:0:0:
256,192,66480,1,0,0:0:0:0:
256,192,66530,1,0,0:0:0:0:
256,192,66630,1,12,0:0:0:0:
256,192,66930,1,0,0:0:0:0:
256,192,66980,1,0,0:0:0:0:
256,192,67030,1,8,0:0:0:0:
256,192,67080,1,8,0:0:0:0:
256,192,67130,1,8,0:0:0:0:
256,192,67180,1,8,0:0:0:0:
256,192,67230,1,0,0:0:0:0:
256,192,67380,1,12,0:0:0:0:
256,192,67680,1,0,0:0:0:0:
256,192,67830,1,12,0:0:0:0:
256,192,68130,1,0,0:0:0:0:
256,192,68280,1,12,0:0:0:0:
256,192,68430,1,0,0:0:0:0:
256,192,68480,1,0,0:0:0:0:
256,192,68580,1,12,0:0:0:0:
256,192,68730,1,0,0:0:0:0:
256,192,68780,1,0,0:0:0:0:
256,192,68830,1,0,0:0:0:0:
256,192,68880,1,0,0:0:0:0:
256,192,69030,1,12,0:0:0:0:
256,192,69330,1,8,0:0:0:0:
256,192,69405,1,8,0:0:0:0:
256,192,69480,1,8,0:0:0:0:
256,192,69555,1,8,0:0:0:0:
256,192,69630,1,0,0:0:0:0:
256,192,69780,1,12,0:0:0:0:
256,192,70080,1,0,0:0:0:0:
256,192,70155,1,0,0:0:0:0:
256,192,70230,1,12,0:0:0:0:
256,192,70530,1,0,0:0:0:0:
256,192,70680,1,12,0:0:0:0:
256,192,70830,1,0,0:0:0:0:
256,192,70880,1,0,0:0:0:0:
256,192,70930,1,0,0:0:0:0:
256,192,70980,1,0,0:0:0:0:
256,192,71130,1,12,0:0:0:0:
256,192,71280,1,0,0:0:0:0:
256,192,71330,1,0,0:0:0:0:
256,192,71430,1,12,0:0:0:0:
256,192,71730,1,0,0:0:0:0:
256,192,71780,1,0,0:0:0:0:
256,192,71830,1,8,0:0:0:0:
256,192,71880,1,8,0:0:0:0:
256,192,72030,1,0,0:0:0:0:
256,192,72180,1,12,0:0:0:0:
256,192,72480,1,0,0:0:0:0:
256,192,72630,1,12,0:0:0:0:
256,192,72930,1,0,0:0:0:0:
256,192,73080,1,12,0:0:0:0:
256,192,73230,1,0,0:0:0:0:
256,192,73280,1,0,0:0:0:0:
256,192,73380,1,12,0:0:0:0:
256,192,73530,1,0,0:0:0:0:
256,192,73580,1,0,0:0:0:0:
256,192,73630,1,0,0:0:0:0:
256,192,73680,1,0,0:0:0:0:
256,192,73830,1,12,0:0:0:0:
256,192,74130,1,8,0:0:0:0:
256,192,74205,1,8,0:0:0:0:
256,192,74280,1,8,0:0:0:0:
256,192,74355,1,8,0:0:0:0:
256,192,74430,1,0,0:0:0:0:
256,192,74580,1,12,0:0:0:0:
256,192,74880,1,0,0:0:0:0:
256,192,74955,1,0,0:0:0:0:
256,192,75030,1,12,0:0:0:0:
256,192,75330,1,0,0:0:0:0:
256,192,75480,1,12,0:0:0:0:
256,192,75630,1,0,0:0:0:0:
256,192,75680,1,0,0:0:0:0:
256,192,75730,1,0,0:0:0:0:
256,192,75780,1,8,0:0:0:0:
256,192,75830,1,8,0:0:0:0:
256,192,75880,1,8,0:0:0:0:
256,192,75930,1,0,0:0:0:0:
256,192,76080,1,0,0:0:0:0:
256,192,76230,1,12,0:0:0:0:
256,192,76380,1,0,0:0:0:0:
256,192,76530,1,8,0:0:0:0:
256,192,76680,1,8,0:0:0:0:
256,192,76830,1,0,0:0:0:0:
256,192,77130,1,8,0:0:0:0:
256,192,77205,1,8,0:0:0:0:
256,192,77280,1,0,0:0:0:0:
256,192,77355,1,0,0:0:0:0:
256,192,77430,1,8,0:0:0:0:
256,192,77730,1,8,0:0:0:0:
256,192,77880,1,8,0:0:0:0:
256,192,77930,1,8,0:0:0:0:
256,192,77980,1,0,0:0:0:0:
256,192,78030,1,0,0:0:0:0:
256,192,78180,1,8,0:0:0:0:
256,192,78330,1,0,0:0:0:0:
256,192,78405,1,0,0:0:0:0:
256,192,78480,1,0,0:0:0:0:
256,192,78630,1,8,0:0:0:0:
256,192,78930,1,8,0:0:0:0:
256,192,78980,1,8,0:0:0:0:
256,192,79030,1,0,0:0:0:0:
256,192,79080,1,0,0:0:0:0:
256,192,79530,1,8,0:0:0:0:
256,192,79605,1,8,0:0:0:0:
256,192,79680,1,0,0:0:0:0:
256,192,79755,1,0,0:0:0:0:
256,192,79830,1,8,0:0:0:0:
256,192,79980,1,0,0:0:0:0:
256,192,80130,1,8,0:0:0:0:
256,192,80280,1,8,0:0:0:0:
256,192,80330,1,8,0:0:0:0:
256,192,80380,1,0,0:0:0:0:
256,192,80430,1,0,0:0:0:0:
256,192,80580,1,8,0:0:0:0:
256,192,80730,1,0,0:0:0:0:
256,192,80805,1,0,0:0:0:0:
256,192,80880,1,0,0:0:0:0:
256,192,81030,1,8,0:0:0:0:
256,192,81180,1,8,0:0:0:0:
256,192,81217,1,8,0:0:0:0:
256,192,81330,1,0,0:0:0:0:
256,192,81380,1,0,0:0:0:0:
256,192,81430,1,0,0:0:0:0:
256,192,81480,1,0,0:0:0:0:
256,192,81930,1,8,0:0:0:0:
256,192,82005,1,8,0:0:0:0:
256,192,82080,1,0,0:0:0:0:
256,192,82155,1,0,0:0:0:0:
256,192,82230,1,8,0:0:0:0:
256,192,82530,1,8,0:0:0:0:
256,192,82680,1,8,0:0:0:0:
256,192,82730,1,8,0:0:0:0:
256,192,82780,1,0,0:0:0:0:
256,192,82830,1,0,0:0:0:0:
256,192,82980,1,8,0:0:0:0:
256,192,83130,1,0,0:0:0:0:
256,192,83205,1,0,0:0:0:0:
256,192,83280,1,0,0:0:0:0:
256,192,83430,1,8,0:0:0:0:
256,192,83730,1,8,0:0:0:0:
256,192,83780,1,8,0:0:0:0:
276,197,83830,1,0,0:0:0:0:
256,192,83880,1,0,0:0:0:0:
256,192,84030,1,8,0:0:0:0:
256,192,84105,1,0,0:0:0:0:
256,192,84180,1,8,0:0:0:0:
256,192,84330,1,8,0:0:0:0:
256,192,84405,1,8,0:0:0:0:
256,192,84480,1,0,0:0:0:0:
256,192,84555,1,0,0:0:0:0:
256,192,84630,1,8,0:0:0:0:
256,192,84930,1,8,0:0:0:0:
256,192,85080,1,8,0:0:0:0:
256,192,85130,1,8,0:0:0:0:
256,192,85180,1,0,0:0:0:0:
256,192,85230,1,0,0:0:0:0:
256,192,85380,1,8,0:0:0:0:
256,192,85530,1,0,0:0:0:0:
256,192,85605,1,0,0:0:0:0:
256,192,85680,1,0,0:0:0:0:
256,192,85830,1,8,0:0:0:0:
256,192,85980,1,8,0:0:0:0:
256,192,86017,1,8,0:0:0:0:
256,192,86130,1,0,0:0:0:0:
256,192,86180,1,0,0:0:0:0:
256,192,86230,1,0,0:0:0:0:
256,192,86280,1,0,0:0:0:0:
256,192,86430,1,8,0:0:0:0:
256,192,86730,1,0,0:0:0:0:
256,192,86805,1,0,0:0:0:0:
256,192,86880,1,0,0:0:0:0:
256,192,87030,1,8,0:0:0:0:
256,192,87330,1,8,0:0:0:0:
256,192,87480,1,8,0:0:0:0:
256,192,87530,1,8,0:0:0:0:
256,192,87580,1,0,0:0:0:0:
256,192,87630,1,0,0:0:0:0:
256,192,87780,1,8,0:0:0:0:
256,192,87930,1,0,0:0:0:0:
256,192,88005,1,0,0:0:0:0:
256,192,88080,1,0,0:0:0:0:
256,192,88230,1,8,0:0:0:0:
256,192,88530,1,8,0:0:0:0:
256,192,88580,1,8,0:0:0:0:
256,192,88630,1,0,0:0:0:0:
256,192,88680,1,0,0:0:0:0:
256,192,88830,1,8,0:0:0:0:
256,192,88905,1,8,0:0:0:0:
256,192,88980,1,8,0:0:0:0:
256,192,89130,1,0,0:0:0:0:
256,192,89205,1,0,0:0:0:0:
256,192,89280,1,0,0:0:0:0:
256,192,89430,1,8,0:0:0:0:
256,192,89730,1,8,0:0:0:0:
256,192,89880,1,8,0:0:0:0:
256,192,89930,1,8,0:0:0:0:
256,192,89980,1,0,0:0:0:0:
256,192,90030,1,0,0:0:0:0:
256,192,90180,1,8,0:0:0:0:
256,192,90255,1,8,0:0:0:0:
256,192,90330,1,0,0:0:0:0:
256,192,90405,1,8,0:0:0:0:
256,192,90480,1,0,0:0:0:0:
256,192,90630,1,8,0:0:0:0:
256,192,90780,1,8,0:0:0:0:
256,192,90817,1,8,0:0:0:0:
256,192,90930,1,0,0:0:0:0:
256,192,90980,1,0,0:0:0:0:
256,192,91030,1,0,0:0:0:0:
256,192,91080,1,0,0:0:0:0:
256,192,91230,1,8,0:0:0:0:
256,192,91380,1,0,0:0:0:0:
256,192,91530,1,8,0:0:0:0:
256,192,91605,1,8,0:0:0:0:
256,192,91680,1,0,0:0:0:0:
256,192,91755,1,0,0:0:0:0:
256,192,91830,1,8,0:0:0:0:
256,192,92130,1,8,0:0:0:0:
256,192,92280,1,8,0:0:0:0:
256,192,92330,1,8,0:0:0:0:
256,192,92380,1,0,0:0:0:0:
256,192,92430,1,0,0:0:0:0:
256,192,92580,1,8,0:0:0:0:
256,192,92655,1,8,0:0:0:0:
256,192,92730,1,0,0:0:0:0:
256,192,92880,1,0,0:0:0:0:
256,192,93030,1,8,0:0:0:0:
256,192,93330,1,8,0:0:0:0:
256,192,93380,1,8,0:0:0:0:
256,192,93430,1,0,0:0:0:0:
256,192,93480,1,0,0:0:0:0:
256,192,93630,1,8,0:0:0:0:
256,192,93780,1,0,0:0:0:0:
256,192,93930,1,8,0:0:0:0:
256,192,94005,1,8,0:0:0:0:
256,192,94080,1,0,0:0:0:0:
256,192,94155,1,0,0:0:0:0:
256,192,94230,1,8,0:0:0:0:
256,192,94530,1,8,0:0:0:0:
256,192,94680,1,8,0:0:0:0:
256,192,94730,1,8,0:0:0:0:
256,192,94780,1,0,0:0:0:0:
256,192,94830,1,0,0:0:0:0:
256,192,94980,1,8,0:0:0:0:
256,192,95055,1,8,0:0:0:0:
256,192,95130,1,0,0:0:0:0:
256,192,95205,1,8,0:0:0:0:
256,192,95280,1,0,0:0:0:0:
256,192,95430,1,8,0:0:0:0:
256,192,95580,1,8,0:0:0:0:
256,192,95617,1,8,0:0:0:0:
256,192,95730,1,0,0:0:0:0:
256,192,95780,1,0,0:0:0:0:
256,192,95830,1,0,0:0:0:0:
256,192,95880,1,0,0:0:0:0:
256,192,96030,1,8,0:0:0:0:
256,192,96330,1,0,0:0:0:0:
256,192,96405,1,0,0:0:0:0:
256,192,96480,1,0,0:0:0:0:
256,192,96555,1,0,0:0:0:0:
256,192,96630,1,8,0:0:0:0:
256,192,96780,1,8,0:0:0:0:
256,192,96855,1,8,0:0:0:0:
256,192,96930,1,0,0:0:0:0:
256,192,97080,1,8,0:0:0:0:
256,192,97130,1,8,0:0:0:0:
256,192,97180,1,0,0:0:0:0:
256,192,97230,1,8,0:0:0:0:
256,192,97380,1,0,0:0:0:0:
256,192,97530,1,0,0:0:0:0:
256,192,97680,1,0,0:0:0:0:
256,192,97830,1,8,0:0:0:0:
256,192,98130,1,8,0:0:0:0:
256,192,98180,1,8,0:0:0:0:
256,192,98230,1,0,0:0:0:0:
256,192,98280,1,0,0:0:0:0:
256,192,98430,1,8,0:0:0:0:
256,192,98730,1,0,0:0:0:0:
256,192,98805,1,0,0:0:0:0:
256,192,98880,1,0,0:0:0:0:
256,192,98955,1,0,0:0:0:0:
256,192,99030,1,8,0:0:0:0:
256,192,99180,1,8,0:0:0:0:
256,192,99255,1,8,0:0:0:0:
256,192,99330,1,0,0:0:0:0:
256,192,99480,1,8,0:0:0:0:
256,192,99530,1,8,0:0:0:0:
256,192,99580,1,0,0:0:0:0:
256,192,99630,1,8,0:0:0:0:
256,192,99780,1,0,0:0:0:0:
256,192,99930,1,0,0:0:0:0:
256,192,100080,1,0,0:0:0:0:
256,192,100230,1,8,0:0:0:0:
256,192,100380,1,8,0:0:0:0:
256,192,100417,1,8,0:0:0:0:
256,192,100530,1,0,0:0:0:0:
256,192,100580,1,0,0:0:0:0:
256,192,100630,1,0,0:0:0:0:
256,192,100680,1,0,0:0:0:0:
256,192,100830,1,8,0:0:0:0:
256,192,101130,1,0,0:0:0:0:
256,192,101205,1,0,0:0:0:0:
256,192,101280,1,0,0:0:0:0:
256,192,101355,1,0,0:0:0:0:
256,192,101430,1,8,0:0:0:0:
256,192,101580,1,8,0:0:0:0:
256,192,101655,1,8,0:0:0:0:
256,192,101730,1,0,0:0:0:0:
256,192,101880,1,8,0:0:0:0:
256,192,101930,1,8,0:0:0:0:
256,192,101980,1,0,0:0:0:0:
256,192,102030,1,8,0:0:0:0:
256,192,102180,1,0,0:0:0:0:
256,192,102330,1,0,0:0:0:0:
256,192,102480,1,0,0:0:0:0:
256,192,102630,1,8,0:0:0:0:
256,192,102930,1,8,0:0:0:0:
256,192,102980,1,8,0:0:0:0:
256,192,103030,1,0,0:0:0:0:
256,192,103080,1,0,0:0:0:0:
256,192,103230,1,8,0:0:0:0:
256,192,103530,1,0,0:0:0:0:
256,192,103605,1,0,0:0:0:0:
256,192,103680,1,0,0:0:0:0:
256,192,103755,1,0,0:0:0:0:
256,192,103830,1,8,0:0:0:0:
256,192,103980,1,8,0:0:0:0:
256,192,104055,1,8,0:0:0:0:
256,192,104130,1,0,0:0:0:0:
256,192,104280,1,8,0:0:0:0:
256,192,104330,1,8,0:0:0:0:
256,192,104380,1,0,0:0:0:0:
256,192,104430,1,8,0:0:0:0:
256,192,104580,1,0,0:0:0:0:
256,192,104730,1,0,0:0:0:0:
256,192,104880,1,0,0:0:0:0:
256,192,105030,1,8,0:0:0:0:
256,192,105180,1,8,0:0:0:0:
256,192,105217,1,8,0:0:0:0:
256,192,105330,1,0,0:0:0:0:
256,192,105380,1,0,0:0:0:0:
256,192,105430,1,0,0:0:0:0:
256,192,105480,1,0,0:0:0:0:
256,192,105630,1,8,0:0:0:0:
256,192,105780,1,0,0:0:0:0:
256,192,105930,1,0,0:0:0:0:
256,192,106005,1,0,0:0:0:0:
256,192,106080,1,0,0:0:0:0:
256,192,106155,1,0,0:0:0:0:
256,192,106230,1,8,0:0:0:0:
256,192,106380,1,8,0:0:0:0:
256,192,106455,1,8,0:0:0:0:
256,192,106530,1,0,0:0:0:0:
256,192,106680,1,8,0:0:0:0:
256,192,106730,1,8,0:0:0:0:
256,192,106780,1,0,0:0:0:0:
256,192,106830,1,8,0:0:0:0:
256,192,106980,1,0,0:0:0:0:
256,192,107055,1,8,0:0:0:0:
256,192,107130,1,0,0:0:0:0:
256,192,107280,1,0,0:0:0:0:
256,192,107430,1,8,0:0:0:0:
256,192,107730,1,8,0:0:0:0:
256,192,107780,1,8,0:0:0:0:
256,192,107830,1,0,0:0:0:0:
256,192,107880,1,0,0:0:0:0:
256,192,108030,1,8,0:0:0:0:
256,192,108105,1,8,0:0:0:0:
256,192,108180,1,8,0:0:0:0:
256,192,108255,1,0,0:0:0:0:
256,192,108330,1,8,0:0:0:0:
256,192,108405,1,0,0:0:0:0:
256,192,108480,1,0,0:0:0:0:
256,192,108555,1,0,0:0:0:0:
256,192,108630,1,8,0:0:0:0:
256,192,108780,1,8,0:0:0:0:
256,192,108855,1,8,0:0:0:0:
256,192,108930,1,0,0:0:0:0:
256,192,109080,1,8,0:0:0:0:
256,192,109130,1,8,0:0:0:0:
256,192,109180,1,0,0:0:0:0:
256,192,109230,1,8,0:0:0:0:
256,192,109380,1,0,0:0:0:0:
256,192,109455,1,8,0:0:0:0:
256,192,109530,1,0,0:0:0:0:
256,192,109680,1,0,0:0:0:0:
256,192,109830,1,8,0:0:0:0:
256,192,109980,1,8,0:0:0:0:
256,192,110017,1,8,0:0:0:0:
256,192,110130,1,0,0:0:0:0:
256,192,110180,1,0,0:0:0:0:
256,192,110230,1,0,0:0:0:0:
256,192,110280,1,0,0:0:0:0:
256,192,110430,1,8,0:0:0:0:
256,192,110505,1,8,0:0:0:0:
256,192,110580,1,8,0:0:0:0:
256,192,110655,1,0,0:0:0:0:
256,192,110730,1,8,0:0:0:0:
256,192,110805,1,0,0:0:0:0:
256,192,110880,1,0,0:0:0:0:
256,192,110955,1,0,0:0:0:0:
256,192,111030,1,8,0:0:0:0:
256,192,111180,1,8,0:0:0:0:
256,192,111255,1,8,0:0:0:0:
256,192,111330,1,0,0:0:0:0:
256,192,111480,1,8,0:0:0:0:
256,192,111530,1,8,0:0:0:0:
256,192,111580,1,0,0:0:0:0:
256,192,111630,1,8,0:0:0:0:
256,192,111780,1,0,0:0:0:0:
256,192,111855,1,8,0:0:0:0:
256,192,111930,1,0,0:0:0:0:
256,192,112080,1,0,0:0:0:0:
256,192,112230,1,8,0:0:0:0:
256,192,112530,1,8,0:0:0:0:
256,192,112580,1,8,0:0:0:0:
256,192,112630,1,0,0:0:0:0:
256,192,112680,1,0,0:0:0:0:
256,192,112830,1,8,0:0:0:0:
256,192,112905,1,8,0:0:0:0:
256,192,112980,1,0,0:0:0:0:
256,192,113055,1,0,0:0:0:0:
256,192,113130,1,8,0:0:0:0:
256,192,113205,1,0,0:0:0:0:
256,192,113280,1,0,0:0:0:0:
256,192,113355,1,0,0:0:0:0:
256,192,113430,1,8,0:0:0:0:
256,192,113580,1,8,0:0:0:0:
256,192,113655,1,8,0:0:0:0:
256,192,113730,1,0,0:0:0:0:
256,192,113880,1,8,0:0:0:0:
256,192,113930,1,8,0:0:0:0:
256,192,113980,1,0,0:0:0:0:
256,192,114030,1,8,0:0:0:0:
256,192,114180,1,0,0:0:0:0:
256,192,114255,1,8,0:0:0:0:
256,192,114330,1,0,0:0:0:0:
256,192,114480,1,0,0:0:0:0:
256,192,114630,1,8,0:0:0:0:
256,192,114780,1,8,0:0:0:0:
256,192,114817,1,8,0:0:0:0:
256,192,114930,1,0,0:0:0:0:
256,192,114980,1,0,0:0:0:0:
256,192,115030,1,0,0:0:0:0:
256,192,115080,1,0,0:0:0:0:
256,192,115230,1,12,0:0:0:0:
256,192,115380,1,0,0:0:0:0:
256,192,115530,1,8,0:0:0:0:
256,192,115680,1,8,0:0:0:0:
256,192,115980,1,8,0:0:0:0:
256,192,116280,1,8,0:0:0:0:
256,192,116430,1,0,0:0:0:0:
256,192,116580,1,0,0:0:0:0:
256,192,116730,1,8,0:0:0:0:
256,192,116880,1,0,0:0:0:0:
256,192,117030,1,8,0:0:0:0:
256,192,117630,1,8,0:0:0:0:
256,192,117780,1,0,0:0:0:0:
256,192,117930,1,8,0:0:0:0:
256,192,118080,1,8,0:0:0:0:
256,192,118380,1,8,0:0:0:0:
256,192,118680,1,8,0:0:0:0:
256,192,118830,1,0,0:0:0:0:
256,192,118980,1,0,0:0:0:0:
256,192,119130,1,8,0:0:0:0:
256,192,119280,1,8,0:0:0:0:
256,192,119430,1,0,0:0:0:0:
256,192,119730,1,0,0:0:0:0:
256,192,119880,1,8,0:0:0:0:
256,192,120030,1,8,0:0:0:0:
256,192,120180,1,0,0:0:0:0:
256,192,120330,1,8,0:0:0:0:
256,192,120480,1,8,0:0:0:0:
256,192,120780,1,8,0:0:0:0:
256,192,121080,1,8,0:0:0:0:
256,192,121230,1,0,0:0:0:0:
256,192,121380,1,0,0:0:0:0:
256,192,121530,1,8,0:0:0:0:
256,192,121680,1,0,0:0:0:0:
256,192,121830,1,8,0:0:0:0:
256,192,122430,1,8,0:0:0:0:
256,192,122580,1,0,0:0:0:0:
256,192,122730,1,8,0:0:0:0:
256,192,122880,1,8,0:0:0:0:
256,192,123180,1,8,0:0:0:0:
256,192,123480,1,8,0:0:0:0:
256,192,123630,1,8,0:0:0:0:
256,192,123780,1,0,0:0:0:0:
256,192,123930,1,0,0:0:0:0:
256,192,124080,1,8,0:0:0:0:
256,192,124230,1,0,0:0:0:0:
256,192,124380,1,8,0:0:0:0:
256,192,124530,1,0,0:0:0:0:
256,192,124680,1,0,0:0:0:0:
256,192,124830,1,8,0:0:0:0:
256,192,124980,1,0,0:0:0:0:
256,192,125130,1,8,0:0:0:0:
256,192,125280,1,8,0:0:0:0:
256,192,125580,1,8,0:0:0:0:
256,192,125880,1,8,0:0:0:0:
256,192,126030,1,0,0:0:0:0:
256,192,126180,1,0,0:0:0:0:
256,192,126330,1,8,0:0:0:0:
256,192,126480,1,0,0:0:0:0:
256,192,126630,1,8,0:0:0:0:
256,192,126930,1,0,0:0:0:0:
256,192,127230,1,8,0:0:0:0:
256,192,127380,1,0,0:0:0:0:
256,192,127530,1,8,0:0:0:0:
256,192,127680,1,8,0:0:0:0:
256,192,127980,1,8,0:0:0:0:
256,192,128280,1,8,0:0:0:0:
256,192,128430,1,0,0:0:0:0:
256,192,128580,1,0,0:0:0:0:
256,192,128730,1,8,0:0:0:0:
256,192,128880,1,8,0:0:0:0:
256,192,129030,1,0,0:0:0:0:
256,192,129330,1,0,0:0:0:0:
256,192,129480,1,8,0:0:0:0:
256,192,129630,1,8,0:0:0:0:
256,192,129780,1,0,0:0:0:0:
256,192,129930,1,8,0:0:0:0:
256,192,130080,1,8,0:0:0:0:
256,192,130380,1,8,0:0:0:0:
256,192,130680,1,8,0:0:0:0:
256,192,130830,1,0,0:0:0:0:
256,192,130980,1,0,0:0:0:0:
256,192,131130,1,8,0:0:0:0:
256,192,131280,1,0,0:0:0:0:
256,192,131430,1,8,0:0:0:0:
256,192,131730,1,0,0:0:0:0:
256,192,132030,1,8,0:0:0:0:
256,192,132180,1,0,0:0:0:0:
256,192,132330,1,8,0:0:0:0:
256,192,132480,1,8,0:0:0:0:
256,192,132780,1,8,0:0:0:0:
256,192,133080,1,8,0:0:0:0:
256,192,133230,1,8,0:0:0:0:
256,192,133380,1,0,0:0:0:0:
256,192,133530,1,0,0:0:0:0:
256,192,133680,1,8,0:0:0:0:
256,192,133830,1,0,0:0:0:0:
256,192,133980,1,8,0:0:0:0:
256,192,134130,1,0,0:0:0:0:
256,192,134280,1,0,0:0:0:0:
256,192,134430,1,12,0:0:0:0:
256,192,136830,1,8,0:0:0:0:
256,192,139230,1,0,0:0:0:0:
256,192,141630,1,8,0:0:0:0:
256,192,144030,1,0,0:0:0:0:
256,192,146430,1,8,0:0:0:0:
256,192,148830,1,8,0:0:0:0:
256,192,151230,1,8,0:0:0:0:
256,192,153630,1,4,0:0:0:0:
256,192,153930,1,8,0:0:0:0:
256,192,154080,1,0,0:0:0:0:
256,192,154155,1,0,0:0:0:0:
256,192,154230,1,8,0:0:0:0:
256,192,154380,1,8,0:0:0:0:
256,192,154530,1,0,0:0:0:0:
256,192,154680,1,0,0:0:0:0:
256,192,154830,1,8,0:0:0:0:
256,192,155130,1,0,0:0:0:0:
256,192,155280,1,8,0:0:0:0:
256,192,155430,1,0,0:0:0:0:
256,192,155580,1,0,0:0:0:0:
256,192,155730,1,8,0:0:0:0:
256,192,155880,1,8,0:0:0:0:
256,192,155955,1,0,0:0:0:0:
256,192,156030,1,8,0:0:0:0:
256,192,156330,1,0,0:0:0:0:
256,192,156480,1,8,0:0:0:0:
256,192,156555,1,8,0:0:0:0:
256,192,156630,1,0,0:0:0:0:
256,192,156780,1,0,0:0:0:0:
256,192,156930,1,8,0:0:0:0:
256,192,157080,1,8,0:0:0:0:
256,192,157230,1,0,0:0:0:0:
256,192,157530,1,8,0:0:0:0:
256,192,157680,1,0,0:0:0:0:
256,192,157830,1,8,0:0:0:0:
256,192,157980,1,8,0:0:0:0:
256,192,158130,1,0,0:0:0:0:
256,192,158280,1,0,0:0:0:0:
256,192,158355,1,8,0:0:0:0:
256,192,158430,1,0,0:0:0:0:
256,192,158730,1,8,0:0:0:0:
256,192,158880,1,8,0:0:0:0:
256,192,158955,1,8,0:0:0:0:
256,192,159030,1,0,0:0:0:0:
256,192,159180,1,0,0:0:0:0:
256,192,159330,1,8,0:0:0:0:
256,192,159480,1,8,0:0:0:0:
256,192,159630,1,0,0:0:0:0:
256,192,159930,1,0,0:0:0:0:
256,192,160080,1,8,0:0:0:0:
256,192,160230,1,8,0:0:0:0:
256,192,160380,1,0,0:0:0:0:
256,192,160455,1,0,0:0:0:0:
256,192,160530,1,8,0:0:0:0:
256,192,160680,1,8,0:0:0:0:
256,192,160755,1,0,0:0:0:0:
256,192,160830,1,8,0:0:0:0:
256,192,161130,1,0,0:0:0:0:
256,192,161280,1,0,0:0:0:0:
256,192,161355,1,0,0:0:0:0:
256,192,161430,1,8,0:0:0:0:
256,192,161580,1,8,0:0:0:0:
256,192,161730,1,0,0:0:0:0:
256,192,161880,1,0,0:0:0:0:
256,192,162030,1,8,0:0:0:0:
256,192,162330,1,8,0:0:0:0:
256,192,162480,1,0,0:0:0:0:
256,192,162630,1,0,0:0:0:0:
256,192,162780,1,8,0:0:0:0:
256,192,162855,1,8,0:0:0:0:
256,192,162930,1,0,0:0:0:0:
256,192,163080,1,0,0:0:0:0:
256,192,163155,1,8,0:0:0:0:
256,192,163230,1,4,0:0:0:0:
256,192,163530,1,8,0:0:0:0:
256,192,163680,1,0,0:0:0:0:
256,192,163755,1,0,0:0:0:0:
256,192,163830,1,8,0:0:0:0:
256,192,163980,1,8,0:0:0:0:
256,192,164130,1,0,0:0:0:0:
256,192,164280,1,8,0:0:0:0:
256,192,164430,1,8,0:0:0:0:
256,192,164580,1,0,0:0:0:0:
256,192,164730,1,0,0:0:0:0:
256,192,164880,1,8,0:0:0:0:
256,192,165030,1,8,0:0:0:0:
256,192,165105,1,0,0:0:0:0:
256,192,165180,1,0,0:0:0:0:
256,192,165255,1,0,0:0:0:0:
256,192,165330,1,8,0:0:0:0:
256,192,165480,1,8,0:0:0:0:
256,192,165555,1,8,0:0:0:0:
256,192,165630,1,0,0:0:0:0:
256,192,165930,1,0,0:0:0:0:
256,192,166080,1,8,0:0:0:0:
256,192,166155,1,8,0:0:0:0:
256,192,166230,1,0,0:0:0:0:
256,192,166380,1,0,0:0:0:0:
256,192,166530,1,8,0:0:0:0:
256,192,166680,1,0,0:0:0:0:
256,192,166830,1,0,0:0:0:0:
256,192,166980,1,8,0:0:0:0:
256,192,167130,1,8,0:0:0:0:
256,192,167280,1,0,0:0:0:0:
256,192,167430,1,0,0:0:0:0:
256,192,167505,1,8,0:0:0:0:
256,192,167580,1,8,0:0:0:0:
256,192,167655,1,8,0:0:0:0:
256,192,167730,1,0,0:0:0:0:
256,192,167880,1,0,0:0:0:0:
256,192,167955,1,0,0:0:0:0:
256,192,168030,1,8,0:0:0:0:
256,192,168180,1,0,0:0:0:0:
256,192,168330,1,8,0:0:0:0:
256,192,168480,1,8,0:0:0:0:
256,192,168630,1,0,0:0:0:0:
256,192,168780,1,0,0:0:0:0:
256,192,168930,1,0,0:0:0:0:
256,192,169080,1,8,0:0:0:0:
256,192,169230,1,0,0:0:0:0:
256,192,169380,1,8,0:0:0:0:
256,192,169530,1,0,0:0:0:0:
256,192,169680,1,0,0:0:0:0:
256,192,169830,1,8,0:0:0:0:
256,192,169980,1,8,0:0:0:0:
256,192,170130,1,8,0:0:0:0:
256,192,170280,1,0,0:0:0:0:
256,192,170430,1,8,0:0:0:0:
256,192,170505,1,0,0:0:0:0:
256,192,170580,1,8,0:0:0:0:
256,192,170655,1,0,0:0:0:0:
256,192,170730,1,8,0:0:0:0:
256,192,170805,1,8,0:0:0:0:
256,192,170880,1,0,0:0:0:0:
256,192,170955,1,0,0:0:0:0:
256,192,171030,1,8,0:0:0:0:
256,192,171105,1,0,0:0:0:0:
256,192,171180,1,8,0:0:0:0:
256,192,171255,1,0,0:0:0:0:
256,192,171330,1,8,0:0:0:0:
256,192,171405,1,8,0:0:0:0:
256,192,171480,1,8,0:0:0:0:
256,192,171555,1,8,0:0:0:0:
256,192,171630,1,0,0:0:0:0:
256,192,171705,1,0,0:0:0:0:
256,192,171780,1,8,0:0:0:0:
256,192,171855,1,8,0:0:0:0:
256,192,171930,1,0,0:0:0:0:
256,192,172005,1,0,0:0:0:0:
256,192,172080,1,8,0:0:0:0:
256,192,172155,1,0,0:0:0:0:
256,192,172230,1,8,0:0:0:0:
256,192,172380,1,8,0:0:0:0:
256,192,172530,1,0,0:0:0:0:
256,192,172680,1,0,0:0:0:0:
256,192,173430,1,8,0:0:0:0:
256,192,173580,1,0,0:0:0:0:
256,192,173617,1,0,0:0:0:0:
256,192,173730,1,8,0:0:0:0:
256,192,173767,1,8,0:0:0:0:
256,192,173880,1,0,0:0:0:0:
256,192,174030,1,12,0:0:0:0:
256,192,174180,12,0,175680,0:0:0:0:
253,168,176130,5,8,0:0:0:0:
253,168,176280,1,0,0:0:0:0:
253,168,176355,1,0,0:0:0:0:
253,168,176430,1,12,0:0:0:0:
253,168,177180,1,0,0:0:0:0:
253,168,177255,1,0,0:0:0:0:
253,168,177330,1,8,0:0:0:0:
253,168,177405,1,8,0:0:0:0:
253,168,177480,1,8,0:0:0:0:
253,168,177555,1,8,0:0:0:0:
253,168,177630,1,4,0:0:0:0:
253,168,177780,1,8,0:0:0:0:
253,168,177930,1,8,0:0:0:0:
253,168,178080,1,8,0:0:0:0:
253,168,178230,1,8,0:0:0:0:
253,168,178380,1,8,0:0:0:0:
253,168,178530,1,8,0:0:0:0:
253,168,178680,1,0,0:0:0:0:
253,168,178755,1,0,0:0:0:0:
253,168,178830,1,12,0:0:0:0:
253,168,178980,2,4,P|452:112|486:241,10,280
256,192,180930,1,8,0:0:0:0:
256,192,181080,1,0,0:0:0:0:
256,192,181155,1,0,0:0:0:0:
256,192,181230,1,12,0:0:0:0:
256,192,181980,1,0,0:0:0:0:
256,192,182055,1,0,0:0:0:0:
256,192,182130,1,8,0:0:0:0:
256,192,182205,1,8,0:0:0:0:
256,192,182280,1,8,0:0:0:0:
256,192,182355,1,8,0:0:0:0:
256,192,182430,1,4,0:0:0:0:
256,192,183030,1,8,0:0:0:0:
256,192,183180,1,0,0:0:0:0:
256,192,183217,1,0,0:0:0:0:
256,192,183330,1,8,0:0:0:0:
256,192,183367,1,8,0:0:0:0:
256,192,183480,1,0,0:0:0:0:
256,192,183630,1,12,0:0:0:0:
256,192,183780,12,0,185580,0:0:0:0:
256,192,186030,5,12,0:0:0:0:
256,192,186780,1,0,0:0:0:0:
256,192,186855,1,0,0:0:0:0:
256,192,186930,1,8,0:0:0:0:
256,192,187005,1,8,0:0:0:0:
256,192,187080,1,8,0:0:0:0:
256,192,187155,1,8,0:0:0:0:
256,192,187230,1,4,0:0:0:0:
253,168,188280,1,0,0:0:0:0:
253,168,188430,1,12,0:0:0:0:
253,168,188580,2,4,P|452:112|486:241,10,280
256,192,190530,1,8,0:0:0:0:
256,192,190680,1,0,0:0:0:0:
256,192,190755,1,0,0:0:0:0:
256,192,190830,1,12,0:0:0:0:
256,192,192630,5,8,0:0:0:0:
256,192,192780,1,0,0:0:0:0:
256,192,192817,1,0,0:0:0:0:
256,192,192930,1,8,0:0:0:0:
256,192,192967,1,8,0:0:0:0:
256,192,193080,1,0,0:0:0:0:
256,192,193230,1,12,0:0:0:0:
256,192,193380,12,0,194880,0:0:0:0:
253,168,195330,5,8,0:0:0:0:
253,168,195480,1,0,0:0:0:0:
253,168,195555,1,0,0:0:0:0:
253,168,195630,1,12,0:0:0:0:
253,168,196380,1,0,0:0:0:0:
253,168,196455,1,0,0:0:0:0:
253,168,196530,1,8,0:0:0:0:
253,168,196605,1,8,0:0:0:0:
253,168,196680,1,8,0:0:0:0:
253,168,196755,1,8,0:0:0:0:
253,168,196830,1,4,0:0:0:0:
253,168,196980,1,8,0:0:0:0:
253,168,197130,1,8,0:0:0:0:
253,168,197280,1,8,0:0:0:0:
253,168,197430,1,8,0:0:0:0:
253,168,197580,1,8,0:0:0:0:
253,168,197730,1,8,0:0:0:0:
253,168,197880,1,0,0:0:0:0:
253,168,197955,1,0,0:0:0:0:
253,168,198030,1,12,0:0:0:0:
253,168,198180,2,4,P|452:112|486:241,10,280
256,192,200130,1,8,0:0:0:0:
256,192,200280,1,0,0:0:0:0:
256,192,200355,1,0,0:0:0:0:
256,192,200430,1,12,0:0:0:0:
256,192,201180,1,0,0:0:0:0:
256,192,201255,1,0,0:0:0:0:
256,192,201330,1,8,0:0:0:0:
256,192,201405,1,8,0:0:0:0:
256,192,201480,1,8,0:0:0:0:
256,192,201555,1,8,0:0:0:0:
256,192,201630,1,4,0:0:0:0:
256,192,202230,1,8,0:0:0:0:
256,192,202380,1,0,0:0:0:0:
256,192,202417,1,0,0:0:0:0:
256,192,202530,1,8,0:0:0:0:
256,192,202567,1,8,0:0:0:0:
256,192,202680,1,0,0:0:0:0:
256,192,202830,1,12,0:0:0:0:
256,192,202980,12,0,204780,0:0:0:0:
256,192,205230,5,12,0:0:0:0:
256,192,205980,1,0,0:0:0:0:
256,192,206055,1,0,0:0:0:0:
256,192,206130,1,8,0:0:0:0:
256,192,206205,1,8,0:0:0:0:
256,192,206280,1,8,0:0:0:0:
256,192,206355,1,8,0:0:0:0:
256,192,206430,1,4,0:0:0:0:
256,192,206580,1,8,0:0:0:0:
256,192,206730,1,8,0:0:0:0:
256,192,206880,1,8,0:0:0:0:
256,192,207030,1,8,0:0:0:0:
256,192,207180,1,8,0:0:0:0:
256,192,207330,1,8,0:0:0:0:
253,168,207480,1,0,0:0:0:0:
253,168,207630,1,12,0:0:0:0:
253,168,207780,2,4,P|452:112|486:241,10,280
256,192,209730,1,8,0:0:0:0:
256,192,209880,1,0,0:0:0:0:
256,192,209955,1,0,0:0:0:0:
256,192,210030,1,12,0:0:0:0:
256,192,211230,5,12,0:0:0:0:
256,192,211380,12,0,220830,0:0:0:0:
