osu file format v14

[General]
AudioFilename: audio.mp3
AudioLeadIn: 0
PreviewTime: 37605
Countdown: 0
SampleSet: Normal
StackLeniency: 0.7
Mode: 1
LetterboxInBreaks: 0
StoryFireInFront: 0
EpilepsyWarning: 1
WidescreenStoryboard: 1

[Editor]
Bookmarks: 115230,153630
DistanceSpacing: 0.9
BeatDivisor: 4
GridSize: 32
TimelineZoom: 1.9

[Metadata]
Title:dragonlands
TitleUnicode:dragonlands
Artist:sakuraburst
ArtistUnicode:sakuraburst
Creator:Faputa
Version:Oni
Source:osu!
Tags:-GN Jr. Junior featured artist fa experimental SV neurofunk storyboard glitch
BeatmapID:1954960
BeatmapSetID:935765

[Difficulty]
HPDrainRate:5
CircleSize:2
OverallDifficulty:6
ApproachRate:10
SliderMultiplier:1.4
SliderTickRate:1

[Events]
//Background and Video events
0,0,"dragon.jpg",0,0
//Break Periods
2,191030,192180
//Storyboard Layer 0 (Background)
//Storyboard Layer 1 (Fail)
//Storyboard Layer 2 (Pass)
//Storyboard Layer 3 (Foreground)
//Storyboard Sound Samples

[TimingPoints]
30,300,4,1,0,75,1,0
30,-111.111111111111,4,1,0,75,0,0
18630,-109.89010989011,4,1,0,75,0,0
18780,-108.695652173913,4,1,0,75,0,0
18930,-107.52688172043,4,1,0,75,0,0
19230,-105.263157894737,4,1,0,80,0,0
28230,-104.166666666667,4,1,0,80,0,0
28380,-103.092783505155,4,1,0,80,0,0
28530,-102.040816326531,4,1,0,80,0,0
28680,-101.010101010101,4,1,0,80,0,0
28830,-100,4,1,0,85,0,0
36030,-100,4,1,0,90,0,0
37830,-98.0392156862745,4,1,0,90,0,0
37980,-96.1538461538461,4,1,0,90,0,0
38130,-94.3396226415094,4,1,0,90,0,0
38280,-92.5925925925926,4,1,0,90,0,0
38430,-90.9090909090909,4,1,0,95,0,1
38580,-90.7782052422598,4,1,0,95,0,1
39030,-90.3877181168623,4,1,0,95,0,1
39330,-90.1292272860828,4,1,0,95,0,1
39480,-90.0005760036864,4,1,0,95,0,1
39630,-89.8722914738157,4,1,0,95,0,1
39780,-89.7443721304237,4,1,0,95,0,1
39930,-89.616736104701,4,1,0,95,0,1
40005,-89.5530942385121,4,1,0,95,0,1
40080,-89.4895426994879,4,1,0,95,0,1
40230,-89.362709834813,4,1,0,95,0,1
40530,-89.1100402064501,4,1,0,95,0,1
40605,-89.0471157193983,4,1,0,95,0,1
40680,-88.9842800370887,4,1,0,95,0,1
40830,-88.8588743357799,4,1,0,95,0,1
40980,-88.7338216059757,4,1,0,95,0,1
41430,-88.3606883297621,4,1,0,95,0,1
41730,-88.1136454553625,4,1,0,95,0,1
41880,-87.9906800271715,4,1,0,95,0,1
42030,-87.8680573251206,4,1,0,95,0,1
42105,-87.8068740489418,4,1,0,95,0,1
42180,-87.7457759183473,4,1,0,95,0,1
42330,-87.6237576046469,4,1,0,95,0,1
42480,-87.5021547405605,4,1,0,95,0,1
42630,-87.380888925783,4,1,0,95,0,1
42930,-87.1392869217873,4,1,0,95,0,1
43005,-87.079113987431,4,1,0,95,0,1
43080,-87.0190240990485,4,1,0,95,0,1
43230,-86.8990927734714,4,1,0,95,0,1
43380,-86.7794915763147,4,1,0,95,0,1
43830,-86.4225804918309,4,1,0,95,0,1
44130,-86.1862415731402,4,1,0,95,0,1
44280,-86.0685932260574,4,1,0,95,0,1
44430,-85.9512656323864,4,1,0,95,0,1
44580,-85.8342574821722,4,1,0,95,0,1
44730,-85.7174939976325,4,1,0,95,0,1
44805,-85.6592679901595,4,1,0,95,0,1
44880,-85.601121032281,4,1,0,95,0,1
45030,-85.4850636222586,4,1,0,95,0,1
45330,-85.2538176659551,4,1,0,95,0,1
45405,-85.1962196733407,4,1,0,95,0,1
45480,-85.1386994552826,4,1,0,95,0,1
45630,-85.0238917135715,4,1,0,95,0,1
45780,-84.9093931865307,4,1,0,95,0,1
46230,-84.5676689344897,4,1,0,95,0,1
46530,-84.3413530714591,4,1,0,95,0,1
46680,-84.2286842468776,4,1,0,95,0,1
46830,-84.1163160418226,4,1,0,95,0,1
46905,-84.060244295882,4,1,0,95,0,1
46980,-84.0042472547412,4,1,0,95,0,1
47130,-83.892406311058,4,1,0,95,0,1
47280,-83.7809329677133,4,1,0,95,0,1
47430,-83.6697554751396,4,1,0,95,0,1
47580,-83.5588726571137,4,1,0,95,0,1
47730,-83.4482137075374,4,1,0,95,0,1
47805,-83.3930288431469,4,1,0,95,0,1
47880,-83.3379169187639,4,1,0,95,0,1
47955,-83.3333333333333,4,1,0,95,0,0
48180,-90.9090909090909,4,1,0,95,0,1
48630,-90.5046994565193,4,1,0,95,0,1
48930,-90.2371522598541,4,1,0,95,0,1
49080,-90.1039709721047,4,1,0,95,0,1
49230,-89.9711012822681,4,1,0,95,0,1
49380,-89.8387035915717,4,1,0,95,0,1
49530,-89.7066949900605,4,1,0,95,0,1
49605,-89.6408360621498,4,1,0,95,0,1
49680,-89.5750737650732,4,1,0,95,0,1
49830,-89.4438382139854,4,1,0,95,0,1
50130,-89.1824378376113,4,1,0,95,0,1
50205,-89.1173461567253,4,1,0,95,0,1
50280,-89.0523494236087,4,1,0,95,0,1
50430,-88.9226399709045,4,1,0,95,0,1
50580,-88.7932289835306,4,1,0,95,0,1
51030,-88.4074806873858,4,1,0,95,0,1
51330,-88.1520940970713,4,1,0,95,0,1
51480,-88.0249920557445,4,1,0,95,0,1
51630,-87.8982560107025,4,1,0,95,0,1
51705,-87.8350247431265,4,1,0,95,0,1
51780,-87.771884383363,4,1,0,95,0,1
51930,-87.645798786281,4,1,0,95,0,1
52080,-87.5201515148863,4,1,0,95,0,1
52230,-87.3948639786337,4,1,0,95,0,1
52530,-87.1452860064714,4,1,0,95,0,1
52605,-87.0831330421273,4,1,0,95,0,1
52680,-87.0210686709359,4,1,0,95,0,1
52830,-86.8972049514027,4,1,0,95,0,1
52980,-86.7736933400323,4,1,0,95,0,1
53430,-86.405181545927,4,1,0,95,0,1
53730,-86.1612904893444,4,1,0,95,0,1
53880,-86.0397865180817,4,1,0,95,0,1
54030,-85.918698572289,4,1,0,95,0,1
54180,-85.7979509733348,4,1,0,95,0,1
54330,-85.6775422882929,4,1,0,95,0,1
54405,-85.6174645928975,4,1,0,95,0,1
54480,-85.5574710922695,4,1,0,95,0,1
54630,-85.4376629723421,4,1,0,95,0,1
54930,-85.1991957195924,4,1,0,95,0,1
55005,-85.1397867588901,4,1,0,95,0,1
55080,-85.0804605915815,4,1,0,95,0,1
55230,-84.9619837603664,4,1,0,95,0,1
55380,-84.8439084194852,4,1,0,95,0,1
55830,-84.4916433540141,4,1,0,95,0,1
56130,-84.2583495811517,4,1,0,95,0,1
56280,-84.1422205468571,4,1,0,95,0,1
56430,-84.0264111815626,4,1,0,95,0,1
56580,-83.9108497567844,4,1,0,95,0,1
56655,-83.8532233179043,4,1,0,95,0,1
56730,-83.7956759755283,4,1,0,95,0,1
56880,-83.6808179297868,4,1,0,95,0,1
57030,-83.5662743230087,4,1,0,95,0,1
57180,-83.4519742233542,4,1,0,95,0,1
57330,-83.3380558231633,4,1,0,95,0,1
57480,-83.3333333333333,4,1,0,95,0,0
57780,-90.9090909090909,4,1,0,95,0,1
58230,-90.4838988426204,4,1,0,95,0,1
58530,-90.2026402312796,4,1,0,95,0,1
58680,-90.0627467156368,4,1,0,95,0,1
58830,-89.9232055824326,4,1,0,95,0,1
58980,-89.7840961839066,4,1,0,95,0,1
59130,-89.6454165194988,4,1,0,95,0,1
59205,-89.576197096298,4,1,0,95,0,1
59280,-89.5071646009905,4,1,0,95,0,1
59430,-89.369338452409,4,1,0,95,0,1
59730,-89.0949556218026,4,1,0,95,0,1
59805,-89.0266625951806,4,1,0,95,0,1
59880,-88.9583950482199,4,1,0,95,0,1
60030,-88.8222524612646,4,1,0,95,0,1
60180,-88.6866045978683,4,1,0,95,0,1
60630,-88.2819017687279,4,1,0,95,0,1
60930,-88.0141456334862,4,1,0,95,0,1
61080,-87.8808757153503,4,1,0,95,0,1
61230,-87.7480087783108,4,1,0,95,0,1
61305,-87.6817642973885,4,1,0,95,0,1
61380,-87.6155429973277,4,1,0,95,0,1
61530,-87.483476558365,4,1,0,95,0,1
61680,-87.3518839617573,4,1,0,95,0,1
61830,-87.2206105791623,4,1,0,95,0,1
62130,-86.9592439415495,4,1,0,95,0,1
62205,-86.8941091007676,4,1,0,95,0,1
62280,-86.8291471554337,4,1,0,95,0,1
62430,-86.6994390546293,4,1,0,95,0,1
62580,-86.5701178998436,4,1,0,95,0,1
63030,-86.1844588736381,4,1,0,95,0,1
63330,-85.929330000421,4,1,0,95,0,1
63480,-85.802294353351,4,1,0,95,0,1
63630,-85.6756337640819,4,1,0,95,0,1
63780,-85.5493465740909,4,1,0,95,0,1
63930,-85.4234311346196,4,1,0,95,0,1
64005,-85.3606487409304,4,1,0,95,0,1
64080,-85.2978858066024,4,1,0,95,0,1
64230,-85.1727089605948,4,1,0,95,0,1
64530,-84.9234542445167,4,1,0,95,0,1
64605,-84.8614043544084,4,1,0,95,0,1
64680,-84.7994450724314,4,1,0,95,0,1
64830,-84.6757258403219,4,1,0,95,0,1
64980,-84.5523670857928,4,1,0,95,0,1
65430,-84.1844380015288,4,1,0,95,0,1
65730,-83.9409257341054,4,1,0,95,0,1
65880,-83.8196971259064,4,1,0,95,0,1
66030,-83.6988181726874,4,1,0,95,0,1
66105,-83.6385443213192,4,1,0,95,0,1
66180,-83.5783572172419,4,1,0,95,0,1
66330,-83.4581728502218,4,1,0,95,0,1
66480,-83.3383336333513,4,1,0,95,0,1
66630,-83.3333333333333,4,1,0,95,0,0
66780,-85.4700854700855,4,1,0,95,0,0
66855,-87.719298245614,4,1,0,95,0,0
66930,-90.0900900900901,4,1,0,95,0,0
67005,-92.5925925925926,4,1,0,95,0,0
67080,-95.2380952380952,4,1,0,95,0,0
67380,-90.9090909090909,4,1,0,95,0,1
67830,-90.5112528115058,4,1,0,95,0,1
68130,-90.2479019618991,4,1,0,95,0,1
68280,-90.116800384979,4,1,0,95,0,1
68430,-89.9860791535549,4,1,0,95,0,1
68580,-89.8557366148648,4,1,0,95,0,1
68730,-89.7258516329208,4,1,0,95,0,1
68805,-89.6610096546975,4,1,0,95,0,1
68880,-89.5962613272073,4,1,0,95,0,1
69030,-89.4670448140428,4,1,0,95,0,1
69330,-89.2097267149232,4,1,0,95,0,1
69405,-89.1456282983882,4,1,0,95,0,1
69480,-89.0817012823311,4,1,0,95,0,1
69630,-88.9539636551895,4,1,0,95,0,1
69780,-88.8265918391457,4,1,0,95,0,1
70230,-88.4466556108347,4,1,0,95,0,1
70530,-88.1952431013681,4,1,0,95,0,1
70680,-88.0700332904726,4,1,0,95,0,1
70830,-87.9451784935343,4,1,0,95,0,1
70905,-87.8828837537943,4,1,0,95,0,1
70980,-87.820677202806,4,1,0,95,0,1
71130,-87.6965279190666,4,1,0,95,0,1
71280,-87.5728058414564,4,1,0,95,0,1
71430,-87.4493558917692,4,1,0,95,0,1
71730,-87.2034972090521,4,1,0,95,0,1
71805,-87.1422483920077,4,1,0,95,0,1
71880,-87.0810855528125,4,1,0,95,0,1
72030,-86.9590927036104,4,1,0,95,0,1
72180,-86.8373657711419,4,1,0,95,0,1
72630,-86.474221169927,4,1,0,95,0,1
72930,-86.2338818095663,4,1,0,95,0,1
73080,-86.114175340517,4,1,0,95,0,1
73230,-85.9948007543464,4,1,0,95,0,1
73380,-85.875756672761,4,1,0,95,0,1
73530,-85.7570417250887,4,1,0,95,0,1
73605,-85.6978072502059,4,1,0,95,0,1
73680,-85.6387278880805,4,1,0,95,0,1
73830,-85.5206669243689,4,1,0,95,0,1
74130,-85.2855188600396,4,1,0,95,0,1
74205,-85.2269337565135,4,1,0,95,0,1
74280,-85.1684290853592,4,1,0,95,0,1
74430,-85.0516603785139,4,1,0,95,0,1
74580,-84.9352835606909,4,1,0,95,0,1
75030,-84.5878415128366,4,1,0,95,0,1
75330,-84.3578595374152,4,1,0,95,0,1
75480,-84.2433013938897,4,1,0,95,0,1
75630,-84.1290539687881,4,1,0,95,0,1
75780,-84.0151159996707,4,1,0,95,0,1
75855,-83.9582626684623,4,1,0,95,0,1
75930,-83.9014862309271,4,1,0,95,0,1
76080,-83.7881634137309,4,1,0,95,0,1
76230,-83.675216321353,4,1,0,95,0,1
76380,-83.5625034991798,4,1,0,95,0,1
76530,-83.4500939230807,4,1,0,95,0,1
76680,-83.3379863709057,4,1,0,95,0,1
76830,-83.3333333333333,4,1,0,95,0,0
76980,-100,4,1,0,60,0,0
81630,-100,4,1,0,63,0,0
86430,-95.2380952380952,4,1,0,66,0,0
91230,-95.2380952380952,4,1,0,69,0,0
96030,-90.9090909090909,4,1,0,72,0,0
100830,-90.9090909090909,4,1,0,75,0,0
105630,-86.9565217391304,4,1,0,78,0,0
105780,-86.9565217391304,4,1,0,80,0,0
114180,-87.4002108093085,4,1,0,80,0,0
114255,-87.5118031544504,4,1,0,80,0,0
114330,-87.6236808254852,4,1,0,80,0,0
114480,-87.8483737069817,4,1,0,80,0,0
114630,-88.0742219082866,4,1,0,80,0,0
114780,-88.3012343629552,4,1,0,80,0,0
114930,-88.5294200968866,4,1,0,80,0,0
115005,-88.6439165009764,4,1,0,80,0,0
115080,-88.7587882295196,4,1,0,80,0,0
115230,-88.9892687840773,4,1,0,75,0,0
115380,-89.2210290396605,4,1,0,75,0,0
115530,-89.4539996225041,4,1,0,75,0,0
115680,-89.6881900385121,4,1,0,75,0,0
115980,-90.1601876053184,4,1,0,75,0,0
116280,-90.6372615220353,4,1,0,75,0,0
116430,-90.8776967956524,4,1,0,75,0,0
116580,-91.1194110770223,4,1,0,75,0,0
116730,-91.362414598983,4,1,0,75,0,0
117030,-91.8522464763182,4,1,0,75,0,0
117630,-92.848010592101,4,1,0,75,0,0
117780,-93.1002475535582,4,1,0,75,0,0
117930,-93.3539458845847,4,1,0,75,0,0
118080,-93.6090306504049,4,1,0,75,0,0
118380,-94.1234051965532,4,1,0,75,0,0
118680,-94.6433743012953,4,1,0,75,0,0
118830,-94.9055642183246,4,1,0,75,0,0
118980,-95.1692108569036,4,1,0,75,0,0
119130,-95.4343263911223,4,1,0,75,0,0
119430,-95.9689214244859,4,1,0,75,0,0
119730,-96.5096326264324,4,1,0,75,0,0
119880,-96.7822795517432,4,1,0,75,0,0
120030,-97.0564713372829,4,1,0,75,0,0
120180,-97.3321264149658,4,1,0,75,0,0
120330,-97.6094470327216,4,1,0,75,0,0
120480,-97.8883524607174,4,1,0,75,0,0
120780,-98.4509724002544,4,1,0,75,0,0
121080,-99.019999069212,4,1,0,75,0,0
121230,-99.3070355062375,4,1,0,75,0,0
121380,-99.5957408877367,4,1,0,75,0,0
121530,-99.8861298120143,4,1,0,75,0,0
121830,-100.471916592234,4,1,0,75,0,0
122430,-101.664553738358,4,1,0,75,0,0
122580,-101.967150262871,4,1,0,75,0,0
122730,-102.271448879616,4,1,0,75,0,0
122880,-102.577674379482,4,1,0,75,0,0
123180,-103.195660003323,4,1,0,75,0,0
123480,-103.821029157098,4,1,0,75,0,0
123630,-104.136618913084,4,1,0,75,0,0
123780,-104.454133145594,4,1,0,75,0,0
123930,-104.773589511745,4,1,0,75,0,0
124230,-105.418400360109,4,1,0,75,0,0
124380,-105.743679435921,4,1,0,75,0,0
124530,-106.071084598054,4,1,0,75,0,0
124830,-106.732015121792,4,1,0,75,0,0
124980,-107.065578737633,4,1,0,75,0,0
125130,-107.401233825374,4,1,0,75,0,0
125280,-107.738884040639,4,1,0,75,0,0
125580,-108.42082894229,4,1,0,75,0,0
125880,-109.111461722608,4,1,0,75,0,0
126030,-109.459968300393,4,1,0,75,0,0
126180,-109.81082888508,4,1,0,75,0,0
126330,-110.163945984414,4,1,0,75,0,0
126630,-110.877037365562,4,1,0,75,0,0
126930,-111.599296031641,4,1,0,75,0,0
127230,-112.331152236794,4,1,0,75,0,0
127380,-112.700691756846,4,1,0,75,0,0
127530,-113.072670674716,4,1,0,75,0,0
127680,-113.446984522428,4,1,0,75,0,0
127980,-114.203357350299,4,1,0,75,0,0
128280,-114.969883638981,4,1,0,75,0,0
128430,-115.357018436359,4,1,0,75,0,0
128580,-115.746635245313,4,1,0,75,0,0
128730,-116.139027707288,4,1,0,75,0,0
129030,-116.931848610674,4,1,0,75,0,0
129330,-117.735429651903,4,1,0,75,0,0
129480,-118.141446027671,4,1,0,75,0,0
129630,-118.550272428526,4,1,0,75,0,0
129780,-118.961938127896,4,1,0,75,0,0
129930,-119.376472807233,4,1,0,75,0,0
130080,-119.793906563149,4,1,0,75,0,0
130380,-120.637448276694,4,1,0,75,0,0
130680,-121.49310162169,4,1,0,75,0,0
130830,-121.925496206288,4,1,0,75,0,0
130980,-122.360979573058,4,1,0,75,0,0
131130,-122.799434140207,4,1,0,75,0,0
131430,-123.686143936039,4,1,0,75,0,0
131730,-124.585752373359,4,1,0,75,0,0
132030,-125.498385463271,4,1,0,75,0,0
132180,-125.959813781011,4,1,0,75,0,0
132330,-126.424647749325,4,1,0,75,0,0
132480,-126.892925211848,4,1,0,75,0,0
132780,-127.839801388085,4,1,0,75,0,0
133080,-128.801080898671,4,1,0,75,0,0
133230,-129.287162301932,4,1,0,75,0,0
133380,-129.77692644114,4,1,0,75,0,0
133530,-130.270245624548,4,1,0,75,0,0
133830,-131.268566297846,4,1,0,75,0,0
133980,-131.773486647393,4,1,0,75,0,0
134130,-132.282306315554,4,1,0,75,0,0
134430,-133.333333333333,4,1,0,50,0,0
153630,-111.111111111111,4,1,0,80,0,0
162630,-109.89010989011,4,1,0,80,0,0
162780,-108.695652173913,4,1,0,80,0,0
162855,-107.52688172043,4,1,0,80,0,0
162930,-106.382978723404,4,1,0,80,0,0
163230,-105.263157894737,4,1,0,85,0,0
167730,-104.166666666667,4,1,0,85,0,0
167880,-102.040816326531,4,1,0,85,0,0
167955,-101.010101010101,4,1,0,85,0,0
168030,-100,4,1,0,90,0,0
173430,-98.0392156862745,4,1,0,90,0,0
173580,-96.1538461538461,4,1,0,90,0,0
173730,-94.3396226415094,4,1,0,90,0,0
173880,-92.5925925925926,4,1,0,90,0,0
174030,-90.9090909090909,4,1,0,95,0,1
174180,-50,4,1,0,95,0,1
176130,-90.9090909090909,4,1,0,95,0,1
177630,-90.9090909090909,4,1,0,95,0,0
177780,-89.2857142857143,4,1,0,95,0,0
177930,-87.719298245614,4,1,0,95,0,0
178080,-86.2068965517241,4,1,0,95,0,0
178230,-84.7457627118644,4,1,0,95,0,0
178380,-83.3333333333333,4,1,0,95,0,0
178530,-81.9672131147541,4,1,0,95,0,0
178680,-80.6451612903226,4,1,0,95,0,0
178755,-79.3650793650794,4,1,0,95,0,0
178830,-78.125,4,1,0,95,0,1
178980,-50,4,1,0,95,0,1
180930,-90.9090909090909,4,1,0,95,0,1
182430,-90.9090909090909,4,1,0,95,0,0
183030,-98.0392156862745,4,1,0,95,0,0
183180,-96.1538461538461,4,1,0,95,0,0
183330,-94.3396226415094,4,1,0,95,0,0
183480,-92.5925925925926,4,1,0,95,0,0
183630,-90.9090909090909,4,1,0,95,0,1
183780,-50,4,1,0,95,0,1
186030,-90.9090909090909,4,1,0,95,0,1
187230,-90.9090909090909,4,1,0,95,0,0
188430,-90.9090909090909,4,1,0,95,0,1
188580,-50,4,1,0,95,0,1
190530,-90.9090909090909,4,1,0,95,0,1
190830,-90.9090909090909,4,1,0,95,0,0
192630,-98.0392156862745,4,1,0,95,0,0
192780,-96.1538461538461,4,1,0,95,0,0
192930,-94.3396226415094,4,1,0,95,0,0
193080,-92.5925925925926,4,1,0,95,0,0
193230,-90.9090909090909,4,1,0,95,0,1
193380,-50,4,1,0,95,0,1
195330,-90.9090909090909,4,1,0,95,0,1
196830,-90.9090909090909,4,1,0,95,0,0
196980,-89.2857142857143,4,1,0,95,0,0
197130,-87.719298245614,4,1,0,95,0,0
197280,-86.2068965517241,4,1,0,95,0,0
197430,-84.7457627118644,4,1,0,95,0,0
197580,-83.3333333333333,4,1,0,95,0,0
197730,-81.9672131147541,4,1,0,95,0,0
197880,-80.6451612903226,4,1,0,95,0,0
197955,-79.3650793650794,4,1,0,95,0,0
198030,-78.125,4,1,0,95,0,1
198180,-50,4,1,0,95,0,1
200130,-90.9090909090909,4,1,0,95,0,1
201630,-90.9090909090909,4,1,0,95,0,0
202230,-98.0392156862745,4,1,0,95,0,0
202380,-96.1538461538461,4,1,0,95,0,0
202530,-94.3396226415094,4,1,0,95,0,0
202680,-92.5925925925926,4,1,0,95,0,0
202830,-90.9090909090909,4,1,0,95,0,1
202980,-50,4,1,0,95,0,1
205230,-90.9090909090909,4,1,0,95,0,1
206430,-78.125,4,1,0,95,0,0
206580,-80,4,1,0,95,0,0
206730,-81.9672131147541,4,1,0,95,0,0
206880,-84.0336134453781,4,1,0,95,0,0
207030,-86.2068965517241,4,1,0,95,0,0
207180,-88.4955752212389,4,1,0,95,0,0
207330,-90.9090909090909,4,1,0,95,0,0
207480,-93.4579439252336,4,1,0,95,0,0
207630,-83.3333333333333,4,1,0,95,0,1
207780,-50,4,1,0,95,0,1
209730,-90.9090909090909,4,1,0,95,0,1
211230,-90.9090909090909,4,1,0,95,0,0
211380,-50,4,1,0,95,0,0
211530,-100,4,1,0,30,0,0

[HitObjects]
256,192,30,5,8,0:0:0:0:
256,192,180,1,0,0:0:0:0:
256,192,330,1,8,0:0:0:0:
256,192,480,1,8,0:0:0:0:
256,192,780,1,8,0:0:0:0:
256,192,1080,1,8,0:0:0:0:
256,192,1230,1,0,0:0:0:0:
256,192,1380,1,0,0:0:0:0:
256,192,1530,1,8,0:0:0:0:
256,192,1830,1,8,0:0:0:0:
256,192,2430,1,8,0:0:0:0:
256,192,2580,1,0,0:0:0:0:
256,192,2730,1,8,0:0:0:0:
256,192,2880,1,8,0:0:0:0:
256,192,3180,1,8,0:0:0:0:
256,192,3480,1,8,0:0:0:0:
256,192,3630,1,0,0:0:0:0:
256,192,3780,1,0,0:0:0:0:
256,192,3930,1,8,0:0:0:0:
256,192,4080,1,8,0:0:0:0:
256,192,4230,1,0,0:0:0:0:
256,192,4530,1,0,0:0:0:0:
256,192,4830,1,8,0:0:0:0:
256,192,4980,1,0,0:0:0:0:
256,192,5130,1,8,0:0:0:0:
256,192,5280,1,8,0:0:0:0:
256,192,5580,1,8,0:0:0:0:
256,192,5880,1,8,0:0:0:0:
256,192,6030,1,0,0:0:0:0:
256,192,6180,1,0,0:0:0:0:
256,192,6330,1,8,0:0:0:0:
256,192,6630,1,8,0:0:0:0:
256,192,7230,1,8,0:0:0:0:
256,192,7380,1,0,0:0:0:0:
256,192,7530,1,8,0:0:0:0:
256,192,7680,1,8,0:0:0:0:
256,192,7980,1,8,0:0:0:0:
256,192,8280,1,8,0:0:0:0:
256,192,8430,1,8,0:0:0:0:
256,192,8580,1,0,0:0:0:0:
256,192,8730,1,0,0:0:0:0:
256,192,9030,1,0,0:0:0:0:
256,192,9180,1,8,0:0:0:0:
256,192,9330,1,0,0:0:0:0:
256,192,9630,1,8,0:0:0:0:
256,192,9780,1,0,0:0:0:0:
256,192,9930,1,8,0:0:0:0:
256,192,10080,1,8,0:0:0:0:
256,192,10380,1,8,0:0:0:0:
256,192,10680,1,8,0:0:0:0:
256,192,10830,1,0,0:0:0:0:
256,192,10980,1,0,0:0:0:0:
256,192,11130,1,8,0:0:0:0:
256,192,11430,1,8,0:0:0:0:
256,192,11730,1,0,0:0:0:0:
256,192,12030,1,8,0:0:0:0:
256,192,12180,1,0,0:0:0:0:
256,192,12330,1,8,0:0:0:0:
256,192,12480,1,8,0:0:0:0:
256,192,12780,1,8,0:0:0:0:
256,192,13080,1,8,0:0:0:0:
256,192,13230,1,0,0:0:0:0:
256,192,13380,1,0,0:0:0:0:
256,192,13530,1,8,0:0:0:0:
256,192,13830,1,0,0:0:0:0:
256,192,14130,1,0,0:0:0:0:
256,192,14430,1,8,0:0:0:0:
256,192,14580,1,0,0:0:0:0:
256,192,14730,1,8,0:0:0:0:
256,192,14880,1,8,0:0:0:0:
256,192,15180,1,8,0:0:0:0:
256,192,15480,1,8,0:0:0:0:
256,192,15630,1,0,0:0:0:0:
256,192,15780,1,0,0:0:0:0:
256,192,15930,1,8,0:0:0:0:
256,192,16230,1,8,0:0:0:0:
256,192,16530,1,0,0:0:0:0:
256,192,16830,1,8,0:0:0:0:
256,192,16980,1,0,0:0:0:0:
256,192,17130,1,8,0:0:0:0:
256,192,17280,1,8,0:0:0:0:
256,192,17580,1,8,0:0:0:0:
256,192,17880,1,8,0:0:0:0:
256,192,18030,1,8,0:0:0:0:
256,192,18180,1,0,0:0:0:0:
256,192,18330,1,0,0:0:0:0:
256,192,18630,1,0,0:0:0:0:
256,192,18780,1,8,0:0:0:0:
256,192,18930,1,0,0:0:0:0:
256,192,19230,1,8,0:0:0:0:
256,192,19380,1,8,0:0:0:0:
256,192,20280,1,8,0:0:0:0:
256,192,20430,1,0,0:0:0:0:
256,192,20730,1,0,0:0:0:0:
256,192,21030,1,8,0:0:0:0:
256,192,21330,1,8,0:0:0:0:
256,192,21630,1,0,0:0:0:0:
256,192,21780,1,8,0:0:0:0:
256,192,22230,1,8,0:0:0:0:
256,192,22680,1,8,0:0:0:0:
256,192,23130,1,0,0:0:0:0:
256,192,23430,1,8,0:0:0:0:
256,192,23580,1,8,0:0:0:0:
256,192,23730,1,0,0:0:0:0:
256,192,23880,1,8,0:0:0:0:
256,192,24030,1,0,0:0:0:0:
256,192,24180,1,8,0:0:0:0:
256,192,25080,1,8,0:0:0:0:
256,192,25230,1,0,0:0:0:0:
256,192,25530,1,0,0:0:0:0:
256,192,25830,1,8,0:0:0:0:
256,192,26130,1,8,0:0:0:0:
256,192,26430,1,0,0:0:0:0:
256,192,26580,1,8,0:0:0:0:
256,192,27030,1,8,0:0:0:0:
256,192,27480,1,8,0:0:0:0:
256,192,27930,1,0,0:0:0:0:
256,192,28230,1,8,0:0:0:0:
256,192,28380,1,8,0:0:0:0:
256,192,28530,1,0,0:0:0:0:
256,192,28680,1,8,0:0:0:0:
256,192,28830,1,0,0:0:0:0:
256,192,28980,1,8,0:0:0:0:
256,192,29280,1,0,0:0:0:0:
256,192,29355,1,0,0:0:0:0:
256,192,29430,1,0,0:0:0:0:
256,192,29580,1,8,0:0:0:0:
256,192,29880,1,8,0:0:0:0:
256,192,30030,1,8,0:0:0:0:
256,192,30330,1,0,0:0:0:0:
256,192,30630,1,0,0:0:0:0:
256,192,30930,1,8,0:0:0:0:
256,192,31080,1,0,0:0:0:0:
256,192,31155,1,0,0:0:0:0:
256,192,31230,1,0,0:0:0:0:
256,192,31380,1,8,0:0:0:0:
256,192,31680,1,0,0:0:0:0:
256,192,31830,1,8,0:0:0:0:
256,192,32280,1,8,0:0:0:0:
256,192,32430,1,8,0:0:0:0:
256,192,32730,1,0,0:0:0:0:
256,192,33030,1,8,0:0:0:0:
256,192,33180,1,8,0:0:0:0:
256,192,33330,1,0,0:0:0:0:
256,192,33480,1,8,0:0:0:0:
256,192,33555,1,8,0:0:0:0:
256,192,33630,1,0,0:0:0:0:
256,192,33780,1,8,0:0:0:0:
256,192,34080,1,0,0:0:0:0:
256,192,34155,1,0,0:0:0:0:
256,192,34230,1,0,0:0:0:0:
256,192,34380,1,8,0:0:0:0:
256,192,34680,1,8,0:0:0:0:
256,192,34830,1,0,0:0:0:0:
256,192,35130,1,0,0:0:0:0:
256,192,35430,1,8,0:0:0:0:
256,192,35730,1,8,0:0:0:0:
256,192,35880,1,0,0:0:0:0:
256,192,35955,1,0,0:0:0:0:
256,192,36030,1,8,0:0:0:0:
256,192,36180,1,8,0:0:0:0:
256,192,36480,1,8,0:0:0:0:
256,192,36630,1,8,0:0:0:0:
256,192,36780,1,0,0:0:0:0:
256,192,36930,1,8,0:0:0:0:
256,192,37080,1,8,0:0:0:0:
256,192,37380,1,8,0:0:0:0:
256,192,37530,1,8,0:0:0:0:
256,192,37680,1,0,0:0:0:0:
256,192,37830,1,12,0:0:0:0:
256,192,37980,1,0,0:0:0:0:
256,192,38130,1,0,0:0:0:0:
256,192,38280,1,8,0:0:0:0:
256,192,38430,1,0,0:0:0:0:
256,192,38580,1,12,0:0:0:0:
256,192,39030,1,4,0:0:0:0:
256,192,39330,1,0,0:0:0:0:
256,192,39480,1,12,0:0:0:0:
256,192,39630,1,0,0:0:0:0:
256,192,39780,1,12,0:0:0:0:
256,192,39930,1,0,0:0:0:0:
256,192,40005,1,0,0:0:0:0:
256,192,40080,1,0,0:0:0:0:
256,192,40230,1,12,0:0:0:0:
256,192,40530,1,8,0:0:0:0:
256,192,40605,1,8,0:0:0:0:
256,192,40680,1,8,0:0:0:0:
256,192,40830,1,0,0:0:0:0:
256,192,40980,1,12,0:0:0:0:
256,192,41430,1,4,0:0:0:0:
256,192,41730,1,0,0:0:0:0:
256,192,41880,1,12,0:0:0:0:
256,192,42030,1,0,0:0:0:0:
256,192,42105,1,0,0:0:0:0:
256,192,42180,1,0,0:0:0:0:
256,192,42330,1,12,0:0:0:0:
256,192,42480,1,0,0:0:0:0:
256,192,42630,1,12,0:0:0:0:
256,192,42930,1,0,0:0:0:0:
256,192,43005,1,0,0:0:0:0:
256,192,43080,1,8,0:0:0:0:
256,192,43230,1,0,0:0:0:0:
256,192,43380,1,12,0:0:0:0:
256,192,43830,1,4,0:0:0:0:
256,192,44130,1,0,0:0:0:0:
256,192,44280,1,12,0:0:0:0:
256,192,44430,1,0,0:0:0:0:
256,192,44580,1,12,0:0:0:0:
256,192,44730,1,0,0:0:0:0:
256,192,44805,1,0,0:0:0:0:
256,192,44880,1,0,0:0:0:0:
256,192,45030,1,12,0:0:0:0:
256,192,45330,1,8,0:0:0:0:
256,192,45405,1,8,0:0:0:0:
256,192,45480,1,8,0:0:0:0:
256,192,45630,1,0,0:0:0:0:
256,192,45780,1,12,0:0:0:0:
256,192,46230,1,4,0:0:0:0:
256,192,46530,1,0,0:0:0:0:
256,192,46680,1,12,0:0:0:0:
256,192,46830,1,0,0:0:0:0:
256,192,46905,1,0,0:0:0:0:
256,192,46980,1,0,0:0:0:0:
256,192,47130,1,12,0:0:0:0:
256,192,47280,1,0,0:0:0:0:
256,192,47430,1,12,0:0:0:0:
256,192,47580,1,0,0:0:0:0:
256,192,47730,1,8,0:0:0:0:
256,192,47805,1,8,0:0:0:0:
256,192,47880,1,8,0:0:0:0:
256,192,48180,1,12,0:0:0:0:
256,192,48630,1,4,0:0:0:0:
256,192,48930,1,0,0:0:0:0:
256,192,49080,1,12,0:0:0:0:
256,192,49230,1,0,0:0:0:0:
256,192,49380,1,12,0:0:0:0:
256,192,49530,1,0,0:0:0:0:
256,192,49605,1,0,0:0:0:0:
256,192,49680,1,0,0:0:0:0:
256,192,49830,1,12,0:0:0:0:
256,192,50130,1,8,0:0:0:0:
256,192,50205,1,8,0:0:0:0:
256,192,50280,1,8,0:0:0:0:
256,192,50430,1,0,0:0:0:0:
256,192,50580,1,12,0:0:0:0:
256,192,51030,1,4,0:0:0:0:
256,192,51330,1,0,0:0:0:0:
256,192,51480,1,12,0:0:0:0:
256,192,51630,1,0,0:0:0:0:
256,192,51705,1,0,0:0:0:0:
256,192,51780,1,0,0:0:0:0:
256,192,51930,1,12,0:0:0:0:
256,192,52080,1,0,0:0:0:0:
256,192,52230,1,12,0:0:0:0:
256,192,52530,1,0,0:0:0:0:
256,192,52605,1,0,0:0:0:0:
256,192,52680,1,8,0:0:0:0:
256,192,52830,1,0,0:0:0:0:
256,192,52980,1,12,0:0:0:0:
256,192,53430,1,4,0:0:0:0:
256,192,53730,1,0,0:0:0:0:
256,192,53880,1,12,0:0:0:0:
256,192,54030,1,0,0:0:0:0:
256,192,54180,1,12,0:0:0:0:
256,192,54330,1,0,0:0:0:0:
256,192,54405,1,0,0:0:0:0:
256,192,54480,1,0,0:0:0:0:
256,192,54630,1,12,0:0:0:0:
256,192,54930,1,8,0:0:0:0:
256,192,55005,1,8,0:0:0:0:
256,192,55080,1,8,0:0:0:0:
256,192,55230,1,0,0:0:0:0:
256,192,55380,1,12,0:0:0:0:
256,192,55830,1,4,0:0:0:0:
256,192,56130,1,0,0:0:0:0:
256,192,56280,1,12,0:0:0:0:
256,192,56430,1,0,0:0:0:0:
256,192,56580,1,8,0:0:0:0:
256,192,56655,1,8,0:0:0:0:
256,192,56730,1,8,0:0:0:0:
256,192,56880,1,0,0:0:0:0:
256,192,57030,1,12,0:0:0:0:
256,192,57180,1,0,0:0:0:0:
256,192,57330,1,8,0:0:0:0:
256,192,57480,1,8,0:0:0:0:
256,192,57780,1,12,0:0:0:0:
256,192,58230,1,4,0:0:0:0:
256,192,58530,1,0,0:0:0:0:
256,192,58680,1,12,0:0:0:0:
256,192,58830,1,0,0:0:0:0:
256,192,58980,1,12,0:0:0:0:
256,192,59130,1,0,0:0:0:0:
256,192,59205,1,0,0:0:0:0:
256,192,59280,1,0,0:0:0:0:
256,192,59430,1,12,0:0:0:0:
256,192,59730,1,8,0:0:0:0:
256,192,59805,1,8,0:0:0:0:
256,192,59880,1,8,0:0:0:0:
256,192,60030,1,0,0:0:0:0:
256,192,60180,1,12,0:0:0:0:
256,192,60630,1,4,0:0:0:0:
256,192,60930,1,0,0:0:0:0:
256,192,61080,1,12,0:0:0:0:
256,192,61230,1,0,0:0:0:0:
256,192,61305,1,0,0:0:0:0:
256,192,61380,1,0,0:0:0:0:
256,192,61530,1,12,0:0:0:0:
256,192,61680,1,0,0:0:0:0:
256,192,61830,1,12,0:0:0:0:
256,192,62130,1,0,0:0:0:0:
256,192,62205,1,0,0:0:0:0:
256,192,62280,1,8,0:0:0:0:
256,192,62430,1,0,0:0:0:0:
256,192,62580,1,12,0:0:0:0:
256,192,63030,1,4,0:0:0:0:
256,192,63330,1,0,0:0:0:0:
256,192,63480,1,12,0:0:0:0:
256,192,63630,1,0,0:0:0:0:
256,192,63780,1,12,0:0:0:0:
256,192,63930,1,0,0:0:0:0:
256,192,64005,1,0,0:0:0:0:
256,192,64080,1,0,0:0:0:0:
256,192,64230,1,12,0:0:0:0:
256,192,64530,1,8,0:0:0:0:
256,192,64605,1,8,0:0:0:0:
256,192,64680,1,8,0:0:0:0:
256,192,64830,1,0,0:0:0:0:
256,192,64980,1,12,0:0:0:0:
256,192,65430,1,4,0:0:0:0:
256,192,65730,1,0,0:0:0:0:
256,192,65880,1,12,0:0:0:0:
256,192,66030,1,0,0:0:0:0:
256,192,66105,1,0,0:0:0:0:
256,192,66180,1,0,0:0:0:0:
256,192,66330,1,12,0:0:0:0:
256,192,66480,1,0,0:0:0:0:
256,192,66630,1,12,0:0:0:0:
256,192,66780,1,0,0:0:0:0:
256,192,66855,1,0,0:0:0:0:
256,192,66930,1,8,0:0:0:0:
256,192,67005,1,8,0:0:0:0:
256,192,67080,1,0,0:0:0:0:
256,192,67380,1,12,0:0:0:0:
256,192,67830,1,4,0:0:0:0:
256,192,68130,1,0,0:0:0:0:
256,192,68280,1,12,0:0:0:0:
256,192,68430,1,0,0:0:0:0:
256,192,68580,1,12,0:0:0:0:
256,192,68730,1,0,0:0:0:0:
256,192,68805,1,0,0:0:0:0:
256,192,68880,1,0,0:0:0:0:
256,192,69030,1,12,0:0:0:0:
256,192,69330,1,8,0:0:0:0:
256,192,69405,1,8,0:0:0:0:
256,192,69480,1,8,0:0:0:0:
256,192,69630,1,0,0:0:0:0:
256,192,69780,1,12,0:0:0:0:
256,192,70230,1,4,0:0:0:0:
256,192,70530,1,0,0:0:0:0:
256,192,70680,1,12,0:0:0:0:
256,192,70830,1,0,0:0:0:0:
256,192,70905,1,0,0:0:0:0:
256,192,70980,1,0,0:0:0:0:
256,192,71130,1,12,0:0:0:0:
256,192,71280,1,0,0:0:0:0:
256,192,71430,1,12,0:0:0:0:
256,192,71730,1,0,0:0:0:0:
256,192,71805,1,0,0:0:0:0:
256,192,71880,1,8,0:0:0:0:
256,192,72030,1,0,0:0:0:0:
256,192,72180,1,12,0:0:0:0:
256,192,72630,1,4,0:0:0:0:
256,192,72930,1,0,0:0:0:0:
256,192,73080,1,12,0:0:0:0:
256,192,73230,1,0,0:0:0:0:
256,192,73380,1,12,0:0:0:0:
256,192,73530,1,0,0:0:0:0:
256,192,73605,1,0,0:0:0:0:
256,192,73680,1,0,0:0:0:0:
256,192,73830,1,12,0:0:0:0:
256,192,74130,1,8,0:0:0:0:
256,192,74205,1,8,0:0:0:0:
256,192,74280,1,8,0:0:0:0:
256,192,74430,1,0,0:0:0:0:
256,192,74580,1,12,0:0:0:0:
256,192,75030,1,4,0:0:0:0:
256,192,75330,1,0,0:0:0:0:
256,192,75480,1,12,0:0:0:0:
256,192,75630,1,0,0:0:0:0:
256,192,75780,1,8,0:0:0:0:
256,192,75855,1,8,0:0:0:0:
256,192,75930,1,8,0:0:0:0:
256,192,76080,1,0,0:0:0:0:
256,192,76230,1,12,0:0:0:0:
256,192,76380,1,0,0:0:0:0:
256,192,76530,1,8,0:0:0:0:
256,192,76680,1,8,0:0:0:0:
256,192,76830,1,0,0:0:0:0:
256,192,77130,1,8,0:0:0:0:
256,192,77280,1,0,0:0:0:0:
256,192,77355,1,0,0:0:0:0:
256,192,77430,1,8,0:0:0:0:
256,192,77730,1,8,0:0:0:0:
256,192,77880,1,8,0:0:0:0:
256,192,78180,1,8,0:0:0:0:
256,192,78330,1,0,0:0:0:0:
256,192,78405,1,0,0:0:0:0:
256,192,78480,1,0,0:0:0:0:
256,192,78630,1,8,0:0:0:0:
256,192,78930,1,0,0:0:0:0:
256,192,79530,1,8,0:0:0:0:
256,192,79680,1,0,0:0:0:0:
256,192,79755,1,0,0:0:0:0:
256,192,79830,1,8,0:0:0:0:
256,192,79980,1,0,0:0:0:0:
256,192,80130,1,8,0:0:0:0:
256,192,80280,1,8,0:0:0:0:
256,192,80580,1,8,0:0:0:0:
256,192,80730,1,0,0:0:0:0:
256,192,80805,1,0,0:0:0:0:
256,192,80880,1,0,0:0:0:0:
256,192,81030,1,8,0:0:0:0:
256,192,81180,1,8,0:0:0:0:
256,192,81330,1,0,0:0:0:0:
256,192,81930,1,8,0:0:0:0:
256,192,82080,1,0,0:0:0:0:
256,192,82155,1,0,0:0:0:0:
256,192,82230,1,8,0:0:0:0:
256,192,82530,1,8,0:0:0:0:
256,192,82680,1,8,0:0:0:0:
256,192,82980,1,8,0:0:0:0:
256,192,83130,1,0,0:0:0:0:
256,192,83205,1,0,0:0:0:0:
256,192,83280,1,0,0:0:0:0:
256,192,83430,1,8,0:0:0:0:
256,192,83730,1,0,0:0:0:0:
256,192,84030,1,8,0:0:0:0:
256,192,84105,1,0,0:0:0:0:
256,192,84180,1,8,0:0:0:0:
256,192,84330,1,0,0:0:0:0:
256,192,84405,1,0,0:0:0:0:
256,192,84480,1,0,0:0:0:0:
256,192,84630,1,8,0:0:0:0:
256,192,84930,1,8,0:0:0:0:
256,192,85080,1,8,0:0:0:0:
256,192,85380,1,8,0:0:0:0:
256,192,85530,1,0,0:0:0:0:
256,192,85605,1,0,0:0:0:0:
256,192,85680,1,0,0:0:0:0:
256,192,85830,1,8,0:0:0:0:
256,192,85980,1,8,0:0:0:0:
256,192,86130,1,0,0:0:0:0:
256,192,86430,1,8,0:0:0:0:
256,192,86730,1,0,0:0:0:0:
256,192,86805,1,0,0:0:0:0:
256,192,86880,1,0,0:0:0:0:
256,192,87030,1,8,0:0:0:0:
256,192,87330,1,8,0:0:0:0:
256,192,87480,1,8,0:0:0:0:
256,192,87780,1,8,0:0:0:0:
256,192,87930,1,0,0:0:0:0:
256,192,88005,1,0,0:0:0:0:
256,192,88080,1,8,0:0:0:0:
256,192,88230,1,8,0:0:0:0:
256,192,88530,1,8,0:0:0:0:
256,192,88830,1,8,0:0:0:0:
256,192,88905,1,8,0:0:0:0:
256,192,88980,1,8,0:0:0:0:
256,192,89055,1,8,0:0:0:0:
256,192,89130,1,0,0:0:0:0:
256,192,89430,1,8,0:0:0:0:
256,192,89730,1,8,0:0:0:0:
256,192,89880,1,8,0:0:0:0:
256,192,90180,1,8,0:0:0:0:
256,192,90330,1,0,0:0:0:0:
256,192,90405,1,0,0:0:0:0:
256,192,90480,1,8,0:0:0:0:
256,192,90630,1,8,0:0:0:0:
256,192,90780,1,8,0:0:0:0:
256,192,90930,1,0,0:0:0:0:
256,192,91230,1,8,0:0:0:0:
256,192,91305,1,8,0:0:0:0:
256,192,91380,1,8,0:0:0:0:
256,192,91455,1,8,0:0:0:0:
256,192,91530,1,0,0:0:0:0:
256,192,91830,1,8,0:0:0:0:
256,192,92130,1,8,0:0:0:0:
256,192,92280,1,8,0:0:0:0:
256,192,92580,1,8,0:0:0:0:
256,192,92730,1,0,0:0:0:0:
256,192,92805,1,0,0:0:0:0:
256,192,92880,1,8,0:0:0:0:
256,192,93030,1,8,0:0:0:0:
256,192,93330,1,8,0:0:0:0:
256,192,93630,1,8,0:0:0:0:
256,192,93705,1,8,0:0:0:0:
256,192,93780,1,8,0:0:0:0:
256,192,93855,1,8,0:0:0:0:
256,192,93930,1,0,0:0:0:0:
256,192,94230,1,8,0:0:0:0:
256,192,94530,1,8,0:0:0:0:
256,192,94680,1,8,0:0:0:0:
256,192,94980,1,8,0:0:0:0:
256,192,95130,1,0,0:0:0:0:
256,192,95205,1,0,0:0:0:0:
256,192,95280,1,8,0:0:0:0:
256,192,95430,1,8,0:0:0:0:
256,192,95580,1,8,0:0:0:0:
256,192,95730,1,0,0:0:0:0:
256,192,96030,1,8,0:0:0:0:
256,192,96330,1,0,0:0:0:0:
256,192,96630,1,8,0:0:0:0:
256,192,96780,1,8,0:0:0:0:
256,192,96855,1,8,0:0:0:0:
256,192,96930,1,0,0:0:0:0:
256,192,97080,1,0,0:0:0:0:
256,192,97230,1,8,0:0:0:0:
256,192,97530,1,0,0:0:0:0:
256,192,97680,1,0,0:0:0:0:
256,192,97830,1,8,0:0:0:0:
256,192,98130,1,0,0:0:0:0:
256,192,98430,1,8,0:0:0:0:
256,192,98730,1,0,0:0:0:0:
256,192,99030,1,8,0:0:0:0:
256,192,99180,1,8,0:0:0:0:
256,192,99255,1,8,0:0:0:0:
256,192,99330,1,0,0:0:0:0:
256,192,99480,1,0,0:0:0:0:
256,192,99630,1,8,0:0:0:0:
256,192,99930,1,0,0:0:0:0:
256,192,100080,1,0,0:0:0:0:
256,192,100230,1,8,0:0:0:0:
256,192,100380,1,8,0:0:0:0:
256,192,100530,1,0,0:0:0:0:
256,192,100830,1,8,0:0:0:0:
256,192,101130,1,0,0:0:0:0:
256,192,101430,1,8,0:0:0:0:
256,192,101580,1,8,0:0:0:0:
256,192,101655,1,8,0:0:0:0:
256,192,101730,1,0,0:0:0:0:
256,192,101880,1,0,0:0:0:0:
256,192,102030,1,8,0:0:0:0:
256,192,102330,1,0,0:0:0:0:
256,192,102480,1,0,0:0:0:0:
256,192,102630,1,8,0:0:0:0:
256,192,102930,1,0,0:0:0:0:
256,192,103230,1,8,0:0:0:0:
256,192,103530,1,0,0:0:0:0:
256,192,103830,1,8,0:0:0:0:
256,192,103980,1,8,0:0:0:0:
256,192,104055,1,8,0:0:0:0:
256,192,104130,1,0,0:0:0:0:
256,192,104280,1,0,0:0:0:0:
256,192,104430,1,8,0:0:0:0:
256,192,104730,1,0,0:0:0:0:
256,192,104880,1,0,0:0:0:0:
256,192,105030,1,8,0:0:0:0:
256,192,105180,1,8,0:0:0:0:
256,192,105330,1,0,0:0:0:0:
256,192,105630,1,8,0:0:0:0:
256,192,105930,1,0,0:0:0:0:
256,192,106230,1,8,0:0:0:0:
256,192,106380,1,8,0:0:0:0:
256,192,106455,1,8,0:0:0:0:
256,192,106530,1,0,0:0:0:0:
256,192,106680,1,8,0:0:0:0:
256,192,106980,1,0,0:0:0:0:
256,192,107055,1,8,0:0:0:0:
256,192,107130,1,0,0:0:0:0:
256,192,107280,1,0,0:0:0:0:
256,192,107430,1,8,0:0:0:0:
256,192,107730,1,0,0:0:0:0:
256,192,108030,1,8,0:0:0:0:
256,192,108105,1,8,0:0:0:0:
256,192,108180,1,8,0:0:0:0:
256,192,108255,1,8,0:0:0:0:
256,192,108330,1,0,0:0:0:0:
256,192,108630,1,8,0:0:0:0:
256,192,108780,1,8,0:0:0:0:
256,192,108855,1,8,0:0:0:0:
256,192,108930,1,0,0:0:0:0:
256,192,109080,1,8,0:0:0:0:
256,192,109380,1,0,0:0:0:0:
256,192,109455,1,8,0:0:0:0:
256,192,109530,1,0,0:0:0:0:
256,192,109680,1,0,0:0:0:0:
256,192,109830,1,8,0:0:0:0:
256,192,109980,1,8,0:0:0:0:
256,192,110130,1,0,0:0:0:0:
256,192,110430,1,8,0:0:0:0:
256,192,110505,1,8,0:0:0:0:
256,192,110580,1,8,0:0:0:0:
256,192,110655,1,8,0:0:0:0:
256,192,110730,1,0,0:0:0:0:
256,192,111030,1,8,0:0:0:0:
256,192,111180,1,8,0:0:0:0:
256,192,111255,1,8,0:0:0:0:
256,192,111330,1,0,0:0:0:0:
256,192,111480,1,0,0:0:0:0:
256,192,111780,1,0,0:0:0:0:
256,192,111855,1,8,0:0:0:0:
256,192,111930,1,0,0:0:0:0:
256,192,112080,1,0,0:0:0:0:
256,192,112230,1,8,0:0:0:0:
256,192,112530,1,0,0:0:0:0:
256,192,112830,1,8,0:0:0:0:
256,192,112905,1,8,0:0:0:0:
256,192,112980,1,8,0:0:0:0:
256,192,113055,1,8,0:0:0:0:
256,192,113130,1,0,0:0:0:0:
256,192,113430,1,8,0:0:0:0:
256,192,113580,1,8,0:0:0:0:
256,192,113655,1,8,0:0:0:0:
256,192,113730,1,0,0:0:0:0:
256,192,113880,1,0,0:0:0:0:
256,192,114180,1,0,0:0:0:0:
256,192,114255,1,8,0:0:0:0:
256,192,114330,1,0,0:0:0:0:
256,192,114480,1,0,0:0:0:0:
256,192,114630,1,8,0:0:0:0:
256,192,114780,1,8,0:0:0:0:
256,192,114930,1,0,0:0:0:0:
256,192,115005,1,0,0:0:0:0:
256,192,115080,1,0,0:0:0:0:
256,192,115230,1,8,0:0:0:0:
256,192,115380,1,0,0:0:0:0:
256,192,115530,1,8,0:0:0:0:
256,192,115680,1,8,0:0:0:0:
256,192,115980,1,8,0:0:0:0:
256,192,116280,1,8,0:0:0:0:
256,192,116430,1,0,0:0:0:0:
256,192,116580,1,0,0:0:0:0:
256,192,116730,1,8,0:0:0:0:
256,192,117030,1,8,0:0:0:0:
256,192,117630,1,8,0:0:0:0:
256,192,117780,1,0,0:0:0:0:
256,192,117930,1,8,0:0:0:0:
256,192,118080,1,8,0:0:0:0:
256,192,118380,1,8,0:0:0:0:
256,192,118680,1,8,0:0:0:0:
256,192,118830,1,0,0:0:0:0:
256,192,118980,1,0,0:0:0:0:
256,192,119130,1,8,0:0:0:0:
256,192,119430,1,0,0:0:0:0:
256,192,119730,1,0,0:0:0:0:
256,192,119880,1,8,0:0:0:0:
256,192,120030,1,8,0:0:0:0:
256,192,120180,1,0,0:0:0:0:
256,192,120330,1,8,0:0:0:0:
256,192,120480,1,8,0:0:0:0:
256,192,120780,1,8,0:0:0:0:
256,192,121080,1,8,0:0:0:0:
256,192,121230,1,0,0:0:0:0:
256,192,121380,1,0,0:0:0:0:
256,192,121530,1,8,0:0:0:0:
256,192,121830,1,8,0:0:0:0:
256,192,122430,1,8,0:0:0:0:
256,192,122580,1,0,0:0:0:0:
256,192,122730,1,8,0:0:0:0:
256,192,122880,1,8,0:0:0:0:
256,192,123180,1,8,0:0:0:0:
256,192,123480,1,8,0:0:0:0:
256,192,123630,1,8,0:0:0:0:
256,192,123780,1,0,0:0:0:0:
256,192,123930,1,0,0:0:0:0:
256,192,124230,1,0,0:0:0:0:
256,192,124380,1,8,0:0:0:0:
256,192,124530,1,0,0:0:0:0:
256,192,124830,1,8,0:0:0:0:
256,192,124980,1,0,0:0:0:0:
256,192,125130,1,8,0:0:0:0:
256,192,125280,1,8,0:0:0:0:
256,192,125580,1,8,0:0:0:0:
256,192,125880,1,8,0:0:0:0:
256,192,126030,1,0,0:0:0:0:
256,192,126180,1,0,0:0:0:0:
256,192,126330,1,8,0:0:0:0:
256,192,126630,1,8,0:0:0:0:
256,192,126930,1,0,0:0:0:0:
256,192,127230,1,8,0:0:0:0:
256,192,127380,1,0,0:0:0:0:
256,192,127530,1,8,0:0:0:0:
256,192,127680,1,8,0:0:0:0:
256,192,127980,1,8,0:0:0:0:
256,192,128280,1,8,0:0:0:0:
256,192,128430,1,0,0:0:0:0:
256,192,128580,1,0,0:0:0:0:
256,192,128730,1,8,0:0:0:0:
256,192,129030,1,0,0:0:0:0:
256,192,129330,1,0,0:0:0:0:
256,192,129480,1,8,0:0:0:0:
256,192,129630,1,8,0:0:0:0:
256,192,129780,1,0,0:0:0:0:
256,192,129930,1,8,0:0:0:0:
256,192,130080,1,8,0:0:0:0:
256,192,130380,1,8,0:0:0:0:
256,192,130680,1,8,0:0:0:0:
256,192,130830,1,0,0:0:0:0:
256,192,130980,1,0,0:0:0:0:
256,192,131130,1,8,0:0:0:0:
256,192,131430,1,8,0:0:0:0:
256,192,131730,1,0,0:0:0:0:
256,192,132030,1,8,0:0:0:0:
256,192,132180,1,0,0:0:0:0:
256,192,132330,1,8,0:0:0:0:
256,192,132480,1,8,0:0:0:0:
256,192,132780,1,8,0:0:0:0:
256,192,133080,1,8,0:0:0:0:
256,192,133230,1,8,0:0:0:0:
256,192,133380,1,0,0:0:0:0:
256,192,133530,1,0,0:0:0:0:
256,192,133830,1,0,0:0:0:0:
256,192,133980,1,8,0:0:0:0:
256,192,134130,1,0,0:0:0:0:
256,192,134430,1,12,0:0:0:0:
256,192,136830,1,8,0:0:0:0:
256,192,139230,1,0,0:0:0:0:
256,192,141630,1,8,0:0:0:0:
256,192,144030,1,0,0:0:0:0:
256,192,146430,1,8,0:0:0:0:
256,192,148830,1,8,0:0:0:0:
256,192,151230,1,8,0:0:0:0:
256,192,153630,1,4,0:0:0:0:
256,192,153930,1,8,0:0:0:0:
256,192,154080,1,0,0:0:0:0:
256,192,154155,1,0,0:0:0:0:
256,192,154230,1,8,0:0:0:0:
256,192,154380,1,8,0:0:0:0:
256,192,154530,1,0,0:0:0:0:
256,192,154830,1,8,0:0:0:0:
256,192,155130,1,0,0:0:0:0:
256,192,155280,1,8,0:0:0:0:
256,192,155430,1,0,0:0:0:0:
256,192,155580,1,0,0:0:0:0:
256,192,155730,1,8,0:0:0:0:
256,192,156030,1,8,0:0:0:0:
256,192,156330,1,0,0:0:0:0:
256,192,156480,1,8,0:0:0:0:
256,192,156555,1,8,0:0:0:0:
256,192,156630,1,0,0:0:0:0:
256,192,156780,1,0,0:0:0:0:
256,192,156930,1,8,0:0:0:0:
256,192,157230,1,0,0:0:0:0:
256,192,157530,1,8,0:0:0:0:
256,192,157680,1,0,0:0:0:0:
256,192,157830,1,8,0:0:0:0:
256,192,157980,1,8,0:0:0:0:
256,192,158130,1,0,0:0:0:0:
256,192,158430,1,0,0:0:0:0:
256,192,158730,1,8,0:0:0:0:
256,192,158880,1,8,0:0:0:0:
256,192,158955,1,8,0:0:0:0:
256,192,159030,1,0,0:0:0:0:
256,192,159180,1,0,0:0:0:0:
256,192,159330,1,8,0:0:0:0:
256,192,159630,1,0,0:0:0:0:
256,192,159930,1,0,0:0:0:0:
256,192,160080,1,8,0:0:0:0:
256,192,160230,1,8,0:0:0:0:
256,192,160380,1,0,0:0:0:0:
256,192,160455,1,0,0:0:0:0:
256,192,160530,1,8,0:0:0:0:
256,192,160830,1,8,0:0:0:0:
256,192,161130,1,0,0:0:0:0:
256,192,161280,1,0,0:0:0:0:
256,192,161355,1,0,0:0:0:0:
256,192,161430,1,8,0:0:0:0:
256,192,161580,1,8,0:0:0:0:
256,192,161730,1,0,0:0:0:0:
256,192,162030,1,8,0:0:0:0:
256,192,162330,1,8,0:0:0:0:
256,192,162480,1,0,0:0:0:0:
256,192,162630,1,0,0:0:0:0:
256,192,162780,1,8,0:0:0:0:
256,192,162855,1,8,0:0:0:0:
256,192,162930,1,0,0:0:0:0:
256,192,163230,1,4,0:0:0:0:
256,192,163530,1,8,0:0:0:0:
256,192,163680,1,0,0:0:0:0:
256,192,163830,1,8,0:0:0:0:
256,192,163980,1,8,0:0:0:0:
256,192,164130,1,0,0:0:0:0:
256,192,164430,1,8,0:0:0:0:
256,192,164580,1,0,0:0:0:0:
256,192,164730,1,0,0:0:0:0:
256,192,164880,1,8,0:0:0:0:
256,192,165030,1,8,0:0:0:0:
256,192,165180,1,0,0:0:0:0:
256,192,165330,1,8,0:0:0:0:
256,192,165480,1,8,0:0:0:0:
256,192,165555,1,8,0:0:0:0:
256,192,165630,1,0,0:0:0:0:
256,192,165930,1,0,0:0:0:0:
256,192,166080,1,8,0:0:0:0:
256,192,166230,1,0,0:0:0:0:
256,192,166380,1,0,0:0:0:0:
256,192,166530,1,8,0:0:0:0:
256,192,166830,1,0,0:0:0:0:
256,192,166980,1,8,0:0:0:0:
256,192,167130,1,8,0:0:0:0:
256,192,167280,1,0,0:0:0:0:
256,192,167430,1,0,0:0:0:0:
256,192,167505,1,8,0:0:0:0:
256,192,167580,1,8,0:0:0:0:
256,192,167730,1,0,0:0:0:0:
256,192,167880,1,0,0:0:0:0:
256,192,167955,1,0,0:0:0:0:
256,192,168030,1,8,0:0:0:0:
256,192,168180,1,0,0:0:0:0:
256,192,168330,1,8,0:0:0:0:
256,192,168480,1,8,0:0:0:0:
256,192,168630,1,0,0:0:0:0:
256,192,168930,1,0,0:0:0:0:
256,192,169080,1,8,0:0:0:0:
256,192,169230,1,0,0:0:0:0:
256,192,169380,1,8,0:0:0:0:
256,192,169455,1,8,0:0:0:0:
256,192,169530,1,0,0:0:0:0:
256,192,169680,1,0,0:0:0:0:
256,192,169830,1,8,0:0:0:0:
256,192,170130,1,8,0:0:0:0:
256,192,170280,1,0,0:0:0:0:
256,192,170430,1,8,0:0:0:0:
256,192,170505,1,8,0:0:0:0:
256,192,170580,1,8,0:0:0:0:
256,192,170655,1,8,0:0:0:0:
256,192,170730,1,0,0:0:0:0:
256,192,170880,1,0,0:0:0:0:
256,192,171030,1,8,0:0:0:0:
256,192,171105,1,8,0:0:0:0:
256,192,171180,1,8,0:0:0:0:
256,192,171330,1,0,0:0:0:0:
256,192,171480,1,8,0:0:0:0:
256,192,171555,1,8,0:0:0:0:
256,192,171630,1,0,0:0:0:0:
256,192,171780,1,8,0:0:0:0:
256,192,171855,1,8,0:0:0:0:
256,192,171930,1,0,0:0:0:0:
256,192,172005,1,0,0:0:0:0:
256,192,172080,1,8,0:0:0:0:
256,192,172230,1,8,0:0:0:0:
256,192,172305,1,0,0:0:0:0:
256,192,172380,1,8,0:0:0:0:
256,192,172530,1,0,0:0:0:0:
256,192,172680,1,0,0:0:0:0:
256,192,173430,1,8,0:0:0:0:
256,192,173580,1,0,0:0:0:0:
256,192,173730,1,8,0:0:0:0:
256,192,173880,1,0,0:0:0:0:
256,192,174030,1,12,0:0:0:0:
256,192,174180,8,0,175680,0:0:0:0:
253,168,176130,5,8,0:0:0:0:
253,168,176280,1,0,0:0:0:0:
253,168,176355,1,0,0:0:0:0:
253,168,176430,1,12,0:0:0:0:
253,168,177630,1,4,0:0:0:0:
253,168,177780,1,8,0:0:0:0:
253,168,177930,1,8,0:0:0:0:
253,168,178080,1,8,0:0:0:0:
253,168,178230,1,8,0:0:0:0:
253,168,178380,1,8,0:0:0:0:
253,168,178530,1,8,0:0:0:0:
253,168,178680,1,0,0:0:0:0:
253,168,178755,1,0,0:0:0:0:
253,168,178830,1,12,0:0:0:0:
253,168,178980,2,4,P|452:112|486:241,5,280
256,192,180930,1,8,0:0:0:0:
256,192,181080,1,0,0:0:0:0:
256,192,181155,1,0,0:0:0:0:
256,192,181230,1,12,0:0:0:0:
256,192,182430,1,4,0:0:0:0:
256,192,183030,1,8,0:0:0:0:
256,192,183180,1,0,0:0:0:0:
256,192,183330,1,8,0:0:0:0:
256,192,183480,1,0,0:0:0:0:
256,192,183630,1,12,0:0:0:0:
256,192,183780,8,0,185580,0:0:0:0:
256,192,186030,5,12,0:0:0:0:
256,192,187230,1,4,0:0:0:0:
253,168,188280,1,0,0:0:0:0:
253,168,188430,1,12,0:0:0:0:
253,168,188580,2,4,P|452:112|486:241,5,280
256,192,190530,1,8,0:0:0:0:
256,192,190680,1,0,0:0:0:0:
256,192,190755,1,0,0:0:0:0:
256,192,190830,1,12,0:0:0:0:
256,192,192630,5,8,0:0:0:0:
256,192,192780,1,0,0:0:0:0:
256,192,192930,1,8,0:0:0:0:
256,192,193080,1,0,0:0:0:0:
256,192,193230,1,12,0:0:0:0:
256,192,193380,8,0,194880,0:0:0:0:
253,168,195330,5,8,0:0:0:0:
253,168,195480,1,0,0:0:0:0:
253,168,195555,1,0,0:0:0:0:
253,168,195630,1,12,0:0:0:0:
253,168,196830,1,4,0:0:0:0:
253,168,196980,1,8,0:0:0:0:
253,168,197130,1,8,0:0:0:0:
253,168,197280,1,8,0:0:0:0:
253,168,197430,1,8,0:0:0:0:
253,168,197580,1,8,0:0:0:0:
253,168,197730,1,8,0:0:0:0:
253,168,197880,1,0,0:0:0:0:
253,168,197955,1,0,0:0:0:0:
253,168,198030,1,12,0:0:0:0:
253,168,198180,2,4,P|452:112|486:241,5,280
256,192,200130,1,8,0:0:0:0:
256,192,200280,1,0,0:0:0:0:
256,192,200355,1,0,0:0:0:0:
256,192,200430,1,12,0:0:0:0:
256,192,201630,1,4,0:0:0:0:
256,192,202230,1,8,0:0:0:0:
256,192,202380,1,0,0:0:0:0:
256,192,202530,1,8,0:0:0:0:
256,192,202680,1,0,0:0:0:0:
256,192,202830,1,12,0:0:0:0:
256,192,202980,8,0,204780,0:0:0:0:
256,192,205230,5,12,0:0:0:0:
256,192,206430,1,4,0:0:0:0:
256,192,206580,1,8,0:0:0:0:
256,192,206730,1,8,0:0:0:0:
256,192,206880,1,8,0:0:0:0:
256,192,207030,1,8,0:0:0:0:
256,192,207180,1,8,0:0:0:0:
256,192,207330,1,8,0:0:0:0:
253,168,207480,1,0,0:0:0:0:
253,168,207630,1,12,0:0:0:0:
253,168,207780,2,4,P|452:112|486:241,5,280
256,192,209730,1,8,0:0:0:0:
256,192,209880,1,0,0:0:0:0:
256,192,209955,1,0,0:0:0:0:
256,192,210030,1,12,0:0:0:0:
256,192,211230,1,12,0:0:0:0:
256,192,211380,8,0,220830,0:0:0:0:
