osu file format v14

[General]
AudioFilename: audio.mp3
AudioLeadIn: 0
PreviewTime: 37605
Countdown: 0
SampleSet: Normal
StackLeniency: 0.7
Mode: 1
LetterboxInBreaks: 0
StoryFireInFront: 0
EpilepsyWarning: 1
WidescreenStoryboard: 1

[Editor]
Bookmarks: 115230,153630
DistanceSpacing: 0.9
BeatDivisor: 4
GridSize: 32
TimelineZoom: 1.9

[Metadata]
Title:dragonlands
TitleUnicode:dragonlands
Artist:sakuraburst
ArtistUnicode:sakuraburst
Creator:Faputa
Version:Muzukashii
Source:osu!
Tags:-GN Jr. Junior featured artist fa experimental SV neurofunk storyboard glitch
BeatmapID:1955849
BeatmapSetID:935765

[Difficulty]
HPDrainRate:6
CircleSize:2
OverallDifficulty:5
ApproachRate:10
SliderMultiplier:1.4
SliderTickRate:1

[Events]
//Background and Video events
0,0,"dragon.jpg",0,0
//Break Periods
2,191030,192180
//Storyboard Layer 0 (Background)
//Storyboard Layer 1 (Fail)
//Storyboard Layer 2 (Pass)
//Storyboard Layer 3 (Foreground)
//Storyboard Sound Samples

[TimingPoints]
30,300,4,1,0,75,1,0
30,-111.111111111111,4,1,0,75,0,0
18630,-109.89010989011,4,1,0,75,0,0
18780,-108.695652173913,4,1,0,75,0,0
18930,-107.52688172043,4,1,0,75,0,0
19230,-105.263157894737,4,1,0,80,0,0
28230,-104.166666666667,4,1,0,80,0,0
28380,-103.092783505155,4,1,0,80,0,0
28530,-102.040816326531,4,1,0,80,0,0
28680,-101.010101010101,4,1,0,80,0,0
28830,-100,4,1,0,85,0,0
36030,-100,4,1,0,90,0,0
37830,-98.0392156862745,4,1,0,90,0,0
38430,-90.9090909090909,4,1,0,95,0,1
47955,-90.9090909090909,4,1,0,95,0,0
48180,-90.9090909090909,4,1,0,95,0,1
57480,-90.9090909090909,4,1,0,95,0,0
57780,-90.9090909090909,4,1,0,95,0,1
66630,-90.9090909090909,4,1,0,95,0,0
67380,-90.9090909090909,4,1,0,95,0,1
76830,-90.9090909090909,4,1,0,95,0,0
76980,-100,4,1,0,60,0,0
81630,-100,4,1,0,63,0,0
86430,-95.2380952380952,4,1,0,66,0,0
91230,-95.2380952380952,4,1,0,69,0,0
96030,-90.9090909090909,4,1,0,72,0,0
100830,-90.9090909090909,4,1,0,75,0,0
105630,-86.9565217391304,4,1,0,78,0,0
105780,-86.9565217391304,4,1,0,80,0,0
114180,-87.4002108093085,4,1,0,80,0,0
114255,-87.5118031544504,4,1,0,80,0,0
114330,-87.6236808254852,4,1,0,80,0,0
114480,-87.8483737069817,4,1,0,80,0,0
114630,-88.0742219082866,4,1,0,80,0,0
114780,-88.3012343629552,4,1,0,80,0,0
114930,-88.5294200968866,4,1,0,80,0,0
115230,-88.9892687840773,4,1,0,75,0,0
115530,-89.4539996225041,4,1,0,75,0,0
115680,-89.6881900385121,4,1,0,75,0,0
115980,-90.1601876053184,4,1,0,75,0,0
116280,-90.6372615220353,4,1,0,75,0,0
116430,-90.8776967956524,4,1,0,75,0,0
116730,-91.362414598983,4,1,0,75,0,0
117030,-91.8522464763182,4,1,0,75,0,0
117630,-92.848010592101,4,1,0,75,0,0
117930,-93.3539458845847,4,1,0,75,0,0
118080,-93.6090306504049,4,1,0,75,0,0
118380,-94.1234051965532,4,1,0,75,0,0
118680,-94.6433743012953,4,1,0,75,0,0
118830,-94.9055642183246,4,1,0,75,0,0
119130,-95.4343263911223,4,1,0,75,0,0
119430,-95.9689214244859,4,1,0,75,0,0
119730,-96.5096326264324,4,1,0,75,0,0
120030,-97.0564713372829,4,1,0,75,0,0
120330,-97.6094470327216,4,1,0,75,0,0
120480,-97.8883524607174,4,1,0,75,0,0
120780,-98.4509724002544,4,1,0,75,0,0
121080,-99.019999069212,4,1,0,75,0,0
121230,-99.3070355062375,4,1,0,75,0,0
121530,-99.8861298120143,4,1,0,75,0,0
121830,-100.471916592234,4,1,0,75,0,0
122430,-101.664553738358,4,1,0,75,0,0
122730,-102.271448879616,4,1,0,75,0,0
122880,-102.577674379482,4,1,0,75,0,0
123180,-103.195660003323,4,1,0,75,0,0
123480,-103.821029157098,4,1,0,75,0,0
123630,-104.136618913084,4,1,0,75,0,0
123930,-104.773589511745,4,1,0,75,0,0
124230,-105.418400360109,4,1,0,75,0,0
124380,-105.743679435921,4,1,0,75,0,0
124530,-106.071084598054,4,1,0,75,0,0
124830,-106.732015121792,4,1,0,75,0,0
125130,-107.401233825374,4,1,0,75,0,0
125280,-107.738884040639,4,1,0,75,0,0
125580,-108.42082894229,4,1,0,75,0,0
125880,-109.111461722608,4,1,0,75,0,0
126030,-109.459968300393,4,1,0,75,0,0
126330,-110.163945984414,4,1,0,75,0,0
126630,-110.877037365562,4,1,0,75,0,0
127230,-112.331152236794,4,1,0,75,0,0
127530,-113.072670674716,4,1,0,75,0,0
127680,-113.446984522428,4,1,0,75,0,0
127980,-114.203357350299,4,1,0,75,0,0
128280,-114.969883638981,4,1,0,75,0,0
128430,-115.357018436359,4,1,0,75,0,0
128730,-116.139027707288,4,1,0,75,0,0
129030,-116.931848610674,4,1,0,75,0,0
129330,-117.735429651903,4,1,0,75,0,0
129630,-118.550272428526,4,1,0,75,0,0
129930,-119.376472807233,4,1,0,75,0,0
130080,-119.793906563149,4,1,0,75,0,0
130380,-120.637448276694,4,1,0,75,0,0
130680,-121.49310162169,4,1,0,75,0,0
130830,-121.925496206288,4,1,0,75,0,0
131130,-122.799434140207,4,1,0,75,0,0
131430,-123.686143936039,4,1,0,75,0,0
132030,-125.498385463271,4,1,0,75,0,0
132330,-126.424647749325,4,1,0,75,0,0
132480,-126.892925211848,4,1,0,75,0,0
132780,-127.839801388085,4,1,0,75,0,0
133080,-128.801080898671,4,1,0,75,0,0
133230,-129.287162301932,4,1,0,75,0,0
133530,-130.270245624548,4,1,0,75,0,0
133830,-131.268566297846,4,1,0,75,0,0
133980,-131.773486647393,4,1,0,75,0,0
134130,-132.282306315554,4,1,0,75,0,0
134430,-133.333333333333,4,1,0,50,0,0
153630,-111.111111111111,4,1,0,80,0,0
162630,-109.89010989011,4,1,0,80,0,0
162930,-106.382978723404,4,1,0,80,0,0
163230,-105.263157894737,4,1,0,85,0,0
167730,-104.166666666667,4,1,0,85,0,0
168030,-100,4,1,0,90,0,0
173430,-98.0392156862745,4,1,0,90,0,0
173880,-92.5925925925926,4,1,0,90,0,0
174030,-90.9090909090909,4,1,0,95,0,1
174180,-66.6666666666667,4,1,0,95,0,1
176130,-90.9090909090909,4,1,0,95,0,1
177630,-90.9090909090909,4,1,0,95,0,0
178830,-90.9090909090909,4,1,0,95,0,1
178980,-66.6666666666667,4,1,0,95,0,1
180930,-90.9090909090909,4,1,0,95,0,1
182430,-90.9090909090909,4,1,0,95,0,0
183030,-98.0392156862745,4,1,0,95,0,0
183480,-92.5925925925926,4,1,0,95,0,0
183630,-90.9090909090909,4,1,0,95,0,1
183780,-66.6666666666667,4,1,0,95,0,1
186030,-90.9090909090909,4,1,0,95,0,1
187230,-90.9090909090909,4,1,0,95,0,0
188430,-90.9090909090909,4,1,0,95,0,1
188580,-66.6666666666667,4,1,0,95,0,1
190530,-90.9090909090909,4,1,0,95,0,1
190830,-90.9090909090909,4,1,0,95,0,0
192630,-98.0392156862745,4,1,0,95,0,0
193080,-92.5925925925926,4,1,0,95,0,0
193230,-90.9090909090909,4,1,0,95,0,1
193380,-66.6666666666667,4,1,0,95,0,1
195330,-90.9090909090909,4,1,0,95,0,1
196830,-90.9090909090909,4,1,0,95,0,0
198030,-90.9090909090909,4,1,0,95,0,1
198180,-66.6666666666667,4,1,0,95,0,1
200130,-90.9090909090909,4,1,0,95,0,1
201630,-90.9090909090909,4,1,0,95,0,0
202230,-98.0392156862745,4,1,0,95,0,0
202680,-92.5925925925926,4,1,0,95,0,0
202830,-90.9090909090909,4,1,0,95,0,1
202980,-66.6666666666667,4,1,0,95,0,1
205230,-90.9090909090909,4,1,0,95,0,1
206430,-90.9090909090909,4,1,0,95,0,0
207630,-90.9090909090909,4,1,0,95,0,1
207780,-66.6666666666667,4,1,0,95,0,1
209730,-90.9090909090909,4,1,0,95,0,1
211230,-90.9090909090909,4,1,0,95,0,0
211380,-50,4,1,0,95,0,0
211530,-100,4,1,0,30,0,0

[HitObjects]
256,192,30,5,8,0:0:0:0:
256,192,330,1,8,0:0:0:0:
256,192,480,1,8,0:0:0:0:
256,192,780,1,8,0:0:0:0:
256,192,1080,1,8,0:0:0:0:
256,192,1230,1,0,0:0:0:0:
256,192,1530,1,0,0:0:0:0:
256,192,1830,1,8,0:0:0:0:
256,192,2430,1,8,0:0:0:0:
256,192,2730,1,8,0:0:0:0:
256,192,2880,1,8,0:0:0:0:
256,192,3180,1,8,0:0:0:0:
256,192,3480,1,8,0:0:0:0:
256,192,3630,1,0,0:0:0:0:
256,192,3930,1,8,0:0:0:0:
256,192,4230,1,0,0:0:0:0:
256,192,4530,1,0,0:0:0:0:
256,192,4830,1,8,0:0:0:0:
256,192,5130,1,8,0:0:0:0:
256,192,5280,1,8,0:0:0:0:
256,192,5580,1,8,0:0:0:0:
256,192,5880,1,8,0:0:0:0:
256,192,6030,1,0,0:0:0:0:
256,192,6330,1,0,0:0:0:0:
256,192,6630,1,8,0:0:0:0:
256,192,7230,1,8,0:0:0:0:
256,192,7530,1,8,0:0:0:0:
256,192,7680,1,8,0:0:0:0:
256,192,7980,1,8,0:0:0:0:
256,192,8280,1,8,0:0:0:0:
256,192,8430,1,0,0:0:0:0:
256,192,8730,1,0,0:0:0:0:
256,192,9030,1,8,0:0:0:0:
256,192,9180,1,8,0:0:0:0:
256,192,9330,1,0,0:0:0:0:
256,192,9630,1,8,0:0:0:0:
256,192,9930,1,0,0:0:0:0:
256,192,10080,1,8,0:0:0:0:
256,192,10380,1,8,0:0:0:0:
256,192,10680,1,8,0:0:0:0:
256,192,10830,1,0,0:0:0:0:
256,192,11130,1,8,0:0:0:0:
256,192,11430,1,8,0:0:0:0:
256,192,12030,1,8,0:0:0:0:
256,192,12330,1,0,0:0:0:0:
256,192,12480,1,8,0:0:0:0:
256,192,12780,1,8,0:0:0:0:
256,192,13080,1,8,0:0:0:0:
256,192,13230,1,0,0:0:0:0:
256,192,13530,1,8,0:0:0:0:
256,192,13830,1,0,0:0:0:0:
256,192,14130,1,0,0:0:0:0:
256,192,14430,1,8,0:0:0:0:
256,192,14730,1,0,0:0:0:0:
256,192,14880,1,8,0:0:0:0:
256,192,15180,1,8,0:0:0:0:
256,192,15480,1,8,0:0:0:0:
256,192,15630,1,0,0:0:0:0:
256,192,15930,1,8,0:0:0:0:
256,192,16230,1,8,0:0:0:0:
256,192,16830,1,8,0:0:0:0:
256,192,17130,1,0,0:0:0:0:
256,192,17280,1,8,0:0:0:0:
256,192,17580,1,8,0:0:0:0:
256,192,17880,1,8,0:0:0:0:
256,192,18030,1,0,0:0:0:0:
256,192,18330,1,0,0:0:0:0:
256,192,18630,1,8,0:0:0:0:
256,192,18780,1,8,0:0:0:0:
256,192,18930,1,0,0:0:0:0:
256,192,19230,1,8,0:0:0:0:
256,192,19380,1,8,0:0:0:0:
256,192,20280,1,8,0:0:0:0:
256,192,20430,1,0,0:0:0:0:
256,192,20730,1,0,0:0:0:0:
256,192,21030,1,8,0:0:0:0:
256,192,21330,1,8,0:0:0:0:
256,192,21780,1,0,0:0:0:0:
256,192,22230,1,8,0:0:0:0:
256,192,22680,1,8,0:0:0:0:
256,192,23130,1,0,0:0:0:0:
256,192,23430,1,8,0:0:0:0:
256,192,23580,1,8,0:0:0:0:
256,192,23730,1,0,0:0:0:0:
256,192,23880,1,8,0:0:0:0:
256,192,24180,1,8,0:0:0:0:
256,192,25080,1,8,0:0:0:0:
256,192,25230,1,0,0:0:0:0:
256,192,25530,1,0,0:0:0:0:
256,192,25830,1,8,0:0:0:0:
256,192,26130,1,8,0:0:0:0:
256,192,26580,1,0,0:0:0:0:
256,192,27030,1,8,0:0:0:0:
256,192,27480,1,8,0:0:0:0:
256,192,27930,1,0,0:0:0:0:
256,192,28230,1,8,0:0:0:0:
256,192,28380,1,8,0:0:0:0:
256,192,28530,1,0,0:0:0:0:
256,192,28680,1,8,0:0:0:0:
256,192,28980,1,8,0:0:0:0:
256,192,29580,1,8,0:0:0:0:
256,192,29880,1,8,0:0:0:0:
256,192,30030,1,8,0:0:0:0:
256,192,30330,1,0,0:0:0:0:
256,192,30630,1,0,0:0:0:0:
256,192,30930,1,8,0:0:0:0:
256,192,31380,1,8,0:0:0:0:
256,192,31680,1,0,0:0:0:0:
256,192,31830,1,8,0:0:0:0:
256,192,32280,1,8,0:0:0:0:
256,192,32430,1,8,0:0:0:0:
256,192,32730,1,0,0:0:0:0:
256,192,33030,1,8,0:0:0:0:
256,192,33180,1,8,0:0:0:0:
256,192,33330,1,0,0:0:0:0:
256,192,33480,1,8,0:0:0:0:
256,192,33780,1,8,0:0:0:0:
256,192,34380,1,8,0:0:0:0:
256,192,34680,1,8,0:0:0:0:
256,192,34830,1,0,0:0:0:0:
256,192,35130,1,0,0:0:0:0:
256,192,35430,1,8,0:0:0:0:
256,192,35730,1,8,0:0:0:0:
256,192,35880,1,0,0:0:0:0:
256,192,36030,1,8,0:0:0:0:
256,192,36180,1,8,0:0:0:0:
256,192,36480,1,8,0:0:0:0:
256,192,36630,1,8,0:0:0:0:
256,192,36930,1,8,0:0:0:0:
256,192,37080,1,8,0:0:0:0:
256,192,37380,1,8,0:0:0:0:
256,192,37530,1,8,0:0:0:0:
256,192,37680,1,0,0:0:0:0:
256,192,37830,1,12,0:0:0:0:
256,192,38430,1,0,0:0:0:0:
256,192,38580,1,12,0:0:0:0:
256,192,39030,1,4,0:0:0:0:
256,192,39480,1,12,0:0:0:0:
256,192,39780,1,12,0:0:0:0:
256,192,40230,1,4,0:0:0:0:
256,192,40530,1,8,0:0:0:0:
256,192,40605,1,8,0:0:0:0:
256,192,40680,1,8,0:0:0:0:
256,192,40980,1,12,0:0:0:0:
256,192,41430,1,4,0:0:0:0:
256,192,41880,1,12,0:0:0:0:
256,192,42330,1,12,0:0:0:0:
256,192,42630,1,4,0:0:0:0:
256,192,42930,1,8,0:0:0:0:
256,192,43005,1,8,0:0:0:0:
256,192,43080,1,8,0:0:0:0:
256,192,43230,1,0,0:0:0:0:
256,192,43380,1,12,0:0:0:0:
256,192,43830,1,4,0:0:0:0:
256,192,44280,1,12,0:0:0:0:
256,192,44580,1,12,0:0:0:0:
256,192,45030,1,4,0:0:0:0:
256,192,45330,1,8,0:0:0:0:
256,192,45405,1,8,0:0:0:0:
256,192,45480,1,8,0:0:0:0:
256,192,45630,1,0,0:0:0:0:
256,192,45780,1,12,0:0:0:0:
256,192,46230,1,4,0:0:0:0:
256,192,46680,1,12,0:0:0:0:
256,192,47130,1,12,0:0:0:0:
256,192,47430,1,4,0:0:0:0:
256,192,47580,1,0,0:0:0:0:
256,192,47730,1,8,0:0:0:0:
256,192,47805,1,8,0:0:0:0:
256,192,47880,1,8,0:0:0:0:
256,192,48180,1,12,0:0:0:0:
256,192,48630,1,4,0:0:0:0:
256,192,49080,1,12,0:0:0:0:
256,192,49380,1,12,0:0:0:0:
256,192,49830,1,4,0:0:0:0:
256,192,50130,1,8,0:0:0:0:
256,192,50205,1,8,0:0:0:0:
256,192,50280,1,8,0:0:0:0:
256,192,50430,1,0,0:0:0:0:
256,192,50580,1,12,0:0:0:0:
256,192,51030,1,4,0:0:0:0:
256,192,51480,1,12,0:0:0:0:
256,192,51930,1,12,0:0:0:0:
256,192,52230,1,4,0:0:0:0:
256,192,52530,1,8,0:0:0:0:
256,192,52605,1,8,0:0:0:0:
256,192,52680,1,8,0:0:0:0:
256,192,52830,1,0,0:0:0:0:
256,192,52980,1,12,0:0:0:0:
256,192,53430,1,4,0:0:0:0:
256,192,53880,1,12,0:0:0:0:
256,192,54180,1,12,0:0:0:0:
256,192,54630,1,4,0:0:0:0:
256,192,54930,1,8,0:0:0:0:
256,192,55005,1,8,0:0:0:0:
256,192,55080,1,8,0:0:0:0:
256,192,55230,1,0,0:0:0:0:
256,192,55380,1,12,0:0:0:0:
256,192,55830,1,4,0:0:0:0:
256,192,56280,1,12,0:0:0:0:
256,192,56580,1,8,0:0:0:0:
256,192,56655,1,8,0:0:0:0:
256,192,56730,1,8,0:0:0:0:
256,192,56880,1,0,0:0:0:0:
256,192,57030,1,12,0:0:0:0:
256,192,57780,1,12,0:0:0:0:
256,192,58230,1,4,0:0:0:0:
256,192,58680,1,12,0:0:0:0:
256,192,58980,1,12,0:0:0:0:
256,192,59430,1,4,0:0:0:0:
256,192,59730,1,8,0:0:0:0:
256,192,59805,1,8,0:0:0:0:
256,192,59880,1,8,0:0:0:0:
256,192,60030,1,0,0:0:0:0:
256,192,60180,1,12,0:0:0:0:
256,192,60630,1,4,0:0:0:0:
256,192,61080,1,12,0:0:0:0:
256,192,61530,1,12,0:0:0:0:
256,192,61830,1,4,0:0:0:0:
256,192,62130,1,8,0:0:0:0:
256,192,62205,1,8,0:0:0:0:
256,192,62280,1,8,0:0:0:0:
256,192,62430,1,0,0:0:0:0:
256,192,62580,1,12,0:0:0:0:
256,192,63030,1,4,0:0:0:0:
256,192,63480,1,12,0:0:0:0:
256,192,63780,1,12,0:0:0:0:
256,192,64230,1,4,0:0:0:0:
256,192,64530,1,8,0:0:0:0:
256,192,64605,1,8,0:0:0:0:
256,192,64680,1,8,0:0:0:0:
256,192,64830,1,0,0:0:0:0:
256,192,64980,1,12,0:0:0:0:
256,192,65430,1,4,0:0:0:0:
256,192,65880,1,12,0:0:0:0:
256,192,66330,1,12,0:0:0:0:
256,192,66630,1,4,0:0:0:0:
256,192,66780,1,0,0:0:0:0:
256,192,66930,1,8,0:0:0:0:
256,192,67005,1,8,0:0:0:0:
256,192,67080,1,8,0:0:0:0:
256,192,67380,1,12,0:0:0:0:
256,192,67830,1,4,0:0:0:0:
256,192,68280,1,12,0:0:0:0:
256,192,68580,1,12,0:0:0:0:
256,192,69030,1,4,0:0:0:0:
256,192,69330,1,8,0:0:0:0:
256,192,69405,1,8,0:0:0:0:
256,192,69480,1,8,0:0:0:0:
256,192,69630,1,0,0:0:0:0:
256,192,69780,1,12,0:0:0:0:
256,192,70230,1,4,0:0:0:0:
256,192,70680,1,12,0:0:0:0:
256,192,71130,1,12,0:0:0:0:
256,192,71430,1,4,0:0:0:0:
256,192,71730,1,8,0:0:0:0:
256,192,71805,1,8,0:0:0:0:
256,192,71880,1,8,0:0:0:0:
256,192,72030,1,0,0:0:0:0:
256,192,72180,1,12,0:0:0:0:
256,192,72630,1,4,0:0:0:0:
256,192,73080,1,12,0:0:0:0:
256,192,73380,1,12,0:0:0:0:
256,192,73830,1,4,0:0:0:0:
256,192,74130,1,8,0:0:0:0:
256,192,74205,1,8,0:0:0:0:
256,192,74280,1,8,0:0:0:0:
256,192,74430,1,0,0:0:0:0:
256,192,74580,1,12,0:0:0:0:
256,192,75030,1,4,0:0:0:0:
256,192,75480,1,12,0:0:0:0:
256,192,75780,1,8,0:0:0:0:
256,192,75855,1,8,0:0:0:0:
256,192,75930,1,8,0:0:0:0:
256,192,76080,1,0,0:0:0:0:
256,192,76230,1,12,0:0:0:0:
256,192,76680,1,8,0:0:0:0:
256,192,76830,1,0,0:0:0:0:
256,192,77130,1,8,0:0:0:0:
256,192,77430,1,8,0:0:0:0:
256,192,77880,1,8,0:0:0:0:
256,192,78180,1,0,0:0:0:0:
256,192,78330,1,0,0:0:0:0:
256,192,78405,1,0,0:0:0:0:
256,192,78480,1,0,0:0:0:0:
256,192,78630,1,8,0:0:0:0:
256,192,78930,1,0,0:0:0:0:
256,192,79530,1,8,0:0:0:0:
256,192,79830,1,8,0:0:0:0:
256,192,80280,1,8,0:0:0:0:
256,192,80580,1,0,0:0:0:0:
256,192,80730,1,0,0:0:0:0:
256,192,80805,1,0,0:0:0:0:
256,192,80880,1,0,0:0:0:0:
256,192,81030,1,8,0:0:0:0:
256,192,81180,1,8,0:0:0:0:
256,192,81330,1,0,0:0:0:0:
256,192,81930,1,8,0:0:0:0:
256,192,82230,1,8,0:0:0:0:
256,192,82680,1,8,0:0:0:0:
256,192,82980,1,0,0:0:0:0:
256,192,83130,1,0,0:0:0:0:
256,192,83205,1,0,0:0:0:0:
256,192,83280,1,0,0:0:0:0:
256,192,83430,1,8,0:0:0:0:
256,192,83730,1,0,0:0:0:0:
256,192,84330,1,8,0:0:0:0:
256,192,84630,1,8,0:0:0:0:
256,192,85080,1,8,0:0:0:0:
256,192,85380,1,0,0:0:0:0:
256,192,85530,1,0,0:0:0:0:
256,192,85605,1,0,0:0:0:0:
256,192,85680,1,0,0:0:0:0:
256,192,85830,1,8,0:0:0:0:
256,192,85980,1,8,0:0:0:0:
256,192,86130,1,0,0:0:0:0:
256,192,86430,1,8,0:0:0:0:
256,192,86730,1,0,0:0:0:0:
256,192,87030,1,8,0:0:0:0:
256,192,87480,1,8,0:0:0:0:
256,192,87780,1,0,0:0:0:0:
256,192,87930,1,0,0:0:0:0:
256,192,88005,1,0,0:0:0:0:
256,192,88080,1,0,0:0:0:0:
256,192,88230,1,8,0:0:0:0:
256,192,88530,1,0,0:0:0:0:
256,192,88830,1,8,0:0:0:0:
256,192,88905,1,8,0:0:0:0:
256,192,88980,1,8,0:0:0:0:
256,192,89130,1,0,0:0:0:0:
256,192,89430,1,8,0:0:0:0:
256,192,89880,1,8,0:0:0:0:
256,192,90180,1,0,0:0:0:0:
256,192,90330,1,0,0:0:0:0:
256,192,90405,1,0,0:0:0:0:
256,192,90480,1,0,0:0:0:0:
256,192,90630,1,8,0:0:0:0:
256,192,90780,1,8,0:0:0:0:
256,192,90930,1,0,0:0:0:0:
256,192,91230,1,8,0:0:0:0:
256,192,91305,1,8,0:0:0:0:
256,192,91380,1,8,0:0:0:0:
256,192,91530,1,0,0:0:0:0:
256,192,91830,1,8,0:0:0:0:
256,192,92280,1,8,0:0:0:0:
256,192,92580,1,0,0:0:0:0:
256,192,92730,1,0,0:0:0:0:
256,192,92805,1,0,0:0:0:0:
256,192,92880,1,0,0:0:0:0:
256,192,93030,1,8,0:0:0:0:
256,192,93330,1,0,0:0:0:0:
256,192,93630,1,8,0:0:0:0:
256,192,93705,1,8,0:0:0:0:
256,192,93780,1,8,0:0:0:0:
256,192,93930,1,0,0:0:0:0:
256,192,94230,1,8,0:0:0:0:
256,192,94680,1,8,0:0:0:0:
256,192,94980,1,0,0:0:0:0:
256,192,95130,1,0,0:0:0:0:
256,192,95205,1,0,0:0:0:0:
256,192,95280,1,0,0:0:0:0:
256,192,95430,1,8,0:0:0:0:
256,192,95580,1,8,0:0:0:0:
256,192,95730,1,0,0:0:0:0:
256,192,96030,1,8,0:0:0:0:
256,192,96330,1,0,0:0:0:0:
256,192,96630,1,8,0:0:0:0:
256,192,96780,1,0,0:0:0:0:
256,192,96855,1,0,0:0:0:0:
256,192,96930,1,0,0:0:0:0:
256,192,97080,1,8,0:0:0:0:
256,192,97530,1,0,0:0:0:0:
256,192,97680,1,0,0:0:0:0:
256,192,97830,1,8,0:0:0:0:
256,192,98130,1,0,0:0:0:0:
256,192,98430,1,8,0:0:0:0:
256,192,98730,1,0,0:0:0:0:
256,192,99030,1,8,0:0:0:0:
256,192,99180,1,0,0:0:0:0:
256,192,99255,1,0,0:0:0:0:
256,192,99330,1,0,0:0:0:0:
256,192,99480,1,8,0:0:0:0:
256,192,99930,1,0,0:0:0:0:
256,192,100080,1,0,0:0:0:0:
256,192,100230,1,8,0:0:0:0:
256,192,100380,1,8,0:0:0:0:
256,192,100530,1,0,0:0:0:0:
256,192,100830,1,8,0:0:0:0:
256,192,101130,1,0,0:0:0:0:
256,192,101430,1,8,0:0:0:0:
256,192,101580,1,0,0:0:0:0:
256,192,101655,1,0,0:0:0:0:
256,192,101730,1,0,0:0:0:0:
256,192,101880,1,8,0:0:0:0:
256,192,102330,1,0,0:0:0:0:
256,192,102480,1,0,0:0:0:0:
256,192,102630,1,8,0:0:0:0:
256,192,102930,1,0,0:0:0:0:
256,192,103230,1,8,0:0:0:0:
256,192,103530,1,0,0:0:0:0:
256,192,103830,1,8,0:0:0:0:
256,192,103980,1,0,0:0:0:0:
256,192,104055,1,0,0:0:0:0:
256,192,104130,1,0,0:0:0:0:
256,192,104280,1,8,0:0:0:0:
256,192,104730,1,0,0:0:0:0:
256,192,104880,1,0,0:0:0:0:
256,192,105030,1,8,0:0:0:0:
256,192,105180,1,8,0:0:0:0:
256,192,105330,1,0,0:0:0:0:
256,192,105630,1,8,0:0:0:0:
256,192,105930,1,0,0:0:0:0:
256,192,106230,1,8,0:0:0:0:
256,192,106380,1,0,0:0:0:0:
256,192,106455,1,0,0:0:0:0:
256,192,106530,1,0,0:0:0:0:
256,192,106680,1,8,0:0:0:0:
256,192,107130,1,8,0:0:0:0:
256,192,107280,1,0,0:0:0:0:
256,192,107430,1,8,0:0:0:0:
256,192,107730,1,0,0:0:0:0:
256,192,108030,1,8,0:0:0:0:
256,192,108105,1,8,0:0:0:0:
256,192,108180,1,8,0:0:0:0:
256,192,108330,1,0,0:0:0:0:
256,192,108630,1,8,0:0:0:0:
256,192,108780,1,0,0:0:0:0:
256,192,108855,1,0,0:0:0:0:
256,192,108930,1,0,0:0:0:0:
256,192,109080,1,8,0:0:0:0:
256,192,109530,1,8,0:0:0:0:
256,192,109680,1,0,0:0:0:0:
256,192,109830,1,8,0:0:0:0:
256,192,109980,1,8,0:0:0:0:
256,192,110130,1,0,0:0:0:0:
256,192,110430,1,8,0:0:0:0:
256,192,110505,1,8,0:0:0:0:
256,192,110580,1,8,0:0:0:0:
256,192,110730,1,0,0:0:0:0:
256,192,111030,1,8,0:0:0:0:
256,192,111180,1,0,0:0:0:0:
256,192,111255,1,0,0:0:0:0:
256,192,111330,1,0,0:0:0:0:
256,192,111480,1,8,0:0:0:0:
256,192,111930,1,8,0:0:0:0:
256,192,112080,1,0,0:0:0:0:
256,192,112230,1,8,0:0:0:0:
256,192,112530,1,0,0:0:0:0:
256,192,112830,1,8,0:0:0:0:
256,192,112905,1,8,0:0:0:0:
256,192,112980,1,8,0:0:0:0:
256,192,113130,1,0,0:0:0:0:
256,192,113430,1,8,0:0:0:0:
256,192,113580,1,0,0:0:0:0:
256,192,113655,1,0,0:0:0:0:
256,192,113730,1,0,0:0:0:0:
256,192,113880,1,8,0:0:0:0:
256,192,114180,1,8,0:0:0:0:
256,192,114255,1,8,0:0:0:0:
256,192,114330,1,8,0:0:0:0:
256,192,114480,1,0,0:0:0:0:
256,192,114630,1,8,0:0:0:0:
256,192,114780,1,8,0:0:0:0:
256,192,114930,1,0,0:0:0:0:
256,192,115230,1,8,0:0:0:0:
256,192,115530,1,8,0:0:0:0:
256,192,115680,1,8,0:0:0:0:
256,192,115980,1,8,0:0:0:0:
256,192,116280,1,8,0:0:0:0:
256,192,116430,1,0,0:0:0:0:
256,192,116730,1,0,0:0:0:0:
256,192,117030,1,8,0:0:0:0:
256,192,117630,1,8,0:0:0:0:
256,192,117930,1,8,0:0:0:0:
256,192,118080,1,8,0:0:0:0:
256,192,118380,1,8,0:0:0:0:
256,192,118680,1,8,0:0:0:0:
256,192,118830,1,0,0:0:0:0:
256,192,119130,1,0,0:0:0:0:
256,192,119430,1,8,0:0:0:0:
256,192,119730,1,0,0:0:0:0:
256,192,120030,1,8,0:0:0:0:
256,192,120330,1,8,0:0:0:0:
256,192,120480,1,8,0:0:0:0:
256,192,120780,1,8,0:0:0:0:
256,192,121080,1,8,0:0:0:0:
256,192,121230,1,0,0:0:0:0:
256,192,121530,1,0,0:0:0:0:
256,192,121830,1,8,0:0:0:0:
256,192,122430,1,8,0:0:0:0:
256,192,122730,1,8,0:0:0:0:
256,192,122880,1,8,0:0:0:0:
256,192,123180,1,8,0:0:0:0:
256,192,123480,1,8,0:0:0:0:
256,192,123630,1,0,0:0:0:0:
256,192,123930,1,0,0:0:0:0:
256,192,124230,1,8,0:0:0:0:
256,192,124380,1,8,0:0:0:0:
256,192,124530,1,0,0:0:0:0:
256,192,124830,1,8,0:0:0:0:
256,192,125130,1,8,0:0:0:0:
256,192,125280,1,8,0:0:0:0:
256,192,125580,1,8,0:0:0:0:
256,192,125880,1,8,0:0:0:0:
256,192,126030,1,0,0:0:0:0:
256,192,126330,1,8,0:0:0:0:
256,192,126630,1,8,0:0:0:0:
256,192,127230,1,8,0:0:0:0:
256,192,127530,1,8,0:0:0:0:
256,192,127680,1,8,0:0:0:0:
256,192,127980,1,8,0:0:0:0:
256,192,128280,1,8,0:0:0:0:
256,192,128430,1,0,0:0:0:0:
256,192,128730,1,8,0:0:0:0:
256,192,129030,1,0,0:0:0:0:
256,192,129330,1,0,0:0:0:0:
256,192,129630,1,8,0:0:0:0:
256,192,129930,1,8,0:0:0:0:
256,192,130080,1,8,0:0:0:0:
256,192,130380,1,8,0:0:0:0:
256,192,130680,1,8,0:0:0:0:
256,192,130830,1,0,0:0:0:0:
256,192,131130,1,8,0:0:0:0:
256,192,131430,1,8,0:0:0:0:
256,192,132030,1,8,0:0:0:0:
256,192,132330,1,8,0:0:0:0:
256,192,132480,1,8,0:0:0:0:
256,192,132780,1,8,0:0:0:0:
256,192,133080,1,8,0:0:0:0:
256,192,133230,1,0,0:0:0:0:
256,192,133530,1,0,0:0:0:0:
256,192,133830,1,8,0:0:0:0:
256,192,133980,1,8,0:0:0:0:
256,192,134130,1,0,0:0:0:0:
256,192,134430,1,12,0:0:0:0:
256,192,136830,1,8,0:0:0:0:
256,192,139230,1,0,0:0:0:0:
256,192,141630,1,8,0:0:0:0:
256,192,144030,1,0,0:0:0:0:
256,192,146430,1,8,0:0:0:0:
256,192,148830,1,8,0:0:0:0:
256,192,151230,1,8,0:0:0:0:
256,192,153630,1,4,0:0:0:0:
256,192,153930,1,8,0:0:0:0:
256,192,154230,1,8,0:0:0:0:
256,192,154380,1,8,0:0:0:0:
256,192,154530,1,0,0:0:0:0:
256,192,154830,1,8,0:0:0:0:
256,192,155280,1,8,0:0:0:0:
256,192,155430,1,0,0:0:0:0:
256,192,155730,1,8,0:0:0:0:
256,192,156030,1,8,0:0:0:0:
256,192,156330,1,0,0:0:0:0:
256,192,156630,1,0,0:0:0:0:
256,192,156780,1,0,0:0:0:0:
256,192,156930,1,8,0:0:0:0:
256,192,157230,1,0,0:0:0:0:
256,192,157680,1,0,0:0:0:0:
256,192,157830,1,8,0:0:0:0:
256,192,158130,1,0,0:0:0:0:
256,192,158430,1,0,0:0:0:0:
256,192,158730,1,8,0:0:0:0:
256,192,159030,1,0,0:0:0:0:
256,192,159180,1,0,0:0:0:0:
256,192,159330,1,8,0:0:0:0:
256,192,159630,1,0,0:0:0:0:
256,192,160080,1,8,0:0:0:0:
256,192,160230,1,8,0:0:0:0:
256,192,160530,1,0,0:0:0:0:
256,192,160830,1,8,0:0:0:0:
256,192,161130,1,0,0:0:0:0:
256,192,161430,1,8,0:0:0:0:
256,192,161580,1,8,0:0:0:0:
256,192,161730,1,0,0:0:0:0:
256,192,162030,1,8,0:0:0:0:
256,192,162480,1,0,0:0:0:0:
256,192,162630,1,0,0:0:0:0:
256,192,162930,1,8,0:0:0:0:
256,192,163230,1,4,0:0:0:0:
256,192,163530,1,8,0:0:0:0:
256,192,163680,1,0,0:0:0:0:
256,192,164130,1,0,0:0:0:0:
256,192,164580,1,0,0:0:0:0:
256,192,164730,1,0,0:0:0:0:
256,192,164880,1,8,0:0:0:0:
256,192,165030,1,8,0:0:0:0:
256,192,165330,1,8,0:0:0:0:
256,192,165630,1,0,0:0:0:0:
256,192,165930,1,0,0:0:0:0:
256,192,166080,1,8,0:0:0:0:
256,192,166530,1,8,0:0:0:0:
256,192,166980,1,8,0:0:0:0:
256,192,167130,1,8,0:0:0:0:
256,192,167280,1,0,0:0:0:0:
256,192,167430,1,0,0:0:0:0:
256,192,167730,1,0,0:0:0:0:
256,192,168030,1,8,0:0:0:0:
256,192,168180,1,0,0:0:0:0:
256,192,168330,1,8,0:0:0:0:
256,192,168480,1,8,0:0:0:0:
256,192,168630,1,0,0:0:0:0:
256,192,168930,1,0,0:0:0:0:
256,192,169230,1,0,0:0:0:0:
256,192,169380,1,8,0:0:0:0:
256,192,169530,1,8,0:0:0:0:
256,192,169680,1,0,0:0:0:0:
256,192,169830,1,8,0:0:0:0:
256,192,170130,1,8,0:0:0:0:
256,192,170430,1,8,0:0:0:0:
256,192,170505,1,8,0:0:0:0:
256,192,170580,1,8,0:0:0:0:
256,192,170730,1,0,0:0:0:0:
256,192,170880,1,0,0:0:0:0:
256,192,171030,1,8,0:0:0:0:
256,192,171330,1,0,0:0:0:0:
256,192,171480,1,8,0:0:0:0:
256,192,171630,1,0,0:0:0:0:
256,192,171780,1,8,0:0:0:0:
256,192,171855,1,8,0:0:0:0:
256,192,171930,1,8,0:0:0:0:
256,192,172080,1,8,0:0:0:0:
256,192,172230,1,0,0:0:0:0:
256,192,172305,1,0,0:0:0:0:
256,192,172380,1,0,0:0:0:0:
256,192,172530,1,8,0:0:0:0:
256,192,172680,1,0,0:0:0:0:
256,192,173430,1,8,0:0:0:0:
256,192,173880,1,0,0:0:0:0:
256,192,174030,1,12,0:0:0:0:
256,192,174180,8,0,175680,0:0:0:0:
253,168,176130,5,8,0:0:0:0:
253,168,176430,1,12,0:0:0:0:
253,168,177630,1,4,0:0:0:0:
253,168,177780,1,8,0:0:0:0:
253,168,177930,1,8,0:0:0:0:
253,168,178080,1,8,0:0:0:0:
253,168,178230,1,8,0:0:0:0:
253,168,178380,1,8,0:0:0:0:
253,168,178530,1,8,0:0:0:0:
253,168,178680,1,8,0:0:0:0:
253,168,178830,1,12,0:0:0:0:
253,168,178980,2,4,P|452:112|361:336,2,525.000020027161
256,192,180930,1,8,0:0:0:0:
256,192,181230,1,12,0:0:0:0:
256,192,182430,1,4,0:0:0:0:
256,192,183030,1,8,0:0:0:0:
256,192,183480,1,0,0:0:0:0:
256,192,183630,1,12,0:0:0:0:
256,192,183780,8,0,185580,0:0:0:0:
256,192,186030,5,12,0:0:0:0:
256,192,187230,1,4,0:0:0:0:
253,168,188280,1,0,0:0:0:0:
253,168,188430,1,12,0:0:0:0:
253,168,188580,2,4,P|452:112|361:336,2,525.000020027161
256,192,190530,1,8,0:0:0:0:
256,192,190830,1,12,0:0:0:0:
256,192,192630,5,8,0:0:0:0:
256,192,193080,1,0,0:0:0:0:
256,192,193230,1,12,0:0:0:0:
256,192,193380,8,0,194880,0:0:0:0:
253,168,195330,5,8,0:0:0:0:
253,168,195630,1,12,0:0:0:0:
253,168,196830,1,4,0:0:0:0:
253,168,196980,1,8,0:0:0:0:
253,168,197130,1,8,0:0:0:0:
253,168,197280,1,8,0:0:0:0:
253,168,197430,1,8,0:0:0:0:
253,168,197580,1,8,0:0:0:0:
253,168,197730,1,8,0:0:0:0:
253,168,197880,1,0,0:0:0:0:
253,168,198030,1,12,0:0:0:0:
253,168,198180,2,4,P|452:112|361:336,2,525.000020027161
256,192,200130,1,8,0:0:0:0:
256,192,200430,1,12,0:0:0:0:
256,192,201630,1,4,0:0:0:0:
256,192,202230,1,8,0:0:0:0:
256,192,202680,1,0,0:0:0:0:
256,192,202830,1,12,0:0:0:0:
256,192,202980,8,0,204780,0:0:0:0:
256,192,205230,5,12,0:0:0:0:
256,192,206430,1,4,0:0:0:0:
256,192,206580,1,8,0:0:0:0:
256,192,206730,1,8,0:0:0:0:
256,192,206880,1,8,0:0:0:0:
256,192,207030,1,8,0:0:0:0:
256,192,207180,1,8,0:0:0:0:
256,192,207330,1,8,0:0:0:0:
253,168,207480,1,0,0:0:0:0:
253,168,207630,1,12,0:0:0:0:
253,168,207780,2,4,P|452:112|361:336,2,525.000020027161
256,192,209730,1,8,0:0:0:0:
256,192,210030,1,12,0:0:0:0:
256,192,211230,1,12,0:0:0:0:
256,192,211380,8,0,220830,0:0:0:0:
