osu file format v14

[General]
AudioFilename: audio.mp3
AudioLeadIn: 0
PreviewTime: 37605
Countdown: 0
SampleSet: Normal
StackLeniency: 0.7
Mode: 1
LetterboxInBreaks: 0
StoryFireInFront: 0
EpilepsyWarning: 1
WidescreenStoryboard: 1

[Editor]
Bookmarks: 38580,39480,39780,40530,40980,41880,42330,42630,43380,44280,44580,45330,45780,46680,47130,47430,48180,49080,49380,50130,50580,51480,51930,52230,52980,53430,53880,54180,54630,55380,56280,57780,58680,58980,59730,60180,61080,61530,61830,62580,63480,63780,64530,64980,65880,66330,66630,67380,68280,68580,69330,69780,70680,71130,71430,72180,73080,73380,74130,74580,75480,75780,115230,153630
DistanceSpacing: 0.9
BeatDivisor: 8
GridSize: 32
TimelineZoom: 3.599999

[Metadata]
Title:dragonlands
TitleUnicode:dragonlands
Artist:sakuraburst
ArtistUnicode:sakuraburst
Creator:Faputa
Version:-GN Jr.'s Inner Oni
Source:osu!
Tags:-GN Jr. Junior featured artist fa experimental SV neurofunk storyboard glitch
BeatmapID:1956858
BeatmapSetID:935765

[Difficulty]
HPDrainRate:5.5
CircleSize:10
OverallDifficulty:6.2
ApproachRate:10
SliderMultiplier:1.4
SliderTickRate:1

[Events]
//Background and Video events
0,0,"dragon.jpg",0,0
//Break Periods
//Storyboard Layer 0 (Background)
//Storyboard Layer 1 (Fail)
//Storyboard Layer 2 (Pass)
//Storyboard Layer 3 (Foreground)
//Storyboard Sound Samples

[TimingPoints]
30,300,4,1,0,75,1,0
30,-111.111111111111,4,1,0,75,0,0
18630,-111.111111111111,4,1,0,75,0,0
18780,-114.252026259686,4,1,0,75,0,0
18930,-117.575821708024,4,1,0,75,0,0
19080,-121.098655441629,4,1,0,75,0,0
19230,-124.839113592358,4,1,0,75,0,0
28230,-125,4,1,0,80,0,0
28830,-125,4,1,0,85,0,0
36030,-125,4,1,0,90,0,0
36180,-122.144714614982,4,1,0,90,0,0
36480,-116.808238251427,4,1,0,90,0,0
36630,-114.31118935077,4,1,0,90,0,0
36930,-109.624120814551,4,1,0,90,0,0
37080,-107.421885490419,4,1,0,90,0,0
37380,-103.272498946621,4,1,0,90,0,0
37530,-101.315788140582,4,1,0,90,0,0
37680,-99.4318464295018,4,1,0,90,0,0
37830,-97.6165932589885,4,1,0,90,0,0
37980,-95.866523122526,4,1,0,90,0,0
38130,-94.1780983181675,4,1,0,90,0,0
38280,-92.5481180802929,4,1,0,90,0,0
38430,-90.9090909090909,4,1,0,95,0,1
47955,-90.9090909090909,4,1,0,95,0,0
48180,-90.9090909090909,4,1,0,95,0,1
57480,-90.9090909090909,4,1,0,95,0,0
57780,-90.9090909090909,4,1,0,95,0,1
66630,-90.9090909090909,4,1,0,95,0,0
67380,-90.9090909090909,4,1,0,95,0,1
76830,-90.9090909090909,4,1,0,95,0,0
76980,-100,4,1,0,60,0,0
77130,-100,4,1,0,60,0,0
77430,-99.921361888194,4,1,0,60,0,0
77730,-99.8427476724159,4,1,0,60,0,0
77880,-99.803586541686,4,1,0,60,0,0
78180,-99.7252569171931,4,1,0,60,0,0
78330,-99.6860885072905,4,1,0,60,0,0
78480,-99.6469508531274,4,1,0,60,0,0
78630,-99.6079431358174,4,1,0,60,0,0
78930,-99.5298211250055,4,1,0,60,0,0
79080,-99.4909050389159,4,1,0,60,0,0
79530,-99.3741416558515,4,1,0,60,0,0
79830,-99.2964844079695,4,1,0,60,0,0
80130,-99.2188499939973,4,1,0,60,0,0
80280,-99.1801766597307,4,1,0,60,0,0
80580,-99.1027239374702,4,1,0,60,0,0
80730,-99.0641410594117,4,1,0,60,0,0
80880,-99.0254901514199,4,1,0,60,0,0
81030,-98.9868693917752,4,1,0,60,0,0
81180,-98.9483766529326,4,1,0,60,0,0
81330,-98.9098160079603,4,1,0,60,0,0
81480,-98.8713831612147,4,1,0,60,0,0
81930,-98.756068560413,4,1,0,63,0,0
82230,-98.6792765624877,4,1,0,63,0,0
82530,-98.6027011223945,4,1,0,63,0,0
82680,-98.5644093774179,4,1,0,63,0,0
82980,-98.4880120391746,4,1,0,63,0,0
83130,-98.4499062264643,4,1,0,63,0,0
83280,-98.41173304046,4,1,0,63,0,0
83430,-98.3735894456944,4,1,0,63,0,0
83730,-98.2974875162191,4,1,0,63,0,0
83880,-98.2594324142146,4,1,0,63,0,0
84330,-98.1455400212976,4,1,0,63,0,0
84630,-98.06979038563,4,1,0,63,0,0
84930,-97.9941575883246,4,1,0,63,0,0
85080,-97.9563369423713,4,1,0,63,0,0
85380,-97.8808789702932,4,1,0,63,0,0
85530,-97.8431456962714,4,1,0,63,0,0
85680,-97.8055371626809,4,1,0,63,0,0
85830,-97.7678619439575,4,1,0,63,0,0
85980,-97.7302157394512,4,1,0,63,0,0
86130,-97.6926939541899,4,1,0,63,0,0
86280,-97.6551056042312,4,1,0,63,0,0
86730,-97.5426090501984,4,1,0,66,0,0
87030,-97.4677868964307,4,1,0,66,0,0
87330,-97.393079442561,4,1,0,66,0,0
87480,-97.3557212549931,4,1,0,66,0,0
87780,-97.2811854296132,4,1,0,66,0,0
87930,-97.2439130172647,4,1,0,66,0,0
88080,-97.2067636466145,4,1,0,66,0,0
88230,-97.1695482296194,4,1,0,66,0,0
88530,-97.09529709219,4,1,0,66,0,0
88680,-97.0581669594588,4,1,0,66,0,0
89130,-96.9470407400549,4,1,0,66,0,0
89430,-96.8731291376935,4,1,0,66,0,0
89730,-96.7993301486354,4,1,0,66,0,0
89880,-96.7624259888394,4,1,0,66,0,0
90180,-96.6887955089988,4,1,0,66,0,0
90330,-96.6519755663806,4,1,0,66,0,0
90480,-96.6151836558026,4,1,0,66,0,0
90630,-96.5785130192664,4,1,0,66,0,0
90780,-96.5417770058726,4,1,0,66,0,0
90930,-96.5050689287455,4,1,0,66,0,0
91080,-96.4684818176205,4,1,0,66,0,0
91530,-96.3587010461664,4,1,0,69,0,0
91830,-96.2856834742956,4,1,0,69,0,0
92130,-96.2126839105453,4,1,0,69,0,0
92280,-96.1763181204839,4,1,0,69,0,0
92580,-96.1034842318208,4,1,0,69,0,0
92730,-96.0672009283934,4,1,0,69,0,0
92880,-96.0308527923851,4,1,0,69,0,0
93030,-95.9946243010391,4,1,0,69,0,0
93330,-95.9220652404335,4,1,0,69,0,0
93480,-95.885918769285,4,1,0,69,0,0
93930,-95.777459158097,4,1,0,69,0,0
94230,-95.7052278980739,4,1,0,69,0,0
94530,-95.6331969603945,4,1,0,69,0,0
94680,-95.5972678300854,4,1,0,69,0,0
94980,-95.5253079974743,4,1,0,69,0,0
95130,-95.4894598734192,4,1,0,69,0,0
95280,-95.453547531094,4,1,0,69,0,0
95430,-95.4176621909422,4,1,0,69,0,0
95580,-95.381894799493,4,1,0,69,0,0
95730,-95.3460633040653,4,1,0,69,0,0
95880,-95.3102587196973,4,1,0,69,0,0
96030,-95.2745717884371,4,1,0,72,0,0
96330,-95.2031874027142,4,1,0,72,0,0
96630,-95.1318194055593,4,1,0,72,0,0
96930,-95.0606486938667,4,1,0,72,0,0
97080,-95.025058107823,4,1,0,72,0,0
97230,-94.9895843920714,4,1,0,72,0,0
97380,-94.9540469889597,4,1,0,72,0,0
97530,-94.9185361663352,4,1,0,72,0,0
97680,-94.8831419224084,4,1,0,72,0,0
97830,-94.8476841040972,4,1,0,72,0,0
98130,-94.7769377381863,4,1,0,72,0,0
98280,-94.7415592376336,4,1,0,72,0,0
98430,-94.7062968322638,4,1,0,72,0,0
98730,-94.635671591507,4,1,0,72,0,0
99030,-94.5652410326146,4,1,0,72,0,0
99330,-94.4949152286116,4,1,0,72,0,0
99480,-94.459746923446,4,1,0,72,0,0
99630,-94.4246939459607,4,1,0,72,0,0
99780,-94.3895778803688,4,1,0,72,0,0
99930,-94.3544879240409,4,1,0,72,0,0
100080,-94.3195130094904,4,1,0,72,0,0
100230,-94.284475118327,4,1,0,72,0,0
100380,-94.2494632493068,4,1,0,72,0,0
100530,-94.2145661372122,4,1,0,72,0,0
100680,-94.179606159723,4,1,0,72,0,0
100830,-94.1446721176432,4,1,0,72,0,0
101130,-94.0749702252719,4,1,0,75,0,0
101430,-94.0053714669256,4,1,0,75,0,0
101730,-93.9358756138709,4,1,0,75,0,0
101880,-93.9011221184093,4,1,0,75,0,0
102030,-93.8663943289679,4,1,0,75,0,0
102180,-93.8317802609837,4,1,0,75,0,0
102330,-93.7971037330309,4,1,0,75,0,0
102480,-93.7624528257659,4,1,0,75,0,0
102630,-93.7279153599433,4,1,0,75,0,0
102930,-93.6588289836612,4,1,0,75,0,0
103080,-93.624280146316,4,1,0,75,0,0
103230,-93.589756788299,4,1,0,75,0,0
103530,-93.5208738590453,4,1,0,75,0,0
103830,-93.4520922521674,4,1,0,75,0,0
104130,-93.3833245397369,4,1,0,75,0,0
104280,-93.3490657625499,4,1,0,75,0,0
104430,-93.3147450361221,4,1,0,75,0,0
104580,-93.2805365496462,4,1,0,75,0,0
104730,-93.2462661863862,4,1,0,75,0,0
104880,-93.2120209950756,4,1,0,75,0,0
105030,-93.1778877690978,4,1,0,75,0,0
105180,-93.1436927748438,4,1,0,75,0,0
105330,-93.109522869561,4,1,0,75,0,0
105480,-93.0754646559884,4,1,0,75,0,0
105630,-93.0413447823809,4,1,0,75,0,0
105930,-92.9732664669601,4,1,0,78,0,0
106230,-92.9052877044497,4,1,0,78,0,0
106530,-92.8373220888769,4,1,0,78,0,0
106680,-92.8034626827996,4,1,0,78,0,0
106830,-92.7695419040021,4,1,0,78,0,0
106980,-92.7356459130474,4,1,0,78,0,0
107130,-92.7018606190445,4,1,0,78,0,0
107280,-92.6680140595911,4,1,0,78,0,0
107430,-92.6341922066854,4,1,0,78,0,0
107730,-92.5667081982631,4,1,0,78,0,0
107880,-92.5330458640042,4,1,0,78,0,0
108030,-92.4993224424631,4,1,0,78,0,0
108330,-92.4320347248668,4,1,0,78,0,0
108630,-92.3647595191121,4,1,0,78,0,0
108930,-92.2976673610528,4,1,0,78,0,0
109080,-92.2641152563328,4,1,0,78,0,0
109230,-92.230672601403,4,1,0,78,0,0
109380,-92.1971691781175,4,1,0,78,0,0
109530,-92.1637750282252,4,1,0,78,0,0
109680,-92.1303201805017,4,1,0,78,0,0
109830,-92.0968896117471,4,1,0,78,0,0
109980,-92.0635680524689,4,1,0,78,0,0
110130,-92.0301859009755,4,1,0,78,0,0
110280,-91.9968279493723,4,1,0,78,0,0
110430,-91.9635787442741,4,1,0,78,0,0
110730,-91.8969834815172,4,1,0,78,0,0
111030,-91.8305689271067,4,1,0,78,0,0
111330,-91.7642502998397,4,1,0,78,0,0
111480,-91.7310848209822,4,1,0,78,0,0
111630,-91.6980273920347,4,1,0,78,0,0
111780,-91.6649097558963,4,1,0,78,0,0
111930,-91.6318160326356,4,1,0,78,0,0
112080,-91.598830099742,4,1,0,78,0,0
112230,-91.5657840640741,4,1,0,78,0,0
112530,-91.4998471952552,4,1,0,78,0,0
112680,-91.4668725281078,4,1,0,78,0,0
112830,-91.4340052208817,4,1,0,78,0,0
113130,-91.3681744547376,4,1,0,78,0,0
113430,-91.3025217756515,4,1,0,78,0,0
113730,-91.2369633783953,4,1,0,78,0,0
113880,-91.2041778809804,4,1,0,78,0,0
114030,-91.1714159376752,4,1,0,78,0,0
114180,-91.138760585767,4,1,0,78,0,0
114330,-91.1060456149749,4,1,0,80,0,0
114480,-91.0734370659782,4,1,0,80,0,0
114630,-91.040768966751,4,1,0,80,0,0
114780,-91.0081242952558,4,1,0,80,0,0
114930,-90.9755857917969,4,1,0,80,0,0
115080,-90.9429878409225,4,1,0,80,0,0
115230,-90.9090909090909,4,1,0,75,0,0
115380,-91.2978537700536,4,1,0,75,0,0
115530,-91.6900399860264,4,1,0,75,0,0
115680,-92.0855253525264,4,1,0,75,0,0
115980,-92.8869064758893,4,1,0,75,0,0
116280,-93.702358207249,4,1,0,75,0,0
116430,-94.1155211552868,4,1,0,75,0,0
116580,-94.5322544052031,4,1,0,75,0,0
116730,-94.9527847277941,4,1,0,75,0,0
116880,-95.3769822913557,4,1,0,75,0,0
117030,-95.804987032795,4,1,0,75,0,0
117330,-96.6727183788372,4,1,0,75,0,0
117480,-97.1125524771956,4,1,0,75,0,0
117630,-97.5563119421608,4,1,0,75,0,0
117780,-98.0042416235775,4,1,0,75,0,0
117930,-98.4562066792691,4,1,0,75,0,0
118080,-98.9124575294635,4,1,0,75,0,0
118380,-99.8375642829117,4,1,0,75,0,0
118680,-100.780240622903,4,1,0,75,0,0
118830,-101.258337358352,4,1,0,75,0,0
118980,-101.740888340392,4,1,0,75,0,0
119130,-102.228165086219,4,1,0,75,0,0
119280,-102.720026296327,4,1,0,75,0,0
119430,-103.216750014192,4,1,0,75,0,0
119730,-104.22464162357,4,1,0,75,0,0
119880,-104.735950195961,4,1,0,75,0,0
120030,-105.252300289023,4,1,0,75,0,0
120180,-105.773878717555,4,1,0,75,0,0
120330,-106.300539262636,4,1,0,75,0,0
120480,-106.832584793023,4,1,0,75,0,0
120780,-107.912698626811,4,1,0,75,0,0
121080,-109.014876170002,4,1,0,75,0,0
121230,-109.574391149896,4,1,0,75,0,0
121380,-110.139679141087,4,1,0,75,0,0
121530,-110.710952523822,4,1,0,75,0,0
121680,-111.28805912512,4,1,0,75,0,0
121830,-111.871339010431,4,1,0,75,0,0
122130,-113.056307694047,4,1,0,75,0,0
122280,-113.658191175351,4,1,0,75,0,0
122430,-114.266648079292,4,1,0,75,0,0
122580,-114.881522685654,4,1,0,75,0,0
122730,-115.503183845263,4,1,0,75,0,0
122880,-116.131474765211,4,1,0,75,0,0
123180,-117.408925896182,4,1,0,75,0,0
123480,-118.71479364401,4,1,0,75,0,0
123630,-119.37861045685,4,1,0,75,0,0
123780,-120.050036855361,4,1,0,75,0,0
123930,-120.728912884431,4,1,0,75,0,0
124080,-121.415658006088,4,1,0,75,0,0
124230,-122.110111572009,4,1,0,75,0,0
124380,-122.81255488186,4,1,0,75,0,0
124530,-123.523279197198,4,1,0,75,0,0
124680,-124.242123049399,4,1,0,75,0,0
124830,-125,4,1,0,75,0,0
124980,-125.124029193938,4,1,0,75,0,0
125130,-125.248304764195,4,1,0,75,0,0
125280,-125.372827445616,4,1,0,75,0,0
125580,-125.622774906599,4,1,0,75,0,0
125880,-125.873562523916,4,1,0,75,0,0
126030,-125.999332203539,4,1,0,75,0,0
126180,-126.125353466303,4,1,0,75,0,0
126330,-126.251627067844,4,1,0,75,0,0
126480,-126.378153766827,4,1,0,75,0,0
126630,-126.50509436015,4,1,0,75,0,0
126930,-126.759420760151,4,1,0,75,0,0
127080,-126.886967820196,4,1,0,75,0,0
127230,-127.014771817962,4,1,0,75,0,0
127380,-127.142833530617,4,1,0,75,0,0
127530,-127.271153738463,4,1,0,75,0,0
127680,-127.399733224959,4,1,0,75,0,0
127980,-127.657836148614,4,1,0,75,0,0
128280,-127.916823364775,4,1,0,75,0,0
128430,-128.046711440333,4,1,0,75,0,0
128580,-128.176863563419,4,1,0,75,0,0
128730,-128.30728054002,4,1,0,75,0,0
128880,-128.437963179405,4,1,0,75,0,0
129030,-128.56907759401,4,1,0,75,0,0
129330,-128.831779192637,4,1,0,75,0,0
129480,-128.963532981779,4,1,0,75,0,0
129630,-129.095556530944,4,1,0,75,0,0
129780,-129.227850669465,4,1,0,75,0,0
129930,-129.360416230075,4,1,0,75,0,0
130080,-129.49325404893,4,1,0,75,0,0
130380,-129.759918199348,4,1,0,75,0,0
130680,-130.027513821925,4,1,0,75,0,0
130830,-130.161725944486,4,1,0,75,0,0
130980,-130.296215416127,4,1,0,75,0,0
131130,-130.430983097449,4,1,0,75,0,0
131280,-130.566029852617,4,1,0,75,0,0
131430,-130.701527378049,4,1,0,75,0,0
131730,-130.973024795813,4,1,0,75,0,0
131880,-131.109196916836,4,1,0,75,0,0
132030,-131.245652487761,4,1,0,75,0,0
132180,-131.382392394536,4,1,0,75,0,0
132330,-131.519417526804,4,1,0,75,0,0
132480,-131.656728777923,4,1,0,75,0,0
132780,-131.932387290162,4,1,0,75,0,0
133080,-132.209027761252,4,1,0,75,0,0
133230,-132.347783505496,4,1,0,75,0,0
133380,-132.486830809018,4,1,0,75,0,0
133530,-132.626170591738,4,1,0,75,0,0
133680,-132.765803777453,4,1,0,75,0,0
133830,-132.905907933419,4,1,0,75,0,0
133980,-133.046131085031,4,1,0,75,0,0
134130,-133.186650435654,4,1,0,75,0,0
134280,-133.327466924789,4,1,0,75,0,0
134430,-133.333333333333,4,1,0,50,0,0
153630,-111.111111111111,4,1,0,80,0,0
153930,-111.111111111111,4,1,0,80,0,0
154080,-111.008366700598,4,1,0,80,0,0
154230,-110.90581212999,4,1,0,80,0,0
154380,-110.8035696478,4,1,0,80,0,0
154530,-110.701392955628,4,1,0,80,0,0
154680,-110.599404532806,4,1,0,80,0,0
154980,-110.39611229051,4,1,0,80,0,0
155130,-110.294685340292,4,1,0,80,0,0
155280,-110.193444591981,4,1,0,80,0,0
155430,-110.092389533296,4,1,0,80,0,0
155730,-109.89095520515,4,1,0,80,0,0
156030,-109.69013633387,4,1,0,80,0,0
156330,-109.49016997254,4,1,0,80,0,0
156480,-109.390400117267,4,1,0,80,0,0
156630,-109.290811921442,4,1,0,80,0,0
156780,-109.191524117132,4,1,0,80,0,0
156930,-109.092297538332,4,1,0,80,0,0
157080,-108.99325113789,4,1,0,80,0,0
157380,-108.795815277761,4,1,0,80,0,0
157530,-108.697306263356,4,1,0,80,0,0
157680,-108.598975477265,4,1,0,80,0,0
157830,-108.500822436234,4,1,0,80,0,0
158130,-108.305164965012,4,1,0,80,0,0
158430,-108.11009499634,4,1,0,80,0,0
158730,-107.915842909066,4,1,0,80,0,0
158880,-107.818920279769,4,1,0,80,0,0
159030,-107.722171592802,4,1,0,80,0,0
159180,-107.625712213151,4,1,0,80,0,0
159330,-107.529309801619,4,1,0,80,0,0
159480,-107.433079934509,4,1,0,80,0,0
159780,-107.241250990641,4,1,0,80,0,0
159930,-107.145535781252,4,1,0,80,0,0
160080,-107.049991275426,4,1,0,80,0,0
160230,-106.954617016907,4,1,0,80,0,0
160530,-106.76449141133,4,1,0,80,0,0
160830,-106.574926969531,4,1,0,80,0,0
161130,-106.386147672484,4,1,0,80,0,0
161280,-106.291952104846,4,1,0,80,0,0
161430,-106.197923193414,4,1,0,80,0,0
161580,-106.104060496291,4,1,0,80,0,0
161730,-106.010475955234,4,1,0,80,0,0
161880,-105.91694416906,4,1,0,80,0,0
162180,-105.730374856471,4,1,0,80,0,0
162330,-105.637448052785,4,1,0,80,0,0
162480,-105.54457305637,4,1,0,80,0,0
162630,-105.451861225351,4,1,0,80,0,0
162930,-105.267036153964,4,1,0,80,0,0
163230,-105.263157894737,4,1,0,85,0,0
163530,-105.263157894737,4,1,0,85,0,0
163680,-105.065965666544,4,1,0,85,0,0
163830,-104.869510867627,4,1,0,85,0,0
164130,-104.478797072922,4,1,0,85,0,0
164430,-104.090983847161,4,1,0,85,0,0
164580,-103.898154872668,4,1,0,85,0,0
164730,-103.706039010064,4,1,0,85,0,0
164880,-103.51452515817,4,1,0,85,0,0
165030,-103.323824097389,4,1,0,85,0,0
165330,-102.944522167559,4,1,0,85,0,0
165630,-102.567994888011,4,1,0,85,0,0
165930,-102.194211924225,4,1,0,85,0,0
166080,-102.008340201895,4,1,0,85,0,0
166230,-101.823143382259,4,1,0,85,0,0
166530,-101.454759800783,4,1,0,85,0,0
166830,-101.08903214328,4,1,0,85,0,0
166980,-100.907155326384,4,1,0,85,0,0
167130,-100.725931790414,4,1,0,85,0,0
167280,-100.545256928322,4,1,0,85,0,0
167430,-100.365329800474,4,1,0,85,0,0
167730,-100.007400547641,4,1,0,85,0,0
168030,-100,4,1,0,90,0,0
168330,-99.3640699523052,4,1,0,90,0,0
168480,-99.0491283676704,4,1,0,90,0,0
168630,-98.7361769352291,4,1,0,90,0,0
168780,-98.4251968503937,4,1,0,90,0,0
168930,-98.116169544741,4,1,0,90,0,0
169080,-97.8090766823161,4,1,0,90,0,0
169230,-97.5039001560062,4,1,0,90,0,0
169530,-96.8992248062015,4,1,0,90,0,0
169680,-96.5996908809892,4,1,0,90,0,0
169830,-96.3020030816641,4,1,0,90,0,0
169980,-96.0061443932412,4,1,0,90,0,0
170130,-95.7120980091884,4,1,0,90,0,0
170280,-95.4198473282443,4,1,0,90,0,0
170430,-95.1293759512938,4,1,0,90,0,0
170505,-94.9848024316109,4,1,0,90,0,0
170580,-94.8406676783004,4,1,0,90,0,0
170655,-94.6969696969697,4,1,0,90,0,0
170730,-94.553706505295,4,1,0,90,0,0
170880,-94.2684766214178,4,1,0,90,0,0
170955,-94.1265060240964,4,1,0,90,0,0
171030,-93.984962406015,4,1,0,90,0,0
171105,-93.8438438438438,4,1,0,90,0,0
171180,-93.7031484257871,4,1,0,90,0,0
171330,-93.423019431988,4,1,0,90,0,0
171405,-93.2835820895522,4,1,0,90,0,0
171480,-93.1445603576751,4,1,0,90,0,0
171630,-92.8677563150074,4,1,0,90,0,0
171705,-92.7299703264095,4,1,0,90,0,0
171780,-92.5925925925926,4,1,0,90,0,0
171855,-92.4556213017752,4,1,0,90,0,0
171930,-92.3190546528804,4,1,0,90,0,0
172080,-92.0471281296024,4,1,0,90,0,0
172230,-91.776798825257,4,1,0,90,0,0
172380,-91.5080527086384,4,1,0,90,0,0
172530,-91.2408759124088,4,1,0,90,0,0
172680,-90.9752547307132,4,1,0,90,0,0
173880,-100,4,1,0,90,0,0
174030,-74.0740740740741,4,1,0,95,0,1
174180,-40,4,1,0,95,0,1
176130,-90.9090909090909,4,1,0,95,0,1
176430,-66.6666666666667,4,1,0,95,0,1
176580,-40,4,1,0,95,0,1
177630,-90.9090909090909,4,1,0,95,0,0
178830,-74.0740740740741,4,1,0,95,0,1
178980,-40,4,1,0,95,0,1
180930,-90.9090909090909,4,1,0,95,0,1
181230,-66.6666666666667,4,1,0,95,0,1
181380,-40,4,1,0,95,0,1
182430,-80,4,1,0,95,0,0
183030,-90.9090909090909,4,1,0,95,0,0
183480,-95.2380952380952,4,1,0,95,0,0
183630,-74.0740740740741,4,1,0,95,0,1
183780,-40,4,1,0,95,0,1
185880,-90.9090909090909,4,1,0,95,0,1
186030,-57.1428571428571,4,1,0,95,0,1
186180,-40,4,1,0,95,0,1
187230,-111.111111111111,4,1,0,95,0,0
188430,-74.0740740740741,4,1,0,95,0,1
188580,-40,4,1,0,95,0,1
190530,-90.9090909090909,4,1,0,95,0,1
190830,-83.3333333333333,4,1,0,95,0,0
190980,-66.6666666666667,4,1,0,95,0,0
192630,-90.9090909090909,4,1,0,95,0,0
193080,-100,4,1,0,95,0,0
193230,-74.0740740740741,4,1,0,95,0,1
193380,-40,4,1,0,95,0,1
195330,-90.9090909090909,4,1,0,95,0,1
195630,-66.6666666666667,4,1,0,95,0,1
195780,-40,4,1,0,95,0,1
196830,-90.9090909090909,4,1,0,95,0,0
198030,-74.0740740740741,4,1,0,95,0,1
198180,-40,4,1,0,95,0,1
200130,-90.9090909090909,4,1,0,95,0,1
200430,-66.6666666666667,4,1,0,95,0,1
200580,-40,4,1,0,95,0,1
201630,-80,4,1,0,95,0,0
202230,-90.9090909090909,4,1,0,95,0,0
202680,-100,4,1,0,95,0,0
202830,-74.0740740740741,4,1,0,95,0,1
202980,-40,4,1,0,95,0,1
205080,-90.9090909090909,4,1,0,95,0,1
205230,-57.1428571428571,4,1,0,95,0,1
205380,-40,4,1,0,95,0,1
206430,-90.9090909090909,4,1,0,95,0,0
206580,-94.3396226415094,4,1,0,95,0,0
206730,-98.0392156862745,4,1,0,95,0,0
206880,-102.040816326531,4,1,0,95,0,0
207030,-106.382978723404,4,1,0,95,0,0
207180,-111.111111111111,4,1,0,95,0,0
207330,-116.279069767442,4,1,0,95,0,0
207480,-121.951219512195,4,1,0,95,0,0
207630,-74.0740740740741,4,1,0,95,0,1
207780,-40,4,1,0,95,0,1
209730,-90.9090909090909,4,1,0,95,0,1
210030,-83.3333333333333,4,1,0,95,0,1
210180,-66.6666666666667,4,1,0,95,0,1
211230,-100,4,1,0,95,0,0

[HitObjects]
256,192,30,5,4,0:0:0:0:
256,192,180,1,0,0:0:0:0:
256,192,330,1,2,0:0:0:0:
256,192,480,1,0,0:0:0:0:
256,192,780,1,2,0:0:0:0:
256,192,1080,1,0,0:0:0:0:
256,192,1230,1,2,0:0:0:0:
256,192,1380,1,2,0:0:0:0:
256,192,1530,1,0,0:0:0:0:
256,192,1680,1,0,0:0:0:0:
256,192,1830,1,2,0:0:0:0:
256,192,2130,1,2,0:0:0:0:
256,192,2280,1,6,0:0:0:0:
256,192,2430,1,4,0:0:0:0:
256,192,2580,1,0,0:0:0:0:
256,192,2730,1,2,0:0:0:0:
256,192,2880,1,0,0:0:0:0:
256,192,3180,1,2,0:0:0:0:
256,192,3480,1,0,0:0:0:0:
256,192,3630,1,2,0:0:0:0:
256,192,3780,1,2,0:0:0:0:
256,192,3930,1,0,0:0:0:0:
256,192,4080,1,2,0:0:0:0:
256,192,4230,1,0,0:0:0:0:
256,192,4530,1,0,0:0:0:0:
256,192,4680,1,2,0:0:0:0:
256,192,4830,1,4,0:0:0:0:
256,192,4980,1,0,0:0:0:0:
256,192,5130,1,2,0:0:0:0:
256,192,5280,1,0,0:0:0:0:
256,192,5580,1,2,0:0:0:0:
256,192,5880,1,0,0:0:0:0:
256,192,6030,1,2,0:0:0:0:
256,192,6180,1,2,0:0:0:0:
256,192,6330,1,0,0:0:0:0:
256,192,6480,1,0,0:0:0:0:
256,192,6630,1,2,0:0:0:0:
256,192,6930,1,2,0:0:0:0:
256,192,7080,1,6,0:0:0:0:
256,192,7230,1,4,0:0:0:0:
256,192,7380,1,0,0:0:0:0:
256,192,7530,1,2,0:0:0:0:
256,192,7680,1,0,0:0:0:0:
256,192,7980,1,2,0:0:0:0:
256,192,8280,1,0,0:0:0:0:
256,192,8430,1,2,0:0:0:0:
256,192,8580,1,2,0:0:0:0:
256,192,8730,1,0,0:0:0:0:
256,192,8880,1,2,0:0:0:0:
256,192,9030,1,0,0:0:0:0:
256,192,9180,1,2,0:0:0:0:
256,192,9330,1,0,0:0:0:0:
256,192,9480,1,2,0:0:0:0:
256,192,9630,1,4,0:0:0:0:
256,192,9780,1,0,0:0:0:0:
256,192,9930,1,2,0:0:0:0:
256,192,10080,1,0,0:0:0:0:
256,192,10380,1,2,0:0:0:0:
256,192,10680,1,0,0:0:0:0:
256,192,10830,1,2,0:0:0:0:
256,192,10980,1,2,0:0:0:0:
256,192,11130,1,0,0:0:0:0:
256,192,11280,1,0,0:0:0:0:
256,192,11430,1,2,0:0:0:0:
256,192,11730,1,2,0:0:0:0:
256,192,11880,1,6,0:0:0:0:
256,192,12030,1,4,0:0:0:0:
256,192,12180,1,0,0:0:0:0:
256,192,12330,1,2,0:0:0:0:
256,192,12480,1,0,0:0:0:0:
256,192,12780,1,2,0:0:0:0:
256,192,13080,1,0,0:0:0:0:
256,192,13230,1,2,0:0:0:0:
256,192,13380,1,2,0:0:0:0:
256,192,13530,1,0,0:0:0:0:
256,192,13680,1,2,0:0:0:0:
256,192,13830,1,0,0:0:0:0:
256,192,14130,1,0,0:0:0:0:
256,192,14280,1,2,0:0:0:0:
256,192,14430,1,4,0:0:0:0:
256,192,14580,1,0,0:0:0:0:
256,192,14730,1,2,0:0:0:0:
256,192,14880,1,0,0:0:0:0:
256,192,15180,1,2,0:0:0:0:
256,192,15480,1,0,0:0:0:0:
256,192,15630,1,2,0:0:0:0:
256,192,15780,1,2,0:0:0:0:
256,192,15930,1,0,0:0:0:0:
256,192,16080,1,0,0:0:0:0:
256,192,16230,1,2,0:0:0:0:
256,192,16530,1,2,0:0:0:0:
256,192,16680,1,6,0:0:0:0:
256,192,16830,1,4,0:0:0:0:
256,192,16980,1,0,0:0:0:0:
256,192,17130,1,2,0:0:0:0:
256,192,17280,1,0,0:0:0:0:
256,192,17580,1,2,0:0:0:0:
256,192,17880,1,0,0:0:0:0:
256,192,18030,1,2,0:0:0:0:
256,192,18180,1,2,0:0:0:0:
256,192,18330,1,0,0:0:0:0:
256,192,18480,1,2,0:0:0:0:
256,192,18630,1,0,0:0:0:0:
256,192,18780,1,2,0:0:0:0:
256,192,18930,1,0,0:0:0:0:
256,192,19080,1,2,0:0:0:0:
256,192,19230,1,4,0:0:0:0:
256,192,19380,1,2,0:0:0:0:
256,192,20280,1,2,0:0:0:0:
256,192,20430,1,0,0:0:0:0:
256,192,20730,1,0,0:0:0:0:
256,192,21030,1,2,0:0:0:0:
256,192,21330,1,2,0:0:0:0:
256,192,21480,1,4,0:0:0:0:
256,192,21630,1,4,0:0:0:0:
256,192,21780,1,2,0:0:0:0:
256,192,22230,1,2,0:0:0:0:
256,192,22680,1,2,0:0:0:0:
256,192,23130,1,2,0:0:0:0:
256,192,23430,1,2,0:0:0:0:
256,192,23580,1,2,0:0:0:0:
256,192,23730,1,0,0:0:0:0:
256,192,23880,1,2,0:0:0:0:
256,192,24030,1,4,0:0:0:0:
256,192,24180,1,2,0:0:0:0:
256,192,25080,1,2,0:0:0:0:
256,192,25230,1,0,0:0:0:0:
256,192,25530,1,0,0:0:0:0:
256,192,25830,1,2,0:0:0:0:
256,192,26130,1,2,0:0:0:0:
256,192,26280,1,4,0:0:0:0:
256,192,26430,1,4,0:0:0:0:
256,192,26580,1,2,0:0:0:0:
256,192,27030,1,2,0:0:0:0:
256,192,27480,1,2,0:0:0:0:
256,192,27930,1,2,0:0:0:0:
256,192,28230,1,2,0:0:0:0:
256,192,28380,1,2,0:0:0:0:
256,192,28530,1,0,0:0:0:0:
256,192,28680,1,2,0:0:0:0:
256,192,28830,1,4,0:0:0:0:
256,192,28980,1,2,0:0:0:0:
256,192,29880,1,2,0:0:0:0:
256,192,30030,1,0,0:0:0:0:
256,192,30330,1,0,0:0:0:0:
256,192,30630,1,2,0:0:0:0:
256,192,30930,1,2,0:0:0:0:
256,192,31080,1,0,0:0:0:0:
256,192,31230,1,0,0:0:0:0:
256,192,31380,1,2,0:0:0:0:
256,192,31830,1,2,0:0:0:0:
256,192,32280,1,2,0:0:0:0:
256,192,32730,1,2,0:0:0:0:
256,192,33030,1,2,0:0:0:0:
256,192,33180,1,2,0:0:0:0:
256,192,33330,1,0,0:0:0:0:
256,192,33480,1,2,0:0:0:0:
256,192,33630,1,0,0:0:0:0:
256,192,33780,1,2,0:0:0:0:
256,192,34680,1,2,0:0:0:0:
256,192,34830,1,0,0:0:0:0:
256,192,35130,1,0,0:0:0:0:
256,192,35430,1,2,0:0:0:0:
256,192,35730,1,2,0:0:0:0:
256,192,35880,1,0,0:0:0:0:
256,192,36030,1,0,0:0:0:0:
256,192,36180,1,2,0:0:0:0:
256,192,36480,1,0,0:0:0:0:
256,192,36630,1,2,0:0:0:0:
256,192,36930,1,0,0:0:0:0:
256,192,37080,1,2,0:0:0:0:
256,192,37380,1,0,0:0:0:0:
256,192,37530,1,2,0:0:0:0:
256,192,37680,1,0,0:0:0:0:
256,192,37830,1,6,0:0:0:0:
256,192,37980,1,2,0:0:0:0:
256,192,38130,1,0,0:0:0:0:
256,192,38280,1,2,0:0:0:0:
256,192,38430,1,4,0:0:0:0:
256,192,38580,1,2,0:0:0:0:
256,192,38655,1,2,0:0:0:0:
256,192,38730,1,2,0:0:0:0:
256,192,38880,1,0,0:0:0:0:
256,192,39030,1,2,0:0:0:0:
256,192,39330,1,4,0:0:0:0:
256,192,39480,1,2,0:0:0:0:
256,192,39555,1,0,0:0:0:0:
256,192,39630,1,0,0:0:0:0:
256,192,39780,1,2,0:0:0:0:
256,192,39855,1,2,0:0:0:0:
256,192,39930,1,0,0:0:0:0:
256,192,40080,1,0,0:0:0:0:
256,192,40230,1,2,0:0:0:0:
256,192,40530,1,2,0:0:0:0:
256,192,40605,1,2,0:0:0:0:
256,192,40680,1,2,0:0:0:0:
256,192,40755,1,2,0:0:0:0:
256,192,40830,1,4,0:0:0:0:
256,192,40980,1,2,0:0:0:0:
256,192,41055,1,2,0:0:0:0:
256,192,41130,1,2,0:0:0:0:
256,192,41280,1,2,0:0:0:0:
256,192,41330,1,0,0:0:0:0:
256,192,41380,1,2,0:0:0:0:
256,192,41430,1,2,0:0:0:0:
256,192,41730,1,4,0:0:0:0:
256,192,41880,1,2,0:0:0:0:
256,192,41955,1,0,0:0:0:0:
256,192,42030,1,0,0:0:0:0:
256,192,42180,1,0,0:0:0:0:
256,192,42330,1,2,0:0:0:0:
256,192,42405,1,2,0:0:0:0:
256,192,42480,1,0,0:0:0:0:
256,192,42630,1,2,0:0:0:0:
256,192,42930,1,0,0:0:0:0:
256,192,43005,1,2,0:0:0:0:
256,192,43080,1,2,0:0:0:0:
256,192,43155,1,2,0:0:0:0:
256,192,43230,1,4,0:0:0:0:
256,192,43380,1,2,0:0:0:0:
256,192,43455,1,2,0:0:0:0:
256,192,43530,1,2,0:0:0:0:
256,192,43680,1,0,0:0:0:0:
256,192,43830,1,2,0:0:0:0:
256,192,44130,1,4,0:0:0:0:
256,192,44280,1,2,0:0:0:0:
256,192,44355,1,0,0:0:0:0:
256,192,44430,1,0,0:0:0:0:
256,192,44580,1,2,0:0:0:0:
256,192,44655,1,2,0:0:0:0:
256,192,44730,1,0,0:0:0:0:
256,192,44880,1,0,0:0:0:0:
256,192,45030,1,2,0:0:0:0:
256,192,45330,1,2,0:0:0:0:
256,192,45405,1,0,0:0:0:0:
256,192,45480,1,2,0:0:0:0:
256,192,45555,1,2,0:0:0:0:
256,192,45630,1,4,0:0:0:0:
256,192,45780,1,2,0:0:0:0:
256,192,45855,1,2,0:0:0:0:
256,192,45930,1,2,0:0:0:0:
256,192,46080,1,2,0:0:0:0:
256,192,46130,1,2,0:0:0:0:
256,192,46180,1,0,0:0:0:0:
256,192,46230,1,2,0:0:0:0:
256,192,46530,1,4,0:0:0:0:
256,192,46680,1,2,0:0:0:0:
256,192,46755,1,0,0:0:0:0:
256,192,46830,1,0,0:0:0:0:
256,192,46980,1,0,0:0:0:0:
256,192,47130,1,2,0:0:0:0:
256,192,47280,1,0,0:0:0:0:
256,192,47430,1,2,0:0:0:0:
256,192,47505,1,0,0:0:0:0:
256,192,47580,1,2,0:0:0:0:
256,192,47655,1,0,0:0:0:0:
256,192,47730,1,2,0:0:0:0:
256,192,47805,1,0,0:0:0:0:
256,192,47880,1,0,0:0:0:0:
256,192,47955,1,0,0:0:0:0:
256,192,48180,1,2,0:0:0:0:
256,192,48255,1,2,0:0:0:0:
256,192,48330,1,2,0:0:0:0:
256,192,48480,1,0,0:0:0:0:
256,192,48630,1,2,0:0:0:0:
256,192,48930,1,4,0:0:0:0:
256,192,49080,1,2,0:0:0:0:
256,192,49155,1,0,0:0:0:0:
256,192,49230,1,0,0:0:0:0:
256,192,49380,1,2,0:0:0:0:
256,192,49455,1,2,0:0:0:0:
256,192,49530,1,0,0:0:0:0:
256,192,49680,1,0,0:0:0:0:
256,192,49830,1,2,0:0:0:0:
256,192,50130,1,2,0:0:0:0:
256,192,50205,1,2,0:0:0:0:
256,192,50280,1,2,0:0:0:0:
256,192,50355,1,2,0:0:0:0:
256,192,50430,1,4,0:0:0:0:
256,192,50580,1,2,0:0:0:0:
256,192,50655,1,2,0:0:0:0:
256,192,50730,1,2,0:0:0:0:
256,192,50880,1,2,0:0:0:0:
256,192,50930,1,0,0:0:0:0:
256,192,50980,1,2,0:0:0:0:
256,192,51030,1,2,0:0:0:0:
256,192,51330,1,4,0:0:0:0:
256,192,51480,1,2,0:0:0:0:
256,192,51555,1,0,0:0:0:0:
256,192,51630,1,0,0:0:0:0:
256,192,51780,1,0,0:0:0:0:
256,192,51930,1,2,0:0:0:0:
256,192,52005,1,2,0:0:0:0:
256,192,52080,1,0,0:0:0:0:
256,192,52230,1,2,0:0:0:0:
256,192,52530,1,0,0:0:0:0:
256,192,52605,1,2,0:0:0:0:
256,192,52680,1,2,0:0:0:0:
256,192,52755,1,2,0:0:0:0:
256,192,52830,1,4,0:0:0:0:
256,192,52980,1,2,0:0:0:0:
256,192,53055,1,2,0:0:0:0:
256,192,53130,1,2,0:0:0:0:
256,192,53280,1,0,0:0:0:0:
256,192,53430,1,2,0:0:0:0:
256,192,53730,1,4,0:0:0:0:
256,192,53880,1,2,0:0:0:0:
256,192,53955,1,0,0:0:0:0:
256,192,54030,1,0,0:0:0:0:
256,192,54180,1,2,0:0:0:0:
256,192,54255,1,2,0:0:0:0:
256,192,54330,1,0,0:0:0:0:
256,192,54480,1,0,0:0:0:0:
256,192,54630,1,2,0:0:0:0:
256,192,54930,1,2,0:0:0:0:
256,192,55005,1,0,0:0:0:0:
256,192,55080,1,2,0:0:0:0:
256,192,55155,1,2,0:0:0:0:
256,192,55230,1,4,0:0:0:0:
256,192,55380,1,2,0:0:0:0:
256,192,55455,1,2,0:0:0:0:
256,192,55530,1,2,0:0:0:0:
256,192,55680,1,2,0:0:0:0:
256,192,55730,1,2,0:0:0:0:
256,192,55780,1,0,0:0:0:0:
256,192,55830,1,2,0:0:0:0:
256,192,56130,1,4,0:0:0:0:
256,192,56280,1,2,0:0:0:0:
256,192,56355,1,0,0:0:0:0:
256,192,56430,1,0,0:0:0:0:
256,192,56580,1,2,0:0:0:0:
256,192,56655,1,2,0:0:0:0:
256,192,56730,1,0,0:0:0:0:
256,192,56880,1,0,0:0:0:0:
256,192,57030,1,2,0:0:0:0:
256,192,57180,1,2,0:0:0:0:
256,192,57330,1,0,0:0:0:0:
256,192,57480,1,0,0:0:0:0:
256,192,57780,1,2,0:0:0:0:
256,192,57855,1,2,0:0:0:0:
256,192,57930,1,2,0:0:0:0:
256,192,58080,1,0,0:0:0:0:
256,192,58230,1,2,0:0:0:0:
256,192,58530,1,4,0:0:0:0:
256,192,58680,1,2,0:0:0:0:
256,192,58755,1,0,0:0:0:0:
256,192,58830,1,0,0:0:0:0:
256,192,58980,1,2,0:0:0:0:
256,192,59055,1,2,0:0:0:0:
256,192,59130,1,0,0:0:0:0:
256,192,59280,1,0,0:0:0:0:
256,192,59430,1,2,0:0:0:0:
256,192,59730,1,2,0:0:0:0:
256,192,59805,1,2,0:0:0:0:
256,192,59880,1,2,0:0:0:0:
256,192,59955,1,2,0:0:0:0:
256,192,60030,1,4,0:0:0:0:
256,192,60180,1,2,0:0:0:0:
256,192,60255,1,2,0:0:0:0:
256,192,60330,1,2,0:0:0:0:
256,192,60480,1,2,0:0:0:0:
256,192,60530,1,0,0:0:0:0:
256,192,60580,1,2,0:0:0:0:
256,192,60630,1,2,0:0:0:0:
256,192,60930,1,4,0:0:0:0:
256,192,61080,1,2,0:0:0:0:
256,192,61155,1,0,0:0:0:0:
256,192,61230,1,0,0:0:0:0:
256,192,61380,1,0,0:0:0:0:
256,192,61530,1,2,0:0:0:0:
256,192,61605,1,2,0:0:0:0:
256,192,61680,1,0,0:0:0:0:
256,192,61830,1,2,0:0:0:0:
256,192,62130,1,0,0:0:0:0:
256,192,62205,1,2,0:0:0:0:
256,192,62280,1,2,0:0:0:0:
256,192,62355,1,2,0:0:0:0:
256,192,62430,1,4,0:0:0:0:
256,192,62580,1,2,0:0:0:0:
256,192,62655,1,2,0:0:0:0:
256,192,62730,1,2,0:0:0:0:
256,192,62880,1,0,0:0:0:0:
256,192,63030,1,2,0:0:0:0:
256,192,63330,1,4,0:0:0:0:
256,192,63480,1,2,0:0:0:0:
256,192,63555,1,0,0:0:0:0:
256,192,63630,1,0,0:0:0:0:
256,192,63780,1,2,0:0:0:0:
256,192,63855,1,2,0:0:0:0:
256,192,63930,1,0,0:0:0:0:
256,192,64080,1,0,0:0:0:0:
256,192,64230,1,2,0:0:0:0:
256,192,64530,1,2,0:0:0:0:
256,192,64605,1,0,0:0:0:0:
256,192,64680,1,2,0:0:0:0:
256,192,64755,1,2,0:0:0:0:
256,192,64830,1,4,0:0:0:0:
256,192,64980,1,2,0:0:0:0:
256,192,65055,1,2,0:0:0:0:
256,192,65130,1,2,0:0:0:0:
256,192,65280,1,2,0:0:0:0:
256,192,65330,1,2,0:0:0:0:
256,192,65380,1,0,0:0:0:0:
256,192,65430,1,2,0:0:0:0:
256,192,65730,1,4,0:0:0:0:
256,192,65880,1,2,0:0:0:0:
256,192,65955,1,0,0:0:0:0:
256,192,66030,1,0,0:0:0:0:
256,192,66180,1,0,0:0:0:0:
256,192,66330,1,2,0:0:0:0:
256,192,66480,1,0,0:0:0:0:
256,192,66630,1,2,0:0:0:0:
256,192,66705,1,0,0:0:0:0:
256,192,66780,1,2,0:0:0:0:
256,192,66855,1,0,0:0:0:0:
256,192,66930,1,0,0:0:0:0:
256,192,67030,1,0,0:0:0:0:
256,192,67130,1,0,0:0:0:0:
256,192,67230,1,0,0:0:0:0:
256,192,67380,1,2,0:0:0:0:
256,192,67455,1,2,0:0:0:0:
256,192,67530,1,2,0:0:0:0:
256,192,67680,1,0,0:0:0:0:
256,192,67830,1,2,0:0:0:0:
256,192,68130,1,4,0:0:0:0:
256,192,68280,1,2,0:0:0:0:
256,192,68355,1,0,0:0:0:0:
256,192,68430,1,0,0:0:0:0:
256,192,68580,1,2,0:0:0:0:
256,192,68655,1,2,0:0:0:0:
256,192,68730,1,0,0:0:0:0:
256,192,68880,1,0,0:0:0:0:
256,192,69030,1,2,0:0:0:0:
256,192,69330,1,2,0:0:0:0:
256,192,69405,1,2,0:0:0:0:
256,192,69480,1,2,0:0:0:0:
256,192,69555,1,2,0:0:0:0:
256,192,69630,1,4,0:0:0:0:
256,192,69780,1,2,0:0:0:0:
256,192,69855,1,2,0:0:0:0:
256,192,69930,1,2,0:0:0:0:
256,192,70080,1,2,0:0:0:0:
256,192,70130,1,0,0:0:0:0:
256,192,70180,1,2,0:0:0:0:
256,192,70230,1,2,0:0:0:0:
256,192,70530,1,4,0:0:0:0:
256,192,70680,1,2,0:0:0:0:
256,192,70755,1,0,0:0:0:0:
256,192,70830,1,0,0:0:0:0:
256,192,70980,1,0,0:0:0:0:
256,192,71130,1,2,0:0:0:0:
256,192,71205,1,2,0:0:0:0:
256,192,71280,1,0,0:0:0:0:
256,192,71430,1,2,0:0:0:0:
256,192,71730,1,0,0:0:0:0:
256,192,71805,1,2,0:0:0:0:
256,192,71880,1,2,0:0:0:0:
256,192,71955,1,2,0:0:0:0:
256,192,72030,1,4,0:0:0:0:
256,192,72180,1,2,0:0:0:0:
256,192,72255,1,2,0:0:0:0:
256,192,72330,1,2,0:0:0:0:
256,192,72480,1,0,0:0:0:0:
256,192,72630,1,2,0:0:0:0:
256,192,72930,1,4,0:0:0:0:
256,192,73080,1,2,0:0:0:0:
256,192,73155,1,0,0:0:0:0:
256,192,73230,1,0,0:0:0:0:
256,192,73380,1,2,0:0:0:0:
256,192,73455,1,2,0:0:0:0:
256,192,73530,1,0,0:0:0:0:
256,192,73680,1,0,0:0:0:0:
256,192,73830,1,2,0:0:0:0:
256,192,74130,1,2,0:0:0:0:
256,192,74205,1,0,0:0:0:0:
256,192,74280,1,2,0:0:0:0:
256,192,74355,1,2,0:0:0:0:
256,192,74430,1,4,0:0:0:0:
256,192,74580,1,2,0:0:0:0:
256,192,74655,1,2,0:0:0:0:
256,192,74730,1,2,0:0:0:0:
256,192,74880,1,2,0:0:0:0:
256,192,74930,1,2,0:0:0:0:
256,192,74980,1,0,0:0:0:0:
256,192,75030,1,2,0:0:0:0:
256,192,75330,1,4,0:0:0:0:
256,192,75480,1,2,0:0:0:0:
256,192,75555,1,0,0:0:0:0:
256,192,75630,1,0,0:0:0:0:
256,192,75780,1,2,0:0:0:0:
256,192,75855,1,2,0:0:0:0:
256,192,75930,1,0,0:0:0:0:
256,192,76080,1,0,0:0:0:0:
256,192,76230,1,2,0:0:0:0:
256,192,76380,1,2,0:0:0:0:
256,192,76530,1,0,0:0:0:0:
256,192,76680,1,0,0:0:0:0:
256,192,77130,1,0,0:0:0:0:
256,192,77205,1,0,0:0:0:0:
256,192,77280,1,0,0:0:0:0:
256,192,77355,1,0,0:0:0:0:
256,192,77430,1,6,0:0:0:0:
256,192,77730,1,2,0:0:0:0:
256,192,77880,1,0,0:0:0:0:
256,192,77955,1,0,0:0:0:0:
256,192,78030,1,0,0:0:0:0:
256,192,78180,1,0,0:0:0:0:
256,192,78330,1,0,0:0:0:0:
256,192,78405,1,0,0:0:0:0:
256,192,78480,1,0,0:0:0:0:
256,192,78630,1,6,0:0:0:0:
256,192,78930,1,0,0:0:0:0:
256,192,79080,1,0,0:0:0:0:
256,192,79530,1,0,0:0:0:0:
256,192,79605,1,0,0:0:0:0:
256,192,79680,1,0,0:0:0:0:
256,192,79755,1,0,0:0:0:0:
256,192,79830,1,6,0:0:0:0:
256,192,80130,1,2,0:0:0:0:
256,192,80280,1,0,0:0:0:0:
256,192,80355,1,0,0:0:0:0:
256,192,80430,1,0,0:0:0:0:
256,192,80580,1,0,0:0:0:0:
256,192,80730,1,0,0:0:0:0:
256,192,80805,1,0,0:0:0:0:
256,192,80880,1,0,0:0:0:0:
256,192,81030,1,6,0:0:0:0:
256,192,81180,1,0,0:0:0:0:
256,192,81330,1,2,0:0:0:0:
256,192,81405,1,2,0:0:0:0:
256,192,81480,1,2,0:0:0:0:
256,192,81930,1,0,0:0:0:0:
256,192,82005,1,0,0:0:0:0:
256,192,82080,1,0,0:0:0:0:
256,192,82155,1,0,0:0:0:0:
256,192,82230,1,6,0:0:0:0:
256,192,82530,1,2,0:0:0:0:
256,192,82680,1,0,0:0:0:0:
256,192,82755,1,0,0:0:0:0:
256,192,82830,1,0,0:0:0:0:
256,192,82980,1,0,0:0:0:0:
256,192,83130,1,0,0:0:0:0:
256,192,83205,1,0,0:0:0:0:
256,192,83280,1,0,0:0:0:0:
256,192,83430,1,6,0:0:0:0:
256,192,83730,1,0,0:0:0:0:
256,192,83880,1,0,0:0:0:0:
256,192,84330,1,0,0:0:0:0:
256,192,84405,1,0,0:0:0:0:
256,192,84480,1,0,0:0:0:0:
256,192,84555,1,0,0:0:0:0:
256,192,84630,1,6,0:0:0:0:
256,192,84930,1,2,0:0:0:0:
256,192,85080,1,0,0:0:0:0:
256,192,85155,1,0,0:0:0:0:
256,192,85230,1,0,0:0:0:0:
256,192,85380,1,0,0:0:0:0:
256,192,85530,1,0,0:0:0:0:
256,192,85605,1,0,0:0:0:0:
256,192,85680,1,0,0:0:0:0:
256,192,85830,1,6,0:0:0:0:
256,192,85980,1,0,0:0:0:0:
256,192,86130,1,2,0:0:0:0:
256,192,86205,1,2,0:0:0:0:
256,192,86280,1,2,0:0:0:0:
256,192,86730,1,0,0:0:0:0:
256,192,86805,1,0,0:0:0:0:
256,192,86880,1,0,0:0:0:0:
256,192,86955,1,0,0:0:0:0:
256,192,87030,1,6,0:0:0:0:
256,192,87330,1,2,0:0:0:0:
256,192,87480,1,0,0:0:0:0:
256,192,87555,1,0,0:0:0:0:
256,192,87630,1,0,0:0:0:0:
256,192,87780,1,0,0:0:0:0:
256,192,87855,1,2,0:0:0:0:
256,192,87930,1,0,0:0:0:0:
256,192,88005,1,0,0:0:0:0:
256,192,88080,1,0,0:0:0:0:
256,192,88230,1,6,0:0:0:0:
256,192,88530,1,0,0:0:0:0:
256,192,88680,1,0,0:0:0:0:
256,192,89130,1,0,0:0:0:0:
256,192,89205,1,0,0:0:0:0:
256,192,89280,1,0,0:0:0:0:
256,192,89355,1,0,0:0:0:0:
256,192,89430,1,6,0:0:0:0:
256,192,89730,1,2,0:0:0:0:
256,192,89880,1,0,0:0:0:0:
256,192,89955,1,0,0:0:0:0:
256,192,90030,1,0,0:0:0:0:
256,192,90180,1,0,0:0:0:0:
256,192,90255,1,2,0:0:0:0:
256,192,90330,1,0,0:0:0:0:
256,192,90405,1,0,0:0:0:0:
256,192,90480,1,0,0:0:0:0:
256,192,90630,1,6,0:0:0:0:
256,192,90780,1,0,0:0:0:0:
256,192,90930,1,2,0:0:0:0:
256,192,91005,1,2,0:0:0:0:
256,192,91080,1,2,0:0:0:0:
256,192,91530,1,0,0:0:0:0:
256,192,91605,1,0,0:0:0:0:
256,192,91680,1,0,0:0:0:0:
256,192,91755,1,0,0:0:0:0:
256,192,91830,1,6,0:0:0:0:
256,192,92130,1,2,0:0:0:0:
256,192,92280,1,0,0:0:0:0:
256,192,92355,1,0,0:0:0:0:
256,192,92430,1,0,0:0:0:0:
256,192,92580,1,0,0:0:0:0:
256,192,92655,1,2,0:0:0:0:
256,192,92730,1,0,0:0:0:0:
256,192,92805,1,0,0:0:0:0:
256,192,92880,1,0,0:0:0:0:
256,192,93030,1,6,0:0:0:0:
256,192,93330,1,0,0:0:0:0:
256,192,93480,1,0,0:0:0:0:
256,192,93930,1,0,0:0:0:0:
256,192,94005,1,0,0:0:0:0:
256,192,94080,1,0,0:0:0:0:
256,192,94155,1,0,0:0:0:0:
256,192,94230,1,6,0:0:0:0:
256,192,94530,1,2,0:0:0:0:
256,192,94680,1,0,0:0:0:0:
256,192,94755,1,0,0:0:0:0:
256,192,94830,1,0,0:0:0:0:
256,192,94980,1,0,0:0:0:0:
256,192,95055,1,2,0:0:0:0:
256,192,95130,1,0,0:0:0:0:
256,192,95205,1,0,0:0:0:0:
256,192,95280,1,0,0:0:0:0:
256,192,95430,1,6,0:0:0:0:
256,192,95580,1,2,0:0:0:0:
256,192,95655,1,2,0:0:0:0:
256,192,95730,1,0,0:0:0:0:
256,192,95805,1,0,0:0:0:0:
256,192,95880,1,0,0:0:0:0:
256,192,96030,1,2,0:0:0:0:
256,192,96330,1,0,0:0:0:0:
256,192,96405,1,0,0:0:0:0:
256,192,96480,1,0,0:0:0:0:
256,192,96555,1,0,0:0:0:0:
256,192,96630,1,6,0:0:0:0:
256,192,96930,1,2,0:0:0:0:
256,192,97080,1,0,0:0:0:0:
256,192,97155,1,0,0:0:0:0:
256,192,97230,1,2,0:0:0:0:
256,192,97380,1,0,0:0:0:0:
256,192,97455,1,2,0:0:0:0:
256,192,97530,1,0,0:0:0:0:
256,192,97605,1,0,0:0:0:0:
256,192,97680,1,0,0:0:0:0:
256,192,97830,1,6,0:0:0:0:
256,192,98130,1,0,0:0:0:0:
256,192,98280,1,0,0:0:0:0:
256,192,98430,1,2,0:0:0:0:
256,192,98730,1,0,0:0:0:0:
256,192,98805,1,0,0:0:0:0:
256,192,98880,1,0,0:0:0:0:
256,192,98955,1,0,0:0:0:0:
256,192,99030,1,6,0:0:0:0:
256,192,99330,1,2,0:0:0:0:
256,192,99480,1,0,0:0:0:0:
256,192,99555,1,0,0:0:0:0:
256,192,99630,1,2,0:0:0:0:
256,192,99780,1,0,0:0:0:0:
256,192,99855,1,2,0:0:0:0:
256,192,99930,1,0,0:0:0:0:
256,192,100005,1,0,0:0:0:0:
256,192,100080,1,0,0:0:0:0:
256,192,100230,1,6,0:0:0:0:
256,192,100380,1,2,0:0:0:0:
256,192,100455,1,2,0:0:0:0:
256,192,100530,1,0,0:0:0:0:
256,192,100680,1,0,0:0:0:0:
256,192,100830,1,2,0:0:0:0:
256,192,101130,1,0,0:0:0:0:
256,192,101205,1,0,0:0:0:0:
256,192,101280,1,0,0:0:0:0:
256,192,101355,1,0,0:0:0:0:
256,192,101430,1,6,0:0:0:0:
256,192,101730,1,2,0:0:0:0:
256,192,101880,1,0,0:0:0:0:
256,192,101955,1,0,0:0:0:0:
256,192,102030,1,2,0:0:0:0:
256,192,102180,1,0,0:0:0:0:
256,192,102255,1,2,0:0:0:0:
256,192,102330,1,0,0:0:0:0:
256,192,102405,1,0,0:0:0:0:
256,192,102480,1,0,0:0:0:0:
256,192,102630,1,6,0:0:0:0:
256,192,102930,1,0,0:0:0:0:
256,192,103080,1,0,0:0:0:0:
256,192,103230,1,2,0:0:0:0:
256,192,103530,1,0,0:0:0:0:
256,192,103605,1,0,0:0:0:0:
256,192,103680,1,0,0:0:0:0:
256,192,103755,1,0,0:0:0:0:
256,192,103830,1,6,0:0:0:0:
256,192,104130,1,2,0:0:0:0:
256,192,104280,1,0,0:0:0:0:
256,192,104355,1,0,0:0:0:0:
256,192,104430,1,2,0:0:0:0:
256,192,104580,1,0,0:0:0:0:
256,192,104655,1,2,0:0:0:0:
256,192,104730,1,0,0:0:0:0:
256,192,104805,1,0,0:0:0:0:
256,192,104880,1,0,0:0:0:0:
256,192,105030,1,6,0:0:0:0:
256,192,105180,1,2,0:0:0:0:
256,192,105255,1,2,0:0:0:0:
256,192,105330,1,0,0:0:0:0:
256,192,105480,1,0,0:0:0:0:
256,192,105630,1,2,0:0:0:0:
256,192,105930,1,0,0:0:0:0:
256,192,106005,1,0,0:0:0:0:
256,192,106080,1,0,0:0:0:0:
256,192,106155,1,0,0:0:0:0:
256,192,106230,1,6,0:0:0:0:
256,192,106530,1,2,0:0:0:0:
256,192,106680,1,0,0:0:0:0:
256,192,106755,1,0,0:0:0:0:
256,192,106830,1,2,0:0:0:0:
256,192,106980,1,0,0:0:0:0:
256,192,107055,1,2,0:0:0:0:
256,192,107130,1,0,0:0:0:0:
256,192,107205,1,0,0:0:0:0:
256,192,107280,1,0,0:0:0:0:
256,192,107430,1,6,0:0:0:0:
256,192,107730,1,0,0:0:0:0:
256,192,107880,1,0,0:0:0:0:
256,192,108030,1,2,0:0:0:0:
256,192,108330,1,0,0:0:0:0:
256,192,108405,1,0,0:0:0:0:
256,192,108480,1,0,0:0:0:0:
256,192,108555,1,0,0:0:0:0:
256,192,108630,1,6,0:0:0:0:
256,192,108930,1,2,0:0:0:0:
256,192,109080,1,0,0:0:0:0:
256,192,109155,1,0,0:0:0:0:
256,192,109230,1,2,0:0:0:0:
256,192,109380,1,0,0:0:0:0:
256,192,109455,1,2,0:0:0:0:
256,192,109530,1,0,0:0:0:0:
256,192,109605,1,0,0:0:0:0:
256,192,109680,1,0,0:0:0:0:
256,192,109830,1,6,0:0:0:0:
256,192,109980,1,2,0:0:0:0:
256,192,110055,1,2,0:0:0:0:
256,192,110130,1,0,0:0:0:0:
256,192,110280,1,0,0:0:0:0:
256,192,110430,1,2,0:0:0:0:
256,192,110730,1,0,0:0:0:0:
256,192,110805,1,0,0:0:0:0:
256,192,110880,1,0,0:0:0:0:
256,192,110955,1,0,0:0:0:0:
256,192,111030,1,6,0:0:0:0:
256,192,111330,1,2,0:0:0:0:
256,192,111480,1,0,0:0:0:0:
256,192,111555,1,0,0:0:0:0:
256,192,111630,1,2,0:0:0:0:
256,192,111780,1,0,0:0:0:0:
256,192,111855,1,2,0:0:0:0:
256,192,111930,1,0,0:0:0:0:
256,192,112005,1,0,0:0:0:0:
256,192,112080,1,0,0:0:0:0:
256,192,112230,1,6,0:0:0:0:
256,192,112530,1,0,0:0:0:0:
256,192,112680,1,0,0:0:0:0:
256,192,112830,1,2,0:0:0:0:
256,192,113130,1,0,0:0:0:0:
256,192,113205,1,0,0:0:0:0:
256,192,113280,1,0,0:0:0:0:
256,192,113355,1,0,0:0:0:0:
256,192,113430,1,6,0:0:0:0:
256,192,113730,1,2,0:0:0:0:
256,192,113880,1,0,0:0:0:0:
256,192,113955,1,0,0:0:0:0:
256,192,114030,1,2,0:0:0:0:
256,192,114180,1,0,0:0:0:0:
256,192,114255,1,2,0:0:0:0:
256,192,114330,1,0,0:0:0:0:
256,192,114405,1,0,0:0:0:0:
256,192,114480,1,0,0:0:0:0:
256,192,114630,1,6,0:0:0:0:
256,192,114780,1,2,0:0:0:0:
256,192,114855,1,2,0:0:0:0:
256,192,114930,1,2,0:0:0:0:
256,192,115080,1,2,0:0:0:0:
256,192,115230,1,0,0:0:0:0:
256,192,115380,1,0,0:0:0:0:
256,192,115530,1,2,0:0:0:0:
256,192,115680,1,0,0:0:0:0:
256,192,115980,1,2,0:0:0:0:
256,192,116280,1,0,0:0:0:0:
256,192,116430,1,2,0:0:0:0:
256,192,116580,1,2,0:0:0:0:
256,192,116730,1,0,0:0:0:0:
256,192,116880,1,0,0:0:0:0:
256,192,117030,1,2,0:0:0:0:
256,192,117330,1,2,0:0:0:0:
256,192,117480,1,2,0:0:0:0:
256,192,117630,1,0,0:0:0:0:
256,192,117780,1,0,0:0:0:0:
256,192,117930,1,2,0:0:0:0:
256,192,118080,1,0,0:0:0:0:
256,192,118380,1,2,0:0:0:0:
256,192,118680,1,0,0:0:0:0:
256,192,118830,1,2,0:0:0:0:
256,192,118980,1,2,0:0:0:0:
256,192,119130,1,0,0:0:0:0:
256,192,119280,1,2,0:0:0:0:
256,192,119430,1,0,0:0:0:0:
256,192,119730,1,0,0:0:0:0:
256,192,119880,1,2,0:0:0:0:
256,192,120030,1,0,0:0:0:0:
256,192,120180,1,0,0:0:0:0:
256,192,120330,1,2,0:0:0:0:
256,192,120480,1,0,0:0:0:0:
256,192,120780,1,2,0:0:0:0:
256,192,121080,1,0,0:0:0:0:
256,192,121230,1,2,0:0:0:0:
256,192,121380,1,2,0:0:0:0:
256,192,121530,1,0,0:0:0:0:
256,192,121680,1,0,0:0:0:0:
256,192,121830,1,2,0:0:0:0:
256,192,122130,1,2,0:0:0:0:
256,192,122280,1,2,0:0:0:0:
256,192,122430,1,0,0:0:0:0:
256,192,122580,1,0,0:0:0:0:
256,192,122730,1,2,0:0:0:0:
256,192,122880,1,0,0:0:0:0:
256,192,123180,1,2,0:0:0:0:
256,192,123480,1,0,0:0:0:0:
256,192,123630,1,2,0:0:0:0:
256,192,123780,1,2,0:0:0:0:
256,192,123930,1,0,0:0:0:0:
256,192,124080,1,2,0:0:0:0:
256,192,124230,1,0,0:0:0:0:
256,192,124380,1,2,0:0:0:0:
256,192,124530,1,0,0:0:0:0:
256,192,124680,1,2,0:0:0:0:
256,192,124830,1,0,0:0:0:0:
256,192,124980,1,0,0:0:0:0:
256,192,125130,1,2,0:0:0:0:
256,192,125280,1,0,0:0:0:0:
256,192,125580,1,2,0:0:0:0:
256,192,125880,1,0,0:0:0:0:
256,192,126030,1,2,0:0:0:0:
256,192,126180,1,2,0:0:0:0:
256,192,126330,1,0,0:0:0:0:
256,192,126480,1,0,0:0:0:0:
256,192,126630,1,2,0:0:0:0:
256,192,126930,1,2,0:0:0:0:
256,192,127080,1,2,0:0:0:0:
256,192,127230,1,0,0:0:0:0:
256,192,127380,1,0,0:0:0:0:
256,192,127530,1,2,0:0:0:0:
256,192,127680,1,0,0:0:0:0:
256,192,127980,1,2,0:0:0:0:
256,192,128280,1,0,0:0:0:0:
256,192,128430,1,2,0:0:0:0:
256,192,128580,1,2,0:0:0:0:
256,192,128730,1,0,0:0:0:0:
256,192,128880,1,2,0:0:0:0:
256,192,129030,1,0,0:0:0:0:
256,192,129330,1,0,0:0:0:0:
256,192,129480,1,2,0:0:0:0:
256,192,129630,1,0,0:0:0:0:
256,192,129780,1,0,0:0:0:0:
256,192,129930,1,2,0:0:0:0:
256,192,130080,1,0,0:0:0:0:
256,192,130380,1,2,0:0:0:0:
256,192,130680,1,0,0:0:0:0:
256,192,130830,1,2,0:0:0:0:
256,192,130980,1,2,0:0:0:0:
256,192,131130,1,0,0:0:0:0:
256,192,131280,1,0,0:0:0:0:
256,192,131430,1,2,0:0:0:0:
256,192,131730,1,2,0:0:0:0:
256,192,131880,1,2,0:0:0:0:
256,192,132030,1,0,0:0:0:0:
256,192,132180,1,0,0:0:0:0:
256,192,132330,1,2,0:0:0:0:
256,192,132480,1,0,0:0:0:0:
256,192,132780,1,2,0:0:0:0:
256,192,133080,1,0,0:0:0:0:
256,192,133230,1,2,0:0:0:0:
256,192,133380,1,2,0:0:0:0:
256,192,133530,1,0,0:0:0:0:
256,192,133680,1,2,0:0:0:0:
256,192,133830,1,0,0:0:0:0:
256,192,133980,1,2,0:0:0:0:
256,192,134130,1,0,0:0:0:0:
256,192,134280,1,2,0:0:0:0:
256,192,134430,1,4,0:0:0:0:
256,192,136830,1,6,0:0:0:0:
256,192,139230,1,4,0:0:0:0:
256,192,141630,1,6,0:0:0:0:
256,192,144030,1,4,0:0:0:0:
256,192,146430,1,6,0:0:0:0:
256,192,148830,1,4,0:0:0:0:
256,192,151230,1,6,0:0:0:0:
256,192,153630,1,4,0:0:0:0:
256,192,153930,1,0,0:0:0:0:
256,192,154080,1,0,0:0:0:0:
256,192,154155,1,0,0:0:0:0:
256,192,154230,1,2,0:0:0:0:
256,192,154380,1,2,0:0:0:0:
256,192,154530,1,0,0:0:0:0:
256,192,154680,1,2,0:0:0:0:
256,192,154830,1,2,0:0:0:0:
256,192,154980,1,0,0:0:0:0:
256,192,155055,1,0,0:0:0:0:
256,192,155130,1,2,0:0:0:0:
256,192,155280,1,2,0:0:0:0:
256,192,155430,1,0,0:0:0:0:
256,192,155580,1,0,0:0:0:0:
256,192,155730,1,2,0:0:0:0:
256,192,156030,1,0,0:0:0:0:
256,192,156330,1,0,0:0:0:0:
256,192,156480,1,0,0:0:0:0:
256,192,156555,1,0,0:0:0:0:
256,192,156630,1,2,0:0:0:0:
256,192,156780,1,2,0:0:0:0:
256,192,156930,1,0,0:0:0:0:
256,192,157080,1,2,0:0:0:0:
256,192,157230,1,2,0:0:0:0:
256,192,157380,1,0,0:0:0:0:
256,192,157455,1,0,0:0:0:0:
256,192,157530,1,2,0:0:0:0:
256,192,157680,1,2,0:0:0:0:
256,192,157830,1,0,0:0:0:0:
256,192,157980,1,0,0:0:0:0:
256,192,158130,1,2,0:0:0:0:
256,192,158430,1,6,0:0:0:0:
256,192,158730,1,0,0:0:0:0:
256,192,158880,1,0,0:0:0:0:
256,192,158955,1,0,0:0:0:0:
256,192,159030,1,2,0:0:0:0:
256,192,159180,1,2,0:0:0:0:
256,192,159330,1,0,0:0:0:0:
256,192,159480,1,2,0:0:0:0:
256,192,159630,1,2,0:0:0:0:
256,192,159780,1,0,0:0:0:0:
256,192,159855,1,0,0:0:0:0:
256,192,159930,1,2,0:0:0:0:
256,192,160080,1,2,0:0:0:0:
256,192,160230,1,0,0:0:0:0:
256,192,160380,1,0,0:0:0:0:
256,192,160530,1,2,0:0:0:0:
256,192,160830,1,0,0:0:0:0:
256,192,161130,1,0,0:0:0:0:
256,192,161280,1,0,0:0:0:0:
256,192,161355,1,0,0:0:0:0:
256,192,161430,1,2,0:0:0:0:
256,192,161580,1,2,0:0:0:0:
256,192,161730,1,0,0:0:0:0:
256,192,161880,1,2,0:0:0:0:
256,192,162030,1,2,0:0:0:0:
256,192,162180,1,0,0:0:0:0:
256,192,162255,1,0,0:0:0:0:
256,192,162330,1,2,0:0:0:0:
256,192,162480,1,2,0:0:0:0:
256,192,162630,1,0,0:0:0:0:
256,192,162930,1,2,0:0:0:0:
256,192,163230,1,4,0:0:0:0:
256,192,163530,1,2,0:0:0:0:
256,192,163680,1,0,0:0:0:0:
256,192,163755,1,0,0:0:0:0:
256,192,163830,1,2,0:0:0:0:
256,192,164130,1,0,0:0:0:0:
256,192,164430,1,2,0:0:0:0:
256,192,164580,1,0,0:0:0:0:
256,192,164655,1,0,0:0:0:0:
256,192,164730,1,2,0:0:0:0:
256,192,164805,1,2,0:0:0:0:
256,192,164880,1,2,0:0:0:0:
256,192,165030,1,0,0:0:0:0:
256,192,165330,1,2,0:0:0:0:
256,192,165630,1,0,0:0:0:0:
256,192,165930,1,2,0:0:0:0:
256,192,166080,1,0,0:0:0:0:
256,192,166155,1,0,0:0:0:0:
256,192,166230,1,2,0:0:0:0:
256,192,166530,1,0,0:0:0:0:
256,192,166830,1,2,0:0:0:0:
256,192,166980,1,0,0:0:0:0:
256,192,167055,1,0,0:0:0:0:
256,192,167130,1,2,0:0:0:0:
256,192,167205,1,2,0:0:0:0:
256,192,167280,1,2,0:0:0:0:
256,192,167430,1,0,0:0:0:0:
256,192,167730,1,2,0:0:0:0:
256,192,168030,1,0,0:0:0:0:
256,192,168330,1,0,0:0:0:0:
256,192,168480,1,2,0:0:0:0:
256,192,168555,1,2,0:0:0:0:
256,192,168630,1,0,0:0:0:0:
256,192,168780,1,2,0:0:0:0:
256,192,168855,1,2,0:0:0:0:
256,192,168930,1,0,0:0:0:0:
256,192,169080,1,2,0:0:0:0:
256,192,169230,1,0,0:0:0:0:
256,192,169530,1,0,0:0:0:0:
256,192,169680,1,2,0:0:0:0:
256,192,169755,1,2,0:0:0:0:
256,192,169830,1,0,0:0:0:0:
256,192,169980,1,2,0:0:0:0:
256,192,170055,1,2,0:0:0:0:
256,192,170130,1,0,0:0:0:0:
256,192,170280,1,2,0:0:0:0:
256,192,170430,1,0,0:0:0:0:
256,192,170505,1,0,0:0:0:0:
256,192,170580,1,2,0:0:0:0:
256,192,170655,1,2,0:0:0:0:
256,192,170730,1,0,0:0:0:0:
256,192,170880,1,2,0:0:0:0:
256,192,170955,1,2,0:0:0:0:
256,192,171030,1,0,0:0:0:0:
256,192,171105,1,0,0:0:0:0:
256,192,171180,1,2,0:0:0:0:
256,192,171330,1,0,0:0:0:0:
256,192,171405,1,0,0:0:0:0:
256,192,171480,1,2,0:0:0:0:
256,192,171630,1,0,0:0:0:0:
256,192,171705,1,0,0:0:0:0:
256,192,171780,1,2,0:0:0:0:
256,192,171855,1,2,0:0:0:0:
256,192,171930,1,0,0:0:0:0:
256,192,172080,1,0,0:0:0:0:
256,192,172230,1,2,0:0:0:0:
256,192,172380,1,2,0:0:0:0:
256,192,172530,1,2,0:0:0:0:
256,192,172680,1,2,0:0:0:0:
256,192,173430,1,6,0:0:0:0:
256,192,173880,1,0,0:0:0:0:
256,192,174030,1,4,0:0:0:0:
256,192,174180,8,6,176130,0:0:0:0:
256,192,176280,5,0,0:0:0:0:
256,192,176355,1,0,0:0:0:0:
256,192,176430,1,6,0:0:0:0:
256,192,176580,8,4,177480,0:0:0:0:
256,192,177630,5,0,0:0:0:0:
256,192,177780,1,2,0:0:0:0:
256,192,177930,1,2,0:0:0:0:
256,192,178080,1,2,0:0:0:0:
256,192,178230,1,2,0:0:0:0:
256,192,178380,1,2,0:0:0:0:
256,192,178530,1,2,0:0:0:0:
256,192,178680,1,0,0:0:0:0:
256,192,178830,1,6,0:0:0:0:
256,192,178980,8,4,180930,0:0:0:0:
256,192,181080,5,0,0:0:0:0:
256,192,181155,1,0,0:0:0:0:
256,192,181230,1,6,0:0:0:0:
256,192,181380,8,6,182280,0:0:0:0:
256,192,182430,5,0,0:0:0:0:
256,192,183030,1,6,0:0:0:0:
256,192,183480,1,0,0:0:0:0:
256,192,183630,1,4,0:0:0:0:
256,192,184230,8,6,185730,0:0:0:0:
256,192,185880,5,0,0:0:0:0:
256,192,185955,1,0,0:0:0:0:
256,192,186030,1,6,0:0:0:0:
256,192,186180,8,4,187080,0:0:0:0:
256,192,187230,5,0,0:0:0:0:
256,192,187380,1,0,0:0:0:0:
256,192,187530,1,0,0:0:0:0:
256,192,187680,1,0,0:0:0:0:
256,192,187830,1,0,0:0:0:0:
256,192,187980,1,0,0:0:0:0:
256,192,188130,1,2,0:0:0:0:
256,192,188280,1,0,0:0:0:0:
256,192,188430,1,6,0:0:0:0:
256,192,188580,8,4,190530,0:0:0:0:
256,192,190680,5,2,0:0:0:0:
256,192,190755,1,2,0:0:0:0:
256,192,190830,1,4,0:0:0:0:
256,192,190980,8,6,192030,0:0:0:0:
256,192,192630,5,6,0:0:0:0:
256,192,193080,1,0,0:0:0:0:
256,192,193230,1,4,0:0:0:0:
256,192,193380,8,6,195330,0:0:0:0:
256,192,195480,5,0,0:0:0:0:
256,192,195555,1,0,0:0:0:0:
256,192,195630,1,6,0:0:0:0:
256,192,195780,8,4,196680,0:0:0:0:
256,192,196830,5,0,0:0:0:0:
256,192,196980,1,2,0:0:0:0:
256,192,197130,1,2,0:0:0:0:
256,192,197280,1,2,0:0:0:0:
256,192,197430,1,2,0:0:0:0:
256,192,197580,1,2,0:0:0:0:
256,192,197730,1,2,0:0:0:0:
256,192,197880,1,0,0:0:0:0:
256,192,198030,1,6,0:0:0:0:
256,192,198180,8,4,200130,0:0:0:0:
256,192,200280,5,0,0:0:0:0:
256,192,200355,1,0,0:0:0:0:
256,192,200430,1,6,0:0:0:0:
256,192,200580,8,6,201480,0:0:0:0:
256,192,201630,5,0,0:0:0:0:
256,192,202230,1,6,0:0:0:0:
256,192,202680,1,0,0:0:0:0:
256,192,202830,1,4,0:0:0:0:
256,192,203430,8,6,204930,0:0:0:0:
256,192,205080,5,0,0:0:0:0:
256,192,205155,1,0,0:0:0:0:
256,192,205230,1,6,0:0:0:0:
256,192,205380,8,4,206280,0:0:0:0:
256,192,206430,5,2,0:0:0:0:
256,192,206580,1,2,0:0:0:0:
256,192,206730,1,2,0:0:0:0:
256,192,206880,1,0,0:0:0:0:
256,192,207030,1,0,0:0:0:0:
256,192,207180,1,0,0:0:0:0:
256,192,207330,1,2,0:0:0:0:
256,192,207480,1,0,0:0:0:0:
256,192,207630,1,6,0:0:0:0:
256,192,207780,8,4,209730,0:0:0:0:
256,192,209880,5,2,0:0:0:0:
256,192,209955,1,2,0:0:0:0:
256,192,210030,1,4,0:0:0:0:
256,192,210180,8,6,211080,0:0:0:0:
256,192,211230,8,4,220830,0:0:0:0:
