osu file format v14

[General]
AudioFilename: audio.mp3
AudioLeadIn: 0
PreviewTime: 68735
Countdown: 0
SampleSet: Soft
StackLeniency: 0.7
Mode: 3
LetterboxInBreaks: 0
SpecialStyle: 0
WidescreenStoryboard: 1

[Editor]
Bookmarks: 99592
DistanceSpacing: 0.9
BeatDivisor: 8
GridSize: 32
TimelineZoom: 2.2

[Metadata]
Title:descent
TitleUnicode:descent
Artist:sakuraburst
ArtistUnicode:sakuraburst
Creator:Abraxos
Version:fl@#>/oati*&ng___po{int___ex\cep\%tio^^n.
Source:
Tags:
BeatmapID:1173934
BeatmapSetID:554516

[Difficulty]
HPDrainRate:5.13
CircleSize:4
OverallDifficulty:0.01
ApproachRate:5
SliderMultiplier:1.4
SliderTickRate:1

[Events]
//Background and Video events
0,0,"t3_1p76la.jpg",0,0
//Break Periods
2,103864,108035
//Storyboard Layer 0 (Background)
//Storyboard Layer 1 (Fail)
//Storyboard Layer 2 (Pass)
//Storyboard Layer 3 (Foreground)
//Storyboard Sound Samples

[TimingPoints]
164,428.571428571429,4,2,0,20,1,0
177592,-100,4,2,0,20,0,0

[HitObjects]
64,192,164,5,0,0:0:0:0:
192,192,164,1,0,0:0:0:0:
320,192,164,1,0,0:0:0:0:
448,192,164,1,0,0:0:0:0:
320,192,378,1,0,0:0:0:0:
192,192,485,1,0,0:0:0:0:
64,192,592,1,0,0:0:0:0:
448,192,592,1,0,0:0:0:0:
64,192,806,1,0,0:0:0:0:
192,192,806,1,0,0:0:0:0:
320,192,806,1,0,0:0:0:0:
448,192,806,1,0,0:0:0:0:
192,192,1021,1,0,0:0:0:0:
64,192,1021,1,0,0:0:0:0:
320,192,1074,1,0,0:0:0:0:
448,192,1128,1,0,0:0:0:0:
320,192,1181,1,0,0:0:0:0:
192,192,1235,1,0,0:0:0:0:
64,192,1289,1,0,0:0:0:0:
320,192,1342,1,0,0:0:0:0:
192,192,1396,1,0,0:0:0:0:
64,192,1449,1,0,0:0:0:0:
448,192,1449,1,0,0:0:0:0:
320,192,1735,1,0,0:0:0:0:
64,192,1878,1,0,0:0:0:0:
448,192,1878,1,0,0:0:0:0:
320,192,2039,1,0,0:0:0:0:
64,192,2306,1,0,0:0:0:0:
448,192,2306,1,0,0:0:0:0:
320,192,2360,1,0,0:0:0:0:
320,192,2681,1,0,0:0:0:0:
64,192,2735,1,0,0:0:0:0:
448,192,2735,1,0,0:0:0:0:
320,192,3003,1,0,0:0:0:0:
64,192,3164,1,0,0:0:0:0:
448,192,3164,1,0,0:0:0:0:
192,192,3378,1,0,0:0:0:0:
64,192,3378,1,0,0:0:0:0:
192,192,3485,1,0,0:0:0:0:
320,192,3485,1,0,0:0:0:0:
320,192,3592,1,0,0:0:0:0:
448,192,3592,1,0,0:0:0:0:
64,192,3646,1,0,0:0:0:0:
192,192,3699,1,0,0:0:0:0:
320,192,3753,1,0,0:0:0:0:
448,192,3806,1,0,0:0:0:0:
320,192,3860,1,0,0:0:0:0:
192,192,3914,1,0,0:0:0:0:
64,192,3967,1,0,0:0:0:0:
320,192,4021,1,0,0:0:0:0:
448,192,4021,1,0,0:0:0:0:
192,192,4074,1,0,0:0:0:0:
64,192,4128,1,0,0:0:0:0:
192,192,4181,1,0,0:0:0:0:
320,192,4235,1,0,0:0:0:0:
448,192,4289,1,0,0:0:0:0:
192,192,4342,1,0,0:0:0:0:
320,192,4396,1,0,0:0:0:0:
448,192,4449,1,0,0:0:0:0:
64,192,4449,1,0,0:0:0:0:
192,192,4503,1,0,0:0:0:0:
320,192,4556,1,0,0:0:0:0:
192,192,4610,1,0,0:0:0:0:
64,192,4664,1,0,0:0:0:0:
320,192,4717,1,0,0:0:0:0:
192,192,4771,1,0,0:0:0:0:
64,192,4824,1,0,0:0:0:0:
320,192,4878,1,0,0:0:0:0:
448,192,4878,1,0,0:0:0:0:
64,192,4985,1,0,0:0:0:0:
192,192,4985,1,0,0:0:0:0:
320,192,5092,1,0,0:0:0:0:
192,192,5092,1,0,0:0:0:0:
64,192,5199,1,0,0:0:0:0:
448,192,5199,1,0,0:0:0:0:
192,192,5306,1,0,0:0:0:0:
64,192,5306,1,0,0:0:0:0:
448,192,5306,1,0,0:0:0:0:
320,192,5306,1,0,0:0:0:0:
320,192,5414,1,0,0:0:0:0:
192,192,5467,1,0,0:0:0:0:
64,192,5521,1,0,0:0:0:0:
192,192,5574,1,0,0:0:0:0:
320,192,5628,1,0,0:0:0:0:
448,192,5681,1,0,0:0:0:0:
192,192,5735,1,0,0:0:0:0:
64,192,5735,1,0,0:0:0:0:
320,192,5789,1,0,0:0:0:0:
448,192,5842,1,0,0:0:0:0:
320,192,5896,1,0,0:0:0:0:
192,192,5949,1,0,0:0:0:0:
64,192,6003,1,0,0:0:0:0:
320,192,6056,1,0,0:0:0:0:
192,192,6110,1,0,0:0:0:0:
64,192,6164,1,0,0:0:0:0:
448,192,6164,1,0,0:0:0:0:
320,192,6217,1,0,0:0:0:0:
192,192,6271,1,0,0:0:0:0:
320,192,6324,1,0,0:0:0:0:
448,192,6378,1,0,0:0:0:0:
192,192,6431,1,0,0:0:0:0:
320,192,6485,1,0,0:0:0:0:
448,192,6539,1,0,0:0:0:0:
64,192,6592,1,0,0:0:0:0:
192,192,6592,1,0,0:0:0:0:
320,192,6646,1,0,0:0:0:0:
448,192,6699,1,0,0:0:0:0:
192,192,6753,1,0,0:0:0:0:
64,192,6806,1,0,0:0:0:0:
192,192,6860,1,0,0:0:0:0:
320,192,6914,1,0,0:0:0:0:
448,192,6914,1,0,0:0:0:0:
448,192,7021,1,0,0:0:0:0:
192,192,7021,1,0,0:0:0:0:
64,192,7021,1,0,0:0:0:0:
320,192,7021,1,0,0:0:0:0:
192,192,7235,1,0,0:0:0:0:
320,192,7342,1,0,0:0:0:0:
448,192,7449,1,0,0:0:0:0:
64,192,7449,1,0,0:0:0:0:
448,192,7664,1,0,0:0:0:0:
320,192,7664,1,0,0:0:0:0:
64,192,7664,1,0,0:0:0:0:
192,192,7664,1,0,0:0:0:0:
64,192,7878,1,0,0:0:0:0:
448,192,7878,1,0,0:0:0:0:
192,192,7931,1,0,0:0:0:0:
192,192,8199,128,0,8128:0:0:0:0:
320,192,8253,1,0,0:0:0:0:
64,192,8306,1,0,0:0:0:0:
448,192,8306,1,0,0:0:0:0:
192,192,8521,128,0,8449:0:0:0:0:
320,192,8574,1,0,0:0:0:0:
64,192,8735,1,0,0:0:0:0:
448,192,8735,1,0,0:0:0:0:
192,192,8842,128,0,8771:0:0:0:0:
320,192,8896,1,0,0:0:0:0:
64,192,9164,128,0,9092:0:0:0:0:
448,192,9164,1,0,0:0:0:0:
192,192,9217,1,0,0:0:0:0:
192,192,9485,128,0,9414:0:0:0:0:
320,192,9539,1,0,0:0:0:0:
448,192,9592,1,0,0:0:0:0:
64,192,9592,1,0,0:0:0:0:
192,192,9806,128,0,9735:0:0:0:0:
320,192,9860,1,0,0:0:0:0:
64,192,10021,1,0,0:0:0:0:
448,192,10021,1,0,0:0:0:0:
320,192,10235,1,0,0:0:0:0:
448,192,10235,1,0,0:0:0:0:
64,192,10306,1,0,0:0:0:0:
192,192,10306,1,0,0:0:0:0:
320,192,10378,1,0,0:0:0:0:
448,192,10378,1,0,0:0:0:0:
192,192,10449,1,0,0:0:0:0:
64,192,10449,1,0,0:0:0:0:
64,192,10664,128,0,10592:0:0:0:0:
320,192,10771,128,0,10699:0:0:0:0:
192,192,12164,1,0,0:0:0:0:
320,192,12164,1,0,0:0:0:0:
448,192,12164,1,0,0:0:0:0:
64,192,12164,1,0,0:0:0:0:
320,192,12378,1,0,0:0:0:0:
448,192,12378,1,0,0:0:0:0:
320,192,12485,1,0,0:0:0:0:
192,192,12485,1,0,0:0:0:0:
64,192,12592,1,0,0:0:0:0:
448,192,12699,1,0,0:0:0:0:
320,192,12699,1,0,0:0:0:0:
320,192,12806,1,0,0:0:0:0:
192,192,12806,1,0,0:0:0:0:
64,192,12914,1,0,0:0:0:0:
320,192,13021,1,0,0:0:0:0:
448,192,13021,1,0,0:0:0:0:
320,192,13128,1,0,0:0:0:0:
192,192,13128,1,0,0:0:0:0:
192,192,13235,1,0,0:0:0:0:
64,192,13235,1,0,0:0:0:0:
448,192,13342,1,0,0:0:0:0:
320,192,13342,1,0,0:0:0:0:
64,192,13449,128,0,13378:0:0:0:0:
448,192,13556,128,0,13485:0:0:0:0:
64,192,13664,128,0,13592:0:0:0:0:
448,192,13771,128,0,13699:0:0:0:0:
320,192,13878,1,0,0:0:0:0:
192,192,13878,1,0,0:0:0:0:
64,192,13878,1,0,0:0:0:0:
320,192,14092,1,0,0:0:0:0:
192,192,14199,1,0,0:0:0:0:
64,192,14306,1,0,0:0:0:0:
448,192,14306,1,0,0:0:0:0:
320,192,14414,1,0,0:0:0:0:
448,192,14414,1,0,0:0:0:0:
64,192,14521,128,0,14449:0:0:0:0:
192,192,14628,1,0,0:0:0:0:
320,192,14735,1,0,0:0:0:0:
448,192,14735,1,0,0:0:0:0:
64,192,14842,1,0,0:0:0:0:
192,192,14949,1,0,0:0:0:0:
320,192,14949,1,0,0:0:0:0:
320,192,15056,1,0,0:0:0:0:
448,192,15056,1,0,0:0:0:0:
192,192,15164,1,0,0:0:0:0:
64,192,15164,1,0,0:0:0:0:
64,192,15271,1,0,0:0:0:0:
320,192,15271,1,0,0:0:0:0:
448,192,15378,128,0,15306:0:0:0:0:
320,192,15485,1,0,0:0:0:0:
192,192,15592,1,0,0:0:0:0:
64,192,15592,1,0,0:0:0:0:
448,192,15699,1,0,0:0:0:0:
320,192,15806,1,0,0:0:0:0:
64,192,15806,1,0,0:0:0:0:
192,192,15914,1,0,0:0:0:0:
64,192,15914,1,0,0:0:0:0:
320,192,16021,1,0,0:0:0:0:
448,192,16021,1,0,0:0:0:0:
192,192,16128,1,0,0:0:0:0:
448,192,16128,1,0,0:0:0:0:
64,192,16235,128,0,16164:0:0:0:0:
320,192,16342,1,0,0:0:0:0:
448,192,16449,1,0,0:0:0:0:
192,192,16449,1,0,0:0:0:0:
64,192,16556,1,0,0:0:0:0:
320,192,16664,1,0,0:0:0:0:
448,192,16664,1,0,0:0:0:0:
448,192,16771,1,0,0:0:0:0:
192,192,16771,1,0,0:0:0:0:
64,192,16878,1,0,0:0:0:0:
320,192,16878,1,0,0:0:0:0:
64,192,16985,1,0,0:0:0:0:
192,192,16985,1,0,0:0:0:0:
448,192,17092,128,0,17021:0:0:0:0:
320,192,17199,1,0,0:0:0:0:
448,192,17306,1,0,0:0:0:0:
64,192,17306,1,0,0:0:0:0:
320,192,17414,1,0,0:0:0:0:
192,192,17521,1,0,0:0:0:0:
64,192,17521,1,0,0:0:0:0:
192,192,17628,1,0,0:0:0:0:
320,192,17628,1,0,0:0:0:0:
448,192,17735,1,0,0:0:0:0:
64,192,17735,1,0,0:0:0:0:
320,192,17842,1,0,0:0:0:0:
448,192,17842,1,0,0:0:0:0:
64,192,17949,128,0,17878:0:0:0:0:
192,192,18056,1,0,0:0:0:0:
320,192,18164,1,0,0:0:0:0:
448,192,18164,1,0,0:0:0:0:
64,192,18271,1,0,0:0:0:0:
192,192,18378,1,0,0:0:0:0:
448,192,18378,1,0,0:0:0:0:
448,192,18485,1,0,0:0:0:0:
320,192,18485,1,0,0:0:0:0:
192,192,18592,1,0,0:0:0:0:
64,192,18592,1,0,0:0:0:0:
64,192,18699,1,0,0:0:0:0:
320,192,18699,1,0,0:0:0:0:
448,192,18806,128,0,18735:0:0:0:0:
192,192,18914,1,0,0:0:0:0:
320,192,18967,1,0,0:0:0:0:
64,192,19021,1,0,0:0:0:0:
448,192,19021,1,0,0:0:0:0:
192,192,19128,1,0,0:0:0:0:
448,192,19235,1,0,0:0:0:0:
64,192,19235,1,0,0:0:0:0:
320,192,19342,1,0,0:0:0:0:
64,192,19342,1,0,0:0:0:0:
192,192,19449,1,0,0:0:0:0:
448,192,19449,1,0,0:0:0:0:
320,192,19556,1,0,0:0:0:0:
448,192,19556,1,0,0:0:0:0:
64,192,19664,128,0,19592:0:0:0:0:
192,192,19771,1,0,0:0:0:0:
320,192,19878,1,0,0:0:0:0:
448,192,19878,1,0,0:0:0:0:
64,192,19985,1,0,0:0:0:0:
192,192,20092,1,0,0:0:0:0:
320,192,20092,1,0,0:0:0:0:
448,192,20199,1,0,0:0:0:0:
320,192,20199,1,0,0:0:0:0:
192,192,20306,1,0,0:0:0:0:
64,192,20306,1,0,0:0:0:0:
320,192,20414,1,0,0:0:0:0:
64,192,20414,1,0,0:0:0:0:
448,192,20521,128,0,20449:0:0:0:0:
320,192,20628,1,0,0:0:0:0:
192,192,20681,1,0,0:0:0:0:
64,192,20735,1,0,0:0:0:0:
448,192,20735,1,0,0:0:0:0:
192,192,20842,1,0,0:0:0:0:
64,192,20842,1,0,0:0:0:0:
320,192,20949,1,0,0:0:0:0:
448,192,20949,1,0,0:0:0:0:
320,192,21056,1,0,0:0:0:0:
192,192,21056,1,0,0:0:0:0:
64,192,21164,1,0,0:0:0:0:
448,192,21164,1,0,0:0:0:0:
448,192,21271,1,0,0:0:0:0:
320,192,21271,1,0,0:0:0:0:
192,192,21378,1,0,0:0:0:0:
64,192,21378,1,0,0:0:0:0:
192,192,21485,1,0,0:0:0:0:
320,192,21485,1,0,0:0:0:0:
448,192,21592,1,0,0:0:0:0:
64,192,21592,1,0,0:0:0:0:
64,192,21699,1,0,0:0:0:0:
320,192,21699,1,0,0:0:0:0:
192,192,21806,1,0,0:0:0:0:
448,192,21806,1,0,0:0:0:0:
448,192,21914,1,0,0:0:0:0:
320,192,21914,1,0,0:0:0:0:
192,192,22021,1,0,0:0:0:0:
64,192,22021,1,0,0:0:0:0:
192,192,22128,1,0,0:0:0:0:
320,192,22128,1,0,0:0:0:0:
448,192,22235,1,0,0:0:0:0:
64,192,22235,1,0,0:0:0:0:
192,192,22342,1,0,0:0:0:0:
320,192,22396,1,0,0:0:0:0:
448,192,22449,1,0,0:0:0:0:
64,192,22449,1,0,0:0:0:0:
64,192,22556,1,0,0:0:0:0:
192,192,22556,1,0,0:0:0:0:
320,192,22664,1,0,0:0:0:0:
192,192,22664,1,0,0:0:0:0:
320,192,22771,1,0,0:0:0:0:
448,192,22771,1,0,0:0:0:0:
192,192,22878,1,0,0:0:0:0:
64,192,22878,1,0,0:0:0:0:
64,192,22985,5,0,0:0:0:0:
448,192,22985,1,0,0:0:0:0:
320,192,23092,1,0,0:0:0:0:
192,192,23092,1,0,0:0:0:0:
320,192,23199,1,0,0:0:0:0:
448,192,23199,1,0,0:0:0:0:
192,192,23306,1,0,0:0:0:0:
64,192,23306,1,0,0:0:0:0:
192,192,23414,1,0,0:0:0:0:
320,192,23414,1,0,0:0:0:0:
448,192,23521,1,0,0:0:0:0:
64,192,23521,1,0,0:0:0:0:
320,192,23628,1,0,0:0:0:0:
448,192,23628,1,0,0:0:0:0:
192,192,23735,1,0,0:0:0:0:
64,192,23735,1,0,0:0:0:0:
320,192,23842,1,0,0:0:0:0:
64,192,23842,1,0,0:0:0:0:
192,192,23949,1,0,0:0:0:0:
448,192,23949,1,0,0:0:0:0:
448,192,24056,1,0,0:0:0:0:
320,192,24056,1,0,0:0:0:0:
192,192,24110,1,0,0:0:0:0:
64,192,24164,5,0,0:0:0:0:
320,192,24217,1,0,0:0:0:0:
192,192,24271,1,0,0:0:0:0:
448,192,24324,1,0,0:0:0:0:
64,192,24378,1,0,0:0:0:0:
320,192,24431,1,0,0:0:0:0:
448,192,24485,1,0,0:0:0:0:
64,192,24539,1,0,0:0:0:0:
192,192,24592,1,0,0:0:0:0:
320,192,24592,1,0,0:0:0:0:
448,192,24646,1,0,0:0:0:0:
64,192,24699,1,0,0:0:0:0:
192,192,24753,1,0,0:0:0:0:
320,192,24806,1,0,0:0:0:0:
448,192,24860,1,0,0:0:0:0:
64,192,24914,1,0,0:0:0:0:
192,192,24967,1,0,0:0:0:0:
320,192,25021,1,0,0:0:0:0:
448,192,25021,1,0,0:0:0:0:
64,192,25074,1,0,0:0:0:0:
192,192,25128,1,0,0:0:0:0:
448,192,25181,1,0,0:0:0:0:
64,192,25235,1,0,0:0:0:0:
320,192,25289,1,0,0:0:0:0:
448,192,25342,5,0,0:0:0:0:
64,192,25396,1,0,0:0:0:0:
192,192,25449,1,0,0:0:0:0:
320,192,25449,1,0,0:0:0:0:
448,192,25503,1,0,0:0:0:0:
64,192,25556,1,0,0:0:0:0:
192,192,25610,1,0,0:0:0:0:
448,192,25664,1,0,0:0:0:0:
64,192,25717,1,0,0:0:0:0:
320,192,25771,1,0,0:0:0:0:
448,192,25824,1,0,0:0:0:0:
192,192,25878,1,0,0:0:0:0:
64,192,25878,1,0,0:0:0:0:
192,192,26521,5,0,0:0:0:0:
64,192,26592,1,0,0:0:0:0:
192,192,26664,1,0,0:0:0:0:
320,192,26735,1,0,0:0:0:0:
320,192,26949,1,0,0:0:0:0:
320,192,27164,1,0,0:0:0:0:
448,192,27235,1,0,0:0:0:0:
320,192,27306,1,0,0:0:0:0:
192,192,27378,1,0,0:0:0:0:
64,192,27592,1,0,0:0:0:0:
448,192,27592,1,0,0:0:0:0:
192,192,27699,128,0,27628:0:0:0:0:
64,192,27806,128,0,28021:0:0:0:0:
320,192,27806,128,0,27735:0:0:0:0:
448,192,27914,128,0,27842:0:0:0:0:
192,192,27914,128,0,28021:0:0:0:0:
320,192,28021,1,0,0:0:0:0:
64,192,28235,1,0,0:0:0:0:
448,192,28235,1,0,0:0:0:0:
192,192,28449,128,0,28396:0:0:0:0:
448,192,28449,128,0,28396:0:0:0:0:
64,192,28449,128,0,28396:0:0:0:0:
320,192,28449,128,0,28396:0:0:0:0:
64,192,28556,128,0,28771:0:0:0:0:
448,192,28556,128,0,28878:0:0:0:0:
64,192,28878,1,0,0:0:0:0:
192,192,28878,1,0,0:0:0:0:
320,192,28985,128,0,28914:0:0:0:0:
448,192,29092,128,0,29306:0:0:0:0:
192,192,29092,128,0,29021:0:0:0:0:
64,192,29199,128,0,29128:0:0:0:0:
320,192,29199,128,0,29306:0:0:0:0:
192,192,29306,1,0,0:0:0:0:
320,192,29521,1,0,0:0:0:0:
448,192,29521,1,0,0:0:0:0:
64,192,29735,128,0,29949:0:0:0:0:
192,192,29735,128,0,29681:0:0:0:0:
320,192,29735,128,0,29681:0:0:0:0:
448,192,29735,128,0,29681:0:0:0:0:
192,192,29949,1,0,0:0:0:0:
320,192,29949,1,0,0:0:0:0:
192,192,30164,128,0,30110:0:0:0:0:
64,192,30164,128,0,30110:0:0:0:0:
448,192,30164,128,0,30110:0:0:0:0:
320,192,30164,128,0,30110:0:0:0:0:
448,192,30271,128,0,30592:0:0:0:0:
192,192,30271,128,0,30485:0:0:0:0:
64,192,30592,1,0,0:0:0:0:
448,192,30806,1,0,0:0:0:0:
320,192,30860,1,0,0:0:0:0:
192,192,30914,1,0,0:0:0:0:
448,192,30967,1,0,0:0:0:0:
64,192,31021,1,0,0:0:0:0:
320,192,31021,1,0,0:0:0:0:
192,192,31164,128,0,31092:0:0:0:0:
320,192,31235,128,0,31164:0:0:0:0:
192,192,31556,128,0,31503:0:0:0:0:
320,192,31592,128,0,31556:0:0:0:0:
448,192,31664,1,0,0:0:0:0:
64,192,31664,1,0,0:0:0:0:
320,192,31878,128,0,31824:0:0:0:0:
64,192,31878,128,0,31824:0:0:0:0:
448,192,31878,128,0,31824:0:0:0:0:
192,192,31878,128,0,31824:0:0:0:0:
64,192,31985,1,0,0:0:0:0:
192,192,31985,128,0,32235:0:0:0:0:
448,192,31985,128,0,32092:0:0:0:0:
320,192,32092,1,0,0:0:0:0:
64,192,32199,1,0,0:0:0:0:
448,192,32306,128,0,32521:0:0:0:0:
192,192,32306,128,0,32235:0:0:0:0:
320,192,32521,1,0,0:0:0:0:
64,192,32521,1,0,0:0:0:0:
448,192,32735,128,0,32664:0:0:0:0:
320,192,32789,1,0,0:0:0:0:
192,192,32842,1,0,0:0:0:0:
448,192,32949,1,0,0:0:0:0:
320,192,32949,1,0,0:0:0:0:
64,192,33164,128,0,33092:0:0:0:0:
192,192,33217,1,0,0:0:0:0:
320,192,33271,1,0,0:0:0:0:
192,192,33378,1,0,0:0:0:0:
64,192,33378,1,0,0:0:0:0:
320,192,33485,1,0,0:0:0:0:
320,192,33592,128,0,33539:0:0:0:0:
192,192,33592,128,0,33539:0:0:0:0:
448,192,33592,128,0,33539:0:0:0:0:
64,192,33592,128,0,33539:0:0:0:0:
192,192,33699,128,0,34021:0:0:0:0:
448,192,33914,1,0,0:0:0:0:
64,192,34021,128,0,33914:0:0:0:0:
448,192,34128,128,0,34021:0:0:0:0:
64,192,34235,128,0,34128:0:0:0:0:
448,192,34342,128,0,34235:0:0:0:0:
192,192,34449,1,0,0:0:0:0:
320,192,34449,1,0,0:0:0:0:
64,192,34556,128,0,34485:0:0:0:0:
448,192,34664,128,0,34878:0:0:0:0:
320,192,34664,128,0,34592:0:0:0:0:
64,192,34771,128,0,34878:0:0:0:0:
192,192,34771,128,0,34699:0:0:0:0:
320,192,34878,1,0,0:0:0:0:
64,192,35092,1,0,0:0:0:0:
192,192,35092,1,0,0:0:0:0:
448,192,35306,128,0,35253:0:0:0:0:
320,192,35306,128,0,35253:0:0:0:0:
192,192,35306,128,0,35253:0:0:0:0:
64,192,35306,128,0,35253:0:0:0:0:
320,192,35414,128,0,35735:0:0:0:0:
192,192,35414,128,0,35628:0:0:0:0:
192,192,35735,1,0,0:0:0:0:
64,192,35735,1,0,0:0:0:0:
448,192,35842,128,0,35771:0:0:0:0:
64,192,35949,128,0,35878:0:0:0:0:
320,192,35949,128,0,36164:0:0:0:0:
192,192,36056,128,0,35985:0:0:0:0:
448,192,36056,128,0,36164:0:0:0:0:
64,192,36164,1,0,0:0:0:0:
192,192,36378,1,0,0:0:0:0:
448,192,36378,1,0,0:0:0:0:
448,192,36592,128,0,36806:0:0:0:0:
320,192,36592,128,0,36539:0:0:0:0:
192,192,36592,128,0,36539:0:0:0:0:
64,192,36592,128,0,36539:0:0:0:0:
320,192,36806,1,0,0:0:0:0:
192,192,36806,1,0,0:0:0:0:
448,192,37021,128,0,36967:0:0:0:0:
320,192,37021,128,0,36967:0:0:0:0:
192,192,37021,128,0,36967:0:0:0:0:
64,192,37021,128,0,36967:0:0:0:0:
64,192,37128,128,0,37449:0:0:0:0:
448,192,37128,128,0,37342:0:0:0:0:
320,192,37449,1,0,0:0:0:0:
64,192,37664,1,0,0:0:0:0:
448,192,37717,1,0,0:0:0:0:
192,192,37771,1,0,0:0:0:0:
320,192,37824,1,0,0:0:0:0:
448,192,37878,1,0,0:0:0:0:
64,192,37878,128,0,37985:0:0:0:0:
320,192,38092,128,0,38021:0:0:0:0:
448,192,38092,128,0,38039:0:0:0:0:
64,192,38199,128,0,38146:0:0:0:0:
192,192,38199,128,0,38128:0:0:0:0:
320,192,38306,1,0,0:0:0:0:
192,192,38414,1,0,0:0:0:0:
320,192,38521,1,0,0:0:0:0:
448,192,38521,1,0,0:0:0:0:
448,192,38735,128,0,38681:0:0:0:0:
320,192,38735,128,0,38681:0:0:0:0:
192,192,38735,128,0,38681:0:0:0:0:
64,192,38735,128,0,38681:0:0:0:0:
64,192,38842,128,0,39164:0:0:0:0:
192,192,38842,128,0,39056:0:0:0:0:
448,192,38842,128,0,38949:0:0:0:0:
320,192,39164,1,0,0:0:0:0:
192,192,39378,128,0,39271:0:0:0:0:
320,192,39378,128,0,39699:0:0:0:0:
448,192,39378,128,0,39592:0:0:0:0:
64,192,39378,128,0,39485:0:0:0:0:
448,192,39806,128,0,39699:0:0:0:0:
64,192,39806,128,0,40021:0:0:0:0:
320,192,39806,128,0,39914:0:0:0:0:
192,192,39806,128,0,40128:0:0:0:0:
320,192,40128,128,0,40056:0:0:0:0:
192,192,40235,1,0,0:0:0:0:
64,192,40235,1,0,0:0:0:0:
448,192,40449,128,0,40396:0:0:0:0:
320,192,40449,128,0,40396:0:0:0:0:
192,192,40449,128,0,40396:0:0:0:0:
64,192,40449,128,0,40396:0:0:0:0:
320,192,40556,1,0,0:0:0:0:
192,192,40664,1,0,0:0:0:0:
448,192,40664,1,0,0:0:0:0:
320,192,40771,1,0,0:0:0:0:
64,192,40878,128,0,40771:0:0:0:0:
192,192,40985,128,0,40878:0:0:0:0:
320,192,41092,128,0,40985:0:0:0:0:
448,192,41199,128,0,41092:0:0:0:0:
320,192,41306,1,0,0:0:0:0:
192,192,41306,1,0,0:0:0:0:
64,192,41306,1,0,0:0:0:0:
448,192,41414,128,0,41342:0:0:0:0:
64,192,41521,128,0,41449:0:0:0:0:
320,192,41521,128,0,41735:0:0:0:0:
192,192,41628,128,0,41556:0:0:0:0:
448,192,41628,128,0,41735:0:0:0:0:
64,192,41735,1,0,0:0:0:0:
192,192,41949,1,0,0:0:0:0:
320,192,41949,1,0,0:0:0:0:
448,192,42164,128,0,42110:0:0:0:0:
320,192,42164,128,0,42110:0:0:0:0:
192,192,42164,128,0,42110:0:0:0:0:
64,192,42164,128,0,42110:0:0:0:0:
448,192,42271,128,0,42378:0:0:0:0:
192,192,42378,1,0,0:0:0:0:
64,192,42378,1,0,0:0:0:0:
320,192,42592,128,0,42521:0:0:0:0:
192,192,42628,128,0,42556:0:0:0:0:
448,192,42628,1,0,0:0:0:0:
64,192,42664,1,0,0:0:0:0:
320,192,42806,1,0,0:0:0:0:
448,192,42806,1,0,0:0:0:0:
192,192,43021,128,0,42949:0:0:0:0:
320,192,43056,128,0,42985:0:0:0:0:
64,192,43056,1,0,0:0:0:0:
448,192,43092,1,0,0:0:0:0:
192,192,43235,1,0,0:0:0:0:
64,192,43235,1,0,0:0:0:0:
320,192,43449,128,0,43378:0:0:0:0:
192,192,43485,128,0,43414:0:0:0:0:
64,192,43521,128,0,43771:0:0:0:0:
448,192,43556,128,0,43771:0:0:0:0:
448,192,43878,128,0,43824:0:0:0:0:
320,192,43878,128,0,43824:0:0:0:0:
192,192,43878,128,0,43824:0:0:0:0:
64,192,43878,128,0,43824:0:0:0:0:
64,192,43985,128,0,44342:0:0:0:0:
448,192,43985,128,0,44306:0:0:0:0:
320,192,43985,128,0,44199:0:0:0:0:
192,192,44521,1,0,0:0:0:0:
64,192,44574,1,0,0:0:0:0:
320,192,44628,1,0,0:0:0:0:
192,192,44681,1,0,0:0:0:0:
448,192,44735,1,0,0:0:0:0:
64,192,44735,1,0,0:0:0:0:
320,192,44878,128,0,44806:0:0:0:0:
192,192,44949,128,0,44878:0:0:0:0:
448,192,45164,1,0,0:0:0:0:
64,192,45164,1,0,0:0:0:0:
320,192,45271,128,0,45217:0:0:0:0:
192,192,45306,128,0,45235:0:0:0:0:
64,192,45378,1,0,0:0:0:0:
448,192,45378,1,0,0:0:0:0:
448,192,45592,128,0,45539:0:0:0:0:
320,192,45592,128,0,45539:0:0:0:0:
192,192,45592,128,0,45539:0:0:0:0:
64,192,45592,128,0,45539:0:0:0:0:
320,192,45699,128,0,46021:0:0:0:0:
192,192,45699,128,0,45914:0:0:0:0:
448,192,45699,128,0,45806:0:0:0:0:
448,192,46021,1,0,0:0:0:0:
192,192,46128,1,0,0:0:0:0:
320,192,46235,1,0,0:0:0:0:
448,192,46235,1,0,0:0:0:0:
448,192,46449,128,0,46664:0:0:0:0:
192,192,46449,1,0,0:0:0:0:
320,192,46449,128,0,46396:0:0:0:0:
64,192,46449,128,0,46556:0:0:0:0:
64,192,46664,1,0,0:0:0:0:
192,192,46664,1,0,0:0:0:0:
448,192,46878,128,0,46985:0:0:0:0:
320,192,46878,128,0,46824:0:0:0:0:
192,192,46878,128,0,46824:0:0:0:0:
64,192,46878,128,0,47092:0:0:0:0:
320,192,47092,1,0,0:0:0:0:
448,192,47092,1,0,0:0:0:0:
448,192,47306,128,0,47628:0:0:0:0:
320,192,47306,128,0,47253:0:0:0:0:
192,192,47306,128,0,47253:0:0:0:0:
64,192,47306,128,0,47253:0:0:0:0:
320,192,47628,1,0,0:0:0:0:
64,192,47735,128,0,47681:0:0:0:0:
192,192,47789,128,0,47735:0:0:0:0:
320,192,47842,128,0,47789:0:0:0:0:
448,192,47896,128,0,47842:0:0:0:0:
64,192,47949,128,0,47896:0:0:0:0:
192,192,48003,128,0,47949:0:0:0:0:
320,192,48056,128,0,48003:0:0:0:0:
448,192,48110,128,0,48056:0:0:0:0:
192,192,48164,1,0,0:0:0:0:
64,192,48164,1,0,0:0:0:0:
320,192,48271,128,0,48199:0:0:0:0:
448,192,48378,128,0,48306:0:0:0:0:
192,192,48378,128,0,48592:0:0:0:0:
320,192,48485,128,0,48592:0:0:0:0:
64,192,48485,128,0,48414:0:0:0:0:
448,192,48592,1,0,0:0:0:0:
192,192,48806,1,0,0:0:0:0:
64,192,48806,1,0,0:0:0:0:
448,192,49021,128,0,48967:0:0:0:0:
192,192,49021,128,0,48967:0:0:0:0:
64,192,49021,128,0,48967:0:0:0:0:
320,192,49021,128,0,48967:0:0:0:0:
448,192,49128,128,0,49378:0:0:0:0:
192,192,49128,128,0,49235:0:0:0:0:
64,192,49235,1,0,0:0:0:0:
320,192,49235,1,0,0:0:0:0:
448,192,49449,128,0,49378:0:0:0:0:
192,192,49485,128,0,49414:0:0:0:0:
320,192,49485,1,0,0:0:0:0:
64,192,49521,1,0,0:0:0:0:
320,192,49664,1,0,0:0:0:0:
448,192,49664,1,0,0:0:0:0:
64,192,49878,128,0,49806:0:0:0:0:
320,192,49914,128,0,49842:0:0:0:0:
192,192,49914,1,0,0:0:0:0:
448,192,49949,1,0,0:0:0:0:
192,192,50092,1,0,0:0:0:0:
64,192,50092,1,0,0:0:0:0:
448,192,50306,128,0,50235:0:0:0:0:
192,192,50342,128,0,50271:0:0:0:0:
320,192,50342,128,0,50628:0:0:0:0:
64,192,50378,128,0,50628:0:0:0:0:
192,192,50521,1,0,0:0:0:0:
448,192,50521,1,0,0:0:0:0:
448,192,50735,128,0,50681:0:0:0:0:
192,192,50735,128,0,50681:0:0:0:0:
320,192,50735,128,0,50681:0:0:0:0:
64,192,50735,128,0,50681:0:0:0:0:
192,192,50842,128,0,51164:0:0:0:0:
320,192,50842,128,0,51164:0:0:0:0:
64,192,50842,128,0,51056:0:0:0:0:
448,192,50842,128,0,51056:0:0:0:0:
448,192,51378,1,0,0:0:0:0:
320,192,51431,1,0,0:0:0:0:
192,192,51485,1,0,0:0:0:0:
448,192,51539,1,0,0:0:0:0:
320,192,51592,1,0,0:0:0:0:
64,192,51592,128,0,51806:0:0:0:0:
320,192,51806,128,0,51735:0:0:0:0:
448,192,51806,128,0,51753:0:0:0:0:
192,192,51914,128,0,51842:0:0:0:0:
64,192,51914,128,0,51860:0:0:0:0:
448,192,52021,1,0,0:0:0:0:
64,192,52128,1,0,0:0:0:0:
320,192,52235,1,0,0:0:0:0:
448,192,52235,1,0,0:0:0:0:
448,192,52449,128,0,52396:0:0:0:0:
192,192,52449,128,0,52396:0:0:0:0:
64,192,52449,128,0,52396:0:0:0:0:
320,192,52449,128,0,52396:0:0:0:0:
192,192,52556,128,0,52664:0:0:0:0:
320,192,52556,128,0,52664:0:0:0:0:
448,192,52556,128,0,52664:0:0:0:0:
64,192,52556,128,0,52664:0:0:0:0:
192,192,53092,1,0,0:0:0:0:
64,192,53092,1,0,0:0:0:0:
320,192,53146,1,0,0:0:0:0:
448,192,53199,1,0,0:0:0:0:
192,192,53253,1,0,0:0:0:0:
320,192,53306,1,0,0:0:0:0:
64,192,53360,1,0,0:0:0:0:
192,192,53414,1,0,0:0:0:0:
320,192,53467,1,0,0:0:0:0:
64,192,53521,1,0,0:0:0:0:
448,192,53574,1,0,0:0:0:0:
320,192,53628,1,0,0:0:0:0:
192,192,53681,1,0,0:0:0:0:
64,192,53735,1,0,0:0:0:0:
448,192,53789,1,0,0:0:0:0:
320,192,53842,1,0,0:0:0:0:
192,192,53896,1,0,0:0:0:0:
448,192,53949,1,0,0:0:0:0:
320,192,54003,1,0,0:0:0:0:
64,192,54056,128,0,54003:0:0:0:0:
192,192,54110,128,0,54056:0:0:0:0:
320,192,54164,128,0,54110:0:0:0:0:
448,192,54217,128,0,54164:0:0:0:0:
192,192,54271,128,0,54217:0:0:0:0:
64,192,54324,128,0,54271:0:0:0:0:
320,192,54378,128,0,54324:0:0:0:0:
192,192,54431,128,0,54378:0:0:0:0:
64,192,54485,1,0,0:0:0:0:
320,192,54539,1,0,0:0:0:0:
448,192,54592,1,0,0:0:0:0:
192,192,54592,1,0,0:0:0:0:
64,192,55021,1,0,0:0:0:0:
192,192,55021,1,0,0:0:0:0:
320,192,55021,1,0,0:0:0:0:
448,192,55021,1,0,0:0:0:0:
64,192,55128,128,0,55449:0:0:0:0:
192,192,55128,128,0,55235:0:0:0:0:
448,192,55128,128,0,55342:0:0:0:0:
320,192,55449,128,0,55378:0:0:0:0:
192,192,55521,128,0,55449:0:0:0:0:
64,192,55592,128,0,55521:0:0:0:0:
448,192,55664,128,0,55592:0:0:0:0:
320,192,55735,128,0,55664:0:0:0:0:
192,192,55878,128,0,55824:0:0:0:0:
64,192,55878,128,0,55824:0:0:0:0:
320,192,55878,128,0,55824:0:0:0:0:
448,192,55878,128,0,55824:0:0:0:0:
320,192,56092,1,0,0:0:0:0:
192,192,56092,1,0,0:0:0:0:
448,192,56306,128,0,56235:0:0:0:0:
192,192,56342,1,0,0:0:0:0:
64,192,56342,128,0,56271:0:0:0:0:
320,192,56378,1,0,0:0:0:0:
192,192,56521,1,0,0:0:0:0:
320,192,56521,1,0,0:0:0:0:
64,192,56735,128,0,56664:0:0:0:0:
448,192,56771,128,0,56699:0:0:0:0:
320,192,56771,1,0,0:0:0:0:
192,192,56806,1,0,0:0:0:0:
320,192,56949,1,0,0:0:0:0:
192,192,56949,1,0,0:0:0:0:
448,192,57164,128,0,57092:0:0:0:0:
64,192,57199,128,0,57128:0:0:0:0:
192,192,57199,128,0,57449:0:0:0:0:
320,192,57235,128,0,57521:0:0:0:0:
64,192,57592,128,0,57539:0:0:0:0:
448,192,57592,128,0,57539:0:0:0:0:
192,192,57592,128,0,57539:0:0:0:0:
320,192,57592,128,0,57539:0:0:0:0:
64,192,57699,128,0,58021:0:0:0:0:
448,192,57699,128,0,58021:0:0:0:0:
192,192,57699,128,0,57914:0:0:0:0:
320,192,57699,128,0,57914:0:0:0:0:
192,192,58235,1,0,0:0:0:0:
64,192,58289,1,0,0:0:0:0:
320,192,58342,1,0,0:0:0:0:
192,192,58396,1,0,0:0:0:0:
448,192,58449,1,0,0:0:0:0:
64,192,58449,1,0,0:0:0:0:
192,192,58610,128,0,58556:0:0:0:0:
448,192,58664,128,0,58592:0:0:0:0:
320,192,58824,128,0,58771:0:0:0:0:
64,192,58878,128,0,58771:0:0:0:0:
192,192,58878,128,0,58771:0:0:0:0:
192,192,58985,1,0,0:0:0:0:
64,192,58985,1,0,0:0:0:0:
192,192,59092,1,0,0:0:0:0:
64,192,59092,1,0,0:0:0:0:
448,192,59199,128,0,59146:0:0:0:0:
320,192,59306,1,0,0:0:0:0:
192,192,59306,1,0,0:0:0:0:
64,192,59306,128,0,59235:0:0:0:0:
64,192,59414,1,0,0:0:0:0:
192,192,59414,1,0,0:0:0:0:
448,192,59521,128,0,59467:0:0:0:0:
320,192,59628,1,0,0:0:0:0:
192,192,59735,1,0,0:0:0:0:
64,192,59735,1,0,0:0:0:0:
448,192,59842,128,0,59789:0:0:0:0:
320,192,59949,1,0,0:0:0:0:
192,192,59949,1,0,0:0:0:0:
64,192,59949,1,0,0:0:0:0:
64,192,60164,128,0,60092:0:0:0:0:
448,192,60164,128,0,60110:0:0:0:0:
192,192,60164,128,0,60378:0:0:0:0:
320,192,60164,128,0,60271:0:0:0:0:
64,192,60378,1,0,0:0:0:0:
448,192,60378,1,0,0:0:0:0:
64,192,60592,128,0,60539:0:0:0:0:
192,192,60592,1,0,0:0:0:0:
320,192,60646,128,0,60592:0:0:0:0:
64,192,60699,128,0,60646:0:0:0:0:
320,192,60753,128,0,60699:0:0:0:0:
64,192,60806,1,0,0:0:0:0:
448,192,60806,1,0,0:0:0:0:
64,192,61021,128,0,60967:0:0:0:0:
448,192,61021,128,0,60967:0:0:0:0:
192,192,61021,128,0,60967:0:0:0:0:
320,192,61021,128,0,60967:0:0:0:0:
64,192,61128,128,0,61449:0:0:0:0:
448,192,61235,128,0,61181:0:0:0:0:
448,192,61342,128,0,61289:0:0:0:0:
192,192,61449,128,0,61396:0:0:0:0:
320,192,61503,128,0,61449:0:0:0:0:
448,192,61556,128,0,61503:0:0:0:0:
64,192,61610,128,0,61771:0:0:0:0:
448,192,61878,128,0,61824:0:0:0:0:
192,192,61878,128,0,61824:0:0:0:0:
320,192,61878,128,0,61824:0:0:0:0:
64,192,61878,128,0,61824:0:0:0:0:
448,192,61985,128,0,62199:0:0:0:0:
64,192,61985,128,0,62092:0:0:0:0:
320,192,61985,128,0,62306:0:0:0:0:
64,192,62306,128,0,62235:0:0:0:0:
448,192,62378,128,0,62306:0:0:0:0:
320,192,62449,128,0,62378:0:0:0:0:
192,192,62521,128,0,62449:0:0:0:0:
64,192,62592,128,0,62521:0:0:0:0:
448,192,62592,128,0,62664:0:0:0:0:
448,192,62735,128,0,62681:0:0:0:0:
320,192,62735,128,0,62681:0:0:0:0:
64,192,62735,128,0,62681:0:0:0:0:
192,192,62735,128,0,62681:0:0:0:0:
320,192,62842,128,0,62949:0:0:0:0:
64,192,62842,128,0,62949:0:0:0:0:
192,192,62949,1,0,0:0:0:0:
448,192,62949,1,0,0:0:0:0:
192,192,63164,128,0,63092:0:0:0:0:
64,192,63199,128,0,63128:0:0:0:0:
448,192,63199,1,0,0:0:0:0:
320,192,63235,1,0,0:0:0:0:
192,192,63378,1,0,0:0:0:0:
448,192,63378,1,0,0:0:0:0:
320,192,63592,128,0,63521:0:0:0:0:
448,192,63628,128,0,63556:0:0:0:0:
64,192,63628,1,0,0:0:0:0:
192,192,63664,1,0,0:0:0:0:
320,192,63806,1,0,0:0:0:0:
64,192,63806,1,0,0:0:0:0:
192,192,64021,128,0,63949:0:0:0:0:
64,192,64056,128,0,63985:0:0:0:0:
448,192,64056,128,0,64021:0:0:0:0:
320,192,64092,128,0,64056:0:0:0:0:
64,192,64235,128,0,64199:0:0:0:0:
192,192,64271,128,0,64235:0:0:0:0:
320,192,64306,128,0,64271:0:0:0:0:
448,192,64342,128,0,64306:0:0:0:0:
448,192,64449,128,0,64396:0:0:0:0:
320,192,64449,128,0,64396:0:0:0:0:
64,192,64449,128,0,64396:0:0:0:0:
192,192,64449,128,0,64396:0:0:0:0:
64,192,64556,1,0,0:0:0:0:
192,192,64556,1,0,0:0:0:0:
448,192,64664,1,0,0:0:0:0:
320,192,64664,128,0,64878:0:0:0:0:
64,192,64878,1,0,0:0:0:0:
192,192,65092,128,0,65039:0:0:0:0:
320,192,65092,128,0,65306:0:0:0:0:
448,192,65199,128,0,65146:0:0:0:0:
448,192,65306,128,0,65253:0:0:0:0:
64,192,65306,128,0,65253:0:0:0:0:
192,192,65306,128,0,65253:0:0:0:0:
64,192,65521,128,0,65414:0:0:0:0:
192,192,65521,128,0,65735:0:0:0:0:
448,192,65628,128,0,65521:0:0:0:0:
320,192,65628,128,0,65735:0:0:0:0:
64,192,65735,1,0,0:0:0:0:
448,192,65842,1,0,0:0:0:0:
320,192,65949,1,0,0:0:0:0:
192,192,65949,1,0,0:0:0:0:
320,192,66164,128,0,66110:0:0:0:0:
64,192,66164,128,0,66110:0:0:0:0:
192,192,66164,128,0,66110:0:0:0:0:
448,192,66164,128,0,66110:0:0:0:0:
192,192,66271,128,0,66378:0:0:0:0:
320,192,66271,128,0,66378:0:0:0:0:
448,192,66271,128,0,66378:0:0:0:0:
64,192,66271,128,0,66378:0:0:0:0:
64,192,66592,128,0,66539:0:0:0:0:
320,192,66646,128,0,66592:0:0:0:0:
448,192,66699,128,0,66646:0:0:0:0:
64,192,66753,128,0,66699:0:0:0:0:
192,192,66806,1,0,0:0:0:0:
320,192,66806,128,0,66780:0:0:0:0:
448,192,66860,128,0,66833:0:0:0:0:
192,192,67235,1,0,0:0:0:0:
192,192,67664,1,0,0:0:0:0:
448,192,67878,1,0,0:0:0:0:
320,192,67985,1,0,0:0:0:0:
192,192,68092,1,0,0:0:0:0:
320,192,68521,1,0,0:0:0:0:
192,192,68592,1,0,0:0:0:0:
64,192,68664,1,0,0:0:0:0:
192,192,68735,1,0,0:0:0:0:
320,192,68735,1,0,0:0:0:0:
64,192,69164,1,0,0:0:0:0:
192,192,69592,1,0,0:0:0:0:
320,192,70021,1,0,0:0:0:0:
192,192,70449,1,0,0:0:0:0:
320,192,70878,1,0,0:0:0:0:
64,192,71306,1,0,0:0:0:0:
192,192,71735,1,0,0:0:0:0:
320,192,72164,1,0,0:0:0:0:
448,192,72164,1,0,0:0:0:0:
192,192,72592,1,0,0:0:0:0:
320,192,73021,1,0,0:0:0:0:
448,192,73449,1,0,0:0:0:0:
320,192,73878,1,0,0:0:0:0:
192,192,74306,1,0,0:0:0:0:
320,192,74735,1,0,0:0:0:0:
448,192,75164,1,0,0:0:0:0:
320,192,75592,1,0,0:0:0:0:
448,192,75592,1,0,0:0:0:0:
192,192,75592,1,0,0:0:0:0:
64,192,75592,1,0,0:0:0:0:
320,192,75806,1,0,0:0:0:0:
192,192,76021,1,0,0:0:0:0:
64,192,76235,1,0,0:0:0:0:
448,192,76449,1,0,0:0:0:0:
192,192,76664,1,0,0:0:0:0:
320,192,76878,1,0,0:0:0:0:
64,192,77092,1,0,0:0:0:0:
448,192,77306,1,0,0:0:0:0:
320,192,77521,1,0,0:0:0:0:
192,192,77628,1,0,0:0:0:0:
448,192,77735,1,0,0:0:0:0:
320,192,77842,1,0,0:0:0:0:
192,192,77949,1,0,0:0:0:0:
448,192,78056,1,0,0:0:0:0:
320,192,78164,1,0,0:0:0:0:
192,192,78271,1,0,0:0:0:0:
448,192,78378,1,0,0:0:0:0:
320,192,78485,1,0,0:0:0:0:
192,192,78592,1,0,0:0:0:0:
64,192,78699,1,0,0:0:0:0:
192,192,78806,1,0,0:0:0:0:
320,192,78914,1,0,0:0:0:0:
64,192,79021,1,0,0:0:0:0:
192,192,79128,1,0,0:0:0:0:
320,192,79235,1,0,0:0:0:0:
64,192,79342,1,0,0:0:0:0:
192,192,79449,1,0,0:0:0:0:
320,192,79556,1,0,0:0:0:0:
448,192,79664,1,0,0:0:0:0:
320,192,79771,1,0,0:0:0:0:
192,192,79878,1,0,0:0:0:0:
64,192,79985,1,0,0:0:0:0:
320,192,80092,1,0,0:0:0:0:
192,192,80199,1,0,0:0:0:0:
64,192,80306,1,0,0:0:0:0:
192,192,80414,1,0,0:0:0:0:
320,192,80521,1,0,0:0:0:0:
448,192,80628,1,0,0:0:0:0:
320,192,80735,1,0,0:0:0:0:
192,192,80735,1,0,0:0:0:0:
64,192,80735,1,0,0:0:0:0:
448,192,80842,1,0,0:0:0:0:
192,192,80949,1,0,0:0:0:0:
320,192,81056,1,0,0:0:0:0:
192,192,81164,1,0,0:0:0:0:
64,192,81271,1,0,0:0:0:0:
448,192,81378,1,0,0:0:0:0:
320,192,81378,1,0,0:0:0:0:
192,192,81378,1,0,0:0:0:0:
64,192,81485,1,0,0:0:0:0:
320,192,81592,1,0,0:0:0:0:
192,192,81699,1,0,0:0:0:0:
320,192,81806,1,0,0:0:0:0:
448,192,81914,1,0,0:0:0:0:
64,192,82021,1,0,0:0:0:0:
192,192,82128,1,0,0:0:0:0:
320,192,82235,1,0,0:0:0:0:
448,192,82342,1,0,0:0:0:0:
192,192,82449,1,0,0:0:0:0:
64,192,82449,1,0,0:0:0:0:
320,192,82878,1,0,0:0:0:0:
64,192,83306,1,0,0:0:0:0:
192,192,83735,1,0,0:0:0:0:
320,192,84164,1,0,0:0:0:0:
64,192,84592,1,0,0:0:0:0:
448,192,85021,1,0,0:0:0:0:
192,192,85449,1,0,0:0:0:0:
448,192,85878,1,0,0:0:0:0:
320,192,85878,1,0,0:0:0:0:
64,192,86306,1,0,0:0:0:0:
320,192,86735,1,0,0:0:0:0:
192,192,87164,1,0,0:0:0:0:
192,192,87592,1,0,0:0:0:0:
64,192,87592,1,0,0:0:0:0:
448,192,88021,1,0,0:0:0:0:
64,192,88235,1,0,0:0:0:0:
320,192,88235,1,0,0:0:0:0:
192,192,88449,1,0,0:0:0:0:
64,192,88878,1,0,0:0:0:0:
320,192,89306,1,0,0:0:0:0:
448,192,89306,1,0,0:0:0:0:
192,192,89520,1,0,0:0:0:0:
320,192,91878,1,0,0:0:0:0:
192,192,92735,1,0,0:0:0:0:
64,192,92735,1,0,0:0:0:0:
64,192,94449,1,0,0:0:0:0:
448,192,94449,1,0,0:0:0:0:
64,192,95092,1,0,0:0:0:0:
192,192,95092,1,0,0:0:0:0:
448,192,95306,1,0,0:0:0:0:
64,192,95735,1,0,0:0:0:0:
192,192,95770,1,0,0:0:0:0:
448,192,95806,1,0,0:0:0:0:
320,192,95842,1,0,0:0:0:0:
64,192,95878,1,0,0:0:0:0:
192,192,95913,1,0,0:0:0:0:
448,192,95949,128,0,95913:0:0:0:0:
320,192,95985,128,0,95949:0:0:0:0:
64,192,96020,128,0,95985:0:0:0:0:
192,192,96056,128,0,96020:0:0:0:0:
448,192,96092,128,0,96056:0:0:0:0:
320,192,96128,128,0,96092:0:0:0:0:
192,192,96164,1,0,0:0:0:0:
64,192,96164,1,0,0:0:0:0:
320,192,96271,1,0,0:0:0:0:
448,192,96271,1,0,0:0:0:0:
64,192,96378,1,0,0:0:0:0:
448,192,96378,1,0,0:0:0:0:
192,192,96485,1,0,0:0:0:0:
64,192,96485,1,0,0:0:0:0:
320,192,96592,1,0,0:0:0:0:
448,192,96592,1,0,0:0:0:0:
192,192,96699,1,0,0:0:0:0:
64,192,96806,1,0,0:0:0:0:
448,192,96806,1,0,0:0:0:0:
320,192,96914,1,0,0:0:0:0:
448,192,97021,128,0,96967:0:0:0:0:
64,192,97021,128,0,96967:0:0:0:0:
192,192,97021,128,0,96967:0:0:0:0:
192,192,97128,1,0,0:0:0:0:
448,192,97235,128,0,97449:0:0:0:0:
64,192,97235,1,0,0:0:0:0:
192,192,97342,1,0,0:0:0:0:
320,192,97449,1,0,0:0:0:0:
64,192,97449,1,0,0:0:0:0:
320,192,97556,1,0,0:0:0:0:
192,192,97556,1,0,0:0:0:0:
448,192,97664,1,0,0:0:0:0:
64,192,97664,1,0,0:0:0:0:
320,192,97771,1,0,0:0:0:0:
192,192,97824,1,0,0:0:0:0:
320,192,97878,128,0,97824:0:0:0:0:
64,192,97878,128,0,97824:0:0:0:0:
448,192,97878,128,0,97824:0:0:0:0:
192,192,97985,1,0,0:0:0:0:
448,192,98092,128,0,98306:0:0:0:0:
320,192,98092,1,0,0:0:0:0:
192,192,98199,1,0,0:0:0:0:
64,192,98306,1,0,0:0:0:0:
320,192,98414,1,0,0:0:0:0:
448,192,98414,1,0,0:0:0:0:
320,192,98521,1,0,0:0:0:0:
192,192,98521,1,0,0:0:0:0:
64,192,98628,1,0,0:0:0:0:
320,192,98735,128,0,98681:0:0:0:0:
448,192,98735,128,0,98681:0:0:0:0:
192,192,98735,128,0,98681:0:0:0:0:
448,192,98842,1,0,0:0:0:0:
64,192,98949,128,0,99164:0:0:0:0:
192,192,98949,1,0,0:0:0:0:
320,192,99056,1,0,0:0:0:0:
448,192,99164,1,0,0:0:0:0:
320,192,99271,1,0,0:0:0:0:
64,192,99271,1,0,0:0:0:0:
192,192,99378,1,0,0:0:0:0:
320,192,99378,1,0,0:0:0:0:
64,192,99485,1,0,0:0:0:0:
320,192,99539,1,0,0:0:0:0:
64,192,99592,128,0,99539:0:0:0:0:
192,192,99592,128,0,99539:0:0:0:0:
448,192,99592,128,0,99539:0:0:0:0:
320,192,99699,1,0,0:0:0:0:
64,192,99806,128,0,100021:0:0:0:0:
192,192,99806,1,0,0:0:0:0:
448,192,99914,1,0,0:0:0:0:
320,192,100021,1,0,0:0:0:0:
192,192,100128,1,0,0:0:0:0:
64,192,100128,1,0,0:0:0:0:
320,192,100235,1,0,0:0:0:0:
192,192,100235,1,0,0:0:0:0:
448,192,100342,1,0,0:0:0:0:
192,192,100449,128,0,100396:0:0:0:0:
320,192,100449,128,0,100396:0:0:0:0:
64,192,100449,128,0,100396:0:0:0:0:
64,192,100556,1,0,0:0:0:0:
448,192,100664,128,0,100878:0:0:0:0:
320,192,100664,1,0,0:0:0:0:
192,192,100771,1,0,0:0:0:0:
64,192,100878,1,0,0:0:0:0:
192,192,100985,1,0,0:0:0:0:
448,192,100985,1,0,0:0:0:0:
192,192,101092,1,0,0:0:0:0:
64,192,101092,1,0,0:0:0:0:
320,192,101199,1,0,0:0:0:0:
192,192,101253,1,0,0:0:0:0:
448,192,101306,128,0,101253:0:0:0:0:
64,192,101306,128,0,101253:0:0:0:0:
320,192,101306,128,0,101253:0:0:0:0:
192,192,101414,1,0,0:0:0:0:
64,192,101521,128,0,101735:0:0:0:0:
448,192,101521,128,0,101735:0:0:0:0:
320,192,101521,128,0,101628:0:0:0:0:
192,192,101735,1,0,0:0:0:0:
64,192,101842,1,0,0:0:0:0:
320,192,101842,1,0,0:0:0:0:
192,192,101949,1,0,0:0:0:0:
320,192,101949,1,0,0:0:0:0:
448,192,102056,1,0,0:0:0:0:
192,192,102164,128,0,102110:0:0:0:0:
64,192,102164,128,0,102110:0:0:0:0:
320,192,102164,128,0,102110:0:0:0:0:
64,192,102271,1,0,0:0:0:0:
192,192,102378,128,0,102592:0:0:0:0:
320,192,102378,128,0,102539:0:0:0:0:
448,192,102378,128,0,102485:0:0:0:0:
64,192,102378,128,0,102485:0:0:0:0:
448,192,102592,1,0,0:0:0:0:
320,192,102646,128,0,102619:0:0:0:0:
192,192,102699,128,0,102672:0:0:0:0:
448,192,102753,128,0,102967:0:0:0:0:
64,192,102753,128,0,102726:0:0:0:0:
320,192,102806,128,0,102967:0:0:0:0:
192,192,102860,128,0,102967:0:0:0:0:
192,192,103021,1,0,0:0:0:0:
320,192,103021,1,0,0:0:0:0:
64,192,103021,1,0,0:0:0:0:
448,192,103021,1,0,0:0:0:0:
320,192,103128,1,0,0:0:0:0:
448,192,103128,1,0,0:0:0:0:
192,192,103235,1,0,0:0:0:0:
64,192,103235,1,0,0:0:0:0:
192,192,103342,1,0,0:0:0:0:
320,192,103342,1,0,0:0:0:0:
448,192,103449,1,0,0:0:0:0:
64,192,103449,1,0,0:0:0:0:
64,192,103556,1,0,0:0:0:0:
192,192,103556,1,0,0:0:0:0:
320,192,103664,1,0,0:0:0:0:
448,192,103664,1,0,0:0:0:0:
320,192,103771,1,0,0:0:0:0:
192,192,103771,1,0,0:0:0:0:
64,192,103878,1,0,0:0:0:0:
448,192,103878,1,0,0:0:0:0:
448,192,103985,1,0,0:0:0:0:
192,192,103985,1,0,0:0:0:0:
320,192,104092,1,0,0:0:0:0:
64,192,104092,1,0,0:0:0:0:
64,192,104199,1,0,0:0:0:0:
192,192,104199,1,0,0:0:0:0:
320,192,104306,1,0,0:0:0:0:
448,192,104306,1,0,0:0:0:0:
320,192,104414,1,0,0:0:0:0:
192,192,104414,1,0,0:0:0:0:
64,192,104521,1,0,0:0:0:0:
448,192,104521,1,0,0:0:0:0:
64,192,104628,1,0,0:0:0:0:
192,192,104628,1,0,0:0:0:0:
320,192,104735,1,0,0:0:0:0:
448,192,104735,1,0,0:0:0:0:
448,192,104842,1,0,0:0:0:0:
64,192,104842,1,0,0:0:0:0:
192,192,104949,1,0,0:0:0:0:
320,192,104949,1,0,0:0:0:0:
192,192,105056,1,0,0:0:0:0:
64,192,105056,1,0,0:0:0:0:
320,192,105164,1,0,0:0:0:0:
448,192,105164,1,0,0:0:0:0:
448,192,105271,5,0,0:0:0:0:
64,192,105271,1,0,0:0:0:0:
192,192,105378,1,0,0:0:0:0:
320,192,105378,1,0,0:0:0:0:
192,192,105485,1,0,0:0:0:0:
64,192,105485,1,0,0:0:0:0:
320,192,105592,1,0,0:0:0:0:
448,192,105592,1,0,0:0:0:0:
320,192,105699,1,0,0:0:0:0:
192,192,105699,1,0,0:0:0:0:
64,192,105806,1,0,0:0:0:0:
448,192,105806,1,0,0:0:0:0:
192,192,105914,1,0,0:0:0:0:
64,192,105914,1,0,0:0:0:0:
320,192,106021,1,0,0:0:0:0:
448,192,106021,1,0,0:0:0:0:
192,192,106128,1,0,0:0:0:0:
448,192,106128,1,0,0:0:0:0:
320,192,106235,1,0,0:0:0:0:
64,192,106235,1,0,0:0:0:0:
64,192,106342,1,0,0:0:0:0:
192,192,106342,1,0,0:0:0:0:
320,192,106396,1,0,0:0:0:0:
448,192,106449,5,0,0:0:0:0:
192,192,106503,1,0,0:0:0:0:
320,192,106556,1,0,0:0:0:0:
64,192,106610,1,0,0:0:0:0:
448,192,106664,1,0,0:0:0:0:
192,192,106717,1,0,0:0:0:0:
64,192,106771,1,0,0:0:0:0:
448,192,106824,1,0,0:0:0:0:
320,192,106878,1,0,0:0:0:0:
192,192,106878,1,0,0:0:0:0:
64,192,106931,1,0,0:0:0:0:
448,192,106985,1,0,0:0:0:0:
320,192,107039,1,0,0:0:0:0:
192,192,107092,1,0,0:0:0:0:
64,192,107146,1,0,0:0:0:0:
448,192,107199,1,0,0:0:0:0:
320,192,107253,1,0,0:0:0:0:
192,192,107306,1,0,0:0:0:0:
64,192,107306,1,0,0:0:0:0:
448,192,107360,1,0,0:0:0:0:
320,192,107414,1,0,0:0:0:0:
64,192,107467,1,0,0:0:0:0:
448,192,107521,1,0,0:0:0:0:
192,192,107574,1,0,0:0:0:0:
64,192,107628,5,0,0:0:0:0:
448,192,107681,1,0,0:0:0:0:
320,192,107735,1,0,0:0:0:0:
192,192,107735,1,0,0:0:0:0:
64,192,107789,1,0,0:0:0:0:
448,192,107842,5,0,0:0:0:0:
320,192,107896,1,0,0:0:0:0:
64,192,107949,1,0,0:0:0:0:
448,192,108003,1,0,0:0:0:0:
192,192,108056,5,0,0:0:0:0:
64,192,108110,1,0,0:0:0:0:
320,192,108164,1,0,0:0:0:0:
448,192,108164,1,0,0:0:0:0:
448,192,109021,128,0,105806:0:0:0:0:
448,192,109021,128,0,104949:0:0:0:0:
64,192,109021,128,0,105378:0:0:0:0:
64,192,109021,128,0,106235:0:0:0:0:
192,192,109235,128,0,103664:0:0:0:0:
320,192,109235,128,0,106664:0:0:0:0:
192,192,109235,128,0,104521:0:0:0:0:
320,192,109235,128,0,104092:0:0:0:0:
320,192,109235,128,0,103235:0:0:0:0:
192,192,109235,128,0,107092:0:0:0:0:
320,192,109449,128,0,107521:0:0:0:0:
192,192,109449,128,0,107949:0:0:0:0:
64,192,109878,5,0,0:0:0:0:
448,192,109878,1,0,0:0:0:0:
320,192,109985,128,0,109914:0:0:0:0:
448,192,110092,128,0,110306:0:0:0:0:
192,192,110092,128,0,110021:0:0:0:0:
64,192,110199,128,0,110128:0:0:0:0:
320,192,110199,128,0,110306:0:0:0:0:
192,192,110306,1,0,0:0:0:0:
192,192,110521,1,0,0:0:0:0:
320,192,110574,1,0,0:0:0:0:
448,192,110628,128,0,110574:0:0:0:0:
64,192,110735,128,0,110681:0:0:0:0:
192,192,110735,128,0,110681:0:0:0:0:
320,192,110735,128,0,110681:0:0:0:0:
448,192,110735,128,0,110681:0:0:0:0:
320,192,111164,1,0,0:0:0:0:
448,192,111164,1,0,0:0:0:0:
64,192,111271,1,0,0:0:0:0:
320,192,111378,1,0,0:0:0:0:
64,192,111485,128,0,111414:0:0:0:0:
64,192,111664,128,0,111592:0:0:0:0:
192,192,111699,1,0,0:0:0:0:
320,192,111806,1,0,0:0:0:0:
448,192,111806,1,0,0:0:0:0:
192,192,111914,1,0,0:0:0:0:
64,192,112021,1,0,0:0:0:0:
448,192,112128,128,0,112074:0:0:0:0:
192,192,112235,1,0,0:0:0:0:
320,192,112235,1,0,0:0:0:0:
64,192,112342,1,0,0:0:0:0:
448,192,112342,1,0,0:0:0:0:
64,192,112449,128,0,112396:0:0:0:0:
320,192,112449,128,0,112396:0:0:0:0:
448,192,112449,128,0,112396:0:0:0:0:
192,192,112449,128,0,112396:0:0:0:0:
64,192,112610,1,0,0:0:0:0:
192,192,112664,128,0,112610:0:0:0:0:
448,192,112717,128,0,112664:0:0:0:0:
192,192,112771,128,0,112717:0:0:0:0:
448,192,112824,128,0,112771:0:0:0:0:
64,192,112878,1,0,0:0:0:0:
64,192,112985,128,0,112931:0:0:0:0:
192,192,113092,1,0,0:0:0:0:
64,192,113146,1,0,0:0:0:0:
320,192,113199,1,0,0:0:0:0:
192,192,113253,1,0,0:0:0:0:
448,192,113306,1,0,0:0:0:0:
64,192,113306,1,0,0:0:0:0:
320,192,113414,128,0,113360:0:0:0:0:
192,192,113467,128,0,113414:0:0:0:0:
320,192,113521,128,0,113467:0:0:0:0:
448,192,113574,1,0,0:0:0:0:
64,192,113628,128,0,113592:0:0:0:0:
448,192,113735,128,0,113628:0:0:0:0:
64,192,113842,128,0,113806:0:0:0:0:
192,192,113896,1,0,0:0:0:0:
320,192,113949,1,0,0:0:0:0:
448,192,113949,1,0,0:0:0:0:
64,192,114164,128,0,114110:0:0:0:0:
448,192,114164,128,0,114110:0:0:0:0:
192,192,114164,128,0,114110:0:0:0:0:
320,192,114164,128,0,114110:0:0:0:0:
64,192,114271,128,0,114592:0:0:0:0:
320,192,114271,128,0,114431:0:0:0:0:
192,192,114378,1,0,0:0:0:0:
448,192,114378,1,0,0:0:0:0:
320,192,114485,1,0,0:0:0:0:
192,192,114646,128,0,114592:0:0:0:0:
320,192,114699,1,0,0:0:0:0:
448,192,114699,128,0,114664:0:0:0:0:
320,192,114806,1,0,0:0:0:0:
192,192,114806,1,0,0:0:0:0:
64,192,115021,128,0,114914:0:0:0:0:
192,192,115021,128,0,115164:0:0:0:0:
320,192,115021,128,0,115235:0:0:0:0:
448,192,115128,128,0,115092:0:0:0:0:
192,192,115235,1,0,0:0:0:0:
64,192,115235,1,0,0:0:0:0:
448,192,115342,1,0,0:0:0:0:
320,192,115396,1,0,0:0:0:0:
192,192,115449,128,0,115396:0:0:0:0:
64,192,115449,128,0,115610:0:0:0:0:
320,192,115556,128,0,115503:0:0:0:0:
448,192,115556,128,0,115664:0:0:0:0:
192,192,115664,1,0,0:0:0:0:
64,192,115664,1,0,0:0:0:0:
64,192,115878,128,0,115824:0:0:0:0:
192,192,115878,128,0,115824:0:0:0:0:
320,192,115878,128,0,115824:0:0:0:0:
448,192,115878,128,0,115824:0:0:0:0:
448,192,115985,128,0,116306:0:0:0:0:
192,192,115985,128,0,116092:0:0:0:0:
64,192,116092,128,0,116021:0:0:0:0:
192,192,116164,128,0,116092:0:0:0:0:
320,192,116235,128,0,116164:0:0:0:0:
64,192,116306,1,0,0:0:0:0:
448,192,116628,128,0,116592:0:0:0:0:
192,192,116735,1,0,0:0:0:0:
320,192,116735,1,0,0:0:0:0:
64,192,116842,128,0,116771:0:0:0:0:
448,192,116949,128,0,116878:0:0:0:0:
320,192,116949,128,0,117164:0:0:0:0:
192,192,117056,128,0,116985:0:0:0:0:
64,192,117056,128,0,117164:0:0:0:0:
320,192,117378,128,0,117324:0:0:0:0:
448,192,117378,128,0,117342:0:0:0:0:
64,192,117485,128,0,117449:0:0:0:0:
192,192,117485,128,0,117431:0:0:0:0:
64,192,117592,128,0,117539:0:0:0:0:
192,192,117592,128,0,117539:0:0:0:0:
448,192,117592,128,0,117539:0:0:0:0:
320,192,117592,128,0,117539:0:0:0:0:
320,192,117699,128,0,117806:0:0:0:0:
448,192,117699,128,0,117914:0:0:0:0:
192,192,117806,1,0,0:0:0:0:
320,192,117914,1,0,0:0:0:0:
64,192,118021,1,0,0:0:0:0:
192,192,118021,1,0,0:0:0:0:
64,192,118128,1,0,0:0:0:0:
320,192,118235,1,0,0:0:0:0:
320,192,118342,128,0,118306:0:0:0:0:
320,192,118485,128,0,118449:0:0:0:0:
64,192,118664,1,0,0:0:0:0:
448,192,118664,1,0,0:0:0:0:
192,192,118771,1,0,0:0:0:0:
320,192,118878,1,0,0:0:0:0:
192,192,118985,1,0,0:0:0:0:
64,192,119092,1,0,0:0:0:0:
448,192,119092,1,0,0:0:0:0:
320,192,119199,128,0,119164:0:0:0:0:
64,192,119306,128,0,119253:0:0:0:0:
448,192,119306,128,0,119253:0:0:0:0:
320,192,119306,128,0,119253:0:0:0:0:
192,192,119306,128,0,119253:0:0:0:0:
448,192,119414,128,0,119735:0:0:0:0:
64,192,119414,128,0,119521:0:0:0:0:
320,192,119521,1,0,0:0:0:0:
192,192,119574,1,0,0:0:0:0:
64,192,119628,1,0,0:0:0:0:
320,192,119681,1,0,0:0:0:0:
192,192,119735,128,0,119699:0:0:0:0:
64,192,119789,128,0,119735:0:0:0:0:
448,192,119842,128,0,119771:0:0:0:0:
320,192,119896,1,0,0:0:0:0:
192,192,119949,128,0,119842:0:0:0:0:
448,192,120056,128,0,119949:0:0:0:0:
192,192,120164,1,0,0:0:0:0:
64,192,120164,128,0,120378:0:0:0:0:
320,192,120164,128,0,120324:0:0:0:0:
448,192,120378,128,0,120324:0:0:0:0:
192,192,120378,128,0,120342:0:0:0:0:
64,192,120485,128,0,120449:0:0:0:0:
320,192,120485,128,0,120431:0:0:0:0:
448,192,120592,1,0,0:0:0:0:
64,192,120699,1,0,0:0:0:0:
320,192,120806,1,0,0:0:0:0:
448,192,120806,1,0,0:0:0:0:
64,192,121021,128,0,120967:0:0:0:0:
320,192,121021,128,0,120967:0:0:0:0:
192,192,121021,128,0,120967:0:0:0:0:
448,192,121021,128,0,120967:0:0:0:0:
192,192,121128,128,0,121449:0:0:0:0:
320,192,121128,128,0,121342:0:0:0:0:
448,192,121128,128,0,121289:0:0:0:0:
64,192,121128,128,0,121289:0:0:0:0:
320,192,121664,128,0,121556:0:0:0:0:
64,192,121664,128,0,121878:0:0:0:0:
192,192,121664,128,0,121985:0:0:0:0:
448,192,121664,128,0,121985:0:0:0:0:
448,192,122092,128,0,122306:0:0:0:0:
192,192,122092,128,0,121985:0:0:0:0:
64,192,122092,128,0,122414:0:0:0:0:
320,192,122092,128,0,122360:0:0:0:0:
192,192,122414,128,0,122360:0:0:0:0:
320,192,122521,1,0,0:0:0:0:
448,192,122521,1,0,0:0:0:0:
320,192,122735,128,0,122681:0:0:0:0:
192,192,122735,128,0,122681:0:0:0:0:
448,192,122735,128,0,122681:0:0:0:0:
64,192,122735,128,0,122681:0:0:0:0:
64,192,122842,128,0,122949:0:0:0:0:
192,192,122842,128,0,122949:0:0:0:0:
320,192,122842,128,0,122949:0:0:0:0:
448,192,122842,128,0,122949:0:0:0:0:
448,192,123592,5,0,0:0:0:0:
64,192,123592,1,0,0:0:0:0:
192,192,123699,128,0,123628:0:0:0:0:
320,192,123806,128,0,123735:0:0:0:0:
64,192,123806,128,0,124021:0:0:0:0:
448,192,123914,128,0,123842:0:0:0:0:
192,192,123914,128,0,124021:0:0:0:0:
320,192,124021,1,0,0:0:0:0:
448,192,124235,1,0,0:0:0:0:
64,192,124342,128,0,124306:0:0:0:0:
192,192,124449,128,0,124396:0:0:0:0:
448,192,124449,128,0,124396:0:0:0:0:
64,192,124449,128,0,124396:0:0:0:0:
320,192,124449,128,0,124396:0:0:0:0:
320,192,124556,128,0,124664:0:0:0:0:
448,192,124878,1,0,0:0:0:0:
320,192,124878,1,0,0:0:0:0:
192,192,124985,1,0,0:0:0:0:
320,192,125039,1,0,0:0:0:0:
448,192,125092,128,0,125039:0:0:0:0:
192,192,125146,1,0,0:0:0:0:
320,192,125199,1,0,0:0:0:0:
448,192,125253,128,0,125199:0:0:0:0:
192,192,125306,1,0,0:0:0:0:
320,192,125360,1,0,0:0:0:0:
448,192,125414,128,0,125360:0:0:0:0:
192,192,125467,1,0,0:0:0:0:
320,192,125521,1,0,0:0:0:0:
64,192,125521,1,0,0:0:0:0:
448,192,125574,128,0,125521:0:0:0:0:
192,192,125735,128,0,125681:0:0:0:0:
320,192,125789,1,0,0:0:0:0:
448,192,125842,1,0,0:0:0:0:
192,192,125896,128,0,125842:0:0:0:0:
320,192,125949,1,0,0:0:0:0:
448,192,126003,1,0,0:0:0:0:
192,192,126056,128,0,126003:0:0:0:0:
320,192,126110,1,0,0:0:0:0:
448,192,126164,1,0,0:0:0:0:
64,192,126164,1,0,0:0:0:0:
192,192,126164,1,0,0:0:0:0:
320,192,126271,1,0,0:0:0:0:
448,192,126324,1,0,0:0:0:0:
192,192,126378,1,0,0:0:0:0:
320,192,126431,1,0,0:0:0:0:
448,192,126485,1,0,0:0:0:0:
192,192,126539,1,0,0:0:0:0:
320,192,126592,128,0,126539:0:0:0:0:
320,192,126806,1,0,0:0:0:0:
64,192,126860,1,0,0:0:0:0:
192,192,126914,1,0,0:0:0:0:
320,192,126967,1,0,0:0:0:0:
448,192,127021,1,0,0:0:0:0:
64,192,127021,1,0,0:0:0:0:
320,192,127074,128,0,127021:0:0:0:0:
192,192,127128,1,0,0:0:0:0:
448,192,127181,1,0,0:0:0:0:
320,192,127235,128,0,127164:0:0:0:0:
320,192,127556,128,0,127485:0:0:0:0:
64,192,127664,1,0,0:0:0:0:
448,192,127664,1,0,0:0:0:0:
192,192,127878,128,0,127824:0:0:0:0:
448,192,127878,128,0,127824:0:0:0:0:
64,192,127878,128,0,127824:0:0:0:0:
320,192,127878,128,0,127824:0:0:0:0:
64,192,127985,128,0,128199:0:0:0:0:
192,192,127985,128,0,128199:0:0:0:0:
320,192,128092,1,0,0:0:0:0:
448,192,128092,1,0,0:0:0:0:
320,192,128199,128,0,128128:0:0:0:0:
448,192,128199,128,0,128128:0:0:0:0:
192,192,128306,1,0,0:0:0:0:
64,192,128378,1,0,0:0:0:0:
320,192,128521,1,0,0:0:0:0:
448,192,128521,1,0,0:0:0:0:
192,192,128735,128,0,128664:0:0:0:0:
448,192,128771,128,0,128699:0:0:0:0:
320,192,128771,1,0,0:0:0:0:
64,192,128806,1,0,0:0:0:0:
192,192,128949,1,0,0:0:0:0:
64,192,128949,1,0,0:0:0:0:
320,192,129164,128,0,129092:0:0:0:0:
64,192,129199,128,0,129128:0:0:0:0:
192,192,129199,1,0,0:0:0:0:
448,192,129235,1,0,0:0:0:0:
448,192,129378,1,0,0:0:0:0:
320,192,129378,1,0,0:0:0:0:
192,192,129485,1,0,0:0:0:0:
448,192,129592,128,0,129539:0:0:0:0:
64,192,129592,128,0,129539:0:0:0:0:
320,192,129592,128,0,129539:0:0:0:0:
192,192,129592,128,0,129539:0:0:0:0:
320,192,129699,128,0,130021:0:0:0:0:
448,192,129699,128,0,129914:0:0:0:0:
64,192,129699,128,0,130021:0:0:0:0:
192,192,129914,1,0,0:0:0:0:
448,192,130021,128,0,129949:0:0:0:0:
320,192,130449,1,0,0:0:0:0:
192,192,130449,1,0,0:0:0:0:
448,192,130556,128,0,130485:0:0:0:0:
192,192,130664,128,0,130878:0:0:0:0:
64,192,130664,128,0,130592:0:0:0:0:
448,192,130771,128,0,130878:0:0:0:0:
320,192,130771,128,0,130699:0:0:0:0:
192,192,131092,128,0,131056:0:0:0:0:
320,192,131199,128,0,131164:0:0:0:0:
320,192,131306,128,0,131253:0:0:0:0:
64,192,131306,128,0,131253:0:0:0:0:
192,192,131306,128,0,131253:0:0:0:0:
448,192,131306,128,0,131253:0:0:0:0:
192,192,131414,128,0,131521:0:0:0:0:
320,192,131521,1,0,0:0:0:0:
448,192,131628,1,0,0:0:0:0:
64,192,131628,1,0,0:0:0:0:
192,192,131735,1,0,0:0:0:0:
64,192,131735,1,0,0:0:0:0:
320,192,131842,1,0,0:0:0:0:
192,192,131896,1,0,0:0:0:0:
64,192,131949,128,0,131896:0:0:0:0:
320,192,132003,1,0,0:0:0:0:
192,192,132056,1,0,0:0:0:0:
64,192,132110,128,0,132056:0:0:0:0:
320,192,132164,1,0,0:0:0:0:
192,192,132217,1,0,0:0:0:0:
64,192,132271,128,0,132217:0:0:0:0:
320,192,132324,1,0,0:0:0:0:
192,192,132378,1,0,0:0:0:0:
448,192,132378,1,0,0:0:0:0:
64,192,132431,128,0,132378:0:0:0:0:
320,192,132592,128,0,132539:0:0:0:0:
192,192,132646,1,0,0:0:0:0:
64,192,132699,1,0,0:0:0:0:
320,192,132753,128,0,132699:0:0:0:0:
192,192,132806,1,0,0:0:0:0:
448,192,132806,1,0,0:0:0:0:
64,192,132914,1,0,0:0:0:0:
320,192,133021,128,0,132967:0:0:0:0:
64,192,133021,128,0,132967:0:0:0:0:
448,192,133021,128,0,132967:0:0:0:0:
192,192,133021,128,0,132967:0:0:0:0:
448,192,133128,128,0,133235:0:0:0:0:
192,192,133128,128,0,133449:0:0:0:0:
320,192,133235,1,0,0:0:0:0:
64,192,133289,1,0,0:0:0:0:
448,192,133342,1,0,0:0:0:0:
320,192,133396,1,0,0:0:0:0:
64,192,133449,1,0,0:0:0:0:
192,192,133556,1,0,0:0:0:0:
320,192,133610,1,0,0:0:0:0:
448,192,133664,128,0,133556:0:0:0:0:
64,192,133717,1,0,0:0:0:0:
192,192,133771,128,0,133664:0:0:0:0:
320,192,133824,1,0,0:0:0:0:
64,192,133878,1,0,0:0:0:0:
448,192,133878,1,0,0:0:0:0:
320,192,133985,1,0,0:0:0:0:
448,192,134039,1,0,0:0:0:0:
64,192,134092,128,0,134056:0:0:0:0:
192,192,134092,128,0,134039:0:0:0:0:
448,192,134199,128,0,134164:0:0:0:0:
320,192,134199,128,0,134146:0:0:0:0:
64,192,134306,1,0,0:0:0:0:
448,192,134414,1,0,0:0:0:0:
192,192,134521,1,0,0:0:0:0:
64,192,134521,1,0,0:0:0:0:
448,192,134735,128,0,134681:0:0:0:0:
64,192,134735,128,0,134681:0:0:0:0:
192,192,134735,128,0,134681:0:0:0:0:
320,192,134735,128,0,134681:0:0:0:0:
64,192,134842,128,0,135003:0:0:0:0:
320,192,134842,128,0,135056:0:0:0:0:
448,192,134842,128,0,135164:0:0:0:0:
192,192,134842,128,0,135003:0:0:0:0:
192,192,135378,128,0,135271:0:0:0:0:
448,192,135378,128,0,135592:0:0:0:0:
64,192,135378,128,0,135699:0:0:0:0:
320,192,135378,128,0,135539:0:0:0:0:
320,192,135806,128,0,135699:0:0:0:0:
448,192,135967,128,0,135914:0:0:0:0:
192,192,135967,128,0,135914:0:0:0:0:
64,192,135967,128,0,135914:0:0:0:0:
320,192,135967,128,0,135914:0:0:0:0:
320,192,136128,128,0,136074:0:0:0:0:
192,192,136235,1,0,0:0:0:0:
64,192,136235,1,0,0:0:0:0:
192,192,136449,128,0,136396:0:0:0:0:
320,192,136449,128,0,136396:0:0:0:0:
448,192,136449,128,0,136396:0:0:0:0:
64,192,136449,128,0,136396:0:0:0:0:
64,192,136556,128,0,136664:0:0:0:0:
192,192,136556,128,0,136664:0:0:0:0:
320,192,136556,128,0,136664:0:0:0:0:
448,192,136556,128,0,136664:0:0:0:0:
192,192,136878,128,0,136771:0:0:0:0:
64,192,136878,1,0,0:0:0:0:
320,192,136985,128,0,136878:0:0:0:0:
448,192,136985,1,0,0:0:0:0:
192,192,137092,128,0,136985:0:0:0:0:
64,192,137092,1,0,0:0:0:0:
320,192,137199,128,0,137092:0:0:0:0:
448,192,137199,1,0,0:0:0:0:
64,192,137306,5,0,0:0:0:0:
192,192,137306,1,0,0:0:0:0:
448,192,137414,128,0,137342:0:0:0:0:
192,192,137521,128,0,137735:0:0:0:0:
320,192,137521,128,0,137449:0:0:0:0:
64,192,137628,128,0,137556:0:0:0:0:
320,192,137628,128,0,137735:0:0:0:0:
448,192,137735,1,0,0:0:0:0:
320,192,137949,1,0,0:0:0:0:
448,192,138021,1,0,0:0:0:0:
192,192,138056,128,0,138021:0:0:0:0:
320,192,138164,128,0,138110:0:0:0:0:
64,192,138164,128,0,138110:0:0:0:0:
448,192,138164,128,0,138110:0:0:0:0:
192,192,138164,128,0,138110:0:0:0:0:
320,192,138271,128,0,138378:0:0:0:0:
320,192,138592,1,0,0:0:0:0:
64,192,138592,1,0,0:0:0:0:
192,192,138646,1,0,0:0:0:0:
448,192,138699,128,0,138646:0:0:0:0:
64,192,138753,1,0,0:0:0:0:
192,192,138806,1,0,0:0:0:0:
448,192,138860,128,0,138806:0:0:0:0:
64,192,138914,1,0,0:0:0:0:
192,192,138967,1,0,0:0:0:0:
448,192,139021,128,0,138967:0:0:0:0:
64,192,139074,1,0,0:0:0:0:
192,192,139128,1,0,0:0:0:0:
448,192,139181,128,0,139128:0:0:0:0:
320,192,139235,1,0,0:0:0:0:
64,192,139235,1,0,0:0:0:0:
64,192,139449,128,0,139396:0:0:0:0:
192,192,139503,1,0,0:0:0:0:
448,192,139556,1,0,0:0:0:0:
64,192,139610,128,0,139556:0:0:0:0:
192,192,139664,1,0,0:0:0:0:
448,192,139717,1,0,0:0:0:0:
64,192,139771,128,0,139717:0:0:0:0:
192,192,139824,1,0,0:0:0:0:
320,192,139878,1,0,0:0:0:0:
448,192,139878,1,0,0:0:0:0:
64,192,139985,1,0,0:0:0:0:
192,192,140039,1,0,0:0:0:0:
320,192,140092,1,0,0:0:0:0:
64,192,140146,1,0,0:0:0:0:
192,192,140199,1,0,0:0:0:0:
448,192,140253,1,0,0:0:0:0:
320,192,140306,128,0,140253:0:0:0:0:
448,192,140521,1,0,0:0:0:0:
320,192,140574,1,0,0:0:0:0:
192,192,140628,1,0,0:0:0:0:
448,192,140681,1,0,0:0:0:0:
320,192,140735,1,0,0:0:0:0:
64,192,140735,1,0,0:0:0:0:
192,192,140842,1,0,0:0:0:0:
320,192,140896,1,0,0:0:0:0:
64,192,140949,128,0,140878:0:0:0:0:
192,192,141164,128,0,141110:0:0:0:0:
192,192,141271,128,0,141217:0:0:0:0:
448,192,141378,1,0,0:0:0:0:
320,192,141378,1,0,0:0:0:0:
64,192,141592,128,0,141539:0:0:0:0:
320,192,141592,128,0,141539:0:0:0:0:
448,192,141592,128,0,141539:0:0:0:0:
192,192,141592,128,0,141539:0:0:0:0:
448,192,141699,128,0,141806:0:0:0:0:
320,192,141753,1,0,0:0:0:0:
192,192,141806,1,0,0:0:0:0:
64,192,141806,1,0,0:0:0:0:
320,192,141914,128,0,141860:0:0:0:0:
448,192,141914,128,0,142128:0:0:0:0:
64,192,141967,128,0,142128:0:0:0:0:
192,192,141967,128,0,141914:0:0:0:0:
320,192,142128,1,0,0:0:0:0:
192,192,142235,1,0,0:0:0:0:
64,192,142235,1,0,0:0:0:0:
320,192,142449,128,0,142378:0:0:0:0:
448,192,142485,128,0,142414:0:0:0:0:
64,192,142485,1,0,0:0:0:0:
192,192,142521,1,0,0:0:0:0:
448,192,142664,1,0,0:0:0:0:
320,192,142664,1,0,0:0:0:0:
192,192,142878,128,0,142806:0:0:0:0:
448,192,142914,128,0,142878:0:0:0:0:
64,192,142914,128,0,142842:0:0:0:0:
320,192,142949,128,0,142914:0:0:0:0:
192,192,143092,1,0,0:0:0:0:
64,192,143092,1,0,0:0:0:0:
320,192,143199,1,0,0:0:0:0:
64,192,143306,128,0,143253:0:0:0:0:
320,192,143306,128,0,143253:0:0:0:0:
448,192,143306,128,0,143253:0:0:0:0:
192,192,143306,128,0,143253:0:0:0:0:
64,192,143414,128,0,143681:0:0:0:0:
192,192,143414,1,0,0:0:0:0:
448,192,143414,128,0,143521:0:0:0:0:
320,192,143521,1,0,0:0:0:0:
448,192,143628,128,0,143574:0:0:0:0:
320,192,143681,1,0,0:0:0:0:
192,192,143735,1,0,0:0:0:0:
64,192,143789,1,0,0:0:0:0:
320,192,143842,1,0,0:0:0:0:
192,192,143896,1,0,0:0:0:0:
64,192,143949,1,0,0:0:0:0:
448,192,144003,128,0,143949:0:0:0:0:
64,192,144110,1,0,0:0:0:0:
320,192,144164,1,0,0:0:0:0:
448,192,144164,1,0,0:0:0:0:
192,192,144271,128,0,144199:0:0:0:0:
448,192,144378,128,0,144592:0:0:0:0:
64,192,144378,128,0,144306:0:0:0:0:
320,192,144485,128,0,144414:0:0:0:0:
64,192,144485,128,0,144592:0:0:0:0:
192,192,144592,1,0,0:0:0:0:
192,192,144806,1,0,0:0:0:0:
64,192,144878,1,0,0:0:0:0:
320,192,144914,128,0,144878:0:0:0:0:
448,192,145021,128,0,144967:0:0:0:0:
320,192,145021,128,0,144967:0:0:0:0:
192,192,145021,128,0,144967:0:0:0:0:
64,192,145021,128,0,144967:0:0:0:0:
192,192,145128,128,0,145235:0:0:0:0:
320,192,145235,1,0,0:0:0:0:
64,192,145342,128,0,145235:0:0:0:0:
192,192,145449,1,0,0:0:0:0:
448,192,145449,1,0,0:0:0:0:
320,192,145503,1,0,0:0:0:0:
64,192,145556,128,0,145503:0:0:0:0:
448,192,145610,1,0,0:0:0:0:
320,192,145664,1,0,0:0:0:0:
64,192,145717,128,0,145664:0:0:0:0:
448,192,145771,1,0,0:0:0:0:
320,192,145824,1,0,0:0:0:0:
64,192,145878,128,0,145824:0:0:0:0:
448,192,145931,1,0,0:0:0:0:
320,192,145985,1,0,0:0:0:0:
64,192,146039,128,0,145985:0:0:0:0:
192,192,146092,1,0,0:0:0:0:
448,192,146092,1,0,0:0:0:0:
448,192,146306,128,0,146253:0:0:0:0:
320,192,146360,1,0,0:0:0:0:
64,192,146414,1,0,0:0:0:0:
448,192,146467,128,0,146414:0:0:0:0:
320,192,146521,1,0,0:0:0:0:
192,192,146521,1,0,0:0:0:0:
448,192,146735,128,0,146681:0:0:0:0:
320,192,146735,128,0,146681:0:0:0:0:
192,192,146735,128,0,146681:0:0:0:0:
64,192,146735,128,0,146681:0:0:0:0:
192,192,146842,128,0,146949:0:0:0:0:
448,192,146842,1,0,0:0:0:0:
320,192,146896,1,0,0:0:0:0:
64,192,146949,1,0,0:0:0:0:
448,192,147003,1,0,0:0:0:0:
320,192,147056,1,0,0:0:0:0:
64,192,147110,1,0,0:0:0:0:
192,192,147164,128,0,147128:0:0:0:0:
320,192,147271,128,0,147217:0:0:0:0:
64,192,147378,128,0,147324:0:0:0:0:
192,192,147378,128,0,147342:0:0:0:0:
320,192,147485,128,0,147431:0:0:0:0:
448,192,147485,128,0,147449:0:0:0:0:
64,192,147539,1,0,0:0:0:0:
192,192,147592,1,0,0:0:0:0:
320,192,147592,1,0,0:0:0:0:
64,192,147699,1,0,0:0:0:0:
320,192,147806,128,0,147735:0:0:0:0:
448,192,147806,128,0,147753:0:0:0:0:
192,192,147914,128,0,147842:0:0:0:0:
64,192,147914,128,0,147860:0:0:0:0:
320,192,148021,1,0,0:0:0:0:
192,192,148128,1,0,0:0:0:0:
320,192,148235,1,0,0:0:0:0:
448,192,148235,1,0,0:0:0:0:
320,192,148449,128,0,148396:0:0:0:0:
448,192,148449,128,0,148396:0:0:0:0:
192,192,148449,128,0,148396:0:0:0:0:
64,192,148449,128,0,148396:0:0:0:0:
448,192,148556,128,0,148717:0:0:0:0:
192,192,148556,128,0,148771:0:0:0:0:
64,192,148556,128,0,148878:0:0:0:0:
320,192,148556,128,0,148717:0:0:0:0:
448,192,149092,128,0,148985:0:0:0:0:
320,192,149092,128,0,149306:0:0:0:0:
192,192,149092,128,0,149414:0:0:0:0:
64,192,149092,128,0,149253:0:0:0:0:
448,192,149521,128,0,149789:0:0:0:0:
64,192,149521,128,0,149414:0:0:0:0:
192,192,149521,128,0,149735:0:0:0:0:
320,192,149521,128,0,149842:0:0:0:0:
64,192,149842,128,0,149789:0:0:0:0:
320,192,149949,1,0,0:0:0:0:
448,192,149949,1,0,0:0:0:0:
448,192,150164,128,0,150110:0:0:0:0:
192,192,150164,128,0,150110:0:0:0:0:
64,192,150164,128,0,150110:0:0:0:0:
320,192,150164,128,0,150110:0:0:0:0:
192,192,150271,128,0,150378:0:0:0:0:
64,192,150271,128,0,150378:0:0:0:0:
320,192,150271,128,0,150378:0:0:0:0:
448,192,150271,128,0,150378:0:0:0:0:
320,192,150806,128,0,150967:0:0:0:0:
64,192,151021,1,0,0:0:0:0:
448,192,151021,1,0,0:0:0:0:
192,192,151021,1,0,0:0:0:0:
320,192,151235,1,0,0:0:0:0:
192,192,151289,1,0,0:0:0:0:
64,192,151342,1,0,0:0:0:0:
320,192,151396,1,0,0:0:0:0:
448,192,151449,1,0,0:0:0:0:
64,192,151485,1,0,0:0:0:0:
192,192,151521,1,0,0:0:0:0:
320,192,151556,1,0,0:0:0:0:
448,192,151610,1,0,0:0:0:0:
64,192,151664,1,0,0:0:0:0:
192,192,151717,1,0,0:0:0:0:
448,192,151771,1,0,0:0:0:0:
320,192,151824,1,0,0:0:0:0:
64,192,151878,1,0,0:0:0:0:
192,192,151878,1,0,0:0:0:0:
448,192,152092,1,0,0:0:0:0:
320,192,152146,1,0,0:0:0:0:
192,192,152199,1,0,0:0:0:0:
64,192,152253,1,0,0:0:0:0:
320,192,152306,1,0,0:0:0:0:
448,192,152360,1,0,0:0:0:0:
64,192,152414,1,0,0:0:0:0:
320,192,152467,1,0,0:0:0:0:
192,192,152521,1,0,0:0:0:0:
448,192,152574,1,0,0:0:0:0:
64,192,152628,1,0,0:0:0:0:
192,192,152681,1,0,0:0:0:0:
320,192,152735,1,0,0:0:0:0:
448,192,152735,1,0,0:0:0:0:
320,192,152949,1,0,0:0:0:0:
192,192,153003,1,0,0:0:0:0:
64,192,153056,1,0,0:0:0:0:
320,192,153110,1,0,0:0:0:0:
448,192,153164,1,0,0:0:0:0:
192,192,153199,1,0,0:0:0:0:
64,192,153235,1,0,0:0:0:0:
320,192,153271,1,0,0:0:0:0:
448,192,153324,1,0,0:0:0:0:
64,192,153378,1,0,0:0:0:0:
192,192,153378,1,0,0:0:0:0:
320,192,153592,1,0,0:0:0:0:
448,192,153592,1,0,0:0:0:0:
192,192,153646,1,0,0:0:0:0:
64,192,153699,1,0,0:0:0:0:
448,192,153753,1,0,0:0:0:0:
192,192,153806,1,0,0:0:0:0:
320,192,153860,1,0,0:0:0:0:
64,192,153914,1,0,0:0:0:0:
192,192,153967,1,0,0:0:0:0:
320,192,154021,1,0,0:0:0:0:
448,192,154074,1,0,0:0:0:0:
64,192,154128,1,0,0:0:0:0:
320,192,154181,1,0,0:0:0:0:
192,192,154235,128,0,154181:0:0:0:0:
448,192,154289,128,0,154235:0:0:0:0:
320,192,154342,128,0,154289:0:0:0:0:
192,192,154396,128,0,154342:0:0:0:0:
64,192,154449,1,0,0:0:0:0:
448,192,154449,1,0,0:0:0:0:
320,192,154664,1,0,0:0:0:0:
64,192,154717,1,0,0:0:0:0:
192,192,154771,1,0,0:0:0:0:
320,192,154824,1,0,0:0:0:0:
448,192,154878,1,0,0:0:0:0:
192,192,154931,1,0,0:0:0:0:
64,192,154985,1,0,0:0:0:0:
320,192,155039,1,0,0:0:0:0:
192,192,155092,1,0,0:0:0:0:
448,192,155146,1,0,0:0:0:0:
64,192,155199,1,0,0:0:0:0:
320,192,155253,1,0,0:0:0:0:
192,192,155306,1,0,0:0:0:0:
448,192,155306,1,0,0:0:0:0:
64,192,155521,1,0,0:0:0:0:
320,192,155574,1,0,0:0:0:0:
448,192,155628,1,0,0:0:0:0:
192,192,155681,1,0,0:0:0:0:
64,192,155735,1,0,0:0:0:0:
320,192,155771,1,0,0:0:0:0:
192,192,155806,1,0,0:0:0:0:
448,192,155878,1,0,0:0:0:0:
320,192,155914,1,0,0:0:0:0:
64,192,155949,1,0,0:0:0:0:
192,192,156003,1,0,0:0:0:0:
320,192,156056,1,0,0:0:0:0:
448,192,156110,1,0,0:0:0:0:
192,192,156164,1,0,0:0:0:0:
64,192,156164,1,0,0:0:0:0:
192,192,156378,1,0,0:0:0:0:
64,192,156431,1,0,0:0:0:0:
320,192,156485,1,0,0:0:0:0:
448,192,156521,1,0,0:0:0:0:
64,192,156539,1,0,0:0:0:0:
192,192,156592,1,0,0:0:0:0:
320,192,156592,1,0,0:0:0:0:
320,192,156806,1,0,0:0:0:0:
448,192,156860,1,0,0:0:0:0:
192,192,156914,1,0,0:0:0:0:
64,192,156949,1,0,0:0:0:0:
448,192,156967,1,0,0:0:0:0:
320,192,157021,1,0,0:0:0:0:
192,192,157021,1,0,0:0:0:0:
64,192,157235,1,0,0:0:0:0:
192,192,157235,1,0,0:0:0:0:
448,192,157342,128,0,157289:0:0:0:0:
320,192,157378,128,0,157342:0:0:0:0:
192,192,157414,128,0,157771:0:0:0:0:
64,192,157449,128,0,157735:0:0:0:0:
320,192,157556,1,0,0:0:0:0:
448,192,157556,1,0,0:0:0:0:
320,192,157806,128,0,157744:0:0:0:0:
448,192,157842,128,0,157806:0:0:0:0:
192,192,157878,1,0,0:0:0:0:
64,192,157878,1,0,0:0:0:0:
320,192,158092,1,0,0:0:0:0:
192,192,158146,1,0,0:0:0:0:
64,192,158199,1,0,0:0:0:0:
320,192,158235,1,0,0:0:0:0:
448,192,158271,1,0,0:0:0:0:
192,192,158306,1,0,0:0:0:0:
64,192,158360,1,0,0:0:0:0:
320,192,158414,1,0,0:0:0:0:
448,192,158467,1,0,0:0:0:0:
192,192,158521,1,0,0:0:0:0:
320,192,158574,1,0,0:0:0:0:
64,192,158592,1,0,0:0:0:0:
448,192,158664,1,0,0:0:0:0:
192,192,158735,1,0,0:0:0:0:
64,192,158735,1,0,0:0:0:0:
64,192,158949,1,0,0:0:0:0:
192,192,159003,1,0,0:0:0:0:
448,192,159056,1,0,0:0:0:0:
320,192,159092,1,0,0:0:0:0:
192,192,159128,1,0,0:0:0:0:
64,192,159164,1,0,0:0:0:0:
320,192,159217,1,0,0:0:0:0:
448,192,159271,1,0,0:0:0:0:
64,192,159324,1,0,0:0:0:0:
320,192,159378,1,0,0:0:0:0:
192,192,159431,1,0,0:0:0:0:
64,192,159449,1,0,0:0:0:0:
448,192,159539,1,0,0:0:0:0:
320,192,159592,1,0,0:0:0:0:
192,192,159592,1,0,0:0:0:0:
320,192,159806,1,0,0:0:0:0:
192,192,159860,1,0,0:0:0:0:
64,192,159914,1,0,0:0:0:0:
320,192,159967,1,0,0:0:0:0:
448,192,160021,1,0,0:0:0:0:
192,192,160056,1,0,0:0:0:0:
320,192,160092,1,0,0:0:0:0:
64,192,160128,1,0,0:0:0:0:
448,192,160181,1,0,0:0:0:0:
192,192,160235,1,0,0:0:0:0:
320,192,160235,1,0,0:0:0:0:
192,192,160449,1,0,0:0:0:0:
448,192,160449,1,0,0:0:0:0:
64,192,160503,1,0,0:0:0:0:
320,192,160556,1,0,0:0:0:0:
192,192,160610,1,0,0:0:0:0:
448,192,160664,1,0,0:0:0:0:
64,192,160699,1,0,0:0:0:0:
192,192,160735,1,0,0:0:0:0:
320,192,160771,1,0,0:0:0:0:
448,192,160824,1,0,0:0:0:0:
64,192,160878,1,0,0:0:0:0:
320,192,160931,1,0,0:0:0:0:
448,192,160949,1,0,0:0:0:0:
192,192,160985,1,0,0:0:0:0:
64,192,161039,1,0,0:0:0:0:
320,192,161092,128,0,161039:0:0:0:0:
192,192,161146,128,0,161092:0:0:0:0:
448,192,161199,128,0,161146:0:0:0:0:
320,192,161253,128,0,161199:0:0:0:0:
192,192,161306,1,0,0:0:0:0:
64,192,161306,1,0,0:0:0:0:
320,192,161521,1,0,0:0:0:0:
192,192,161574,1,0,0:0:0:0:
64,192,161628,1,0,0:0:0:0:
448,192,161681,1,0,0:0:0:0:
192,192,161735,1,0,0:0:0:0:
320,192,161771,1,0,0:0:0:0:
448,192,161806,1,0,0:0:0:0:
64,192,161842,1,0,0:0:0:0:
192,192,161896,1,0,0:0:0:0:
320,192,161949,1,0,0:0:0:0:
64,192,161985,1,0,0:0:0:0:
192,192,162021,1,0,0:0:0:0:
448,192,162056,1,0,0:0:0:0:
320,192,162110,1,0,0:0:0:0:
64,192,162164,1,0,0:0:0:0:
192,192,162164,1,0,0:0:0:0:
192,192,162378,1,0,0:0:0:0:
64,192,162431,1,0,0:0:0:0:
448,192,162485,1,0,0:0:0:0:
192,192,162539,1,0,0:0:0:0:
320,192,162592,1,0,0:0:0:0:
64,192,162628,1,0,0:0:0:0:
448,192,162664,1,0,0:0:0:0:
192,192,162699,1,0,0:0:0:0:
320,192,162753,1,0,0:0:0:0:
64,192,162806,1,0,0:0:0:0:
192,192,162842,1,0,0:0:0:0:
448,192,162878,1,0,0:0:0:0:
320,192,162914,1,0,0:0:0:0:
64,192,162967,1,0,0:0:0:0:
448,192,163021,1,0,0:0:0:0:
192,192,163021,1,0,0:0:0:0:
448,192,163235,1,0,0:0:0:0:
320,192,163289,1,0,0:0:0:0:
192,192,163342,1,0,0:0:0:0:
64,192,163342,1,0,0:0:0:0:
448,192,163556,1,0,0:0:0:0:
320,192,163610,1,0,0:0:0:0:
192,192,163664,1,0,0:0:0:0:
64,192,163717,1,0,0:0:0:0:
320,192,163771,1,0,0:0:0:0:
448,192,163824,1,0,0:0:0:0:
192,192,163878,1,0,0:0:0:0:
64,192,163878,1,0,0:0:0:0:
320,192,164092,1,0,0:0:0:0:
192,192,164199,1,0,0:0:0:0:
64,192,164199,1,0,0:0:0:0:
192,192,164414,1,0,0:0:0:0:
64,192,164414,1,0,0:0:0:0:
192,192,164521,128,0,164681:0:0:0:0:
448,192,164735,1,0,0:0:0:0:
64,192,164735,1,0,0:0:0:0:
320,192,164735,1,0,0:0:0:0:
192,192,164949,1,0,0:0:0:0:
320,192,165003,1,0,0:0:0:0:
448,192,165056,1,0,0:0:0:0:
192,192,165110,1,0,0:0:0:0:
64,192,165164,1,0,0:0:0:0:
448,192,165199,1,0,0:0:0:0:
320,192,165235,1,0,0:0:0:0:
192,192,165271,1,0,0:0:0:0:
64,192,165324,1,0,0:0:0:0:
448,192,165378,1,0,0:0:0:0:
320,192,165431,1,0,0:0:0:0:
64,192,165485,1,0,0:0:0:0:
192,192,165539,1,0,0:0:0:0:
448,192,165592,1,0,0:0:0:0:
320,192,165592,1,0,0:0:0:0:
64,192,165806,1,0,0:0:0:0:
192,192,165860,1,0,0:0:0:0:
320,192,165914,1,0,0:0:0:0:
448,192,165967,1,0,0:0:0:0:
192,192,166021,1,0,0:0:0:0:
64,192,166074,1,0,0:0:0:0:
448,192,166128,1,0,0:0:0:0:
192,192,166181,1,0,0:0:0:0:
320,192,166235,1,0,0:0:0:0:
64,192,166289,1,0,0:0:0:0:
448,192,166342,1,0,0:0:0:0:
320,192,166396,1,0,0:0:0:0:
192,192,166449,1,0,0:0:0:0:
64,192,166449,1,0,0:0:0:0:
192,192,166664,1,0,0:0:0:0:
320,192,166717,1,0,0:0:0:0:
448,192,166771,1,0,0:0:0:0:
192,192,166824,1,0,0:0:0:0:
64,192,166878,1,0,0:0:0:0:
320,192,166914,1,0,0:0:0:0:
448,192,166949,1,0,0:0:0:0:
192,192,166985,1,0,0:0:0:0:
64,192,167039,1,0,0:0:0:0:
448,192,167092,1,0,0:0:0:0:
320,192,167092,1,0,0:0:0:0:
192,192,167306,1,0,0:0:0:0:
64,192,167306,1,0,0:0:0:0:
320,192,167360,1,0,0:0:0:0:
448,192,167414,1,0,0:0:0:0:
64,192,167467,1,0,0:0:0:0:
320,192,167521,1,0,0:0:0:0:
192,192,167574,1,0,0:0:0:0:
448,192,167628,1,0,0:0:0:0:
320,192,167681,1,0,0:0:0:0:
192,192,167735,1,0,0:0:0:0:
64,192,167789,1,0,0:0:0:0:
448,192,167842,1,0,0:0:0:0:
192,192,167896,1,0,0:0:0:0:
320,192,167949,128,0,167896:0:0:0:0:
64,192,168003,128,0,167949:0:0:0:0:
192,192,168056,128,0,168003:0:0:0:0:
320,192,168110,128,0,168056:0:0:0:0:
448,192,168164,1,0,0:0:0:0:
64,192,168164,1,0,0:0:0:0:
192,192,168378,1,0,0:0:0:0:
448,192,168431,1,0,0:0:0:0:
320,192,168485,1,0,0:0:0:0:
192,192,168539,1,0,0:0:0:0:
64,192,168592,1,0,0:0:0:0:
320,192,168646,1,0,0:0:0:0:
448,192,168699,1,0,0:0:0:0:
192,192,168753,1,0,0:0:0:0:
320,192,168806,1,0,0:0:0:0:
64,192,168860,1,0,0:0:0:0:
448,192,168914,1,0,0:0:0:0:
192,192,168967,1,0,0:0:0:0:
320,192,169021,1,0,0:0:0:0:
64,192,169021,1,0,0:0:0:0:
448,192,169235,1,0,0:0:0:0:
192,192,169289,1,0,0:0:0:0:
64,192,169342,1,0,0:0:0:0:
320,192,169396,1,0,0:0:0:0:
448,192,169449,1,0,0:0:0:0:
192,192,169485,1,0,0:0:0:0:
320,192,169521,1,0,0:0:0:0:
64,192,169592,1,0,0:0:0:0:
192,192,169628,1,0,0:0:0:0:
448,192,169664,1,0,0:0:0:0:
320,192,169717,1,0,0:0:0:0:
192,192,169771,1,0,0:0:0:0:
64,192,169824,1,0,0:0:0:0:
320,192,169878,1,0,0:0:0:0:
448,192,169878,1,0,0:0:0:0:
192,192,170092,1,0,0:0:0:0:
64,192,170146,1,0,0:0:0:0:
320,192,170199,1,0,0:0:0:0:
192,192,170235,1,0,0:0:0:0:
64,192,170253,1,0,0:0:0:0:
320,192,170306,1,0,0:0:0:0:
448,192,170306,1,0,0:0:0:0:
320,192,170521,1,0,0:0:0:0:
448,192,170574,1,0,0:0:0:0:
192,192,170628,1,0,0:0:0:0:
320,192,170664,1,0,0:0:0:0:
448,192,170681,1,0,0:0:0:0:
192,192,170735,1,0,0:0:0:0:
64,192,170735,1,0,0:0:0:0:
448,192,170949,1,0,0:0:0:0:
320,192,170949,1,0,0:0:0:0:
64,192,171056,128,0,171003:0:0:0:0:
192,192,171092,128,0,171056:0:0:0:0:
320,192,171128,128,0,171485:0:0:0:0:
448,192,171164,128,0,171449:0:0:0:0:
192,192,171271,1,0,0:0:0:0:
64,192,171271,1,0,0:0:0:0:
192,192,171521,128,0,171458:0:0:0:0:
64,192,171556,128,0,171521:0:0:0:0:
320,192,171592,1,0,0:0:0:0:
448,192,171592,1,0,0:0:0:0:
192,192,171753,128,0,171699:0:0:0:0:
320,192,171806,128,0,171753:0:0:0:0:
448,192,171860,128,0,171806:0:0:0:0:
192,192,171914,1,0,0:0:0:0:
64,192,171914,1,0,0:0:0:0:
448,192,172021,128,0,171967:0:0:0:0:
320,192,172074,128,0,172021:0:0:0:0:
192,192,172128,128,0,172074:0:0:0:0:
64,192,172181,128,0,172128:0:0:0:0:
64,192,172449,1,0,0:0:0:0:
192,192,172449,1,0,0:0:0:0:
320,192,172610,128,0,172556:0:0:0:0:
192,192,172664,128,0,172610:0:0:0:0:
64,192,172717,128,0,172664:0:0:0:0:
448,192,172771,1,0,0:0:0:0:
320,192,172771,1,0,0:0:0:0:
64,192,172878,128,0,172824:0:0:0:0:
192,192,172931,128,0,172878:0:0:0:0:
320,192,172985,128,0,172931:0:0:0:0:
64,192,173039,128,0,172985:0:0:0:0:
448,192,173092,128,0,172985:0:0:0:0:
320,192,173199,1,0,0:0:0:0:
64,192,173306,1,0,0:0:0:0:
448,192,173306,1,0,0:0:0:0:
320,192,173467,128,0,173414:0:0:0:0:
64,192,173521,128,0,173467:0:0:0:0:
448,192,173574,128,0,173521:0:0:0:0:
192,192,173628,1,0,0:0:0:0:
320,192,173628,1,0,0:0:0:0:
64,192,173735,128,0,173681:0:0:0:0:
448,192,173789,128,0,173735:0:0:0:0:
320,192,173842,128,0,173789:0:0:0:0:
192,192,173896,128,0,173842:0:0:0:0:
64,192,174164,1,0,0:0:0:0:
320,192,174164,1,0,0:0:0:0:
448,192,174164,1,0,0:0:0:0:
192,192,174164,1,0,0:0:0:0:
192,192,174271,1,0,0:0:0:0:
320,192,174324,1,0,0:0:0:0:
448,192,174378,1,0,0:0:0:0:
192,192,174414,1,0,0:0:0:0:
64,192,174449,1,0,0:0:0:0:
320,192,174485,1,0,0:0:0:0:
448,192,174539,1,0,0:0:0:0:
64,192,174592,128,0,175021:0:0:0:0:
192,192,174592,128,0,175021:0:0:0:0:
320,192,174646,1,0,0:0:0:0:
192,192,174699,1,0,0:0:0:0:
64,192,174753,1,0,0:0:0:0:
320,192,174806,1,0,0:0:0:0:
192,192,174860,1,0,0:0:0:0:
64,192,174914,1,0,0:0:0:0:
448,192,175021,1,0,0:0:0:0:
320,192,175021,1,0,0:0:0:0:
320,192,177592,1,0,0:0:0:0:
448,192,177592,1,0,0:0:0:0:
192,192,177914,1,0,0:0:0:0:
192,192,178128,1,0,0:0:0:0:
320,192,178449,1,0,0:0:0:0:
448,192,178449,1,0,0:0:0:0:
448,192,178664,128,0,178878:0:0:0:0:
64,192,178664,128,0,178878:0:0:0:0:
448,192,178771,1,0,0:0:0:0:
64,192,178771,1,0,0:0:0:0:
448,192,181878,128,0,88878:0:0:0:0:
320,192,181878,128,0,88913:0:0:0:0:
192,192,181878,128,0,88949:0:0:0:0:
64,192,181878,128,0,88985:0:0:0:0:
448,192,181878,128,0,89020:0:0:0:0:
320,192,181878,128,0,89056:0:0:0:0:
192,192,181878,128,0,89092:0:0:0:0:
64,192,181878,128,0,89128:0:0:0:0:
448,192,181878,128,0,89163:0:0:0:0:
320,192,181878,128,0,89199:0:0:0:0:
192,192,181878,128,0,89235:0:0:0:0:
64,192,181878,128,0,89270:0:0:0:0:
448,192,181878,128,0,71735:0:0:0:0:
448,192,181878,128,0,71306:0:0:0:0:
448,192,181878,128,0,70878:0:0:0:0:
448,192,181878,128,0,70449:0:0:0:0:
448,192,181878,128,0,70021:0:0:0:0:
448,192,181878,128,0,69592:0:0:0:0:
448,192,181878,128,0,69164:0:0:0:0:
448,192,181878,128,0,68735:0:0:0:0:
64,192,181878,128,0,82164:0:0:0:0:
192,192,181878,128,0,82199:0:0:0:0:
320,192,181878,128,0,82235:0:0:0:0:
448,192,181878,128,0,82271:0:0:0:0:
64,192,181878,128,0,82306:0:0:0:0:
192,192,181878,128,0,82342:0:0:0:0:
320,192,181878,128,0,82378:0:0:0:0:
448,192,181878,128,0,82414:0:0:0:0:
64,192,181878,128,0,72164:0:0:0:0:
64,192,181878,128,0,72592:0:0:0:0:
64,192,181878,128,0,73021:0:0:0:0:
64,192,181878,128,0,73449:0:0:0:0:
64,192,181878,128,0,73878:0:0:0:0:
64,192,181878,128,0,74306:0:0:0:0:
64,192,181878,128,0,74735:0:0:0:0:
64,192,181878,128,0,75164:0:0:0:0:
64,192,181878,128,0,82021:0:0:0:0:
192,192,181878,128,0,82056:0:0:0:0:
320,192,181878,128,0,82092:0:0:0:0:
448,192,181878,128,0,82128:0:0:0:0:
