osu file format v14

[General]
AudioFilename: audio.mp3
AudioLeadIn: 0
PreviewTime: 42415
Countdown: 0
SampleSet: Normal
StackLeniency: 0.7
Mode: 1
LetterboxInBreaks: 0
WidescreenStoryboard: 0

[Editor]
Bookmarks: 145802,177092,197415
DistanceSpacing: 0.2
BeatDivisor: 8
GridSize: 32
TimelineZoom: 1

[Metadata]
Title:deconstructing nature
TitleUnicode:deconstructing nature
Artist:sakuraburst
ArtistUnicode:sakuraburst
Creator:h o n e y
Version:oni
Source:osu!
Tags:dnb honey uk and drum & bass glitch heavy idm orchestral soundfont united kingdom fa featured artist electronic instrumental
BeatmapID:2690806
BeatmapSetID:1289473

[Difficulty]
HPDrainRate:6
CircleSize:5
OverallDifficulty:5.5
ApproachRate:5
SliderMultiplier:1.4
SliderTickRate:1

[Events]
//Background and Video events
0,0,"bg.jpg",0,-20
//Break Periods
2,1486,6537
2,11808,15569
2,135679,142021
//Storyboard Layer 0 (Background)
//Storyboard Layer 1 (Fail)
//Storyboard Layer 2 (Pass)
//Storyboard Layer 3 (Foreground)
//Storyboard Layer 4 (Overlay)
//Storyboard Sound Samples

[TimingPoints]
1286,322.58064516129,4,1,0,50,1,0
7737,-142.857142857143,4,1,0,20,0,0
11447,-100,4,1,0,50,0,0
16769,-142.857142857143,4,1,0,20,0,0
22173,-100,4,1,0,50,0,0
39995,-68.9655172413793,4,1,0,12,0,0
40076,-68.9655172413793,4,1,0,14,0,0
40156,-68.9655172413793,4,1,0,16,0,0
40237,-68.9655172413793,4,1,0,18,0,0
40318,-68.9655172413793,4,1,0,20,0,0
40398,-68.9655172413793,4,1,0,22,0,0
40479,-68.9655172413793,4,1,0,24,0,0
40560,-68.9655172413793,4,1,0,26,0,0
40640,-68.9655172413793,4,1,0,28,0,0
40721,-68.9655172413793,4,1,0,30,0,0
40802,-68.9655172413793,4,1,0,32,0,0
40882,-68.9655172413793,4,1,0,34,0,0
40963,-68.9655172413793,4,1,0,36,0,0
41044,-68.9655172413793,4,1,0,38,0,0
41124,-68.9655172413793,4,1,0,40,0,0
41205,-68.9655172413793,4,1,0,42,0,0
41285,-68.9655172413793,4,1,0,44,0,0
41366,-68.9655172413793,4,1,0,46,0,0
41447,-68.9655172413793,4,1,0,48,0,0
41527,-68.9655172413793,4,1,0,50,0,0
41608,-68.9655172413793,4,1,0,52,0,0
41689,-68.9655172413793,4,1,0,54,0,0
41769,-68.9655172413793,4,1,0,56,0,0
41850,-142.857142857143,4,1,0,58,0,0
41931,-142.857142857143,4,1,0,60,0,0
42535,-100,4,1,0,50,0,0
85116,-133.333333333333,4,1,0,50,0,0
86406,-142.857142857143,4,1,0,50,0,0
87697,-153.846153846154,4,1,0,50,0,0
88987,-166.666666666667,4,1,0,50,0,0
90277,-181.818181818182,4,1,0,50,0,0
91568,-200,4,1,0,50,0,0
92858,-222.222222222222,4,1,0,50,0,0
94148,-250,4,1,0,50,0,0
134148,-200,4,1,0,20,0,0
135439,-166.666666666667,4,1,0,50,0,0
143181,-142.857142857143,4,1,0,50,0,0
145761,-100,4,1,0,50,0,0
156084,-100,4,1,0,50,0,0
198665,-133.333333333333,4,1,0,50,0,0

[HitObjects]
256,192,1286,5,12,0:0:0:0:
256,192,7737,12,0,11285,0:0:0:0:
256,192,11608,5,12,0:0:0:0:
256,192,16769,12,0,21931,0:0:0:0:
256,192,22253,5,0,0:0:0:0:
256,192,22576,1,8,0:0:0:0:
256,192,26447,1,8,0:0:0:0:
256,192,26608,1,0,0:0:0:0:
256,192,26769,1,12,0:0:0:0:
256,192,27092,1,8,0:0:0:0:
256,192,27253,1,0,0:0:0:0:
256,192,27334,1,0,0:0:0:0:
256,192,27415,1,0,0:0:0:0:
256,192,27737,1,8,0:0:0:0:
256,192,32253,1,12,0:0:0:0:
256,192,32737,1,12,0:0:0:0:
256,192,33221,1,12,0:0:0:0:
256,192,37415,1,8,0:0:0:0:
256,192,37576,1,0,0:0:0:0:
256,192,37737,1,0,0:0:0:0:
256,192,37898,1,8,0:0:0:0:
256,192,38060,1,0,0:0:0:0:
256,192,38221,1,0,0:0:0:0:
256,192,38382,1,8,0:0:0:0:
256,192,38705,1,12,0:0:0:0:
256,192,39995,12,0,41931,0:0:0:0:
256,192,42253,5,8,0:0:0:0:
256,192,42576,5,8,0:0:0:0:
256,192,42656,1,0,0:0:0:0:
256,192,42737,1,0,0:0:0:0:
256,192,42818,1,0,0:0:0:0:
256,192,42898,1,0,0:0:0:0:
256,192,43221,1,8,0:0:0:0:
256,192,43544,1,0,0:0:0:0:
256,192,43624,1,0,0:0:0:0:
256,192,43705,1,0,0:0:0:0:
256,192,43785,1,0,0:0:0:0:
256,192,44189,1,0,0:0:0:0:
256,192,44269,1,0,0:0:0:0:
256,192,44350,1,0,0:0:0:0:
256,192,44511,1,8,0:0:0:0:
256,192,45479,5,8,0:0:0:0:
256,192,45560,1,0,0:0:0:0:
256,192,45640,1,0,0:0:0:0:
256,192,45802,1,8,0:0:0:0:
256,192,46124,1,0,0:0:0:0:
256,192,46205,1,0,0:0:0:0:
256,192,46285,1,0,0:0:0:0:
256,192,46366,1,0,0:0:0:0:
256,192,46769,1,0,0:0:0:0:
256,192,46850,1,0,0:0:0:0:
256,192,46931,1,0,0:0:0:0:
256,192,47092,1,12,0:0:0:0:
256,192,47415,1,0,0:0:0:0:
256,192,47576,1,8,0:0:0:0:
256,192,47737,1,8,0:0:0:0:
256,192,47818,1,0,0:0:0:0:
256,192,47898,1,0,0:0:0:0:
256,192,47979,1,0,0:0:0:0:
256,192,48060,1,0,0:0:0:0:
256,192,48382,1,8,0:0:0:0:
256,192,48705,1,0,0:0:0:0:
256,192,48785,1,0,0:0:0:0:
256,192,48866,1,0,0:0:0:0:
256,192,48947,1,0,0:0:0:0:
256,192,49350,1,0,0:0:0:0:
256,192,49431,1,0,0:0:0:0:
256,192,49511,1,0,0:0:0:0:
256,192,49673,1,8,0:0:0:0:
256,192,49834,1,0,0:0:0:0:
256,192,50802,5,0,0:0:0:0:
256,192,50963,1,12,0:0:0:0:
256,192,51285,1,0,0:0:0:0:
256,192,51366,1,0,0:0:0:0:
256,192,51447,1,0,0:0:0:0:
256,192,51527,1,0,0:0:0:0:
256,192,51931,1,0,0:0:0:0:
256,192,52011,1,0,0:0:0:0:
256,192,52092,1,0,0:0:0:0:
256,192,52173,1,0,0:0:0:0:
256,192,52253,1,8,0:0:0:0:
256,192,52415,1,0,0:0:0:0:
256,192,52898,12,0,53544,0:0:0:0:
256,192,53866,5,0,0:0:0:0:
256,192,53947,1,0,0:0:0:0:
256,192,54027,1,0,0:0:0:0:
256,192,54108,1,0,0:0:0:0:
256,192,54511,1,0,0:0:0:0:
256,192,54592,1,0,0:0:0:0:
256,192,54673,1,0,0:0:0:0:
256,192,54834,1,8,0:0:0:0:
256,192,55802,5,8,0:0:0:0:
256,192,55882,1,0,0:0:0:0:
256,192,55963,1,0,0:0:0:0:
256,192,56124,1,8,0:0:0:0:
256,192,56447,1,0,0:0:0:0:
256,192,56527,1,0,0:0:0:0:
256,192,56608,1,0,0:0:0:0:
256,192,56689,1,0,0:0:0:0:
256,192,57092,1,0,0:0:0:0:
256,192,57173,1,0,0:0:0:0:
256,192,57253,1,0,0:0:0:0:
256,192,57415,1,12,0:0:0:0:
256,192,57737,1,0,0:0:0:0:
256,192,57898,1,8,0:0:0:0:
256,192,58060,1,8,0:0:0:0:
256,192,58140,1,0,0:0:0:0:
256,192,58221,1,0,0:0:0:0:
256,192,58302,1,0,0:0:0:0:
256,192,58382,1,0,0:0:0:0:
256,192,58705,1,8,0:0:0:0:
256,192,59027,1,0,0:0:0:0:
256,192,59108,1,8,0:0:0:0:
256,192,59189,1,8,0:0:0:0:
256,192,59673,1,0,0:0:0:0:
256,192,59753,1,0,0:0:0:0:
256,192,59834,1,0,0:0:0:0:
256,192,59995,1,8,0:0:0:0:
256,192,60156,1,0,0:0:0:0:
256,192,61124,5,0,0:0:0:0:
256,192,61285,1,12,0:0:0:0:
256,192,61608,1,0,0:0:0:0:
256,192,61689,1,0,0:0:0:0:
256,192,61769,1,0,0:0:0:0:
256,192,61850,1,0,0:0:0:0:
256,192,62253,1,0,0:0:0:0:
256,192,62334,1,0,0:0:0:0:
256,192,62415,1,0,0:0:0:0:
256,192,62576,1,8,0:0:0:0:
256,192,62737,1,0,0:0:0:0:
256,192,62898,1,8,0:0:0:0:
256,192,62979,1,0,0:0:0:0:
256,192,63060,1,0,0:0:0:0:
256,192,63221,1,8,0:0:0:0:
256,192,63544,1,4,0:0:0:0:
256,192,63866,1,8,0:0:0:0:
256,192,64027,1,0,0:0:0:0:
256,192,64350,1,0,0:0:0:0:
256,192,64995,1,0,0:0:0:0:
256,192,65156,1,8,0:0:0:0:
256,192,65318,1,0,0:0:0:0:
256,192,65398,1,8,0:0:0:0:
256,192,65479,1,8,0:0:0:0:
256,192,65560,1,8,0:0:0:0:
256,192,66124,1,8,0:0:0:0:
256,192,66447,1,8,0:0:0:0:
256,192,66608,1,0,0:0:0:0:
256,192,66931,1,0,0:0:0:0:
256,192,67253,1,0,0:0:0:0:
256,192,67334,1,0,0:0:0:0:
256,192,67415,1,8,0:0:0:0:
256,192,67576,1,0,0:0:0:0:
256,192,67737,1,12,0:0:0:0:
256,192,68060,1,0,0:0:0:0:
256,192,68221,1,8,0:0:0:0:
256,192,68302,1,0,0:0:0:0:
256,192,68382,1,8,0:0:0:0:
256,192,68866,1,0,0:0:0:0:
256,192,68947,1,0,0:0:0:0:
256,192,69027,1,8,0:0:0:0:
256,192,69189,1,0,0:0:0:0:
256,192,69511,1,0,0:0:0:0:
256,192,69834,1,8,0:0:0:0:
256,192,69915,1,0,0:0:0:0:
256,192,69995,1,0,0:0:0:0:
256,192,70076,1,0,0:0:0:0:
256,192,70156,1,0,0:0:0:0:
256,192,70318,1,8,0:0:0:0:
256,192,71285,1,0,0:0:0:0:
256,192,71608,1,12,0:0:0:0:
256,192,71931,1,0,0:0:0:0:
256,192,72011,1,0,0:0:0:0:
256,192,72092,1,0,0:0:0:0:
256,192,72737,1,0,0:0:0:0:
256,192,72898,1,8,0:0:0:0:
256,192,73060,1,0,0:0:0:0:
256,192,73382,1,8,0:0:0:0:
256,192,73544,12,0,74027,0:0:0:0:
256,192,74189,5,8,0:0:0:0:
256,192,74269,1,0,0:0:0:0:
256,192,74350,1,0,0:0:0:0:
256,192,74431,1,0,0:0:0:0:
256,192,74511,1,0,0:0:0:0:
256,192,75156,1,0,0:0:0:0:
256,192,75237,1,0,0:0:0:0:
256,192,75318,1,0,0:0:0:0:
256,192,75479,1,8,0:0:0:0:
256,192,75640,1,0,0:0:0:0:
256,192,76447,1,8,0:0:0:0:
256,192,76527,1,0,0:0:0:0:
256,192,76608,1,0,0:0:0:0:
256,192,76769,1,8,0:0:0:0:
256,192,77092,1,0,0:0:0:0:
256,192,77173,1,0,0:0:0:0:
256,192,77253,1,0,0:0:0:0:
256,192,77737,1,0,0:0:0:0:
256,192,77818,1,0,0:0:0:0:
256,192,77898,1,0,0:0:0:0:
256,192,78060,1,12,0:0:0:0:
256,192,78382,1,0,0:0:0:0:
256,192,78544,1,8,0:0:0:0:
256,192,78705,1,8,0:0:0:0:
256,192,78785,1,0,0:0:0:0:
256,192,78866,1,0,0:0:0:0:
256,192,78947,1,0,0:0:0:0:
256,192,79027,1,0,0:0:0:0:
256,192,79350,1,8,0:0:0:0:
256,192,79673,1,0,0:0:0:0:
261,198,79753,1,8,0:0:0:0:
261,198,79834,1,8,0:0:0:0:
256,192,80318,1,0,0:0:0:0:
256,192,80398,1,0,0:0:0:0:
256,192,80479,1,0,0:0:0:0:
256,192,80640,1,8,0:0:0:0:
256,192,80802,1,0,0:0:0:0:
256,192,81769,5,0,0:0:0:0:
256,192,81931,1,12,0:0:0:0:
256,192,82415,1,8,0:0:0:0:
256,192,82576,1,8,0:0:0:0:
256,192,82656,1,0,0:0:0:0:
256,192,82737,1,0,0:0:0:0:
256,192,82898,1,8,0:0:0:0:
256,192,82979,1,0,0:0:0:0:
256,192,83060,1,0,0:0:0:0:
256,192,83221,1,8,0:0:0:0:
256,192,83302,1,0,0:0:0:0:
256,192,83382,1,0,0:0:0:0:
256,192,83544,1,8,0:0:0:0:
256,192,83866,1,4,0:0:0:0:
256,192,84027,12,0,94027,0:0:0:0:
256,192,94189,5,0,0:0:0:0:
256,192,98060,1,8,0:0:0:0:
256,192,99350,1,0,0:0:0:0:
256,192,101931,1,0,0:0:0:0:
256,192,104511,1,0,0:0:0:0:
256,192,107092,1,0,0:0:0:0:
256,192,109027,1,0,0:0:0:0:
256,192,112898,1,8,0:0:0:0:
256,192,114834,1,8,0:0:0:0:
256,192,117415,1,0,0:0:0:0:
256,192,119995,1,8,0:0:0:0:
256,192,122576,1,0,0:0:0:0:
256,192,123866,1,8,0:0:0:0:
256,192,125156,1,8,0:0:0:0:
256,192,126447,1,8,0:0:0:0:
256,192,129027,1,0,0:0:0:0:
256,192,130318,1,8,0:0:0:0:
256,192,132898,1,8,0:0:0:0:
256,192,134189,12,0,135156,0:0:0:0:
256,192,135479,5,0,0:0:0:0:
256,192,143221,12,0,145479,0:0:0:0:
256,192,145802,5,6,0:0:0:0:
256,192,146285,1,6,0:0:0:0:
256,192,146769,1,6,0:0:0:0:
256,192,150963,5,8,0:0:0:0:
256,192,151124,1,0,0:0:0:0:
256,192,151285,1,0,0:0:0:0:
256,192,151447,1,8,0:0:0:0:
256,192,151608,1,0,0:0:0:0:
256,192,151769,1,0,0:0:0:0:
256,192,151931,1,8,0:0:0:0:
256,192,152253,1,0,0:0:0:0:
256,192,155802,5,8,0:0:0:0:
256,192,156124,5,8,0:0:0:0:
256,192,156205,1,0,0:0:0:0:
256,192,156285,1,0,0:0:0:0:
256,192,156366,1,0,0:0:0:0:
256,192,156447,1,0,0:0:0:0:
256,192,156769,1,8,0:0:0:0:
256,192,157092,1,0,0:0:0:0:
256,192,157173,1,0,0:0:0:0:
256,192,157253,1,0,0:0:0:0:
256,192,157334,1,0,0:0:0:0:
256,192,157737,1,0,0:0:0:0:
256,192,157818,1,0,0:0:0:0:
256,192,157898,1,0,0:0:0:0:
256,192,158060,1,8,0:0:0:0:
256,192,159027,5,8,0:0:0:0:
256,192,159108,1,0,0:0:0:0:
256,192,159189,1,0,0:0:0:0:
256,192,159350,1,8,0:0:0:0:
256,192,159673,1,0,0:0:0:0:
256,192,159753,1,0,0:0:0:0:
256,192,159834,1,0,0:0:0:0:
256,192,159915,1,0,0:0:0:0:
256,192,160318,1,0,0:0:0:0:
256,192,160398,1,0,0:0:0:0:
256,192,160479,1,0,0:0:0:0:
256,192,160640,1,12,0:0:0:0:
256,192,160963,1,0,0:0:0:0:
256,192,161124,1,8,0:0:0:0:
256,192,161285,1,8,0:0:0:0:
256,192,161366,1,0,0:0:0:0:
256,192,161447,1,0,0:0:0:0:
256,192,161527,1,0,0:0:0:0:
256,192,161608,1,0,0:0:0:0:
256,192,161931,1,8,0:0:0:0:
256,192,162253,1,0,0:0:0:0:
256,192,162334,1,0,0:0:0:0:
256,192,162415,1,0,0:0:0:0:
256,192,162495,1,0,0:0:0:0:
256,192,162898,1,0,0:0:0:0:
256,192,162979,1,0,0:0:0:0:
256,192,163060,1,0,0:0:0:0:
256,192,163221,1,8,0:0:0:0:
256,192,163382,1,0,0:0:0:0:
256,192,164350,5,0,0:0:0:0:
256,192,164511,1,12,0:0:0:0:
256,192,164834,1,0,0:0:0:0:
256,192,164915,1,0,0:0:0:0:
256,192,164995,1,0,0:0:0:0:
256,192,165076,1,0,0:0:0:0:
256,192,165479,1,0,0:0:0:0:
256,192,165560,1,0,0:0:0:0:
256,192,165640,1,0,0:0:0:0:
256,192,165802,1,8,0:0:0:0:
256,192,165963,1,0,0:0:0:0:
256,192,166447,12,0,167092,0:0:0:0:
256,192,167415,5,0,0:0:0:0:
256,192,167495,1,0,0:0:0:0:
256,192,167576,1,0,0:0:0:0:
256,192,167656,1,0,0:0:0:0:
256,192,168060,1,0,0:0:0:0:
256,192,168140,1,0,0:0:0:0:
256,192,168221,1,0,0:0:0:0:
256,192,168382,1,8,0:0:0:0:
256,192,169350,5,8,0:0:0:0:
256,192,169431,1,0,0:0:0:0:
256,192,169511,1,0,0:0:0:0:
256,192,169673,1,8,0:0:0:0:
256,192,169995,1,0,0:0:0:0:
256,192,170076,1,0,0:0:0:0:
256,192,170156,1,0,0:0:0:0:
256,192,170237,1,0,0:0:0:0:
256,192,170640,1,0,0:0:0:0:
256,192,170721,1,0,0:0:0:0:
256,192,170802,1,0,0:0:0:0:
256,192,170963,1,8,0:0:0:0:
256,192,171285,1,0,0:0:0:0:
256,192,171447,1,8,0:0:0:0:
256,192,171608,1,8,0:0:0:0:
256,192,171689,1,0,0:0:0:0:
256,192,171769,1,0,0:0:0:0:
256,192,171850,1,0,0:0:0:0:
256,192,171931,1,0,0:0:0:0:
256,192,172253,1,8,0:0:0:0:
256,192,172576,1,0,0:0:0:0:
256,192,172656,1,8,0:0:0:0:
256,192,172737,1,8,0:0:0:0:
256,192,173221,1,0,0:0:0:0:
256,192,173302,1,0,0:0:0:0:
256,192,173382,1,0,0:0:0:0:
256,192,173544,1,8,0:0:0:0:
256,192,173705,1,0,0:0:0:0:
256,192,174673,5,0,0:0:0:0:
256,192,174834,1,12,0:0:0:0:
256,192,175318,1,0,0:0:0:0:
256,192,175802,1,0,0:0:0:0:
256,192,175882,1,0,0:0:0:0:
256,192,175963,1,0,0:0:0:0:
256,192,176124,1,8,0:0:0:0:
256,192,176285,1,0,0:0:0:0:
256,192,176447,1,8,0:0:0:0:
256,192,176527,1,0,0:0:0:0:
256,192,176608,1,0,0:0:0:0:
256,192,176769,1,8,0:0:0:0:
256,192,177092,1,4,0:0:0:0:
256,192,177415,1,8,0:0:0:0:
256,192,177576,1,0,0:0:0:0:
256,192,177898,1,0,0:0:0:0:
256,192,178544,1,0,0:0:0:0:
256,192,178705,1,8,0:0:0:0:
256,192,178866,1,0,0:0:0:0:
256,192,178947,1,8,0:0:0:0:
256,192,179027,1,8,0:0:0:0:
256,192,179108,1,8,0:0:0:0:
256,192,179673,1,8,0:0:0:0:
256,192,179995,1,8,0:0:0:0:
256,192,180156,1,0,0:0:0:0:
256,192,180479,1,0,0:0:0:0:
256,192,180802,1,0,0:0:0:0:
256,192,180882,1,0,0:0:0:0:
256,192,180963,1,8,0:0:0:0:
256,192,181124,1,0,0:0:0:0:
256,192,181285,1,12,0:0:0:0:
256,192,181608,1,0,0:0:0:0:
256,192,181689,1,0,0:0:0:0:
256,192,181769,1,8,0:0:0:0:
256,192,181931,1,8,0:0:0:0:
256,192,182415,1,0,0:0:0:0:
256,192,182495,1,0,0:0:0:0:
256,192,182576,1,8,0:0:0:0:
256,192,182737,1,0,0:0:0:0:
256,192,183060,1,0,0:0:0:0:
256,192,183382,1,8,0:0:0:0:
256,192,183463,1,0,0:0:0:0:
256,192,183544,1,0,0:0:0:0:
256,192,183624,1,0,0:0:0:0:
256,192,183705,1,0,0:0:0:0:
256,192,183866,1,8,0:0:0:0:
256,192,184834,1,0,0:0:0:0:
256,192,184915,1,0,0:0:0:0:
256,192,184995,1,0,0:0:0:0:
256,192,185156,1,12,0:0:0:0:
256,192,185479,1,0,0:0:0:0:
256,192,185560,1,0,0:0:0:0:
256,192,185640,1,0,0:0:0:0:
256,192,186285,1,0,0:0:0:0:
256,192,186447,1,8,0:0:0:0:
256,192,186608,1,0,0:0:0:0:
256,192,186769,1,0,0:0:0:0:
256,192,186931,1,8,0:0:0:0:
256,192,187737,5,8,0:0:0:0:
256,192,187818,1,0,0:0:0:0:
256,192,187898,1,0,0:0:0:0:
256,192,187979,1,0,0:0:0:0:
256,192,188060,1,0,0:0:0:0:
256,192,188705,1,0,0:0:0:0:
256,192,189027,1,8,0:0:0:0:
256,192,189189,1,0,0:0:0:0:
256,192,189995,1,8,0:0:0:0:
256,192,190318,1,8,0:0:0:0:
256,192,190640,1,0,0:0:0:0:
256,192,190963,1,8,0:0:0:0:
256,192,191044,1,0,0:0:0:0:
256,192,191124,1,0,0:0:0:0:
256,192,191205,1,0,0:0:0:0:
256,192,191285,1,8,0:0:0:0:
256,192,191608,1,12,0:0:0:0:
256,192,191931,1,0,0:0:0:0:
256,192,192092,1,8,0:0:0:0:
256,192,192253,1,8,0:0:0:0:
256,192,192898,1,8,0:0:0:0:
256,192,193221,1,0,0:0:0:0:
256,192,193544,1,0,0:0:0:0:
256,192,193705,1,8,0:0:0:0:
256,192,193785,1,8,0:0:0:0:
256,192,193866,1,0,0:0:0:0:
256,192,194027,1,0,0:0:0:0:
256,192,194189,1,8,0:0:0:0:
256,192,194350,1,0,0:0:0:0:
256,192,194511,12,0,195156,0:0:0:0:
256,192,195318,5,0,0:0:0:0:
256,192,195479,1,12,0:0:0:0:
256,192,195963,1,8,0:0:0:0:
256,192,196124,1,8,0:0:0:0:
256,192,196205,1,0,0:0:0:0:
256,192,196285,1,0,0:0:0:0:
256,192,196447,1,8,0:0:0:0:
256,192,196527,1,0,0:0:0:0:
256,192,196608,1,0,0:0:0:0:
256,192,196769,1,8,0:0:0:0:
256,192,196850,1,0,0:0:0:0:
256,192,196931,1,0,0:0:0:0:
256,192,197092,1,8,0:0:0:0:
256,192,197415,1,4,0:0:0:0:
256,192,201285,1,0,0:0:0:0:
256,192,202576,1,8,0:0:0:0:
256,192,205156,1,0,0:0:0:0:
256,192,207737,1,0,0:0:0:0:
256,192,210318,1,0,0:0:0:0:
256,192,212253,1,0,0:0:0:0:
256,192,216124,1,8,0:0:0:0:
256,192,218060,1,8,0:0:0:0:
256,192,220640,1,0,0:0:0:0:
256,192,223221,1,8,0:0:0:0:
256,192,225802,1,0,0:0:0:0:
256,192,227092,1,8,0:0:0:0:
256,192,228382,1,8,0:0:0:0:
256,192,229673,1,8,0:0:0:0:
256,192,232253,1,0,0:0:0:0:
256,192,233544,1,0,0:0:0:0:
256,192,236124,1,0,0:0:0:0:
256,192,238705,1,8,0:0:0:0:
