osu file format v14

[General]
AudioFilename: audio.mp3
AudioLeadIn: 0
PreviewTime: 42415
Countdown: 0
SampleSet: Normal
StackLeniency: 0.7
Mode: 1
LetterboxInBreaks: 0
WidescreenStoryboard: 1

[Editor]
Bookmarks: 120,46729,48119,81119,113119,145069,161069,167069,177069,208162,231828
DistanceSpacing: 0.2
BeatDivisor: 8
GridSize: 32
TimelineZoom: 1.6

[Metadata]
Title:deconstructing nature
TitleUnicode:deconstructing nature
Artist:sakuraburst
ArtistUnicode:sakuraburst
Creator:h o n e y
Version:inner oni
Source:osu!
Tags:dnb honey uk and drum & bass glitch heavy idm orchestral soundfont united kingdom fa featured artist electronic instrumental
BeatmapID:2737218
BeatmapSetID:1289473

[Difficulty]
HPDrainRate:5
CircleSize:4
OverallDifficulty:6
ApproachRate:10
SliderMultiplier:1.4
SliderTickRate:1

[Events]
//Background and Video events
0,0,"bg.jpg",0,-20
//Break Periods
2,1486,7287
2,11808,16319
2,135679,142771
//Storyboard Layer 0 (Background)
//Storyboard Layer 1 (Fail)
//Storyboard Layer 2 (Pass)
//Storyboard Layer 3 (Foreground)
//Storyboard Layer 4 (Overlay)
//Storyboard Sound Samples

[TimingPoints]
1286,322.58064516129,4,1,0,50,1,0
2535,-142.857142857143,4,1,0,50,0,0
7737,-142.857142857143,4,1,0,20,0,0
11447,-100,4,1,0,50,0,0
11689,-142.857142857143,4,1,0,50,0,0
16769,-142.857142857143,4,1,0,20,0,0
22173,-100,4,1,0,50,0,0
22656,-142.857142857143,4,1,0,50,0,0
26366,-100,4,1,0,50,0,0
27818,-142.857142857143,4,1,0,50,0,0
32213,-100,4,1,0,50,0,0
33261,-142.857142857143,4,1,0,50,0,0
37374,-136.986301369863,4,1,0,50,0,0
37535,-131.578947368421,4,1,0,50,0,0
37697,-126.582278481013,4,1,0,50,0,0
37858,-121.951219512195,4,1,0,50,0,0
38019,-117.647058823529,4,1,0,50,0,0
38181,-113.636363636364,4,1,0,50,0,0
38342,-109.89010989011,4,1,0,50,0,0
38503,-106.382978723404,4,1,0,50,0,0
38665,-100,4,1,0,50,0,0
39995,-68.9655172413793,4,1,0,12,0,0
40076,-68.9655172413793,4,1,0,14,0,0
40156,-68.9655172413793,4,1,0,16,0,0
40237,-68.9655172413793,4,1,0,18,0,0
40318,-68.9655172413793,4,1,0,20,0,0
40398,-68.9655172413793,4,1,0,22,0,0
40479,-68.9655172413793,4,1,0,24,0,0
40560,-68.9655172413793,4,1,0,26,0,0
40640,-68.9655172413793,4,1,0,28,0,0
40721,-68.9655172413793,4,1,0,30,0,0
40802,-68.9655172413793,4,1,0,32,0,0
40882,-68.9655172413793,4,1,0,34,0,0
40963,-68.9655172413793,4,1,0,36,0,0
41044,-68.9655172413793,4,1,0,38,0,0
41124,-68.9655172413793,4,1,0,40,0,0
41205,-68.9655172413793,4,1,0,42,0,0
41285,-68.9655172413793,4,1,0,44,0,0
41366,-68.9655172413793,4,1,0,46,0,0
41447,-68.9655172413793,4,1,0,48,0,0
41527,-68.9655172413793,4,1,0,50,0,0
41608,-68.9655172413793,4,1,0,52,0,0
41689,-68.9655172413793,4,1,0,54,0,0
41769,-68.9655172413793,4,1,0,56,0,0
41850,-142.857142857143,4,1,0,58,0,0
41931,-142.857142857143,4,1,0,60,0,0
42535,-100,4,1,0,50,0,0
42616,-101.010101010101,4,1,0,50,0,0
42697,-102.040816326531,4,1,0,50,0,0
42777,-103.092783505155,4,1,0,50,0,0
42858,-104.166666666667,4,1,0,50,0,0
42939,-105.263157894737,4,1,0,50,0,0
43019,-106.382978723404,4,1,0,50,0,0
43100,-107.52688172043,4,1,0,50,0,0
43181,-108.695652173913,4,1,0,50,0,0
43503,-100,4,1,0,50,0,0
43584,-101.010101010101,4,1,0,50,0,0
43665,-102.040816326531,4,1,0,50,0,0
43745,-103.092783505155,4,1,0,50,0,0
43826,-104.166666666667,4,1,0,50,0,0
44148,-100,4,1,0,50,0,0
44229,-101.010101010101,4,1,0,50,0,0
44310,-102.040816326531,4,1,0,50,0,0
44390,-103.092783505155,4,1,0,50,0,0
44471,-104.166666666667,4,1,0,50,0,0
44552,-105.263157894737,4,1,0,50,0,0
45439,-100,4,1,0,50,0,0
45520,-101.010101010101,4,1,0,50,0,0
45601,-102.040816326531,4,1,0,50,0,0
45681,-103.092783505155,4,1,0,50,0,0
45762,-104.166666666667,4,1,0,50,0,0
45843,-105.263157894737,4,1,0,50,0,0
46084,-100,4,1,0,50,0,0
46165,-101.010101010101,4,1,0,50,0,0
46246,-102.040816326531,4,1,0,50,0,0
46326,-103.092783505155,4,1,0,50,0,0
46407,-104.166666666667,4,1,0,50,0,0
46488,-105.263157894737,4,1,0,50,0,0
46568,-106.382978723404,4,1,0,50,0,0
46649,-107.52688172043,4,1,0,50,0,0
46729,-100,4,1,0,50,0,0
46810,-101.010101010101,4,1,0,50,0,0
46891,-102.040816326531,4,1,0,50,0,0
46971,-103.092783505155,4,1,0,50,0,0
47052,-104.166666666667,4,1,0,50,0,0
47133,-105.263157894737,4,1,0,50,0,0
47213,-106.382978723404,4,1,0,50,0,0
47294,-107.52688172043,4,1,0,50,0,0
47374,-100,4,1,0,50,0,0
47455,-101.010101010101,4,1,0,50,0,0
47536,-102.040816326531,4,1,0,50,0,0
47616,-103.092783505155,4,1,0,50,0,0
47697,-100,4,1,0,50,0,0
47778,-101.010101010101,4,1,0,50,0,0
47859,-102.040816326531,4,1,0,50,0,0
47939,-103.092783505155,4,1,0,50,0,0
48020,-104.166666666667,4,1,0,50,0,0
48101,-105.263157894737,4,1,0,50,0,0
48181,-106.382978723404,4,1,0,50,0,0
48262,-107.52688172043,4,1,0,50,0,0
48343,-108.695652173913,4,1,0,50,0,0
48665,-100,4,1,0,50,0,0
48746,-101.010101010101,4,1,0,50,0,0
48827,-102.040816326531,4,1,0,50,0,0
48907,-103.092783505155,4,1,0,50,0,0
48988,-104.166666666667,4,1,0,50,0,0
49310,-100,4,1,0,50,0,0
49391,-101.010101010101,4,1,0,50,0,0
49472,-102.040816326531,4,1,0,50,0,0
49552,-103.092783505155,4,1,0,50,0,0
49633,-104.166666666667,4,1,0,50,0,0
49714,-105.263157894737,4,1,0,50,0,0
49794,-106.382978723404,4,1,0,50,0,0
49875,-107.52688172043,4,1,0,50,0,0
49956,-108.695652173913,4,1,0,50,0,0
50761,-100,4,1,0,50,0,0
50842,-101.010101010101,4,1,0,50,0,0
50923,-102.040816326531,4,1,0,50,0,0
51003,-103.092783505155,4,1,0,50,0,0
51084,-104.166666666667,4,1,0,50,0,0
51165,-105.263157894737,4,1,0,50,0,0
51245,-100,4,1,0,50,0,0
51326,-101.010101010101,4,1,0,50,0,0
51407,-102.040816326531,4,1,0,50,0,0
51487,-103.092783505155,4,1,0,50,0,0
51568,-104.166666666667,4,1,0,50,0,0
51649,-105.263157894737,4,1,0,50,0,0
51729,-106.382978723404,4,1,0,50,0,0
51810,-107.52688172043,4,1,0,50,0,0
51890,-100,4,1,0,50,0,0
51971,-101.010101010101,4,1,0,50,0,0
52052,-102.040816326531,4,1,0,50,0,0
52132,-103.092783505155,4,1,0,50,0,0
52213,-104.166666666667,4,1,0,50,0,0
52294,-105.263157894737,4,1,0,50,0,0
52374,-106.382978723404,4,1,0,50,0,0
52455,-107.52688172043,4,1,0,50,0,0
52536,-108.695652173913,4,1,0,50,0,0
53826,-100,4,1,0,50,0,0
53907,-101.010101010101,4,1,0,50,0,0
53988,-102.040816326531,4,1,0,50,0,0
54068,-103.092783505155,4,1,0,50,0,0
54149,-104.166666666667,4,1,0,50,0,0
54230,-105.263157894737,4,1,0,50,0,0
54310,-106.382978723404,4,1,0,50,0,0
54391,-107.52688172043,4,1,0,50,0,0
54471,-100,4,1,0,50,0,0
54552,-101.010101010101,4,1,0,50,0,0
54633,-102.040816326531,4,1,0,50,0,0
54713,-103.092783505155,4,1,0,50,0,0
54794,-104.166666666667,4,1,0,50,0,0
54875,-105.263157894737,4,1,0,50,0,0
54955,-106.382978723404,4,1,0,50,0,0
55036,-107.52688172043,4,1,0,50,0,0
55117,-108.695652173913,4,1,0,50,0,0
55761,-100,4,1,0,50,0,0
55842,-101.010101010101,4,1,0,50,0,0
55923,-102.040816326531,4,1,0,50,0,0
56003,-103.092783505155,4,1,0,50,0,0
56084,-104.166666666667,4,1,0,50,0,0
56165,-105.263157894737,4,1,0,50,0,0
56245,-106.382978723404,4,1,0,50,0,0
56326,-107.52688172043,4,1,0,50,0,0
56406,-100,4,1,0,50,0,0
56487,-101.010101010101,4,1,0,50,0,0
56568,-102.040816326531,4,1,0,50,0,0
56648,-103.092783505155,4,1,0,50,0,0
56729,-104.166666666667,4,1,0,50,0,0
56810,-105.263157894737,4,1,0,50,0,0
56890,-98.0392156862745,4,1,0,50,0,0
56971,-99.009900990099,4,1,0,50,0,0
57052,-100,4,1,0,50,0,0
57133,-101.010101010101,4,1,0,50,0,0
57214,-102.040816326531,4,1,0,50,0,0
57294,-103.092783505155,4,1,0,50,0,0
57375,-104.166666666667,4,1,0,50,0,0
57456,-105.263157894737,4,1,0,50,0,0
57536,-106.382978723404,4,1,0,50,0,0
57617,-107.52688172043,4,1,0,50,0,0
57697,-100,4,1,0,50,0,0
57778,-101.010101010101,4,1,0,50,0,0
57859,-102.040816326531,4,1,0,50,0,0
57939,-103.092783505155,4,1,0,50,0,0
58019,-100,4,1,0,50,0,0
58100,-101.010101010101,4,1,0,50,0,0
58181,-102.040816326531,4,1,0,50,0,0
58261,-103.092783505155,4,1,0,50,0,0
58342,-104.166666666667,4,1,0,50,0,0
58423,-105.263157894737,4,1,0,50,0,0
58503,-106.382978723404,4,1,0,50,0,0
58584,-107.52688172043,4,1,0,50,0,0
58665,-108.695652173913,4,1,0,50,0,0
58987,-100,4,1,0,50,0,0
59068,-101.010101010101,4,1,0,50,0,0
59149,-102.040816326531,4,1,0,50,0,0
59229,-103.092783505155,4,1,0,50,0,0
59310,-104.166666666667,4,1,0,50,0,0
59391,-105.263157894737,4,1,0,50,0,0
59471,-106.382978723404,4,1,0,50,0,0
59552,-107.52688172043,4,1,0,50,0,0
59632,-100,4,1,0,50,0,0
59713,-101.010101010101,4,1,0,50,0,0
59794,-102.040816326531,4,1,0,50,0,0
59874,-103.092783505155,4,1,0,50,0,0
59955,-104.166666666667,4,1,0,50,0,0
60036,-105.263157894737,4,1,0,50,0,0
60116,-106.382978723404,4,1,0,50,0,0
60197,-107.52688172043,4,1,0,50,0,0
60278,-108.695652173913,4,1,0,50,0,0
61084,-100,4,1,0,50,0,0
61165,-101.010101010101,4,1,0,50,0,0
61246,-102.040816326531,4,1,0,50,0,0
61326,-103.092783505155,4,1,0,50,0,0
61407,-104.166666666667,4,1,0,50,0,0
61488,-105.263157894737,4,1,0,50,0,0
61568,-100,4,1,0,50,0,0
61649,-101.010101010101,4,1,0,50,0,0
61730,-102.040816326531,4,1,0,50,0,0
61810,-103.092783505155,4,1,0,50,0,0
61891,-104.166666666667,4,1,0,50,0,0
61972,-105.263157894737,4,1,0,50,0,0
62052,-106.382978723404,4,1,0,50,0,0
62133,-107.52688172043,4,1,0,50,0,0
62213,-100,4,1,0,50,0,0
62294,-101.010101010101,4,1,0,50,0,0
62375,-102.040816326531,4,1,0,50,0,0
62455,-103.092783505155,4,1,0,50,0,0
62536,-104.166666666667,4,1,0,50,0,0
62617,-105.263157894737,4,1,0,50,0,0
62697,-106.382978723404,4,1,0,50,0,0
62778,-107.52688172043,4,1,0,50,0,0
62858,-100,4,1,0,50,0,0
62939,-101.010101010101,4,1,0,50,0,0
63020,-102.040816326531,4,1,0,50,0,0
63100,-103.092783505155,4,1,0,50,0,0
63181,-104.166666666667,4,1,0,50,0,0
63262,-105.263157894737,4,1,0,50,0,0
63342,-106.382978723404,4,1,0,50,0,0
63423,-107.52688172043,4,1,0,50,0,0
63503,-100,4,1,0,50,0,0
74471,-100,4,1,0,50,0,0
74552,-101.010101010101,4,1,0,50,0,0
74633,-102.040816326531,4,1,0,50,0,0
74713,-103.092783505155,4,1,0,50,0,0
74794,-104.166666666667,4,1,0,50,0,0
74875,-105.263157894737,4,1,0,50,0,0
74955,-106.382978723404,4,1,0,50,0,0
75036,-107.52688172043,4,1,0,50,0,0
75116,-100,4,1,0,50,0,0
75197,-101.010101010101,4,1,0,50,0,0
75278,-102.040816326531,4,1,0,50,0,0
75358,-103.092783505155,4,1,0,50,0,0
75439,-104.166666666667,4,1,0,50,0,0
75520,-105.263157894737,4,1,0,50,0,0
75600,-106.382978723404,4,1,0,50,0,0
75681,-107.52688172043,4,1,0,50,0,0
75762,-108.695652173913,4,1,0,50,0,0
76406,-100,4,1,0,50,0,0
76487,-101.010101010101,4,1,0,50,0,0
76568,-102.040816326531,4,1,0,50,0,0
76648,-103.092783505155,4,1,0,50,0,0
76729,-104.166666666667,4,1,0,50,0,0
76810,-105.263157894737,4,1,0,50,0,0
76890,-106.382978723404,4,1,0,50,0,0
76971,-107.52688172043,4,1,0,50,0,0
77052,-100,4,1,0,50,0,0
77133,-101.010101010101,4,1,0,50,0,0
77214,-102.040816326531,4,1,0,50,0,0
77294,-103.092783505155,4,1,0,50,0,0
77375,-104.166666666667,4,1,0,50,0,0
77456,-105.263157894737,4,1,0,50,0,0
77536,-106.382978723404,4,1,0,50,0,0
77617,-107.52688172043,4,1,0,50,0,0
77697,-100,4,1,0,50,0,0
77778,-101.010101010101,4,1,0,50,0,0
77859,-102.040816326531,4,1,0,50,0,0
77939,-103.092783505155,4,1,0,50,0,0
78020,-104.166666666667,4,1,0,50,0,0
78101,-105.263157894737,4,1,0,50,0,0
78181,-106.382978723404,4,1,0,50,0,0
78262,-107.52688172043,4,1,0,50,0,0
78342,-100,4,1,0,50,0,0
78423,-101.010101010101,4,1,0,50,0,0
78504,-102.040816326531,4,1,0,50,0,0
78584,-103.092783505155,4,1,0,50,0,0
78665,-100,4,1,0,50,0,0
78746,-101.010101010101,4,1,0,50,0,0
78827,-102.040816326531,4,1,0,50,0,0
78907,-103.092783505155,4,1,0,50,0,0
78988,-104.166666666667,4,1,0,50,0,0
79069,-105.263157894737,4,1,0,50,0,0
79149,-106.382978723404,4,1,0,50,0,0
79230,-107.52688172043,4,1,0,50,0,0
79311,-108.695652173913,4,1,0,50,0,0
79632,-100,4,1,0,50,0,0
79713,-101.010101010101,4,1,0,50,0,0
79794,-102.040816326531,4,1,0,50,0,0
79874,-103.092783505155,4,1,0,50,0,0
79955,-104.166666666667,4,1,0,50,0,0
80036,-105.263157894737,4,1,0,50,0,0
80116,-106.382978723404,4,1,0,50,0,0
80197,-107.52688172043,4,1,0,50,0,0
80277,-100,4,1,0,50,0,0
80358,-101.010101010101,4,1,0,50,0,0
80439,-102.040816326531,4,1,0,50,0,0
80519,-103.092783505155,4,1,0,50,0,0
80600,-104.166666666667,4,1,0,50,0,0
80681,-105.263157894737,4,1,0,50,0,0
80761,-106.382978723404,4,1,0,50,0,0
80842,-107.52688172043,4,1,0,50,0,0
80923,-108.695652173913,4,1,0,50,0,0
81729,-100,4,1,0,50,0,0
81810,-101.010101010101,4,1,0,50,0,0
81891,-102.040816326531,4,1,0,50,0,0
81971,-103.092783505155,4,1,0,50,0,0
85116,-133.333333333333,4,1,0,50,0,0
86406,-142.857142857143,4,1,0,50,0,0
87697,-153.846153846154,4,1,0,50,0,0
88987,-166.666666666667,4,1,0,50,0,0
90277,-181.818181818182,4,1,0,50,0,0
91568,-200,4,1,0,50,0,0
92858,-222.222222222222,4,1,0,50,0,0
94148,-250,4,1,0,50,0,0
134148,-200,4,1,0,20,0,0
135439,-166.666666666667,4,1,0,50,0,0
143181,-142.857142857143,4,1,0,50,0,0
145761,-100,4,1,0,50,0,0
147052,-142.857142857143,4,1,0,50,0,0
150923,-136.986301369863,4,1,0,50,0,0
151084,-131.578947368421,4,1,0,50,0,0
151246,-126.582278481013,4,1,0,50,0,0
151407,-121.951219512195,4,1,0,50,0,0
151568,-117.647058823529,4,1,0,50,0,0
151730,-113.636363636364,4,1,0,50,0,0
151891,-109.89010989011,4,1,0,50,0,0
152052,-106.382978723404,4,1,0,50,0,0
152213,-104.166666666667,4,1,0,50,0,0
153503,-133.333333333333,4,1,0,50,0,0
154794,-153.846153846153,4,1,0,50,0,0
155761,-200,4,1,0,50,0,0
156084,-100,4,1,0,50,0,0
156165,-101.010101010101,4,1,0,50,0,0
156246,-102.040816326531,4,1,0,50,0,0
156326,-103.092783505155,4,1,0,50,0,0
156407,-104.166666666667,4,1,0,50,0,0
156488,-105.263157894737,4,1,0,50,0,0
156568,-106.382978723404,4,1,0,50,0,0
156649,-107.52688172043,4,1,0,50,0,0
156730,-108.695652173913,4,1,0,50,0,0
157052,-100,4,1,0,50,0,0
157133,-101.010101010101,4,1,0,50,0,0
157214,-102.040816326531,4,1,0,50,0,0
157294,-103.092783505155,4,1,0,50,0,0
157375,-104.166666666667,4,1,0,50,0,0
157456,-105.263157894737,4,1,0,50,0,0
157536,-106.382978723404,4,1,0,50,0,0
157617,-107.52688172043,4,1,0,50,0,0
157697,-100,4,1,0,50,0,0
157778,-101.010101010101,4,1,0,50,0,0
157859,-102.040816326531,4,1,0,50,0,0
157939,-103.092783505155,4,1,0,50,0,0
158020,-104.166666666667,4,1,0,50,0,0
158101,-105.263157894737,4,1,0,50,0,0
158181,-106.382978723404,4,1,0,50,0,0
158262,-107.52688172043,4,1,0,50,0,0
158343,-108.695652173913,4,1,0,50,0,0
158987,-100,4,1,0,50,0,0
159068,-101.010101010101,4,1,0,50,0,0
159149,-102.040816326531,4,1,0,50,0,0
159229,-103.092783505155,4,1,0,50,0,0
159310,-104.166666666667,4,1,0,50,0,0
159391,-105.263157894737,4,1,0,50,0,0
159471,-106.382978723404,4,1,0,50,0,0
159552,-107.52688172043,4,1,0,50,0,0
159632,-100,4,1,0,50,0,0
159713,-101.010101010101,4,1,0,50,0,0
159794,-102.040816326531,4,1,0,50,0,0
159874,-103.092783505155,4,1,0,50,0,0
159955,-104.166666666667,4,1,0,50,0,0
160036,-105.263157894737,4,1,0,50,0,0
160116,-106.382978723404,4,1,0,50,0,0
160197,-107.52688172043,4,1,0,50,0,0
160277,-100,4,1,0,50,0,0
160358,-101.010101010101,4,1,0,50,0,0
160439,-102.040816326531,4,1,0,50,0,0
160519,-103.092783505155,4,1,0,50,0,0
160600,-104.166666666667,4,1,0,50,0,0
160681,-105.263157894737,4,1,0,50,0,0
160761,-106.382978723404,4,1,0,50,0,0
160842,-107.52688172043,4,1,0,50,0,0
160923,-100,4,1,0,50,0,0
161004,-101.010101010101,4,1,0,50,0,0
161085,-102.040816326531,4,1,0,50,0,0
161165,-103.092783505155,4,1,0,50,0,0
161245,-100,4,1,0,50,0,0
161326,-101.010101010101,4,1,0,50,0,0
161407,-102.040816326531,4,1,0,50,0,0
161487,-103.092783505155,4,1,0,50,0,0
161568,-104.166666666667,4,1,0,50,0,0
161649,-105.263157894737,4,1,0,50,0,0
161729,-106.382978723404,4,1,0,50,0,0
161810,-107.52688172043,4,1,0,50,0,0
161891,-108.695652173913,4,1,0,50,0,0
162213,-100,4,1,0,50,0,0
162294,-101.010101010101,4,1,0,50,0,0
162375,-102.040816326531,4,1,0,50,0,0
162455,-103.092783505155,4,1,0,50,0,0
162536,-104.166666666667,4,1,0,50,0,0
162617,-105.263157894737,4,1,0,50,0,0
162697,-106.382978723404,4,1,0,50,0,0
162778,-107.52688172043,4,1,0,50,0,0
162858,-100,4,1,0,50,0,0
162939,-101.010101010101,4,1,0,50,0,0
163020,-102.040816326531,4,1,0,50,0,0
163100,-103.092783505155,4,1,0,50,0,0
163181,-104.166666666667,4,1,0,50,0,0
163262,-105.263157894737,4,1,0,50,0,0
163342,-106.382978723404,4,1,0,50,0,0
163423,-107.52688172043,4,1,0,50,0,0
163504,-108.695652173913,4,1,0,50,0,0
164310,-100,4,1,0,50,0,0
164391,-101.010101010101,4,1,0,50,0,0
164472,-102.040816326531,4,1,0,50,0,0
164552,-103.092783505155,4,1,0,50,0,0
164633,-104.166666666667,4,1,0,50,0,0
164714,-105.263157894737,4,1,0,50,0,0
164794,-100,4,1,0,50,0,0
164875,-101.010101010101,4,1,0,50,0,0
164956,-102.040816326531,4,1,0,50,0,0
165036,-103.092783505155,4,1,0,50,0,0
165117,-104.166666666667,4,1,0,50,0,0
165198,-105.263157894737,4,1,0,50,0,0
165278,-106.382978723404,4,1,0,50,0,0
165359,-107.52688172043,4,1,0,50,0,0
165439,-100,4,1,0,50,0,0
165520,-101.010101010101,4,1,0,50,0,0
165601,-102.040816326531,4,1,0,50,0,0
165681,-103.092783505155,4,1,0,50,0,0
165762,-104.166666666667,4,1,0,50,0,0
165843,-105.263157894737,4,1,0,50,0,0
165923,-106.382978723404,4,1,0,50,0,0
166004,-107.52688172043,4,1,0,50,0,0
166085,-108.695652173913,4,1,0,50,0,0
167374,-100,4,1,0,50,0,0
167455,-101.010101010101,4,1,0,50,0,0
167536,-102.040816326531,4,1,0,50,0,0
167616,-103.092783505155,4,1,0,50,0,0
167697,-104.166666666667,4,1,0,50,0,0
167778,-105.263157894737,4,1,0,50,0,0
167858,-106.382978723404,4,1,0,50,0,0
167939,-107.52688172043,4,1,0,50,0,0
168019,-100,4,1,0,50,0,0
168100,-101.010101010101,4,1,0,50,0,0
168181,-102.040816326531,4,1,0,50,0,0
168261,-103.092783505155,4,1,0,50,0,0
168342,-104.166666666667,4,1,0,50,0,0
168423,-105.263157894737,4,1,0,50,0,0
168503,-106.382978723404,4,1,0,50,0,0
168584,-107.52688172043,4,1,0,50,0,0
168665,-108.695652173913,4,1,0,50,0,0
169310,-100,4,1,0,50,0,0
169391,-101.010101010101,4,1,0,50,0,0
169472,-102.040816326531,4,1,0,50,0,0
169552,-103.092783505155,4,1,0,50,0,0
169633,-104.166666666667,4,1,0,50,0,0
169714,-105.263157894737,4,1,0,50,0,0
169794,-106.382978723404,4,1,0,50,0,0
169875,-107.52688172043,4,1,0,50,0,0
169955,-100,4,1,0,50,0,0
170036,-101.010101010101,4,1,0,50,0,0
170117,-102.040816326531,4,1,0,50,0,0
170197,-103.092783505155,4,1,0,50,0,0
170278,-104.166666666667,4,1,0,50,0,0
170359,-105.263157894737,4,1,0,50,0,0
170439,-106.382978723404,4,1,0,50,0,0
170520,-107.52688172043,4,1,0,50,0,0
170600,-100,4,1,0,50,0,0
170681,-101.010101010101,4,1,0,50,0,0
170762,-102.040816326531,4,1,0,50,0,0
170842,-103.092783505155,4,1,0,50,0,0
170923,-104.166666666667,4,1,0,50,0,0
171004,-105.263157894737,4,1,0,50,0,0
171084,-106.382978723404,4,1,0,50,0,0
171165,-107.52688172043,4,1,0,50,0,0
171245,-100,4,1,0,50,0,0
171326,-101.010101010101,4,1,0,50,0,0
171407,-102.040816326531,4,1,0,50,0,0
171487,-103.092783505155,4,1,0,50,0,0
171568,-100,4,1,0,50,0,0
171649,-101.010101010101,4,1,0,50,0,0
171730,-102.040816326531,4,1,0,50,0,0
171810,-103.092783505155,4,1,0,50,0,0
171891,-104.166666666667,4,1,0,50,0,0
171972,-105.263157894737,4,1,0,50,0,0
172052,-106.382978723404,4,1,0,50,0,0
172133,-107.52688172043,4,1,0,50,0,0
172214,-108.695652173913,4,1,0,50,0,0
172535,-100,4,1,0,50,0,0
172616,-101.010101010101,4,1,0,50,0,0
172697,-102.040816326531,4,1,0,50,0,0
172777,-103.092783505155,4,1,0,50,0,0
172858,-104.166666666667,4,1,0,50,0,0
172939,-105.263157894737,4,1,0,50,0,0
173019,-106.382978723404,4,1,0,50,0,0
173100,-107.52688172043,4,1,0,50,0,0
173181,-100,4,1,0,50,0,0
173262,-101.010101010101,4,1,0,50,0,0
173343,-102.040816326531,4,1,0,50,0,0
173423,-103.092783505155,4,1,0,50,0,0
173504,-104.166666666667,4,1,0,50,0,0
173585,-105.263157894737,4,1,0,50,0,0
173665,-106.382978723404,4,1,0,50,0,0
173746,-107.52688172043,4,1,0,50,0,0
173827,-108.695652173913,4,1,0,50,0,0
174632,-100,4,1,0,50,0,0
174713,-101.010101010101,4,1,0,50,0,0
174794,-102.040816326531,4,1,0,50,0,0
174874,-103.092783505155,4,1,0,50,0,0
174955,-104.166666666667,4,1,0,50,0,0
175036,-105.263157894737,4,1,0,50,0,0
175116,-106.382978723404,4,1,0,50,0,0
175197,-107.52688172043,4,1,0,50,0,0
175277,-100,4,1,0,50,0,0
175358,-101.010101010101,4,1,0,50,0,0
175439,-102.040816326531,4,1,0,50,0,0
175519,-103.092783505155,4,1,0,50,0,0
175600,-104.166666666667,4,1,0,50,0,0
175681,-105.263157894737,4,1,0,50,0,0
175761,-100,4,1,0,50,0,0
175842,-101.010101010101,4,1,0,50,0,0
175923,-102.040816326531,4,1,0,50,0,0
176003,-100,4,1,0,50,0,0
176084,-104.166666666667,4,1,0,50,0,0
176165,-105.263157894737,4,1,0,50,0,0
176245,-106.382978723404,4,1,0,50,0,0
176406,-100,4,1,0,50,0,0
176487,-101.010101010101,4,1,0,50,0,0
176568,-102.040816326531,4,1,0,50,0,0
176648,-103.092783505155,4,1,0,50,0,0
176729,-104.166666666667,4,1,0,50,0,0
198665,-125,4,1,0,50,0,0
199955,-166.666666666667,4,1,0,50,0,0
201245,-250,4,1,0,50,0,0

[HitObjects]
256,192,1286,5,12,0:0:0:0:
256,192,7737,12,0,11285,0:0:0:0:
256,192,11608,5,12,0:0:0:0:
256,192,16769,12,0,21931,0:0:0:0:
256,192,22253,5,0,0:0:0:0:
256,192,22415,1,0,0:0:0:0:
256,192,22576,1,8,0:0:0:0:
256,192,26447,1,8,0:0:0:0:
256,192,26608,1,0,0:0:0:0:
256,192,26769,1,12,0:0:0:0:
256,192,27092,1,8,0:0:0:0:
256,192,27173,1,0,0:0:0:0:
256,192,27253,1,0,0:0:0:0:
256,192,27334,1,0,0:0:0:0:
256,192,27415,1,0,0:0:0:0:
256,192,27576,1,0,0:0:0:0:
256,192,27737,1,8,0:0:0:0:
256,192,32253,1,12,0:0:0:0:
256,192,32737,1,12,0:0:0:0:
256,192,33221,1,12,0:0:0:0:
256,192,37415,1,8,0:0:0:0:
256,192,37576,1,0,0:0:0:0:
256,192,37737,1,0,0:0:0:0:
256,192,37898,1,8,0:0:0:0:
256,192,38060,1,0,0:0:0:0:
256,192,38221,1,0,0:0:0:0:
256,192,38382,1,8,0:0:0:0:
256,192,38544,1,0,0:0:0:0:
256,192,38705,1,12,0:0:0:0:
256,192,39995,12,0,41931,0:0:0:0:
256,192,42253,5,8,0:0:0:0:
256,192,42576,5,8,0:0:0:0:
256,192,42656,1,0,0:0:0:0:
256,192,42737,1,0,0:0:0:0:
256,192,42818,1,0,0:0:0:0:
256,192,42898,1,0,0:0:0:0:
256,192,42979,1,0,0:0:0:0:
256,192,43060,1,0,0:0:0:0:
256,192,43140,1,0,0:0:0:0:
256,192,43221,1,8,0:0:0:0:
256,192,43544,1,0,0:0:0:0:
256,192,43624,1,0,0:0:0:0:
256,192,43705,1,0,0:0:0:0:
256,192,43785,1,0,0:0:0:0:
256,192,44189,1,0,0:0:0:0:
256,192,44269,1,0,0:0:0:0:
256,192,44350,1,0,0:0:0:0:
256,192,44511,1,8,0:0:0:0:
256,192,45479,5,8,0:0:0:0:
256,192,45560,1,0,0:0:0:0:
256,192,45640,1,0,0:0:0:0:
256,192,45802,1,8,0:0:0:0:
256,192,46124,1,0,0:0:0:0:
256,192,46205,1,0,0:0:0:0:
256,192,46285,1,0,0:0:0:0:
256,192,46366,1,0,0:0:0:0:
256,192,46769,1,0,0:0:0:0:
256,192,46850,1,0,0:0:0:0:
256,192,46931,1,0,0:0:0:0:
256,192,47092,1,12,0:0:0:0:
256,192,47415,1,0,0:0:0:0:
256,192,47576,1,8,0:0:0:0:
256,192,47737,1,8,0:0:0:0:
256,192,47818,1,0,0:0:0:0:
256,192,47898,1,0,0:0:0:0:
256,192,47979,1,0,0:0:0:0:
256,192,48060,1,0,0:0:0:0:
256,192,48140,1,0,0:0:0:0:
256,192,48221,1,0,0:0:0:0:
256,192,48302,1,0,0:0:0:0:
256,192,48382,1,8,0:0:0:0:
256,192,48705,1,0,0:0:0:0:
256,192,48785,1,0,0:0:0:0:
256,192,48866,1,0,0:0:0:0:
256,192,48947,1,0,0:0:0:0:
256,192,49350,1,0,0:0:0:0:
256,192,49431,1,0,0:0:0:0:
256,192,49511,1,0,0:0:0:0:
256,192,49673,1,8,0:0:0:0:
256,192,49834,1,0,0:0:0:0:
256,192,50802,5,0,0:0:0:0:
256,192,50963,1,12,0:0:0:0:
256,192,51285,1,0,0:0:0:0:
256,192,51366,1,0,0:0:0:0:
256,192,51447,1,0,0:0:0:0:
256,192,51527,1,0,0:0:0:0:
256,192,51931,1,0,0:0:0:0:
256,192,52011,1,0,0:0:0:0:
256,192,52092,1,0,0:0:0:0:
256,192,52253,1,8,0:0:0:0:
256,192,52415,1,0,0:0:0:0:
256,192,52898,12,0,53544,0:0:0:0:
256,192,53866,5,0,0:0:0:0:
256,192,53947,1,0,0:0:0:0:
256,192,54027,1,0,0:0:0:0:
256,192,54108,1,0,0:0:0:0:
256,192,54511,1,0,0:0:0:0:
256,192,54592,1,0,0:0:0:0:
256,192,54673,1,0,0:0:0:0:
256,192,54834,1,8,0:0:0:0:
256,192,55802,5,8,0:0:0:0:
256,192,55882,1,0,0:0:0:0:
256,192,55963,1,0,0:0:0:0:
256,192,56124,1,8,0:0:0:0:
256,192,56447,1,0,0:0:0:0:
256,192,56527,1,0,0:0:0:0:
256,192,56608,1,0,0:0:0:0:
256,192,56689,1,0,0:0:0:0:
256,192,56931,1,8,0:0:0:0:
256,192,57011,1,8,0:0:0:0:
256,192,57092,1,0,0:0:0:0:
256,192,57173,1,0,0:0:0:0:
256,192,57253,1,0,0:0:0:0:
256,192,57415,1,12,0:0:0:0:
256,192,57737,1,0,0:0:0:0:
256,192,57898,1,8,0:0:0:0:
256,192,58060,1,8,0:0:0:0:
256,192,58140,1,0,0:0:0:0:
256,192,58221,1,0,0:0:0:0:
256,192,58302,1,0,0:0:0:0:
256,192,58382,1,0,0:0:0:0:
256,192,58463,1,0,0:0:0:0:
256,192,58544,1,0,0:0:0:0:
256,192,58624,1,0,0:0:0:0:
256,192,58705,1,8,0:0:0:0:
256,192,59027,1,0,0:0:0:0:
256,192,59108,1,8,0:0:0:0:
256,192,59189,1,8,0:0:0:0:
256,192,59269,1,0,0:0:0:0:
256,192,59673,1,0,0:0:0:0:
256,192,59753,1,0,0:0:0:0:
256,192,59834,1,0,0:0:0:0:
256,192,59995,1,8,0:0:0:0:
256,192,60156,1,0,0:0:0:0:
256,192,60318,12,0,60963,0:0:0:0:
256,192,61124,5,0,0:0:0:0:
256,192,61285,1,12,0:0:0:0:
256,192,61608,1,0,0:0:0:0:
256,192,61689,1,0,0:0:0:0:
256,192,61769,1,0,0:0:0:0:
256,192,61850,1,0,0:0:0:0:
256,192,62253,1,0,0:0:0:0:
256,192,62334,1,0,0:0:0:0:
256,192,62415,1,0,0:0:0:0:
256,192,62576,1,8,0:0:0:0:
256,192,62737,1,0,0:0:0:0:
256,192,62898,1,8,0:0:0:0:
256,192,62979,1,0,0:0:0:0:
256,192,63060,1,0,0:0:0:0:
256,192,63140,1,0,0:0:0:0:
256,192,63221,1,8,0:0:0:0:
256,192,63544,1,4,0:0:0:0:
256,192,63866,1,8,0:0:0:0:
256,192,64027,1,0,0:0:0:0:
256,192,64350,1,0,0:0:0:0:
256,192,64995,1,0,0:0:0:0:
256,192,65156,1,8,0:0:0:0:
256,192,65318,1,0,0:0:0:0:
256,192,65398,1,8,0:0:0:0:
256,192,65479,1,8,0:0:0:0:
256,192,65560,1,8,0:0:0:0:
256,192,66124,1,8,0:0:0:0:
256,192,66447,1,8,0:0:0:0:
256,192,66608,1,0,0:0:0:0:
256,192,66931,1,0,0:0:0:0:
256,192,67253,1,0,0:0:0:0:
256,192,67334,1,0,0:0:0:0:
256,192,67415,1,8,0:0:0:0:
256,192,67576,1,0,0:0:0:0:
256,192,67737,1,12,0:0:0:0:
256,192,68060,1,0,0:0:0:0:
256,192,68140,1,0,0:0:0:0:
256,192,68221,1,8,0:0:0:0:
256,192,68302,1,0,0:0:0:0:
256,192,68382,1,8,0:0:0:0:
256,192,68866,1,0,0:0:0:0:
256,192,68947,1,0,0:0:0:0:
256,192,69027,1,8,0:0:0:0:
256,192,69189,1,0,0:0:0:0:
256,192,69511,1,0,0:0:0:0:
256,192,69834,1,8,0:0:0:0:
256,192,69915,1,0,0:0:0:0:
256,192,69995,1,0,0:0:0:0:
256,192,70076,1,0,0:0:0:0:
256,192,70156,1,0,0:0:0:0:
256,192,70318,1,8,0:0:0:0:
256,192,71285,1,0,0:0:0:0:
256,192,71447,1,0,0:0:0:0:
256,192,71527,1,0,0:0:0:0:
256,192,71608,1,12,0:0:0:0:
256,192,71769,1,0,0:0:0:0:
256,192,71931,1,0,0:0:0:0:
256,192,72011,1,0,0:0:0:0:
256,192,72092,1,0,0:0:0:0:
256,192,72415,1,8,0:0:0:0:
256,192,72737,1,0,0:0:0:0:
256,192,72898,1,8,0:0:0:0:
256,192,73060,1,0,0:0:0:0:
256,192,73382,1,8,0:0:0:0:
256,192,73544,12,0,74027,0:0:0:0:
256,192,74189,5,8,0:0:0:0:
256,192,74269,1,0,0:0:0:0:
256,192,74350,1,0,0:0:0:0:
256,192,74511,1,0,0:0:0:0:
256,192,74592,1,0,0:0:0:0:
256,192,74673,1,0,0:0:0:0:
265,191,74753,1,0,0:0:0:0:
256,192,75156,1,0,0:0:0:0:
256,192,75237,1,0,0:0:0:0:
256,192,75318,1,0,0:0:0:0:
256,192,75479,1,8,0:0:0:0:
256,192,75640,1,0,0:0:0:0:
256,192,76447,1,8,0:0:0:0:
256,192,76527,1,0,0:0:0:0:
256,192,76608,1,0,0:0:0:0:
256,192,76769,1,8,0:0:0:0:
256,192,77092,1,0,0:0:0:0:
256,192,77173,1,0,0:0:0:0:
256,192,77253,1,0,0:0:0:0:
256,192,77334,1,0,0:0:0:0:
256,192,77737,1,0,0:0:0:0:
256,192,77818,1,0,0:0:0:0:
256,192,77898,1,0,0:0:0:0:
256,192,78060,1,12,0:0:0:0:
256,192,78382,1,0,0:0:0:0:
256,192,78544,1,8,0:0:0:0:
256,192,78705,1,8,0:0:0:0:
256,192,78785,1,0,0:0:0:0:
256,192,78866,1,0,0:0:0:0:
256,192,78947,1,0,0:0:0:0:
256,192,79027,1,0,0:0:0:0:
256,192,79108,1,0,0:0:0:0:
256,192,79189,1,0,0:0:0:0:
256,192,79269,1,0,0:0:0:0:
256,192,79350,1,8,0:0:0:0:
256,192,79673,1,0,0:0:0:0:
261,198,79753,1,8,0:0:0:0:
261,198,79834,1,8,0:0:0:0:
261,198,79915,1,0,0:0:0:0:
256,192,80318,1,0,0:0:0:0:
256,192,80398,1,0,0:0:0:0:
256,192,80479,1,0,0:0:0:0:
256,192,80640,1,8,0:0:0:0:
256,192,80802,1,0,0:0:0:0:
256,192,80963,12,0,81608,0:0:0:0:
256,192,81769,5,0,0:0:0:0:
256,192,81931,1,12,0:0:0:0:
256,192,82415,1,8,0:0:0:0:
256,192,82576,1,8,0:0:0:0:
256,192,82656,1,0,0:0:0:0:
256,192,82737,1,0,0:0:0:0:
256,192,82818,1,0,0:0:0:0:
256,192,82898,1,8,0:0:0:0:
256,192,82979,1,0,0:0:0:0:
256,192,83060,1,0,0:0:0:0:
256,192,83140,1,0,0:0:0:0:
256,192,83221,1,8,0:0:0:0:
256,192,83302,1,0,0:0:0:0:
256,192,83382,1,0,0:0:0:0:
256,192,83463,1,0,0:0:0:0:
256,192,83544,1,8,0:0:0:0:
256,192,83866,1,4,0:0:0:0:
256,192,84027,12,0,94027,0:0:0:0:
256,192,94189,5,0,0:0:0:0:
256,192,98060,1,8,0:0:0:0:
256,192,99350,1,0,0:0:0:0:
256,192,101931,1,0,0:0:0:0:
256,192,104511,1,0,0:0:0:0:
256,192,107092,1,0,0:0:0:0:
256,192,109027,1,0,0:0:0:0:
256,192,112898,1,8,0:0:0:0:
256,192,114834,1,8,0:0:0:0:
256,192,117415,1,0,0:0:0:0:
256,192,119995,1,8,0:0:0:0:
256,192,122576,1,0,0:0:0:0:
256,192,123866,1,8,0:0:0:0:
256,192,125156,1,8,0:0:0:0:
256,192,126447,1,8,0:0:0:0:
256,192,129027,1,0,0:0:0:0:
256,192,130318,1,8,0:0:0:0:
256,192,132898,1,8,0:0:0:0:
256,192,134189,12,0,135156,0:0:0:0:
256,192,135479,5,0,0:0:0:0:
256,192,143221,12,0,145479,0:0:0:0:
256,192,145802,5,6,0:0:0:0:
256,192,146285,1,6,0:0:0:0:
256,192,146769,1,6,0:0:0:0:
256,192,150963,5,8,0:0:0:0:
256,192,151124,1,0,0:0:0:0:
256,192,151285,1,0,0:0:0:0:
256,192,151447,1,8,0:0:0:0:
256,192,151608,1,0,0:0:0:0:
256,192,151769,1,0,0:0:0:0:
256,192,151931,1,8,0:0:0:0:
256,192,152092,1,0,0:0:0:0:
256,192,152253,1,0,0:0:0:0:
256,192,155802,5,8,0:0:0:0:
256,192,156124,5,8,0:0:0:0:
256,192,156205,1,0,0:0:0:0:
256,192,156285,1,0,0:0:0:0:
256,192,156366,1,0,0:0:0:0:
256,192,156447,1,0,0:0:0:0:
256,192,156527,1,0,0:0:0:0:
256,192,156608,1,0,0:0:0:0:
256,192,156689,1,0,0:0:0:0:
256,192,156769,1,8,0:0:0:0:
256,192,157092,1,0,0:0:0:0:
256,192,157173,1,0,0:0:0:0:
256,192,157253,1,0,0:0:0:0:
256,192,157334,1,0,0:0:0:0:
256,192,157737,1,0,0:0:0:0:
256,192,157818,1,0,0:0:0:0:
256,192,157898,1,0,0:0:0:0:
256,192,158060,1,8,0:0:0:0:
256,192,159027,5,8,0:0:0:0:
256,192,159108,1,0,0:0:0:0:
256,192,159189,1,0,0:0:0:0:
256,192,159350,1,8,0:0:0:0:
256,192,159673,1,0,0:0:0:0:
256,192,159753,1,0,0:0:0:0:
256,192,159834,1,0,0:0:0:0:
256,192,159915,1,0,0:0:0:0:
256,192,160318,1,0,0:0:0:0:
256,192,160398,1,0,0:0:0:0:
256,192,160479,1,0,0:0:0:0:
256,192,160640,1,12,0:0:0:0:
256,192,160963,1,0,0:0:0:0:
256,192,161124,1,8,0:0:0:0:
256,192,161285,1,8,0:0:0:0:
256,192,161366,1,0,0:0:0:0:
256,192,161447,1,0,0:0:0:0:
256,192,161527,1,0,0:0:0:0:
256,192,161608,1,0,0:0:0:0:
256,192,161689,1,0,0:0:0:0:
256,192,161769,1,0,0:0:0:0:
256,192,161850,1,0,0:0:0:0:
256,192,161931,1,8,0:0:0:0:
256,192,162253,1,0,0:0:0:0:
256,192,162334,1,0,0:0:0:0:
256,192,162415,1,0,0:0:0:0:
256,192,162495,1,0,0:0:0:0:
256,192,162898,1,0,0:0:0:0:
256,192,162979,1,0,0:0:0:0:
256,192,163060,1,0,0:0:0:0:
256,192,163221,1,8,0:0:0:0:
256,192,163382,1,0,0:0:0:0:
256,192,164350,5,0,0:0:0:0:
256,192,164511,1,12,0:0:0:0:
256,192,164834,1,0,0:0:0:0:
256,192,164915,1,0,0:0:0:0:
256,192,164995,1,0,0:0:0:0:
256,192,165076,1,0,0:0:0:0:
256,192,165479,1,0,0:0:0:0:
256,192,165560,1,0,0:0:0:0:
256,192,165640,1,0,0:0:0:0:
256,192,165802,1,8,0:0:0:0:
256,192,165963,1,0,0:0:0:0:
256,192,166285,1,8,0:0:0:0:
256,192,166447,12,0,167092,0:0:0:0:
256,192,167415,5,0,0:0:0:0:
256,192,167495,1,0,0:0:0:0:
256,192,167576,1,0,0:0:0:0:
256,192,167656,1,0,0:0:0:0:
256,192,168060,1,0,0:0:0:0:
256,192,168140,1,0,0:0:0:0:
256,192,168221,1,0,0:0:0:0:
256,192,168382,1,8,0:0:0:0:
256,192,168705,12,0,169189,0:0:0:0:
256,192,169350,5,8,0:0:0:0:
256,192,169431,1,0,0:0:0:0:
256,192,169511,1,0,0:0:0:0:
256,192,169673,1,8,0:0:0:0:
256,192,169995,1,0,0:0:0:0:
256,192,170076,1,0,0:0:0:0:
256,192,170156,1,0,0:0:0:0:
256,192,170237,1,0,0:0:0:0:
256,192,170479,1,8,0:0:0:0:
256,192,170640,1,0,0:0:0:0:
256,192,170721,1,0,0:0:0:0:
256,192,170802,1,0,0:0:0:0:
256,192,170963,1,8,0:0:0:0:
256,192,171285,1,0,0:0:0:0:
256,192,171447,1,8,0:0:0:0:
256,192,171608,1,8,0:0:0:0:
256,192,171689,1,0,0:0:0:0:
256,192,171769,1,0,0:0:0:0:
256,192,171850,1,0,0:0:0:0:
256,192,171931,1,0,0:0:0:0:
256,192,172011,1,0,0:0:0:0:
256,192,172092,1,0,0:0:0:0:
256,192,172173,1,0,0:0:0:0:
256,192,172253,1,8,0:0:0:0:
256,192,172576,1,0,0:0:0:0:
256,192,172656,1,8,0:0:0:0:
256,192,172737,1,8,0:0:0:0:
256,192,172818,1,0,0:0:0:0:
256,192,173221,1,0,0:0:0:0:
256,192,173302,1,0,0:0:0:0:
256,192,173382,1,0,0:0:0:0:
256,192,173544,1,8,0:0:0:0:
256,192,173705,1,0,0:0:0:0:
256,192,173866,12,0,174511,0:0:0:0:
256,192,174673,5,0,0:0:0:0:
256,192,174834,1,12,0:0:0:0:
256,192,175318,1,0,0:0:0:0:
256,192,175802,1,0,0:0:0:0:
256,192,175882,1,0,0:0:0:0:
256,192,175963,1,0,0:0:0:0:
256,192,176124,1,8,0:0:0:0:
256,192,176285,1,0,0:0:0:0:
256,192,176447,1,8,0:0:0:0:
256,192,176527,1,0,0:0:0:0:
256,192,176608,1,0,0:0:0:0:
256,192,176689,1,0,0:0:0:0:
256,192,176769,1,8,0:0:0:0:
256,192,177092,1,4,0:0:0:0:
256,192,177415,1,8,0:0:0:0:
256,192,177576,1,0,0:0:0:0:
256,192,177898,1,0,0:0:0:0:
256,192,178544,1,0,0:0:0:0:
256,192,178705,1,8,0:0:0:0:
256,192,178866,1,0,0:0:0:0:
256,192,178947,1,8,0:0:0:0:
256,192,179027,1,8,0:0:0:0:
256,192,179108,1,8,0:0:0:0:
256,192,179673,1,8,0:0:0:0:
256,192,179995,1,8,0:0:0:0:
256,192,180156,1,0,0:0:0:0:
256,192,180479,1,0,0:0:0:0:
256,192,180802,1,0,0:0:0:0:
256,192,180882,1,0,0:0:0:0:
256,192,180963,1,8,0:0:0:0:
256,192,181124,1,0,0:0:0:0:
256,192,181285,1,12,0:0:0:0:
256,192,181608,1,0,0:0:0:0:
256,192,181689,1,0,0:0:0:0:
256,192,181769,1,8,0:0:0:0:
256,192,181850,1,0,0:0:0:0:
256,192,181931,1,8,0:0:0:0:
256,192,182415,1,0,0:0:0:0:
256,192,182495,1,0,0:0:0:0:
256,192,182576,1,8,0:0:0:0:
256,192,182737,1,0,0:0:0:0:
256,192,183060,1,0,0:0:0:0:
256,192,183382,1,8,0:0:0:0:
256,192,183463,1,0,0:0:0:0:
256,192,183544,1,0,0:0:0:0:
256,192,183624,1,0,0:0:0:0:
256,192,183705,1,0,0:0:0:0:
256,192,183866,1,8,0:0:0:0:
256,192,184834,1,0,0:0:0:0:
256,192,184915,1,0,0:0:0:0:
256,192,184995,1,0,0:0:0:0:
256,192,185076,1,0,0:0:0:0:
256,192,185156,1,12,0:0:0:0:
256,192,185318,1,0,0:0:0:0:
256,192,185479,1,0,0:0:0:0:
256,192,185560,1,0,0:0:0:0:
256,192,185640,1,0,0:0:0:0:
256,192,186285,1,0,0:0:0:0:
256,192,186447,1,8,0:0:0:0:
256,192,186608,1,0,0:0:0:0:
256,192,186769,1,0,0:0:0:0:
256,192,186931,1,8,0:0:0:0:
256,192,187092,12,0,187576,0:0:0:0:
256,192,187737,5,8,0:0:0:0:
256,192,187818,1,0,0:0:0:0:
256,192,187898,1,0,0:0:0:0:
256,192,187979,1,0,0:0:0:0:
256,192,188060,1,0,0:0:0:0:
256,192,188705,1,0,0:0:0:0:
256,192,189027,1,8,0:0:0:0:
256,192,189189,1,0,0:0:0:0:
256,192,189995,1,8,0:0:0:0:
256,192,190318,1,8,0:0:0:0:
256,192,190640,1,0,0:0:0:0:
256,192,190963,1,8,0:0:0:0:
256,192,191044,1,0,0:0:0:0:
256,192,191124,1,0,0:0:0:0:
256,192,191205,1,0,0:0:0:0:
256,192,191285,1,8,0:0:0:0:
256,192,191608,1,12,0:0:0:0:
256,192,191931,1,0,0:0:0:0:
256,192,192092,1,8,0:0:0:0:
256,192,192253,1,8,0:0:0:0:
256,192,192898,1,8,0:0:0:0:
256,192,193221,1,0,0:0:0:0:
256,192,193544,1,0,0:0:0:0:
256,192,193624,1,0,0:0:0:0:
256,192,193705,1,8,0:0:0:0:
256,192,193785,1,8,0:0:0:0:
256,192,193866,1,0,0:0:0:0:
256,192,193947,1,0,0:0:0:0:
256,192,194027,1,0,0:0:0:0:
256,192,194189,1,8,0:0:0:0:
256,192,194350,1,0,0:0:0:0:
256,192,194511,12,0,195156,0:0:0:0:
256,192,195318,5,0,0:0:0:0:
256,192,195479,1,12,0:0:0:0:
256,192,195963,1,8,0:0:0:0:
256,192,196124,1,8,0:0:0:0:
256,192,196205,1,0,0:0:0:0:
256,192,196285,1,0,0:0:0:0:
256,192,196366,1,0,0:0:0:0:
256,192,196447,1,8,0:0:0:0:
256,192,196527,1,0,0:0:0:0:
256,192,196608,1,0,0:0:0:0:
256,192,196689,1,0,0:0:0:0:
256,192,196769,1,8,0:0:0:0:
256,192,196850,1,0,0:0:0:0:
256,192,196931,1,0,0:0:0:0:
256,192,197011,1,0,0:0:0:0:
256,192,197092,1,8,0:0:0:0:
256,192,197415,1,4,0:0:0:0:
256,192,201285,1,0,0:0:0:0:
256,192,202576,1,8,0:0:0:0:
256,192,205156,1,0,0:0:0:0:
256,192,207737,1,0,0:0:0:0:
256,192,210318,1,0,0:0:0:0:
256,192,212253,1,0,0:0:0:0:
256,192,216124,1,8,0:0:0:0:
256,192,218060,1,8,0:0:0:0:
256,192,220640,1,0,0:0:0:0:
256,192,223221,1,8,0:0:0:0:
256,192,225802,1,0,0:0:0:0:
256,192,227092,1,8,0:0:0:0:
256,192,228382,1,8,0:0:0:0:
256,192,229673,1,8,0:0:0:0:
256,192,232253,5,0,0:0:0:0:
256,192,233544,1,0,0:0:0:0:
256,192,236124,1,0,0:0:0:0:
256,192,238705,1,8,0:0:0:0:
