osu file format v14

[General]
AudioFilename: audio.mp3
AudioLeadIn: 0
PreviewTime: 107021
Countdown: 0
SampleSet: Soft
StackLeniency: 0.7
Mode: 0
LetterboxInBreaks: 0
WidescreenStoryboard: 0

[Editor]
Bookmarks: 8019,13941,32646,33352,33882,34058,34764,35117,35470,35646,35999,36529,39345,50639,55844,59109,70403,81697,92992,95815,104286,107109,118403,129697,140992,152286,163580,174874,191815,197462,201697,213406,226060,228651,231985
DistanceSpacing: 0.6
BeatDivisor: 8
GridSize: 4
TimelineZoom: 2.749998

[Metadata]
Title:data corruption symphony
TitleUnicode:data corruption symphony
Artist:sakuraburst
ArtistUnicode:sakuraburst
Creator:Mao
Version:m#M0ry-l34K
Source:osu!
Tags:deconstructing nature experimental fa featured artist mg mappers' guild scubdomino greenhue kirylln aeril instrumental electronic Natsume Shiki
BeatmapID:1875444
BeatmapSetID:897724

[Difficulty]
HPDrainRate:6
CircleSize:4.2
OverallDifficulty:8.2
ApproachRate:9.3
SliderMultiplier:2
SliderTickRate:1

[Events]
//Background and Video events
0,0,"flower-1.jpg",0,0
//Break Periods
2,135544,138320
//Storyboard Layer 0 (Background)
//Storyboard Layer 1 (Fail)
//Storyboard Layer 2 (Pass)
//Storyboard Layer 3 (Foreground)
//Storyboard Layer 4 (Overlay)
//Storyboard Sound Samples

[TimingPoints]
20,376.175548589342,4,2,0,20,1,0
20,-250,4,2,0,20,0,0
43,-250,4,2,1,5,0,0
1148,400,4,2,0,5,1,0
1548,352.941176470588,4,2,0,5,1,0
1900,315.789473684211,4,2,0,5,1,0
2136,400,4,2,0,5,1,0
2536,352.941176470588,4,2,0,5,1,0
2800,307.692307692308,4,2,0,5,1,0
3415,468.75,4,2,0,5,1,0
3883,428.571428571429,4,2,0,5,1,0
4311,382.165605095541,4,2,0,5,1,0
5075,444.444444444444,4,2,0,5,1,0
6074,400,4,2,0,5,1,0
6274,444.444444444444,4,2,0,5,1,0
7385,468.75,4,2,0,5,1,0
7619,400,4,2,0,5,1,0
8019,419.58041958042,4,2,0,5,1,0
8228,428.571428571429,4,2,0,20,1,0
8442,500,4,2,0,5,1,0
12192,405.405405405405,4,2,0,5,1,0
12597,461.538461538462,4,2,0,5,1,0
12827,468.75,4,2,0,5,1,0
13061,545.454545454546,4,2,0,5,1,0
13333,600,4,2,0,5,1,0
13941,352.941176470588,4,2,0,5,1,0
13941,-250,4,2,0,20,0,0
36529,-666.666666666667,4,2,0,20,0,0
39345,352.941176470588,4,2,0,30,1,0
39345,-166.666666666667,4,2,0,30,0,0
50639,-166.666666666667,4,2,0,40,0,0
55580,-166.666666666667,4,2,0,30,0,0
59109,-250.000000000001,4,2,0,40,0,0
61933,-200.000000000001,4,2,0,40,0,0
70403,-166.666666666667,4,2,0,40,0,0
87344,-142.857142857143,4,2,0,50,0,0
90168,-142.857142857143,4,2,0,55,0,0
92992,-100,4,2,0,40,0,0
95109,-1000,4,2,0,40,0,0
95639,-117.647058823529,4,2,0,50,0,0
97227,-117.647058823529,4,2,0,55,0,0
98639,-117.647058823529,4,2,0,60,0,0
100050,-117.647058823529,4,2,0,65,0,0
101462,-117.647058823529,4,2,0,70,0,0
107109,-80,4,2,0,75,0,1
112403,-80,4,2,0,75,0,0
112756,-80,4,2,0,75,0,1
118403,-80,4,2,0,75,0,0
118756,-66.6666666666667,4,2,0,85,0,1
123344,-66.6666666666667,4,2,0,85,0,0
123609,-66.6666666666667,4,2,0,85,0,1
129344,-33.3333333333333,4,2,0,85,0,1
129697,-100,4,2,0,85,0,0
129786,-100,4,2,0,40,0,0
140286,-100,4,2,0,80,0,0
140992,-50,4,2,0,100,0,1
141697,-40,4,2,0,100,0,1
141962,-50,4,2,0,100,0,1
143109,-40,4,2,0,100,0,1
143374,-50,4,2,0,100,0,1
144521,-40,4,2,0,100,0,1
144786,-50,4,2,0,100,0,1
145933,-40,4,2,0,100,0,1
146197,-50,4,2,0,100,0,1
146462,-40,4,2,0,100,0,1
146639,-50,4,2,0,100,0,1
147344,-40,4,2,0,100,0,1
147609,-50,4,2,0,100,0,1
148756,-40,4,2,0,100,0,1
149109,-40,4,2,0,100,0,0
149462,-66.6666666666667,4,2,0,100,0,1
150168,-50,4,2,0,100,0,1
150874,-40,4,2,0,100,0,1
151580,-66.6666666666667,4,2,0,100,0,1
151933,-33.3333333333333,4,2,0,100,0,1
152197,-33.3333333333333,4,2,0,100,0,0
152286,-500,4,2,0,100,0,1
152992,-50,4,2,0,100,0,1
153256,-50,4,2,0,100,0,0
153344,-500,4,2,0,100,0,1
154403,-50,4,2,0,100,0,1
155462,-66.6666666666667,4,2,0,100,0,1
155815,-50,4,2,0,100,0,1
156080,-50,4,2,0,100,0,0
156168,-500,4,2,0,100,0,1
157227,-33.3333333333333,4,2,0,100,0,1
157844,-33.3333333333333,4,2,0,100,0,0
157933,-500,4,2,0,100,0,1
158639,-50,4,2,0,100,0,1
158903,-50,4,2,0,100,0,0
158992,-500,4,2,0,100,0,1
160050,-66.6666666666667,4,2,0,100,0,1
160756,-50,4,2,0,100,0,1
161109,-66.6666666666667,4,2,0,100,0,1
161462,-50,4,2,0,100,0,1
161727,-50,4,2,0,100,0,0
161815,-666.666666666667,4,2,0,100,0,1
162874,-666.666666666667,4,2,0,100,0,0
163580,-66.6666666666667,4,2,0,100,0,1
164286,-58.8235294117647,4,2,0,100,0,1
164992,-55.5555555555556,4,2,0,100,0,1
165697,-52.6315789473684,4,2,0,100,0,1
166403,-50,4,2,0,100,0,1
167109,-47.6190476190476,4,2,0,100,0,1
167815,-45.4545454545455,4,2,0,100,0,1
168521,-43.4782608695652,4,2,0,100,0,1
169227,-40,4,2,0,100,0,1
169933,-37.037037037037,4,2,0,100,0,1
170639,-34.4827586206897,4,2,0,100,0,1
171344,-33.3333333333333,4,2,0,100,0,1
172756,-33.3333333333333,4,2,0,60,0,1
173021,-33.3333333333333,4,2,0,100,0,1
174344,-25,4,2,0,50,0,1
174874,-50,4,2,0,100,0,0
174962,-50,4,2,0,30,0,0
186168,-400,4,2,0,30,0,0
197462,-100,4,2,0,30,0,0
201697,-333.333333333333,4,2,0,30,0,0
203109,359.281437125748,4,2,0,30,1,0
203109,-333.333333333333,4,2,0,30,0,0
204546,361.44578313253,4,2,0,30,1,0
205991,363.636363636364,4,2,0,30,1,0
205991,-333.333333333333,4,2,0,30,0,0
207445,370.37037037037,4,2,0,30,1,0
207445,-333.333333333333,4,2,0,30,0,0
210407,372.670807453416,4,2,0,30,1,0
210407,-333.333333333333,4,2,0,30,0,0
211897,377.358490566038,4,2,0,30,1,0
211897,-333.333333333333,4,2,0,30,0,0
213406,384.615384615385,4,2,0,30,1,0
213406,-250,4,2,0,30,0,0
214944,-166.666666666667,4,2,0,30,0,0
216482,389.61038961039,4,2,0,30,1,0
218040,392.156862745098,4,2,0,30,1,0
218040,-250,4,2,0,30,0,0
219608,397.350993377483,4,2,0,30,1,0
219608,-250,4,2,0,30,0,0
221197,402.684563758389,4,2,0,30,1,0
221197,-250,4,2,0,30,0,0
222807,405.405405405405,4,2,0,30,1,0
222807,-250,4,2,0,30,0,0
224428,408.163265306122,4,2,0,30,1,0
224428,-250,4,2,0,30,0,0
226060,410.958904109589,4,2,0,30,1,0
227292,422.535211267606,4,2,0,25,1,0
227714,425.531914893617,4,2,0,22,1,0
228139,512.820512820513,4,2,0,20,1,0

[Colours]
Combo1 : 211,219,206
Combo2 : 0,255,83
Combo3 : 255,0,217
Combo4 : 82,78,116

[HitObjects]
5,73,20,6,0,B|7:113|35:145|35:145|51:141|51:141|59:145|59:145|71:141|71:141|107:161|107:161|99:173|99:173|99:193|99:193|115:221|115:221|107:237|107:237|101:259|101:259|116:270|115:282|115:282|53:343|53:343|93:365|93:365|111:352|111:352|135:352|135:352|161:361|161:361|218:322|218:322|225:321|225:321|229:313|229:313|241:313|241:313|249:297|249:297|269:297|269:297|277:273|277:273|297:241|297:241|305:241|305:241|349:245|385:193|385:193|385:113|385:113|329:57|249:85|249:85|309:205|309:205|321:209|321:209|397:305|397:305|401:317|401:317|417:321|417:321|421:345|421:345|437:345|437:345|437:365|437:365|445:364|445:364|459:370|459:370|457:357|457:357|465:345|465:345|457:329|457:329|465:301|465:301|458:284|458:284|461:253|461:253|457:237|457:237|461:221|461:221|455:204|455:204|461:193|461:193|457:169|457:169|461:149|461:149|459:91,1,1701,0|0,0:0|0:0,3:3:0:0:
492,23,8228,1,0,3:0:0:0:
256,192,8335,12,0,13633,0:0:0:0:
116,56,13941,5,4,0:0:0:0:
179,104,14293,1,0,0:0:0:0:
235,46,14646,1,0,0:0:0:0:
296,96,14999,2,2,B|352:161|529:202|581:87|537:-103|367:-56|344:39|374:114|375:118|376:122|457:120|550:221|531:349|409:394|303:270|196:357,1,880,2|0,0:0|0:0,0:0:0:0:
32,36,19588,6,2,P|105:79|136:132,1,140,2|0,0:0|0:0,0:0:0:0:
32,184,20470,2,2,P|52:144|236:104,1,240,0|0,0:0|0:0,0:0:0:0:
256,120,21705,1,2,0:0:0:0:
375,69,22146,1,0,0:0:0:0:
304,20,22411,6,2,B|344:92|436:68|412:32|504:-20|612:80|572:248|372:296|416:60|260:108|244:196|244:196|236:196|236:196|232:208|232:208|220:200|220:200|212:220|212:220|188:220|132:288|180:304|106:388|32:336,1,880,2|0,0:0|0:0,0:0:0:0:
104,92,26646,2,2,B|116:76|188:104|180:260|-16:268|-108:188|-104:-28|40:-104|236:-44|208:148|208:152|208:156|180:280|288:384|392:384|472:352,1,880,2|0,0:0|0:0,0:0:0:0:
488,20,30882,6,2,B|392:36|384:164|452:156|456:248|420:328|348:348|348:348|339:346|339:346|328:364|328:364|280:320|212:314|212:314|211:305|211:305|120:244|120:244|116:252|116:252|108:260|108:260|100:255|100:255|88:260|88:260|80:252|80:252|60:264|60:264|52:248|52:248|40:240|40:240|64:208|64:208|56:200|56:200|68:136|32:84|32:84|72:96|112:88|112:88|116:84|116:84|120:84|120:84|124:80|124:80|128:80|128:80|132:76|132:76|136:76|136:76|140:72|140:72|144:72|144:72|164:56|164:56|168:56|168:56|172:52|172:52|176:52|176:52|180:48|180:48|184:48|184:48|172:94|172:94|176:104|176:104|168:132,1,1200,2|0,0:0|0:0,0:0:0:0:
256,364,36529,6,2,L|256:213,1,149.999995422363,2|0,0:0|0:0,0:0:0:0:
256,140,38470,1,0,3:0:0:0:
256,140,38558,1,0,3:0:0:0:
496,28,39345,6,0,B|543:120|423:197|411:130|291:207|338:300,1,359.999989013672,2|0,0:0|0:0,0:0:0:0:
457,283,40756,2,0,B|424:381|285:351|324:295|185:265|153:364,1,359.999989013672,2|0,0:0|0:0,0:0:0:0:
48,371,42168,6,0,P|-3:294|33:145,1,239.999992675781,2|0,0:0|0:0,0:0:0:0:
102,107,43227,1,0,0:0:0:0:
35,21,43580,2,0,P|127:93|244:87,1,239.999992675781,2|0,0:0|0:0,0:0:0:0:
321,30,44639,1,0,0:0:0:0:
333,149,44992,6,0,P|343:209|377:263,1,119.999996337891,2|0,0:0|0:0,0:0:0:0:
443,165,45697,1,2,0:1:0:0:
488,298,46050,1,2,0:0:0:0:
465,329,46227,1,0,0:0:0:0:
430,348,46403,2,0,P|370:343|314:363,1,119.999996337891,2|0,0:0|0:0,0:0:0:0:
258,263,47109,1,2,0:1:0:0:
160,372,47462,1,2,0:0:0:0:
132,345,47639,1,0,0:0:0:0:
96,338,47815,6,0,P|55:343|23:374,2,59.9999981689454,2|0|0,0:0|0:0|0:0,0:0:0:0:
84,234,48521,2,0,P|57:213|21:211,1,59.9999981689454,2|0,0:1|0:0,0:0:0:0:
0,142,48874,1,2,0:0:0:0:
31,115,49050,1,0,0:0:0:0:
51,80,49227,6,0,P|47:50|35:5,2,59.9999981689454,2|0|0,0:0|0:0|0:0,0:0:0:0:
111,130,49756,1,0,0:0:0:0:
149,114,49933,1,2,0:1:0:0:
190,14,50109,5,2,0:3:0:0:
163,196,50286,1,2,0:3:0:0:
247,73,50462,5,4,0:3:0:0:
322,115,50639,6,0,L|263:108,1,59.9999981689454,4|0,1:0|0:0,0:0:0:0:
380,39,50992,2,0,L|320:31,1,59.9999981689454,2|0,0:0|0:0,0:0:0:0:
419,171,51344,1,2,0:1:0:0:
413,132,51521,1,0,0:0:0:0:
483,230,51697,1,2,0:0:0:0:
503,156,51874,1,0,0:0:0:0:
440,327,52050,6,0,L|499:336,1,59.9999981689454,2|0,0:0|0:0,0:0:0:0:
404,254,52403,2,0,L|345:245,1,59.9999981689454
329,366,52756,1,2,0:1:0:0:
314,330,52933,1,0,0:0:0:0:
223,370,53109,1,2,0:0:0:0:
233,291,53286,1,0,0:0:0:0:
88,350,53462,6,0,L|27:340,1,59.9999981689454,4|0,0:0|0:0,0:0:0:0:
144,276,53815,2,0,L|83:266,1,59.9999981689454,2|0,0:0|0:0,0:0:0:0:
10,159,54168,1,2,0:1:0:0:
22,190,54344,1,0,0:0:0:0:
130,106,54521,1,2,0:0:0:0:
113,179,54697,1,0,0:0:0:0:
66,48,54874,6,0,L|7:38,1,59.9999981689454,2|0,0:0|0:0,0:0:0:0:
142,24,55227,2,0,L|201:36,1,59.9999981689454,2|0,0:0|0:0,0:0:0:0:
220,174,55580,1,2,0:1:0:0:
298,164,55756,2,0,L|334:158,1,29.9999990844727,2|2,0:3|0:3,0:0:0:0:
64,320,56462,6,0,L|80:320,1,14.9999995422363,0|0,3:0|0:0,0:0:0:0:
64,320,56992,2,0,L|84:320,1,14.9999995422363,0|0,3:0|0:0,0:0:0:0:
64,320,57168,2,0,L|144:320,1,59.9999981689454,6|0,0:3|0:0,0:0:0:0:
448,320,58139,5,2,0:0:0:0:
448,320,58227,1,0,0:0:0:0:
448,320,58315,2,0,L|352:320,1,89.9999972534181,2|0,0:0|0:0,0:0:0:0:
455,16,59109,6,2,B|374:15|321:96|364:176|299:225,1,280,4|0,1:0|0:0,0:0:0:0:
259,112,60521,2,2,B|306:145|310:218|223:265|255:383,1,280,2|0,0:0|0:0,0:0:0:0:
372,320,61933,6,2,B|304:256|204:316|260:364|108:408|52:348,1,350,6|0,0:0|0:0,0:0:0:0:
164,332,63344,2,2,B|73:308|71:191|141:213|98:61|18:45,1,350,2|0,0:0|0:0,0:0:0:0:
12,196,64756,6,2,B|140:220|212:56|332:84,1,350,4|0,0:0|0:0,0:0:0:0:
420,28,66168,2,2,B|360:56|360:140|408:184|488:160|496:280,1,300,2|0,0:0|0:0,0:0:0:0:
396,368,67580,5,4,0:0:0:0:
396,368,67933,1,2,0:0:0:0:
340,312,68109,1,0,0:0:0:0:
274,358,68286,2,0,P|262:297|278:202,1,150,2|0,0:0|0:0,0:0:0:0:
352,236,68992,2,2,B|288:213|254:149|288:93|232:26|149:14|108:63,1,350,2|0,0:0|0:0,0:0:0:0:
25,35,70403,5,4,0:0:0:0:
25,35,70756,2,0,L|39:116,1,59.9999981689454
105,154,71109,2,0,P|59:187|39:312,1,179.999994506836,2|0,0:0|0:0,0:0:0:0:
133,301,71815,1,4,0:0:0:0:
133,301,71992,2,0,B|92:265|137:195|222:199|220:335|327:362,1,299.999990844727,2|0,0:0|0:0,0:0:0:0:
401,352,73050,1,0,0:0:0:0:
393,179,73227,6,0,P|359:234|356:296,1,119.999996337891,4|0,0:0|0:0,0:0:0:0:
477,331,73756,1,2,0:0:0:0:
495,280,73933,1,0,0:0:0:0:
502,220,74109,1,0,0:0:0:0:
488,149,74286,1,2,0:0:0:0:
306,173,74639,6,0,P|276:179|236:182,1,59.9999981689454,4|0,0:0|0:0,0:0:0:0:
208,144,74992,2,0,P|176:140|129:122,1,59.9999981689454
116,68,75344,2,0,P|43:33|-8:-6,1,119.999996337891,2|0,0:0|0:0,0:0:0:0:
25,84,75874,1,0,0:0:0:0:
94,212,76050,5,4,0:0:0:0:
93,211,76403,2,0,L|98:150,1,59.9999981689454
87,292,76756,1,2,0:0:0:0:
87,292,77109,1,0,0:0:0:0:
151,307,77286,1,0,0:0:0:0:
226,287,77462,1,4,0:0:0:0:
279,213,77639,2,0,B|297:175|277:138|301:94,1,119.999996337891,2|0,0:0|0:0,0:0:0:0:
416,23,78168,5,0,0:0:0:0:
461,71,78344,1,0,0:0:0:0:
483,152,78521,1,2,0:0:0:0:
459,359,78874,6,0,P|468:312|459:282,1,59.9999981689454,4|0,0:0|0:0,0:0:0:0:
440,225,79227,1,0,0:0:0:0:
361,168,79403,1,2,0:0:0:0:
361,168,79756,5,2,0:0:0:0:
307,196,79933,1,0,0:0:0:0:
262,264,80109,1,0,0:0:0:0:
250,367,80286,2,0,B|292:351|332:379|369:368,1,119.999996337891,4|0,0:0|0:0,0:0:0:0:
171,300,80815,1,2,0:0:0:0:
116,262,80992,1,0,0:0:0:0:
73,204,81168,2,0,P|62:150|69:79,1,119.999996337891,2|0,0:0|0:0,0:0:0:0:
150,14,81697,5,4,0:0:0:0:
150,14,82050,1,0,0:0:0:0:
211,135,82403,1,2,0:0:0:0:
211,135,82756,2,0,L|278:118,1,59.9999981689454
358,91,83109,5,4,0:0:0:0:
358,91,83462,1,0,0:0:0:0:
451,26,83639,2,0,P|447:84|432:150,1,119.999996337891,2|0,0:0|0:0,0:0:0:0:
390,220,84168,1,0,0:0:0:0:
390,220,84344,1,0,0:0:0:0:
473,366,84521,5,4,0:0:0:0:
473,366,84874,1,2,0:0:0:0:
405,306,85050,1,0,0:0:0:0:
341,369,85227,2,0,P|303:344|280:306,1,89.9999972534181,0|0,3:0|0:0,0:0:0:0:
274,286,85580,1,0,3:0:0:0:
314,206,85756,1,0,0:0:0:0:
233,95,85933,6,0,P|205:137|185:214,1,119.999996337891,4|0,0:0|0:0,0:0:0:0:
179,322,86462,1,0,3:0:0:0:
173,312,86550,1,0,3:0:0:0:
165,304,86639,1,0,3:0:0:0:
47,352,86815,2,2,P|66:295|73:235,1,119.999996337891
8,70,87344,6,0,P|33:115|125:152,1,139.999995727539,4|0,0:0|0:0,0:0:0:0:
98,29,87874,1,0,3:0:0:0:
100,42,87962,1,0,3:0:0:0:
108,53,88050,1,0,3:0:0:0:
189,219,88315,1,0,3:0:0:0:
188,205,88403,1,0,3:0:0:0:
220,124,88580,1,0,0:0:0:0:
262,306,88756,6,0,P|287:261|379:224,1,139.999995727539,4|2,0:0|0:0,0:0:0:0:
352,347,89286,1,0,3:0:0:0:
354,334,89374,1,0,3:0:0:0:
362,323,89462,1,0,3:0:0:0:
454,206,89727,1,0,3:0:0:0:
451,221,89815,1,0,3:0:0:0:
448,310,89992,1,0,0:0:0:0:
496,131,90168,6,0,P|446:118|386:39,1,139.999995727539,6|2,0:0|0:0,0:0:0:0:
512,33,90698,1,0,3:0:0:0:
499,34,90786,1,0,3:0:0:0:
486,30,90874,1,0,3:0:0:0:
333,127,91139,1,0,3:0:0:0:
329,114,91227,1,0,3:0:0:0:
303,35,91403,1,0,0:0:0:0:
248,160,91580,6,0,P|209:228|210:308,1,139.999995727539,4|0,0:0|0:0,0:0:0:0:
289,272,92109,1,0,3:0:0:0:
292,285,92197,1,0,3:0:0:0:
300,295,92286,1,0,3:0:0:0:
119,192,92550,1,0,3:0:0:0:
132,196,92639,1,0,3:0:0:0:
42,172,92815,1,0,0:0:0:0:
103,356,92992,5,6,3:0:0:0:
103,356,93168,2,0,B|104:320|104:320|76:332|76:332|56:328|56:328|60:304|44:292|44:292|48:280|48:280|40:256|40:256|12:264|24:240|24:240|56:232|56:232|80:244|96:232|96:232|80:216|80:216|68:192|68:192|32:180|80:148|80:148|100:156|100:156|120:156|120:156|124:136|124:136|144:132|160:128|160:128|148:152|148:152|156:176|176:168|176:168|204:184|204:184|220:148|244:136|244:136|232:104|232:104|240:60,1,700,2|2,3:0|0:0,3:0:0:0:
488,356,95109,6,2,L|485:336,1,20,2|2,0:0|0:1,0:0:0:0:
464,136,95639,1,2,0:0:0:0:
460,152,95727,1,0,0:0:0:0:
457,168,95815,5,12,0:0:0:0:
347,360,96168,1,8,0:0:0:0:
337,345,96256,1,0,0:0:0:0:
330,330,96344,1,8,0:0:0:0:
325,314,96432,1,0,0:0:0:0:
321,297,96520,1,8,0:0:0:0:
390,115,96786,1,0,0:0:0:0:
384,133,96874,1,8,0:0:0:0:
418,42,97050,1,2,0:0:0:0:
311,100,97227,5,10,0:0:0:0:
450,258,97580,1,8,0:0:0:0:
433,247,97668,1,0,0:0:0:0:
417,239,97756,1,8,0:0:0:0:
399,233,97844,1,0,0:0:0:0:
380,229,97932,1,8,0:0:0:0:
180,305,98198,1,8,0:0:0:0:
200,298,98286,1,8,0:0:0:0:
144,376,98462,1,2,0:0:0:0:
261,242,98639,5,8,0:0:0:0:
46,327,98992,1,8,0:0:0:0:
58,308,99080,1,0,0:0:0:0:
66,290,99168,1,8,0:0:0:0:
73,270,99256,1,0,0:0:0:0:
77,249,99344,1,8,0:0:0:0:
190,88,99609,1,8,0:0:0:0:
182,110,99697,1,8,0:0:0:0:
104,156,99874,1,2,0:0:0:0:
268,108,100050,5,10,0:0:0:0:
6,31,100403,1,8,0:0:0:0:
28,45,100491,1,0,0:0:0:0:
50,55,100579,1,8,0:0:0:0:
74,63,100667,1,0,0:0:0:0:
99,68,100755,1,8,0:0:0:0:
318,15,101021,1,8,0:0:0:0:
323,39,101109,1,8,0:0:0:0:
373,103,101286,1,2,0:0:0:0:
251,74,101462,6,0,L|237:-17,1,85.0000016212464,10|0,0:0|0:0,0:0:0:0:
196,185,101815,1,8,0:0:0:0:
220,205,101903,1,0,0:0:0:0:
240,226,101991,1,8,0:0:0:0:
259,249,102079,1,0,0:0:0:0:
275,275,102167,1,8,0:0:0:0:
430,131,102433,1,8,0:0:0:0:
425,155,102521,1,8,0:0:0:0:
448,50,102697,1,2,0:0:0:0:
362,213,102874,6,0,P|336:168|329:124,1,85.0000016212464,10|0,0:0|0:0,0:0:0:0:
508,251,103227,1,8,0:0:0:0:
479,275,103315,1,0,0:0:0:0:
455,300,103403,1,8,0:0:0:0:
432,327,103491,1,0,0:0:0:0:
413,359,103579,1,8,0:0:0:0:
235,294,103845,1,8,0:0:0:0:
268,305,103933,1,8,0:0:0:0:
272,218,104109,1,2,0:0:0:0:
204,369,104286,6,0,P|192:308|175:265,1,85.0000016212464,10|0,0:0|0:0,0:0:0:0:
79,384,104639,1,8,0:0:0:0:
83,367,104727,1,0,0:0:0:0:
100,354,104815,5,8,0:0:0:0:
90,334,104903,1,0,0:0:0:0:
104,312,104992,5,8,0:0:0:0:
89,290,105080,1,0,0:0:0:0:
102,263,105168,5,8,0:0:0:0:
87,232,105256,1,0,0:0:0:0:
116,207,105344,5,8,0:0:0:0:
86,182,105433,1,0,0:0:0:0:
116,160,105521,5,8,0:0:0:0:
88,152,105609,1,0,0:0:0:0:
117,120,105697,5,8,0:0:0:0:
76,119,105786,1,0,0:0:0:0:
102,80,105874,5,8,0:0:0:0:
61,96,105962,1,0,0:0:0:0:
80,47,106050,5,8,0:0:0:0:
42,80,106139,1,0,0:0:0:0:
48,33,106227,5,8,0:0:0:0:
21,71,106315,1,0,0:0:0:0:
17,30,106403,5,14,3:0:0:0:
256,40,106756,5,2,0:0:0:0:
256,40,107109,6,0,L|160:24,3,62.5,4|0|0|8,1:0|0:0|0:0|0:0,0:0:0:0:
320,104,107462,1,8,0:0:0:0:
344,99,107550,1,0,0:0:0:0:
367,102,107639,1,2,0:0:0:0:
391,97,107727,1,0,0:0:0:0:
422,39,107815,6,0,L|412:146,1,62.5,0|0,1:0|0:0,0:0:0:0:
462,166,107992,2,0,L|457:263,1,62.5,4|8,3:0|0:0,0:0:0:0:
510,309,108168,1,8,0:0:0:0:
486,304,108256,1,0,0:0:0:0:
463,307,108345,1,2,0:0:0:0:
439,302,108433,1,0,0:0:0:0:
364,278,108521,6,0,L|375:381,3,62.5,14|0|0|8,0:0|0:0|0:0|0:0,0:0:0:0:
297,231,108874,1,8,0:0:0:0:
280,249,108962,1,0,0:0:0:0:
255,253,109050,1,2,0:0:0:0:
255,278,109139,1,0,0:0:0:0:
286,349,109227,6,0,L|208:363,1,62.5,0|0,1:0|0:0,0:0:0:0:
176,290,109403,2,0,L|91:258,1,62.5,4|8,3:0|0:0,0:0:0:0:
59,331,109580,1,8,0:0:0:0:
39,315,109668,1,0,0:0:0:0:
45,290,109756,1,2,0:0:0:0:
30,269,109844,1,0,0:0:0:0:
60,197,109933,6,0,P|30:188|0:195,3,62.5,4|0|0|8,1:0|0:0|0:0|0:0,0:0:0:0:
131,152,110286,1,8,0:0:0:0:
141,129,110374,1,0,0:0:0:0:
110,90,110462,2,0,P|92:64|60:47,1,62.5,4|0,3:0|0:0,0:0:0:0:
208,177,110639,6,0,L|289:209,3,62.5,0|0|0|8,1:0|0:0|0:0|0:0,0:0:0:0:
210,93,110992,1,8,0:0:0:0:
223,72,111080,1,0,0:0:0:0:
252,72,111168,1,2,0:0:0:0:
253,47,111256,1,0,0:0:0:0:
326,62,111344,6,0,L|348:131,3,62.5,14|0|0|8,0:0|0:0|0:0|0:0,0:0:0:0:
398,23,111697,1,8,0:0:0:0:
413,48,111786,1,0,0:0:0:0:
437,46,111874,1,2,0:0:0:0:
439,70,111962,1,0,0:0:0:0:
512,67,112050,6,0,L|488:149,1,62.5,0|0,1:0|0:0,0:0:0:0:
419,183,112227,2,0,L|443:265,1,62.5,4|8,3:0|0:0,0:0:0:0:
477,356,112403,1,2,3:0:0:0:
314,105,112756,6,0,L|318:33,3,62.5,4|0|0|8,1:0|0:0|0:0|0:0,0:0:0:0:
306,205,113109,1,8,0:0:0:0:
281,186,113197,1,0,0:0:0:0:
251,197,113286,1,2,0:0:0:0:
235,169,113374,1,0,0:0:0:0:
161,147,113462,6,0,L|184:68,1,62.5,0|0,1:0|0:0,0:0:0:0:
69,34,113639,2,0,L|88:120,1,62.5,4|8,3:0|0:0,0:0:0:0:
31,167,113815,1,8,0:0:0:0:
53,189,113903,1,0,0:0:0:0:
28,207,113991,1,2,0:0:0:0:
32,238,114080,1,0,0:0:0:0:
65,306,114168,6,0,L|-38:317,3,62.5,14|0|0|8,0:0|0:0|0:0|0:0,0:0:0:0:
110,378,114521,1,8,0:0:0:0:
127,352,114609,1,0,0:0:0:0:
158,351,114697,1,2,0:0:0:0:
184,334,114786,1,0,0:0:0:0:
267,353,114874,6,0,L|253:275,1,62.5,0|0,1:0|0:0,0:0:0:0:
344,279,115050,2,0,L|302:205,1,62.5,4|8,3:0|0:0,0:0:0:0:
395,189,115227,1,8,0:0:0:0:
377,163,115315,1,0,0:0:0:0:
390,134,115403,1,2,0:0:0:0:
380,104,115491,1,0,0:0:0:0:
431,42,115580,6,0,P|400:23|354:17,3,62.5,4|0|0|8,1:0|0:0|0:0|0:0,0:0:0:0:
494,116,115933,1,8,0:0:0:0:
475,140,116021,1,0,0:0:0:0:
489,174,116109,2,0,P|491:206|479:241,1,62.5,4|0,3:0|0:0,0:0:0:0:
422,344,116286,6,0,L|481:363,3,62.5,0|0|0|8,1:0|0:0|0:0|0:0,0:0:0:0:
388,256,116639,1,8,0:0:0:0:
362,273,116727,1,0,0:0:0:0:
337,253,116815,1,6,3:0:0:0:
325,281,116903,1,0,0:0:0:0:
250,291,116991,6,0,L|268:362,3,62.5,14|0|0|8,0:0|0:0|0:0|0:0,0:0:0:0:
207,219,117344,1,8,0:0:0:0:
230,197,117433,1,0,0:0:0:0:
258,184,117521,1,2,0:0:0:0:
262,153,117609,1,0,0:0:0:0:
343,134,117697,6,0,L|323:71,1,62.5,0|0,1:0|0:0,0:0:0:0:
218,13,117874,2,0,L|194:95,1,62.5,2|0,0:0|0:0,0:0:0:0:
61,38,118050,1,4,3:0:0:0:
99,86,118139,1,4,0:3:0:0:
118,143,118227,1,8,3:0:0:0:
119,181,118315,1,8,0:3:0:0:
114,204,118403,6,0,L|100:243,1,31.25,6|0,1:3|0:0,0:0:0:0:
511,355,118756,5,6,1:0:0:0:
457,370,118844,1,0,0:0:0:0:
435,323,118933,1,0,0:0:0:0:
382,313,119021,1,0,0:0:0:0:
341,384,119109,6,0,L|360:312,1,75.0000028610231,0|0,1:0|0:0,0:0:0:0:
489,277,119286,2,0,L|459:194,1,75.0000028610231,6|0,1:0|0:0,0:0:0:0:
368,152,119462,1,8,0:0:0:0:
418,138,119550,1,0,0:0:0:0:
427,85,119639,1,2,0:0:0:0:
474,63,119727,1,0,0:0:0:0:
420,15,119815,5,14,0:0:0:0:
402,19,119903,1,0,0:0:0:0:
384,23,119992,1,0,0:0:0:0:
366,27,120080,1,0,0:0:0:0:
351,77,120168,1,8,0:0:0:0:
303,53,120256,1,0,0:0:0:0:
265,89,120344,2,0,P|244:55|241:11,1,75.0000028610231,12|0,3:0|0:0,0:0:0:0:
137,70,120521,5,0,1:0:0:0:
133,92,120609,1,0,0:0:0:0:
131,114,120697,2,0,L|201:140,1,75.0000028610231,4|0,3:0|0:0,0:0:0:0:
220,215,120874,1,8,0:0:0:0:
175,211,120962,1,0,0:0:0:0:
171,255,121050,1,8,0:0:0:0:
127,266,121139,1,8,0:0:0:0:
52,228,121227,5,6,1:0:0:0:
38,245,121315,1,0,0:0:0:0:
24,262,121403,1,2,0:0:0:0:
10,279,121492,1,0,0:0:0:0:
15,362,121580,1,8,0:0:0:0:
60,336,121668,1,0,0:0:0:0:
105,362,121756,2,0,P|140:350|202:372,1,75.0000028610231,4|0,3:0|0:0,0:0:0:0:
244,244,121933,6,0,L|262:339,1,75.0000028610231,0|0,1:0|0:0,0:0:0:0:
319,384,122109,1,8,0:0:0:0:
331,366,122197,1,0,0:0:0:0:
332,305,122286,1,8,0:0:0:0:
373,332,122374,1,0,0:0:0:0:
418,326,122462,1,8,0:0:0:0:
456,358,122550,1,8,0:0:0:0:
496,300,122639,5,6,0:0:0:0:
487,279,122727,1,0,0:0:0:0:
478,258,122815,1,8,0:0:0:0:
468,237,122903,1,0,0:0:0:0:
507,220,122992,5,8,0:0:0:0:
462,206,123080,1,0,0:0:0:0:
420,161,123168,1,8,0:0:0:0:
396,97,123256,1,0,0:0:0:0:
406,26,123344,1,0,1:0:0:0:
283,323,123609,5,4,3:0:0:0:
322,332,123697,2,0,L|230:343,1,75.0000028610231,0|0,1:0|0:0,0:0:0:0:
160,353,123874,2,0,L|68:364,1,75.0000028610231,4|0,3:0|0:0,0:0:0:0:
23,280,124050,5,6,1:0:0:0:
27,250,124139,1,0,0:0:0:0:
47,218,124227,1,8,0:0:0:0:
35,192,124315,1,0,0:0:0:0:
66,147,124403,1,8,0:0:0:0:
32,111,124492,1,0,0:0:0:0:
59,64,124580,1,8,0:0:0:0:
36,16,124668,1,0,0:0:0:0:
112,14,124756,6,0,L|175:73,1,75.0000028610231,0|0,1:0|0:0,0:0:0:0:
169,170,124933,2,0,L|232:111,1,75.0000028610231,6|0,1:0|0:0,0:0:0:0:
240,40,125109,1,10,0:0:0:0:
282,71,125197,1,0,0:0:0:0:
317,31,125286,1,8,0:0:0:0:
366,46,125374,1,0,0:0:0:0:
435,14,125462,5,14,0:0:0:0:
440,35,125550,1,0,0:0:0:0:
455,51,125639,1,8,0:0:0:0:
446,71,125727,1,0,0:0:0:0:
390,120,125815,1,8,0:0:0:0:
381,171,125903,1,0,0:0:0:0:
427,195,125992,1,8,0:0:0:0:
436,246,126080,1,0,0:0:0:0:
511,243,126168,6,0,L|496:334,1,75.0000028610231,0|0,1:0|0:0,0:0:0:0:
401,319,126344,2,0,L|340:379,1,75.0000028610231,6|0,1:0|0:0,0:0:0:0:
255,370,126521,1,8,0:0:0:0:
236,329,126609,1,0,0:0:0:0:
272,302,126697,1,8,0:0:0:0:
280,257,126786,1,8,0:0:0:0:
208,262,126874,5,6,1:0:0:0:
228,239,126962,1,0,0:0:0:0:
237,210,127050,1,2,0:0:0:0:
258,188,127139,1,0,0:0:0:0:
332,183,127227,1,8,0:0:0:0:
310,140,127315,1,0,0:0:0:0:
332,94,127403,2,0,P|289:91|242:59,1,75.0000028610231,6|0,3:0|0:0,0:0:0:0:
156,175,127580,6,0,L|177:84,1,75.0000028610231,0|0,1:0|0:0,0:0:0:0:
137,9,127756,1,2,0:0:0:0:
125,31,127844,1,8,0:0:0:0:
68,15,127933,1,8,0:0:0:0:
78,69,128021,1,0,0:0:0:0:
21,74,128109,1,4,3:0:0:0:
40,131,128197,1,0,0:0:0:0:
11,200,128286,5,14,1:0:0:0:
30,213,128374,1,0,0:0:0:0:
25,260,128462,1,2,0:0:0:0:
54,288,128550,1,0,0:0:0:0:
60,342,128639,1,8,0:0:0:0:
102,347,128727,1,0,0:0:0:0:
151,375,128815,1,8,0:0:0:0:
197,355,128903,1,8,0:0:0:0:
270,370,128992,5,0,1:0:0:0:
360,212,129168,2,0,L|287:226,1,75.0000028610231,2|0,1:0|0:0,0:0:0:0:
174,228,129344,2,2,L|477:165,1,300.000011444092,4|0,0:0|0:0,1:0:0:0:
100,184,129697,5,6,0:0:0:0:
256,192,129786,12,0,135344,0:0:0:0:
0,198,138874,6,2,B|6:125|110:101|182:164|220:374|220:374|202:341|202:341|216:328|216:328|192:296|192:296|235:246|235:246|219:224|219:224|220:202|220:202|199:188|199:188|202:159|202:159|174:126,1,700,2|0,0:0|0:0,0:0:0:0:
129,26,140286,5,4,3:0:0:0:
183,24,140374,1,4,3:0:0:0:
241,45,140462,1,2,0:0:0:0:
290,100,140550,2,0,L|281:172,1,50,0|0,1:0|0:0,0:0:0:0:
295,361,140727,1,2,0:0:0:0:
349,363,140815,1,2,0:0:0:0:
407,339,140903,1,4,3:0:0:0:
453,280,140992,6,0,B|440:232|440:232|447:137|447:137|430:85,1,200,4|0,1:0|0:0,0:0:0:0:
512,3,141256,2,0,B|499:46|499:46|506:146|506:146|485:207,1,200,4|0,1:3|0:0,0:0:0:0:
350,211,141521,1,4,3:0:0:0:
350,211,141609,1,4,3:0:0:0:
314,281,141697,6,2,B|298:193|298:193|311:159|311:159|294:29,1,250,6|0,1:2|0:0,0:1:0:0:
216,198,141962,2,0,B|233:149|233:149|247:133|247:133|291:2,1,200,4|0,1:3|0:0,0:0:0:0:
48,14,142227,2,0,L|74:132,1,100,4|0,3:0|0:0,0:0:0:0:
52,287,142403,6,0,B|42:238|42:238|55:143|55:143|42:90,1,200,4|0,1:0|0:0,0:0:0:0:
136,158,142668,2,0,B|131:209|131:209|145:302|145:302|133:356,1,200,4|0,1:3|0:0,0:0:0:0:
262,372,142933,1,4,3:0:0:0:
262,372,143021,1,4,3:0:0:0:
222,296,143109,6,2,B|280:274|280:274|389:313|389:313|424:384,1,250,6|0,1:2|0:0,0:1:0:0:
503,206,143374,2,0,B|457:188|457:188|372:219|372:219|344:274,1,200,4|0,1:3|0:0,0:0:0:0:
358,22,143639,2,0,L|384:127,1,100,4|0,3:0|0:0,0:0:0:0:
487,67,143815,6,0,B|435:84|435:84|340:77|340:77|292:90,1,200,4|0,1:0|0:0,0:0:0:0:
261,208,144080,2,0,B|221:186|221:186|155:111|155:111|97:82,1,200,4|0,1:3|0:0,0:0:0:0:
19,204,144344,1,4,3:0:0:0:
19,204,144432,1,4,3:0:0:0:
77,259,144521,6,2,B|61:171|61:171|74:137|74:137|57:7,1,250,6|0,1:2|0:0,0:1:0:0:
104,185,144786,2,0,B|121:136|121:136|135:120|135:120|179:-11,1,200,4|0,1:3|0:0,0:0:0:0:
167,130,145050,2,0,L|253:64,1,100,4|0,3:0|0:0,0:0:0:0:
220,347,145227,6,0,B|168:330|168:330|73:337|73:337|25:324,1,200,4|0,1:0|0:0,0:0:0:0:
171,289,145492,2,0,B|222:306|222:306|315:299|315:299|375:314,1,200,4|0,1:3|0:0,0:0:0:0:
489,220,145756,1,4,3:0:0:0:
489,220,145844,1,4,3:0:0:0:
413,180,145933,6,2,B|391:238|391:238|430:347|430:347|501:382,1,250,6|0,1:2|0:0,0:1:0:0:
491,104,146197,2,0,B|445:86|445:86|360:117|360:117|334:174,1,200,4|0,1:3|0:0,0:0:0:0:
425,16,146462,2,0,B|374:7|374:7|349:16|349:16|322:57,1,125,6|0,3:0|0:0,0:0:0:0:
264,220,146639,6,0,B|259:170|259:170|220:83|220:83|218:28,1,200,4|0,1:0|0:0,0:0:0:0:
199,137,146903,2,0,B|186:180|186:180|193:280|193:280|172:341,1,200,4|0,1:3|0:0,0:0:0:0:
85,167,147168,1,4,3:0:0:0:
85,167,147256,1,4,3:0:0:0:
18,200,147344,6,2,B|106:216|106:216|140:203|140:203|270:220,1,250,6|0,1:2|0:0,0:1:0:0:
57,290,147609,2,0,B|74:241|74:241|88:225|88:225|132:94,1,200,4|0,1:3|0:0,0:0:0:0:
3,11,147874,2,0,L|117:32,1,100,4|0,3:0|0:0,0:0:0:0:
215,125,148050,6,0,B|267:108|267:108|362:115|362:115|410:102,1,200,4|0,1:0|0:0,0:0:0:0:
512,163,148315,2,0,B|461:146|461:146|368:153|368:153|308:138,1,200,4|0,1:3|0:0,0:0:0:0:
326,359,148580,1,4,3:0:0:0:
326,359,148668,1,4,3:0:0:0:
290,288,148756,6,2,B|348:266|348:266|457:305|457:305|492:376,1,250,6|0,1:2|0:0,0:1:0:0:
392,312,149109,1,2,0:1:0:0:
479,28,149286,5,0,3:0:0:0:
483,34,149344,1,0,3:0:0:0:
487,40,149403,1,0,3:0:0:0:
491,45,149462,6,0,L|467:223,1,150.000005722046,4|0,1:0|0:0,0:0:0:0:
409,81,149727,2,0,L|385:259,1,150.000005722046,4|0,1:3|0:0,0:0:0:0:
241,353,149992,1,4,3:0:0:0:
241,353,150080,1,4,3:0:0:0:
285,281,150168,6,0,B|280:181|280:181|232:94,1,200,2|0,1:0|0:0,0:0:0:0:
208,223,150433,2,0,B|205:128|205:128|155:35,1,200,4|0,1:3|0:0,0:0:0:0:
26,132,150697,2,0,P|72:129|122:160,1,100,4|0,3:0|0:0,0:0:0:0:
20,336,150874,6,0,B|62:317|62:317|208:332|208:332|265:316,1,250,6|0,1:0|0:0,0:0:0:0:
259,138,151139,2,0,B|302:156|302:156|446:142|446:142|515:161,1,250,2|0,1:0|0:0,0:0:0:0:
493,362,151403,1,4,3:0:0:0:
440,319,151492,1,4,3:0:0:0:
427,252,151580,6,2,P|465:263|414:258,1,225.000008583069,2|0,1:0|0:0,0:0:0:0:
389,231,151933,6,2,P|463:362|413:219,1,450.000017166138,2|0,0:0|0:0,0:3:0:0:
311,13,152286,6,2,L|300:86,1,70,4|0,1:0|0:0,0:0:0:0:
283,70,152992,6,2,P|319:134|421:224,1,200,4|0,1:2|0:0,0:3:0:0:
39,362,153344,6,2,L|25:253,1,110,4|0,1:0|0:0,0:0:0:0:
21,233,154403,5,4,1:2:0:0:
227,317,154580,1,4,3:0:0:0:
237,269,154668,2,0,L|260:170,1,75.0000028610231,4|0,3:0|0:0,0:0:0:0:
30,48,154933,1,4,3:0:0:0:
30,48,155109,6,0,L|180:62,1,133.333333333333,0|0,1:0|0:0,0:0:0:0:
110,113,155286,2,0,L|265:101,1,133.333333333333,4|0,1:3|0:0,0:0:0:0:
313,39,155462,2,0,B|356:36|356:36|427:55|427:55|477:53,1,150.000005722046,4|0,1:2|0:0,0:0:0:0:
313,211,155815,6,2,P|268:136|229:-1,1,200,2|0,1:0|0:0,0:3:0:0:
477,325,156168,6,2,L|368:351,1,110,4|0,1:0|0:0,0:0:0:0:
251,304,157227,6,2,B|285:330|285:330|289:311|289:311|330:321|330:321|335:299|335:299|376:306|376:306|359:290|359:290|394:273|394:273|369:267|369:267|402:239|402:239|388:233|388:233|404:199|404:199|392:199|392:199|395:163|395:163|383:165|383:165|376:134|376:134|366:142|366:142|349:114|349:114|335:120|335:120|308:97|308:97|301:111|301:111|262:95|262:95|249:107|249:107|212:98|212:98|181:114|181:114|174:82|174:82|148:60|148:60|182:52|182:52|193:16|193:16|207:46|207:46|248:47,1,900.000034332277,4|0,1:2|0:0,0:3:0:0:
44,361,157933,6,2,L|53:292,1,70,4|0,1:0|0:0,0:0:0:0:
39,275,158639,6,2,P|109:280|221:373,1,200,4|0,1:2|0:0,0:3:0:0:
427,20,158992,6,2,L|443:134,1,110,4|0,1:0|0:0,0:0:0:0:
444,146,160050,5,4,1:2:0:0:
308,59,160227,1,4,3:0:0:0:
300,96,160315,2,0,L|283:196,1,75.0000028610231,4|0,3:0|0:0,0:0:0:0:
462,335,160580,1,4,3:0:0:0:
462,335,160756,6,0,L|328:360,1,133.333333333333,0|0,1:0|0:0,0:0:0:0:
386,307,160933,2,0,L|241:283,1,133.333333333333,4|0,1:3|0:0,0:0:0:0:
174,247,161109,2,0,B|140:268|140:268|110:338|110:338|75:358,1,150.000005722046,4|0,1:2|0:0,0:0:0:0:
280,169,161462,6,2,P|248:269|224:381,1,200,4|0,1:2|0:0,0:3:0:0:
33,23,161815,6,2,L|42:106,1,82.4999974822999,4|0,1:0|0:0,0:0:0:0:
44,120,162874,5,4,0:3:0:0:
153,331,163139,1,4,0:3:0:0:
396,351,163403,1,4,0:3:0:0:
396,351,163580,6,0,B|380:308|380:308|391:285|391:285|360:190,1,150.000005722046,12|0,1:2|0:0,0:0:0:0:
488,178,163844,2,0,L|474:266,2,75.0000028610231,0|2|0,1:0|0:2|0:0,0:0:0:0:
371,45,164109,1,4,0:3:0:0:
371,45,164197,1,4,0:3:0:0:
439,86,164286,6,2,B|318:104|318:104|285:158,1,170.000003242493,14|0,1:2|0:0,0:1:0:0:
198,20,164550,2,0,L|209:116,2,85.0000016212464,0|2|0,1:0|0:0|0:0,0:0:0:0:
90,154,164815,2,0,L|105:58,1,85.0000016212464,4|0,3:0|0:0,0:0:0:0:
163,239,164992,6,0,B|125:190|125:190|-12:170,1,179.999994506836,12|0,1:2|0:0,0:0:0:0:
77,323,165256,2,0,L|91:229,2,89.9999972534181,0|2|0,1:0|0:0|0:0,0:0:0:0:
280,373,165521,1,4,3:0:0:0:
280,373,165609,1,4,3:0:0:0:
356,315,165697,6,2,L|158:356,1,189.999994926453,14|0,1:2|0:0,0:3:0:0:
311,212,165962,2,0,L|255:317,2,94.9999974632264,0|2|0,1:0|0:0|0:0,0:0:0:0:
441,236,166227,2,0,L|454:331,1,94.9999974632264,4|0,3:0|0:0,0:0:0:0:
308,133,166403,6,0,B|338:96|338:96|449:114|449:114|464:151,1,200,12|0,1:2|0:0,0:0:0:0:
404,25,166668,2,0,L|506:41,2,100,0|2|0,1:0|0:0|0:0,0:0:0:0:
226,104,166933,1,4,3:0:0:0:
226,104,167021,1,4,3:0:0:0:
275,37,167109,6,2,B|234:90|234:90|182:54|182:54|96:33,1,209.999993591309,14|0,1:2|0:0,0:1:0:0:
144,143,167374,2,0,L|243:208,2,104.999996795654,0|0|0,1:0|0:0|0:0,0:0:0:0:
12,26,167639,2,0,B|9:80|9:80|51:139,1,104.999996795654,4|0,3:0|0:0,0:0:0:0:
184,262,167815,6,0,B|92:203|92:203|63:234|63:234|-6:248,1,220.000006713867,14|0,1:2|0:0,0:0:0:0:
137,366,168080,2,0,L|6:338,2,110.000003356934,0|2|0,1:0|0:0|0:0,0:0:0:0:
261,334,168344,1,4,3:0:0:0:
261,334,168433,1,4,3:0:0:0:
317,383,168521,6,2,B|279:333|279:333|306:272|306:272|285:240|285:240|288:162,1,230.000004386902,14|0,1:2|0:0,0:3:0:0:
366,322,168786,1,2,3:0:0:0:
366,322,168874,1,2,3:0:0:0:
315,68,169050,1,0,1:0:0:0:
328,26,169139,1,4,3:0:0:0:
258,28,169227,6,0,B|381:63|381:63|436:194,1,250,14|0,1:2|0:0,0:0:0:0:
498,72,169492,2,0,B|379:109|379:109|330:245,1,250,0|0,1:0|0:0,0:0:0:0:
415,371,169756,1,4,3:0:0:0:
415,371,169844,1,4,3:0:0:0:
500,333,169933,6,2,B|445:323|445:323|398:350|398:350|365:318|365:318|234:298,1,270.000001029968,14|0,1:2|0:0,0:1:0:0:
164,384,170197,2,0,B|174:329|174:329|147:282|147:282|179:249|179:249|199:118,1,270.000001029968,0|0,1:0|0:0,0:0:0:0:
91,10,170462,2,0,B|96:61|96:61|108:74|108:74|99:90|99:90|103:158,1,135.000000514984,4|0,3:0|0:0,0:0:0:0:
27,279,170639,6,0,B|92:254|92:254|109:295|109:295|145:255|145:255|265:208,1,290.000008850098,14|0,1:2|0:0,0:0:0:0:
235,62,170903,2,0,B|301:87|301:87|317:47|317:47|354:87|354:87|468:132,1,290.000008850098,0|0,1:0|0:0,0:0:0:0:
421,292,171168,1,4,3:0:0:0:
475,270,171256,1,4,3:0:0:0:
512,343,171344,5,14,1:2:0:0:
335,176,171697,6,0,L|320:98,6,75.0000028610231,0|0|0|0|0|0|0,3:0|3:0|3:0|3:0|3:0|3:0|3:0,3:0:0:0:
433,208,172050,6,0,B|348:276|348:276|274:242|274:242|132:274,1,300.000011444092,4|0,1:0|0:0,0:0:0:0:
291,353,172315,2,0,B|194:302|194:302|128:349|128:349|-17:345,1,300.000011444092,14|0,1:3|0:0,0:0:0:0:
109,99,172580,1,0,3:0:0:0:
128,137,172668,1,0,3:0:0:0:
73,190,172756,6,2,L|6:178,8,37.5000014305115,2|2|2|2|2|2|2|2|2,3:1|3:1|3:1|3:1|3:1|3:1|3:1|3:1|3:1,3:1:0:0:
26,89,173021,2,0,B|63:229|63:229|144:169|144:169|205:181,1,300.000011444092,14|0,1:3|0:0,0:0:0:0:
195,78,173286,2,0,B|232:63|232:63|304:64|304:64|348:49,1,150.000005722046,14|0,3:0|0:0,0:0:0:0:
508,15,173462,6,0,B|360:75|360:75|425:150|425:150|423:191,1,300.000011444092,4|0,1:0|0:0,0:0:0:0:
486,357,173727,2,0,L|450:195,1,150.000005722046,14|0,1:3|0:0,0:0:0:0:
298,203,173903,1,2,0:0:0:0:
308,205,173992,1,4,3:0:0:0:
350,244,174080,1,4,3:0:0:0:
376,318,174168,6,0,L|374:364,4,37.5000014305115,0|0|0|0|0,3:0|3:0|3:0|3:0|3:0,3:0:0:0:
232,305,174344,6,2,L|226:256,20,50,2|2|2|2|2|2|2|2|2|2|2|2|2|2|2|2|2|2|2|2|2,3:2|3:2|3:2|3:2|3:2|3:2|3:2|3:2|3:2|3:2|3:2|3:2|3:2|3:2|3:2|3:2|3:2|3:2|3:2|3:2|3:2,3:2:0:0:
204,109,174874,5,6,1:0:0:0:
256,192,174962,12,0,179109,0:0:0:0:
256,192,180521,12,0,183344,0:0:0:0:
72,113,186168,5,2,0:0:0:0:
53,183,186521,1,0,0:0:0:0:
101,278,187050,1,2,0:0:0:0:
32,356,187580,2,2,B|8:186|253:206|496:229|472:59,1,600,2|0,0:0|0:0,0:0:0:0:
463,347,193227,6,2,B|310:374|141:344|78:53,1,550,2|0,0:0|0:0,0:0:0:0:
392,28,197462,6,0,L|384:58,1,25,2|0,0:1|0:0,0:0:0:0:
256,192,198168,12,0,200286,0:0:0:0:
256,192,200550,5,2,0:0:0:0:
256,192,200639,2,0,L|256:232,1,25,2|0,0:0|0:0,0:0:0:0:
61,271,201697,6,2,B|147:285|120:342|214:359,1,179.999994506836,2|0,0:0|0:0,0:0:0:0:
221,270,203109,2,2,B|307:256|280:199|374:182,1,179.999994506836,2|0,0:0|0:0,0:0:0:0:
491,39,204546,5,4,0:0:0:0:
418,73,204907,1,2,0:0:0:0:
356,22,205268,1,0,0:0:0:0:
287,63,205630,1,2,0:0:0:0:
205,22,205991,2,0,B|178:38|192:108|160:129,1,119.999996337891,4|0,0:0|0:0,0:0:0:0:
91,174,207081,1,0,0:0:0:0:
2,123,207445,6,0,P|33:177|40:240,1,119.999996337891,4|0,0:0|0:0,0:0:0:0:
11,312,208556,1,0,0:0:0:0:
165,364,208926,2,0,B|138:347|152:277|120:256,1,119.999996337891,4|0,0:0|0:0,0:0:0:0:
229,191,210037,1,2,0:0:0:0:
266,225,210222,1,0,0:0:0:0:
279,271,210407,6,0,P|276:308|257:337,1,59.9999981689454,4|0,0:0|0:0,0:0:0:0:
401,373,211152,2,0,P|385:338|358:317,1,59.9999981689454,2|0,0:0|0:0,0:0:0:0:
483,204,211897,2,0,P|473:235|448:262,1,59.9999981689454,4|0,0:0|0:0,0:0:0:0:
410,259,212463,1,0,0:0:0:0:
393,217,212651,2,0,P|403:186|428:159,1,59.9999981689454,2|0,0:0|0:0,0:0:0:0:
484,127,213217,1,0,0:0:0:0:
412,79,213406,6,0,L|358:88,1,40,4|0,0:0|0:0,0:0:0:0:
315,28,213790,2,0,L|261:37,1,40
421,68,214175,2,0,L|367:77,1,40,2|0,0:0|0:0,0:0:0:0:
324,17,214559,2,0,L|270:26,1,40
301,131,214944,6,0,L|235:120,1,59.9999981689454,4|0,0:0|0:0,0:0:0:0:
183,192,215328,2,0,L|117:181,1,59.9999981689454
311,144,215713,2,0,L|245:133,1,59.9999981689454,2|0,0:0|0:0,0:0:0:0:
194,206,216097,2,0,L|128:195,1,59.9999981689454
146,47,216482,5,4,0:0:0:0:
132,79,216676,1,0,0:0:0:0:
46,82,216871,1,2,0:0:0:0:
54,116,217066,1,0,0:0:0:0:
13,222,217261,5,2,0:0:0:0:
42,231,217456,1,0,0:0:0:0:
75,256,217650,1,2,0:0:0:0:
108,321,217845,1,0,0:0:0:0:
209,367,218040,6,0,L|191:312,1,40,4|0,0:0|0:0,0:0:0:0:
226,252,218432,2,0,L|208:197,1,40,2|0,0:0|0:0,0:0:0:0:
214,80,218824,1,2,0:0:0:0:
244,97,219020,1,0,0:0:0:0:
294,108,219216,1,2,0:0:0:0:
374,92,219412,1,0,0:0:0:0:
479,33,219608,6,0,L|466:75,1,40,4|0,0:0|0:0,0:0:0:0:
379,112,220005,2,0,L|392:154,1,40,2|0,0:0|0:0,0:0:0:0:
493,260,220402,1,2,0:0:0:0:
457,305,220601,1,0,0:0:0:0:
391,330,220800,1,2,0:0:0:0:
315,314,220998,1,0,0:0:0:0:
233,370,221197,6,0,L|221:325,1,40,4|0,0:0|0:0,0:0:0:0:
254,244,221599,2,0,L|240:188,1,40,2|0,0:0|0:0,0:0:0:0:
172,118,222002,1,2,0:0:0:0:
128,135,222203,1,0,0:0:0:0:
84,172,222405,1,2,0:0:0:0:
52,243,222606,1,0,0:0:0:0:
70,341,222807,6,0,P|33:347|1:360,1,40,4|0,0:0|0:0,0:0:0:0:
137,279,223212,2,0,P|174:285|206:298,1,40,2|0,0:0|0:0,0:0:0:0:
313,365,223617,1,2,0:0:0:0:
358,369,223820,1,0,0:0:0:0:
413,342,224023,1,2,0:0:0:0:
455,280,224225,1,0,0:0:0:0:
364,232,224428,6,0,P|377:262|380:301,1,40,4|0,0:0|0:0,0:0:0:0:
441,158,224836,2,0,P|440:186|433:212,1,40,2|0,0:0|0:0,0:0:0:0:
443,46,225244,1,2,0:0:0:0:
369,60,225448,1,0,0:0:0:0:
337,82,225652,1,2,0:0:0:0:
321,109,225856,1,0,0:0:0:0:
156,21,226060,5,2,0:0:0:0:
170,26,226162,1,0,0:0:0:0:
187,36,226265,1,0,0:0:0:0:
204,53,226368,1,0,0:0:0:0:
219,78,226470,1,2,0:0:0:0:
64,75,226676,1,2,0:0:0:0:
81,81,226779,1,0,0:0:0:0:
25,182,226984,1,0,0:0:0:0:
32,177,227087,1,2,0:0:0:0:
67,293,227292,5,2,0:0:0:0:
181,314,227714,5,2,0:0:0:0:
243,263,228139,5,2,0:0:0:0:
256,192,228651,5,6,0:0:0:0:
