osu file format v14

[General]
AudioFilename: audio.mp3
AudioLeadIn: 0
PreviewTime: 107021
Countdown: 0
SampleSet: Soft
StackLeniency: 0.7
Mode: 0
LetterboxInBreaks: 0
WidescreenStoryboard: 1

[Editor]
Bookmarks: 8019,13941,25058,32646,33352,33882,34058,34764,35117,35470,35646,35999,36529,39345,50639,55844,59109,70403,81697,92992,95815,104286,107109,118403,129697,140992,152286,163580,174874,184756,191815,197462,201697,213406,226060,228651,231985
DistanceSpacing: 0.6
BeatDivisor: 4
GridSize: 16
TimelineZoom: 2.749998

[Metadata]
Title:data corruption symphony
TitleUnicode:data corruption symphony
Artist:sakuraburst
ArtistUnicode:sakuraburst
Creator:Mao
Version:K1ry`5-1n54N#
Source:osu!
Tags:deconstructing nature experimental fa featured artist mg mappers' guild scubdomino greenhue kirylln aeril instrumental electronic Natsume Shiki
BeatmapID:2361192
BeatmapSetID:897724

[Difficulty]
HPDrainRate:6
CircleSize:4
OverallDifficulty:8
ApproachRate:9
SliderMultiplier:1.8
SliderTickRate:1

[Events]
//Background and Video events
0,0,"flower-1.jpg",0,0
//Break Periods
2,36729,38745
2,197662,199686
//Storyboard Layer 0 (Background)
//Storyboard Layer 1 (Fail)
//Storyboard Layer 2 (Pass)
//Storyboard Layer 3 (Foreground)
//Storyboard Layer 4 (Overlay)
//Storyboard Sound Samples

[TimingPoints]
20,376.175548589342,4,2,0,20,1,0
20,-250,4,2,0,20,0,0
43,-250,4,2,1,5,0,0
1148,400,4,2,0,5,1,0
1548,352.941176470588,4,2,0,5,1,0
1900,315.789473684211,4,2,0,5,1,0
2136,400,4,2,0,5,1,0
2536,352.941176470588,4,2,0,5,1,0
2800,307.692307692308,4,2,0,5,1,0
3415,468.75,4,2,0,5,1,0
3883,428.571428571429,4,2,0,5,1,0
4311,382.165605095541,4,2,0,5,1,0
5075,444.444444444444,4,2,0,5,1,0
6074,400,4,2,0,5,1,0
6274,444.444444444444,4,2,0,5,1,0
7385,468.75,4,2,0,5,1,0
7619,400,4,2,0,5,1,0
8019,419.58041958042,4,2,0,5,1,0
8228,428.571428571429,4,2,0,20,1,0
8442,500,4,2,0,5,1,0
12192,405.405405405405,4,2,0,5,1,0
12597,461.538461538462,4,2,0,5,1,0
12827,468.75,4,2,0,5,1,0
13061,545.454545454546,4,2,0,5,1,0
13333,600,4,2,0,5,1,0
13941,352.941176470588,4,2,0,20,1,0
13941,-1000,4,2,0,20,0,0
36529,-666.666666666667,4,2,0,20,0,0
39345,352.941176470588,4,2,0,30,1,0
39345,-250.000000000001,4,2,0,30,0,0
50639,-166.666666666667,4,2,0,40,0,0
55580,-166.666666666667,4,2,0,30,0,0
59109,-500.000000000005,4,2,0,40,0,0
61933,-250.000000000001,4,2,0,40,0,0
63344,-166.666666666667,4,2,0,40,0,0
64756,-125,4,2,0,40,0,0
66168,-500,4,2,0,40,0,0
70403,-500.000000000003,4,2,0,40,0,0
71815,-166.666666666667,4,2,0,40,0,0
73227,-250.000000000001,4,2,0,40,0,0
74639,-166.666666666667,4,2,0,40,0,0
76050,-500.000000000003,4,2,0,40,0,0
81697,-250.000000000001,4,2,0,40,0,0
87344,-142.857142857143,4,2,0,50,0,0
90168,-142.857142857143,4,2,0,55,0,0
92992,-100,4,2,0,40,0,0
95109,-1000,4,2,0,40,0,0
95639,-117.647058823529,4,2,0,50,0,0
97227,-117.647058823529,4,2,0,55,0,0
98639,-117.647058823529,4,2,0,60,0,0
100050,-117.647058823529,4,2,0,65,0,0
101462,-117.647058823529,4,2,0,70,0,0
107109,-80,4,2,0,75,0,1
112403,-80,4,2,0,75,0,0
112756,-80,4,2,0,75,0,1
118403,-80,4,2,0,75,0,0
118756,-55.5555555555556,4,2,0,85,0,1
123344,-66.6666666666667,4,2,0,85,0,0
123609,-55.5555555555556,4,2,0,85,0,1
127580,-50,4,2,0,85,0,1
128286,-62.5,4,2,0,85,0,1
129344,-41.6666666666667,4,2,0,85,0,1
129697,-500,4,2,0,85,0,0
129786,-100,4,2,0,40,0,0
140286,-100,4,2,0,80,0,0
140992,-50,4,2,0,100,0,1
141697,-40,4,2,0,100,0,1
141962,-50,4,2,0,100,0,1
142227,-71.4285714285714,4,2,0,100,0,1
142403,-50,4,2,0,100,0,1
143109,-40,4,2,0,100,0,1
143374,-50,4,2,0,100,0,1
143639,-71.4285714285714,4,2,0,100,0,1
143815,-50,4,2,0,100,0,1
144521,-40,4,2,0,100,0,1
144786,-50,4,2,0,100,0,1
145050,-71.4285714285714,4,2,0,100,0,1
145227,-50,4,2,0,100,0,1
145933,-40,4,2,0,100,0,1
146197,-50,4,2,0,100,0,1
146462,-40,4,2,0,100,0,1
146639,-50,4,2,0,100,0,1
147344,-40,4,2,0,100,0,1
147609,-50,4,2,0,100,0,1
147874,-71.4285714285714,4,2,0,100,0,1
148050,-50,4,2,0,100,0,1
148756,-40,4,2,0,100,0,1
149109,-40,4,2,0,100,0,0
149462,-66.6666666666667,4,2,0,100,0,1
150168,-50,4,2,0,100,0,1
150874,-40,4,2,0,100,0,1
151580,-58.8235294117647,4,2,0,100,0,1
151933,-33.3333333333333,4,2,0,100,0,1
152197,-33.3333333333333,4,2,0,100,0,0
152286,-500,4,2,0,100,0,1
152992,-50,4,2,0,100,0,1
153256,-50,4,2,0,100,0,0
153344,-500,4,2,0,100,0,1
154403,-50,4,2,0,100,0,1
155462,-166.666666666667,4,2,0,100,0,1
155815,-50,4,2,0,100,0,1
156080,-50,4,2,0,100,0,0
156168,-500,4,2,0,100,0,1
157227,-55.5555555555556,4,2,0,100,0,1
157844,-33.3333333333333,4,2,0,100,0,0
157933,-500,4,2,0,100,0,1
158639,-50,4,2,0,100,0,1
158903,-50,4,2,0,100,0,0
158992,-500,4,2,0,100,0,1
160050,-66.6666666666667,4,2,0,100,0,1
160756,-50,4,2,0,100,0,1
161109,-166.666666666667,4,2,0,100,0,1
161462,-50,4,2,0,100,0,1
161727,-50,4,2,0,100,0,0
161815,-666.666666666667,4,2,0,100,0,1
162874,-666.666666666667,4,2,0,100,0,0
163580,-66.6666666666667,4,2,0,100,0,1
164286,-58.8235294117647,4,2,0,100,0,1
164992,-55.5555555555556,4,2,0,100,0,1
165697,-52.6315789473684,4,2,0,100,0,1
166403,-50,4,2,0,100,0,1
167109,-47.6190476190476,4,2,0,100,0,1
167815,-45.4545454545455,4,2,0,100,0,1
168521,-43.4782608695652,4,2,0,100,0,1
169227,-40,4,2,0,100,0,1
169933,-37.037037037037,4,2,0,100,0,1
170639,-50,4,2,0,100,0,1
171344,-100,4,2,0,100,0,1
172050,-34.4827586206897,4,2,0,100,0,1
172756,-33.3333333333333,4,2,0,60,0,1
173021,-34.4827586206897,4,2,0,100,0,1
173992,-66.6666666666667,4,2,0,100,0,1
174344,-25,4,2,0,50,0,1
174521,-500,4,2,0,50,0,1
174874,-1000,4,2,0,100,0,0
174962,-500,4,2,0,30,0,0
184756,-166.666666666667,4,2,0,30,0,0
186168,-400,4,2,0,30,0,0
197462,-100,4,2,0,30,0,0
201697,-333.333333333333,4,2,0,30,0,0
203109,359.281437125748,4,2,0,30,1,0
203109,-333.333333333333,4,2,0,30,0,0
204546,361.44578313253,4,2,0,30,1,0
204907,-333.333333333333,4,2,0,30,0,0
205991,363.636363636364,4,2,0,30,1,0
205991,-333.333333333333,4,2,0,30,0,0
207445,370.37037037037,4,2,0,30,1,0
207445,-333.333333333333,4,2,0,30,0,0
210407,372.670807453416,4,2,0,30,1,0
210407,-333.333333333333,4,2,0,30,0,0
211897,377.358490566038,4,2,0,30,1,0
211897,-333.333333333333,4,2,0,30,0,0
213406,384.615384615385,4,2,0,30,1,0
213406,-250,4,2,0,30,0,0
214944,-166.666666666667,4,2,0,30,0,0
216482,389.61038961039,4,2,0,30,1,0
216482,-166.666666666667,4,2,0,30,0,0
217261,-333.333333333333,4,2,0,30,0,0
218040,392.156862745098,4,2,0,30,1,0
218040,-250,4,2,0,30,0,0
219608,397.350993377483,4,2,0,30,1,0
219608,-250,4,2,0,30,0,0
221197,402.684563758389,4,2,0,30,1,0
221197,-250,4,2,0,30,0,0
222807,405.405405405405,4,2,0,30,1,0
222807,-250,4,2,0,30,0,0
224428,408.163265306122,4,2,0,30,1,0
224428,-250,4,2,0,30,0,0
226060,410.958904109589,4,2,0,30,1,0
226265,-333.333333333333,4,2,0,30,0,0
227292,422.535211267606,4,2,0,25,1,0
227714,425.531914893617,4,2,0,22,1,0
228139,512.820512820513,4,2,0,20,1,0

[Colours]
Combo1 : 211,219,206
Combo2 : 0,255,83
Combo3 : 255,0,217
Combo4 : 82,78,116

[HitObjects]
256,192,8442,12,0,13783,0:0:0:0:
493,70,13941,6,0,B|382:32|98:127|50:323|50:323|57:318|57:318|57:323|57:323|102:275|250:199|312:222|402:292|402:292|405:300|405:300|410:295|410:295|396:285|396:285|386:258|386:258|391:261|391:261|389:256|389:256|379:253|379:253|375:252|375:252|357:258|357:258|340:258|340:258|340:263|340:263|337:259|337:259|326:267|326:267|323:264|323:264|325:273|325:273|310:270|310:270|311:275|311:275|302:271|302:271|288:277,1,1152,4|2,0:0|0:0,0:0:0:0:
123,50,39345,5,2,0:0:0:0:
123,50,39697,2,0,P|97:45|81:39,1,36,0|0,0:0|0:0,0:0:0:0:
224,112,40050,2,0,P|198:120|182:123,1,36,0|0,0:0|0:0,0:0:0:0:
400,96,40403,2,0,P|382:116|369:126,1,36,0|0,0:0|0:0,0:0:0:0:
352,272,40756,5,2,0:0:0:0:
352,272,41109,2,0,P|347:246|340:229,1,36,0|0,0:0|0:0,0:0:0:0:
240,288,41462,2,0,P|222:267|209:257,1,36,0|0,0:0|0:0,0:0:0:0:
96,336,41815,2,0,P|70:327|54:324,1,36,0|0,0:0|0:0,0:0:0:0:
80,160,42168,5,2,0:0:0:0:
80,160,42521,2,0,P|62:180|49:190,1,36,0|0,0:0|0:0,0:0:0:0:
144,64,42874,2,0,P|118:72|102:75,1,36,0|0,0:0|0:0,0:0:0:0:
304,32,43227,2,0,P|278:27|261:20,1,36,0|0,0:0|0:0,0:0:0:0:
464,128,43580,5,2,0:0:0:0:
464,128,43933,2,0,P|446:148|432:159,1,36,0|0,0:0|0:0,0:0:0:0:
448,240,44286,2,0,P|422:248|404:251,1,36,0|0,0:0|0:0,0:0:0:0:
336,336,44639,2,0,P|309:331|293:324,1,36,0|0,0:0|0:0,0:0:0:0:
144,192,44992,5,2,0:0:0:0:
144,192,45345,2,0,P|135:217|132:235,1,36,0|0,0:0|0:0,0:0:0:0:
71,339,45697,2,0,P|66:321|64:304,1,36,2|0,0:1|0:0,0:0:0:0:
0,224,46050,2,0,P|4:206|10:189,1,36,2|0,0:0|0:0,0:0:0:0:
192,48,46403,5,2,0:0:0:0:
192,48,46756,2,0,P|206:59|218:72,1,36,0|0,0:0|0:0,0:0:0:0:
403,135,47109,2,0,P|385:133|367:133,1,36,2|0,0:1|0:0,0:0:0:0:
288,160,47462,2,0,P|271:167|256:176,1,36,2|0,0:0|0:0,0:0:0:0:
176,320,47815,5,2,0:0:0:0:
176,320,48168,2,0,P|192:327|207:336,1,36,0|0,0:0|0:0,0:0:0:0:
389,262,48521,2,0,P|378:277|369:293,1,36,2|0,0:1|0:0,0:0:0:0:
304,336,48874,2,0,P|301:353|302:371,1,36,2|0,0:0|0:0,0:0:0:0:
496,208,49227,5,2,0:0:0:0:
496,208,49580,2,0,P|498:190|497:172,1,36,0|0,0:0|0:0,0:0:0:0:
336,144,49933,2,0,P|347:129|360:117,2,36,2|2|2,0:1|0:3|0:3,0:0:0:0:
256,192,50462,1,4,0:3:0:0:
96,112,50639,5,4,1:0:0:0:
96,112,50992,2,0,P|117:129|137:149,1,53.9999983520508,2|0,0:0|0:0,0:0:0:0:
144,304,51344,2,0,P|154:278|160:250,1,53.9999983520508,2|0,0:1|0:0,0:0:0:0:
32,240,51697,2,0,P|27:212|18:185,1,53.9999983520508,2|0,0:0|0:0,0:0:0:0:
23,368,52050,5,2,0:0:0:0:
23,368,52403,2,0,P|49:378|76:384,1,53.9999983520508,0|0,0:0|0:0,0:0:0:0:
320,304,52756,2,0,P|302:325|281:344,1,53.9999983520508,2|0,0:1|0:0,0:0:0:0:
416,240,53109,2,0,P|411:267|402:294,1,53.9999983520508,2|0,0:0|0:0,0:0:0:0:
385,37,53462,5,4,0:0:0:0:
385,37,53815,2,0,P|363:19|344:-1,1,53.9999983520508,2|0,0:0|0:0,0:0:0:0:
176,80,54168,2,0,P|186:54|191:26,1,53.9999983520508,2|0,0:1|0:0,0:0:0:0:
32,128,54521,2,0,P|53:110|72:89,1,53.9999983520508,2|0,0:0|0:0,0:0:0:0:
16,256,54874,5,2,0:0:0:0:
16,256,55227,2,0,P|41:266|69:271,1,53.9999983520508,2|0,0:0|0:0,0:0:0:0:
244,344,55580,2,0,P|218:332|194:317,1,53.9999983520508,2|2,0:1|0:3,0:0:0:0:
192,312,55844,1,2,0:3:0:0:
470,68,59109,6,0,P|457:54|402:116,1,135,4|0,1:0|0:0,0:0:0:0:
352,224,60521,2,0,P|339:237|284:175,1,135,2|0,0:0|0:0,0:0:0:0:
224,64,61933,2,0,P|201:39|176:158,1,270,6|0,0:0|0:0,0:0:0:0:
128,352,63344,2,0,P|105:376|124:267,1,404.999987640381,2|0,0:0|0:0,0:0:0:0:
290,351,64756,2,0,P|363:351|220:265,1,540,4|0,0:0|0:0,0:0:0:0:
260,368,66168,6,0,P|265:356|208:264,1,135,2|0,0:0|0:0,0:0:0:0:
144,208,67580,2,0,P|151:218|260:214,1,135,4|0,0:0|0:0,0:0:0:0:
352,128,68992,2,0,P|339:129|287:225,1,135,2|0,0:0|0:0,0:0:0:0:
291,208,70403,6,0,P|284:190|182:182,1,135,4|0,0:0|0:0,0:0:0:0:
139,282,71815,2,0,P|66:277|193:179,1,404.999987640381,4|0,0:0|0:0,0:0:0:0:
238,61,73227,2,0,P|255:42|378:157,1,270,4|0,0:0|0:0,0:0:0:0:
304,192,74639,2,0,P|246:213|378:243,1,404.999987640381,4|0,0:0|0:0,0:0:0:0:
386,283,76050,6,0,P|375:296|320:237,1,135,4|0,0:0|0:0,0:0:0:0:
231,286,77462,2,0,P|225:269|303:251,1,135,4|0,0:0|0:0,0:0:0:0:
384,176,78874,2,0,P|389:159|311:141,1,135,4|0,0:0|0:0,0:0:0:0:
208,64,80286,2,0,P|202:47|280:29,1,135,4|0,0:0|0:0,0:0:0:0:
176,144,81697,6,0,P|153:146|106:111,3,72,4|0|2|0,0:0|0:0|0:0|0:0,0:0:0:0:
69,336,83109,2,0,P|97:317|317:325,1,252,4|0,0:0|0:0,0:0:0:0:
474,281,84521,2,0,P|443:267|340:72,1,252,4|0,0:0|0:0,0:0:0:0:
208,16,85933,2,0,P|210:49|93:236,1,252,4|2,0:0|0:0,0:0:0:0:
101,220,87344,6,0,P|139:200|183:195,1,62.9999980773926,4|0,0:0|0:0,0:0:0:0:
256,208,87697,1,0,0:0:0:0:
325,268,87874,1,0,3:0:0:0:
325,268,87962,1,0,3:0:0:0:
325,268,88050,2,0,P|355:259|382:243,1,62.9999980773926,0|0,3:0|0:0,0:0:0:0:
464,272,88315,1,0,3:0:0:0:
464,272,88403,2,0,P|485:249|500:221,1,62.9999980773926,0|0,3:0|0:0,0:0:0:0:
496,80,88756,1,4,0:0:0:0:
256,32,89109,5,2,0:0:0:0:
160,80,89286,1,0,3:0:0:0:
160,80,89374,1,0,3:0:0:0:
160,80,89462,2,0,P|122:73|86:35,1,62.9999980773926,0|0,3:0|0:0,0:0:0:0:
48,128,89727,1,0,3:0:0:0:
48,128,89815,2,0,P|18:102|6:52,1,62.9999980773926,0|0,3:0|0:0,0:0:0:0:
176,272,90168,5,6,0:0:0:0:
118,295,90521,2,0,P|167:273|202:272,1,62.9999980773926,2|0,0:0|3:0,0:0:0:0:
262,295,90786,1,0,3:0:0:0:
262,295,90874,2,0,P|292:287|320:272,1,62.9999980773926,0|0,3:0|0:0,0:0:0:0:
363,350,91139,1,0,3:0:0:0:
363,350,91227,2,0,P|393:357|420:373,1,62.9999980773926,0|0,3:0|0:0,0:0:0:0:
512,192,91580,1,4,0:0:0:0:
384,48,91933,5,0,0:0:0:0:
256,96,92109,1,0,3:0:0:0:
256,96,92197,1,0,3:0:0:0:
256,96,92286,1,0,3:0:0:0:
336,128,92462,1,0,0:0:0:0:
288,16,92639,1,0,3:0:0:0:
288,16,92815,1,0,0:0:0:0:
156,152,92992,6,0,L|169:181,1,22.5,6|0,3:0|0:0,0:0:0:0:
64,160,93168,2,0,L|77:189,11,22.5,2|0|0|0|0|0|0|0|0|0|0|0,3:0|0:0|0:0|0:0|0:0|0:0|0:0|0:0|0:0|0:0|0:0|0:0,0:0:0:0:
48,144,93697,2,0,L|61:115,12,22.5,0|0|0|0|0|0|0|0|0|0|0|0|0,0:0|0:0|0:0|0:0|0:0|0:0|0:0|0:0|0:0|0:0|0:0|0:0|0:0,0:0:0:0:
0,240,94403,1,2,0:0:0:0:
11,246,94521,1,0,0:0:0:0:
464,352,95109,6,0,L|446:346,1,18,2|2,0:0|0:1,0:0:0:0:
483,89,95815,6,0,P|462:100|437:108,3,38.2500007295609,12|0|0|0,0:0|0:0|0:0|0:0,0:0:0:0:
384,160,96168,1,8,0:0:0:0:
384,160,96256,1,0,0:0:0:0:
384,160,96344,2,0,P|360:159|334:153,1,38.2500007295609,8|0,0:0|0:0,0:0:0:0:
176,96,96521,6,0,P|197:85|222:77,3,38.2500007295609,8|0|0|0,0:0|0:0|0:0|0:0,0:0:0:0:
160,208,96874,1,8,0:0:0:0:
160,208,96962,1,0,0:0:0:0:
160,208,97050,2,0,P|172:187|190:168,1,38.2500007295609,2|0,0:0|0:0,0:0:0:0:
160,320,97227,6,0,P|172:340|179:365,3,38.2500007295609,10|0|0|0,0:0|0:0|0:0|0:0,0:0:0:0:
32,288,97580,1,8,0:0:0:0:
32,288,97668,1,0,0:0:0:0:
32,288,97756,2,0,P|52:299|70:317,1,38.2500007295609,8|0,0:0|0:0,0:0:0:0:
256,256,97933,6,0,P|276:268|301:275,3,38.2500007295609,8|0|0|8,0:0|0:0|0:0|0:0,0:0:0:0:
400,336,98286,1,8,0:0:0:0:
400,336,98374,1,0,0:0:0:0:
400,336,98462,2,0,P|423:336|448:329,1,38.2500007295609,2|0,0:0|0:0,0:0:0:0:
496,160,98639,6,0,P|472:159|447:166,3,38.2500007295609,8|0|0|0,0:0|0:0|0:0|0:0,0:0:0:0:
368,112,98992,1,8,0:0:0:0:
368,112,99080,1,0,0:0:0:0:
368,112,99168,2,0,P|346:123|328:141,1,38.2500007295609,8|0,0:0|0:0,0:0:0:0:
160,160,99344,6,0,P|184:159|209:166,3,38.2500007295609,8|0|0|8,0:0|0:0|0:0|0:0,0:0:0:0:
32,160,99697,1,8,0:0:0:0:
32,160,99786,1,0,0:0:0:0:
32,160,99874,2,0,P|52:147|77:140,1,38.2500007295609,2|0,0:0|0:0,0:0:0:0:
176,272,100050,6,0,P|193:288|206:310,3,38.2500007295609,10|0|0|0,0:0|0:0|0:0|0:0,0:0:0:0:
336,320,100403,1,8,0:0:0:0:
336,320,100492,1,0,0:0:0:0:
336,320,100580,2,0,P|312:325|290:338,1,38.2500007295609,8|0,0:0|0:0,0:0:0:0:
496,304,100756,6,0,P|479:286|457:273,3,38.2500007295609,8|0|0|8,0:0|0:0|0:0|0:0,0:0:0:0:
432,176,101109,1,8,0:0:0:0:
432,176,101197,1,0,0:0:0:0:
432,176,101286,2,0,P|409:168|383:169,1,38.2500007295609,2|0,0:0|0:0,0:0:0:0:
207,59,101462,6,0,P|196:44|181:31,3,38.2500007295609,10|0|0|0,0:0|0:0|0:0|0:0,0:0:0:0:
141,153,101815,1,8,0:0:0:0:
136,140,101903,1,0,0:0:0:0:
127,132,101992,2,0,P|109:129|90:130,1,38.2500007295609,8|0,0:0|0:0,0:0:0:0:
32,272,102168,6,0,P|43:257|52:240,3,38.2500007295609,8|0|0|8,0:0|0:0|0:0|0:0,0:0:0:0:
128,336,102521,1,8,0:0:0:0:
176,320,102609,1,0,0:0:0:0:
208,288,102697,2,0,P|218:271|225:248,1,38.2500007295609,2|0,0:0|0:0,0:0:0:0:
400,272,102874,6,0,P|400:252|394:228,3,38.2500007295609,10|0|0|0,0:0|0:0|0:0|0:0,0:0:0:0:
320,48,103227,1,8,0:0:0:0:
320,96,103315,1,0,0:0:0:0:
336,128,103403,2,0,P|352:138|376:145,1,38.2500007295609,8|0,0:0|0:0,0:0:0:0:
464,144,103580,6,0,P|482:144|507:138,1,38.2500007295609,8|0,0:0|0:0,0:0:0:0:
480,48,103756,2,0,P|461:47|436:53,1,38.2500007295609,0|8,0:0|0:0,0:0:0:0:
240,144,103933,1,8,0:0:0:0:
240,144,104021,1,0,0:0:0:0:
240,144,104109,2,0,P|221:144|196:138,1,38.2500007295609,2|0,0:0|0:0,0:0:0:0:
16,192,104286,6,0,P|25:175|43:156,3,38.2500007295609,10|0|0|0,0:0|0:0|0:0|0:0,0:0:0:0:
144,240,104639,2,0,P|161:233|187:229,3,38.2500007295609,8|0|8|0,0:0|0:0|0:0|0:0,0:0:0:0:
288,320,104992,2,0,P|306:322|330:332,3,38.2500007295609,8|0|8|0,0:0|0:0|0:0|0:0,0:0:0:0:
416,240,105344,5,8,0:0:0:0:
416,240,105433,1,0,0:0:0:0:
416,240,105521,2,0,P|427:255|437:279,1,38.2500007295609,8|0,0:0|0:0,0:0:0:0:
416,112,105697,5,8,0:0:0:0:
416,112,105786,1,0,0:0:0:0:
416,112,105874,2,0,P|433:119|453:135,1,38.2500007295609,8|0,0:0|0:0,0:0:0:0:
304,32,106050,5,8,0:0:0:0:
304,32,106139,1,0,0:0:0:0:
304,32,106227,2,0,P|322:30|348:33,1,38.2500007295609,8|0,0:0|0:0,0:0:0:0:
208,80,106403,1,14,3:0:0:0:
256,336,107109,5,4,1:0:0:0:
231,342,107197,1,0,0:0:0:0:
218,361,107286,1,0,0:0:0:0:
80,288,107462,5,8,0:0:0:0:
98,305,107550,1,0,0:0:0:0:
100,328,107639,2,0,P|72:321|36:292,1,56.25,2|0,0:0|0:0,0:0:0:0:
96,192,107815,2,0,P|75:171|58:128,3,56.25,0|0|4|8,1:0|0:0|3:0|0:0,0:0:0:0:
176,96,108168,1,8,0:0:0:0:
176,96,108256,1,0,0:0:0:0:
176,96,108344,2,0,P|168:68|175:22,1,56.25,2|0,0:0|0:0,0:0:0:0:
368,128,108521,6,0,P|348:148|324:162,3,56.25,14|0|0|8,0:0|0:0|0:0|0:0,0:0:0:0:
480,160,108874,1,8,0:0:0:0:
480,160,108962,1,0,0:0:0:0:
480,160,109050,2,0,P|472:132|472:104,1,56.25,2|0,0:0|0:0,0:0:0:0:
384,240,109227,2,0,P|411:247|435:261,3,56.25,0|0|4|8,1:0|0:0|3:0|0:0,0:0:0:0:
256,320,109580,1,8,0:0:0:0:
283,312,109668,1,0,0:0:0:0:
311,312,109756,1,2,0:0:0:0:
80,192,109933,6,0,P|63:168|53:130,3,56.25,4|0|0|8,1:0|0:0|0:0|0:0,0:0:0:0:
192,224,110286,1,8,0:0:0:0:
192,224,110374,1,0,0:0:0:0:
192,224,110462,2,0,P|189:194|199:156,1,56.25,4|0,3:0|0:0,0:0:0:0:
304,96,110639,2,0,P|330:105|353:121,3,56.25,0|0|0|8,1:0|0:0|0:0|0:0,0:0:0:0:
434,180,110992,5,8,0:0:0:0:
448,176,111080,1,0,0:0:0:0:
464,176,111168,2,0,P|482:197|493:222,1,56.25,2|0,0:0|0:0,0:0:0:0:
416,304,111344,2,0,P|413:331|403:357,3,56.25,14|0|0|8,0:0|0:0|0:0|0:0,0:0:0:0:
225,263,111697,5,8,0:0:0:0:
240,256,111786,1,0,0:0:0:0:
256,256,111874,2,0,P|278:271|295:292,1,56.25,2|0,0:0|0:0,0:0:0:0:
128,368,112050,2,0,P|152:356|179:351,3,56.25,0|0|4|8,1:0|0:0|3:0|0:0,0:0:0:0:
32,352,112403,1,2,3:0:0:0:
105,20,112756,6,0,P|98:47|81:81,3,56.25,4|0|0|8,1:0|0:0|0:0|0:0,0:0:0:0:
215,49,113109,1,8,0:0:0:0:
224,74,113197,1,0,0:0:0:0:
224,96,113285,2,0,P|208:117|179:145,1,56.25,2|0,0:0|0:0,0:0:0:0:
352,176,113462,2,0,P|328:190|292:206,3,56.25,0|0|4|8,1:0|0:0|3:0|0:0,0:0:0:0:
432,288,113815,5,8,0:0:0:0:
432,288,113903,1,0,0:0:0:0:
432,288,113992,2,0,P|436:260|446:222,1,56.25,2|0,0:0|0:0,0:0:0:0:
288,304,114168,2,0,P|309:321|337:349,3,56.25,14|0|0|8,0:0|0:0|0:0|0:0,0:0:0:0:
144,336,114521,1,8,0:0:0:0:
144,336,114609,1,0,0:0:0:0:
144,336,114697,2,0,P|171:340|209:350,1,56.25,2|0,0:0|0:0,0:0:0:0:
80,256,114874,6,0,P|62:277|34:305,2,56.25,0|0|4,1:0|0:0|3:0,0:0:0:0:
148,183,115139,1,8,0:0:0:0:
148,183,115227,2,0,P|155:155|160:128,2,56.25,8|0|2,0:0|0:0|0:0,0:0:0:0:
48,128,115492,5,0,0:0:0:0:
48,128,115580,2,0,P|40:100|30:74,3,56.25,4|0|0|8,1:0|0:0|0:0|0:0,0:0:0:0:
126,50,115933,1,8,0:0:0:0:
126,50,116021,1,0,0:0:0:0:
126,50,116109,2,0,P|139:25|150:0,1,56.25,4|0,3:0|0:0,0:0:0:0:
240,48,116286,2,0,P|267:40|293:30,3,56.25,0|0|0|8,1:0|0:0|0:0|0:0,0:0:0:0:
368,112,116639,5,8,0:0:0:0:
394,120,116727,1,0,0:0:0:0:
421,130,116815,2,0,P|448:122|474:112,1,56.25,6|0,3:0|0:0,0:0:0:0:
384,240,116992,2,0,P|357:232|331:222,3,56.25,14|0|0|8,0:0|0:0|0:0|0:0,0:0:0:0:
496,368,117344,5,8,0:0:0:0:
469,359,117432,1,0,0:0:0:0:
443,350,117520,2,0,P|416:358|390:368,1,56.25,2|0,0:0|0:0,0:0:0:0:
256,336,117697,2,0,P|228:329|201:325,3,56.25,0|0|2|0,1:0|0:0|0:0|0:0,0:0:0:0:
80,352,118050,5,4,3:0:0:0:
64,320,118139,1,4,0:3:0:0:
64,288,118227,1,8,3:0:0:0:
80,256,118315,1,8,0:3:0:0:
112,240,118403,1,6,1:3:0:0:
480,48,118756,6,0,L|288:80,1,161.999995056153,6|0,1:0|0:0,0:0:0:0:
240,128,119021,1,0,0:0:0:0:
240,128,119109,2,0,L|144:112,2,80.9999975280763,0|0|6,1:0|0:0|1:0,0:0:0:0:
336,176,119374,1,0,0:0:0:0:
336,176,119462,2,0,L|432:160,2,80.9999975280763,8|0|2,0:0|0:0|0:0,0:0:0:0:
208,208,119727,1,0,0:0:0:0:
208,208,119815,2,0,L|112:192,2,80.9999975280763,14|0|0,0:0|0:0|0:0,0:0:0:0:
320,272,120080,5,0,0:0:0:0:
320,272,120168,2,0,L|416:256,1,80.9999975280763,8|0,0:0|0:0,0:0:0:0:
400,336,120344,2,0,L|304:352,1,80.9999975280763,12|0,3:0|0:0,0:0:0:0:
160,352,120521,6,0,L|-48:320,1,161.999995056153,0|4,1:0|3:0,0:0:0:0:
32,240,120786,1,0,0:0:0:0:
32,240,120874,2,0,L|16:320,1,80.9999975280763,8|0,0:0|0:0,0:0:0:0:
112,288,121050,2,0,L|128:208,1,80.9999975280763,8|8,0:0|0:0,0:0:0:0:
48,128,121227,6,0,L|32:48,3,80.9999975280763,6|0|2|0,1:0|0:0|0:0|0:0,0:0:0:0:
128,112,121580,1,8,0:0:0:0:
128,112,121668,1,0,0:0:0:0:
128,112,121756,2,0,L|112:32,1,80.9999975280763,4|0,3:0|0:0,0:0:0:0:
208,96,121933,2,0,L|192:16,3,80.9999975280763,0|0|8|0,1:0|0:0|0:0|0:0,0:0:0:0:
288,80,122286,6,0,L|272:0,1,80.9999975280763,8|0,0:0|0:0,0:0:0:0:
384,80,122462,2,0,L|400:160,1,80.9999975280763,8|8,0:0|0:0,0:0:0:0:
480,224,122639,2,0,L|453:301,3,80.9999975280763,6|0|8|0,0:0|0:0|0:0|0:0,0:0:0:0:
336,352,122992,2,0,L|362:274,3,80.9999975280763,8|0|8|0,0:0|0:0|0:0|0:0,0:0:0:0:
288,224,123344,1,0,1:0:0:0:
65,343,123521,5,0,0:0:0:0:
96,352,123609,1,4,3:0:0:0:
126,360,123697,1,0,1:0:0:0:
16,272,123874,1,4,3:0:0:0:
144,112,124050,6,0,L|341:130,1,161.999995056153,6|8,1:0|0:0,0:0:0:0:
469,77,124315,1,0,0:0:0:0:
469,77,124403,2,0,L|352:96,2,80.9999975280763,8|0|8,0:0|0:0|0:0,0:0:0:0:
480,160,124668,1,0,0:0:0:0:
480,160,124756,2,0,L|363:179,2,80.9999975280763,0|0|6,1:0|0:0|1:0,0:0:0:0:
336,256,125021,1,0,0:0:0:0:
336,256,125109,2,0,L|453:275,2,80.9999975280763,10|0|8,0:0|0:0|0:0,0:0:0:0:
304,336,125374,1,0,0:0:0:0:
304,336,125462,2,0,L|421:355,2,80.9999975280763,14|0|8,0:0|0:0|0:0,0:0:0:0:
176,288,125727,5,0,0:0:0:0:
176,288,125815,2,0,L|59:307,2,80.9999975280763,8|0|8,0:0|0:0|0:0,0:0:0:0:
128,208,126080,1,0,0:0:0:0:
128,208,126168,2,0,L|11:227,1,80.9999975280763,0|0,1:0|0:0,0:0:0:0:
128,112,126344,2,0,L|245:131,1,80.9999975280763,6|0,1:0|0:0,0:0:0:0:
96,32,126521,2,0,L|-21:51,3,80.9999975280763,8|0|8|8,0:0|0:0|0:0|0:0,0:0:0:0:
224,112,126874,6,0,L|448:96,1,161.999995056153,6|2,1:0|0:0,0:0:0:0:
480,192,127139,1,0,0:0:0:0:
480,192,127227,2,0,L|256:208,1,161.999995056153,8|6,0:0|3:0,0:0:0:0:
176,304,127492,5,0,0:0:0:0:
176,304,127580,2,0,L|375:327,1,180,0|2,1:0|0:0,0:0:0:0:
324,333,127844,1,8,0:0:0:0:
324,333,127933,2,0,L|212:321,1,90,8|0,0:0|0:0,0:0:0:0:
128,272,128109,2,0,L|15:259,1,90,4|0,3:0|0:0,0:0:0:0:
30,151,128286,6,0,L|207:177,1,144,14|2,1:0|0:0,0:0:0:0:
126,130,128550,1,0,0:0:0:0:
126,130,128639,2,0,L|14:116,1,72,8|0,0:0|0:0,0:0:0:0:
224,48,128815,1,8,0:0:0:0:
224,48,128903,1,8,0:0:0:0:
224,48,128992,2,0,L|336:62,1,72,0|0,1:0|0:0,0:0:0:0:
384,112,129168,2,0,L|447:119,2,36,2|0|0,1:0|0:0|0:0,0:0:0:0:
176,208,129344,6,0,L|512:240,1,323.999990112305,4|0,0:0|0:0,0:0:0:0:
498,238,129697,6,0,P|468:240|404:327,7,144,6|0|0|0|0|0|0|0,0:0|0:0|0:0|0:0|0:0|0:0|0:0|0:0,0:0:0:0:
304,352,139756,6,0,B|263:354|239:378|239:378|190:349|190:349|156:310|149:240,1,225,0|0,0:0|0:0,0:0:0:0:
159,254,140286,5,4,3:0:0:0:
181,241,140374,1,4,3:0:0:0:
200,210,140462,1,2,0:0:0:0:
203,168,140550,1,0,1:0:0:0:
184,138,140639,2,0,B|161:155|161:155|112:161,1,45,0|2,0:0|0:0,0:0:0:0:
48,112,140815,5,2,0:0:0:0:
45,70,140903,1,4,3:0:0:0:
64,40,140992,2,0,B|87:57|87:57|288:32,1,180,4|0,1:0|0:0,0:0:0:0:
256,48,141256,2,0,B|279:31|279:31|480:56,1,180,4|0,1:3|0:0,0:0:0:0:
512,160,141521,5,4,3:0:0:0:
512,160,141609,1,4,3:0:0:0:
512,160,141697,2,0,B|489:143|489:143|240:176,1,225,6|0,1:2|0:0,0:0:0:0:
224,176,141962,2,0,B|352:224|352:224|368:288,1,180,4|0,1:3|0:0,0:0:0:0:
432,288,142227,2,0,B|386:299|386:299|353:338,1,62.9999980773926,4|0,3:0|0:0,0:0:0:0:
192,384,142403,6,0,B|48:352|48:352|0:384,1,180,4|0,1:0|0:0,0:0:0:0:
19,331,142668,2,0,B|163:363|163:363|211:331,1,180,4|0,1:3|0:0,0:0:0:0:
144,240,142933,1,4,3:0:0:0:
144,240,143021,1,4,3:0:0:0:
144,240,143109,2,0,B|112:208|112:208|160:0,1,225,6|0,1:2|0:0,0:0:0:0:
176,16,143374,2,0,B|208:48|208:48|160:256,1,180,4|0,1:3|0:0,0:0:0:0:
185,192,143639,2,0,B|173:245|173:245|185:272,1,62.9999980773926,4|0,3:0|0:0,0:0:0:0:
336,192,143815,6,0,B|496:208|496:208|528:256,1,180,4|0,1:0|0:0,0:0:0:0:
496,272,144080,2,0,B|485:256|485:256|325:240,1,180,4|0,1:3|0:0,0:0:0:0:
270,330,144344,5,4,3:0:0:0:
270,330,144433,1,4,3:0:0:0:
270,330,144521,2,0,B|259:345|259:345|48:368,1,225,6|0,1:2|0:0,0:0:0:0:
16,359,144786,2,0,B|26:343|26:343|238:321,1,180,4|0,1:3|0:0,0:0:0:0:
183,303,145050,2,0,B|177:310|177:310|71:322,1,62.9999980773926,4|0,3:0|0:0,0:0:0:0:
48,160,145227,6,0,B|192:176|192:176|256:144,1,180,4|0,1:0|0:0,0:0:0:0:
240,128,145492,2,0,B|384:112|384:112|448:144,1,180,4|0,1:3|0:0,0:0:0:0:
448,256,145756,5,4,3:0:0:0:
448,256,145844,1,4,3:0:0:0:
448,256,145933,2,0,B|465:221|465:221|446:16,1,225,6|0,1:2|0:0,0:0:0:0:
442,0,146197,2,0,B|424:34|424:34|444:240,1,180,4|0,1:3|0:0,0:0:0:0:
416,160,146462,1,6,3:0:0:0:
336,272,146639,6,0,B|277:260|277:260|170:345,1,180,4|0,1:0|0:0,0:0:0:0:
191,306,146903,2,0,B|145:266|145:266|10:286,1,180,4|0,1:3|0:0,0:0:0:0:
0,176,147168,5,4,3:0:0:0:
0,176,147256,1,4,3:0:0:0:
0,176,147344,2,0,B|45:136|45:136|288:192,1,225,6|0,1:2|0:0,0:0:0:0:
176,112,147609,2,0,B|214:146|214:146|422:98,1,180,4|0,1:3|0:0,0:0:0:0:
336,160,147874,2,0,B|351:146|351:146|435:165,1,62.9999980773926,4|0,3:0|0:0,0:0:0:0:
512,272,148050,6,0,B|480:240|480:240|272:288,1,180,4|0,1:0|0:0,0:0:0:0:
368,336,148315,2,0,B|336:304|336:304|128:352,1,180,4|0,1:3|0:0,0:0:0:0:
16,304,148580,5,4,3:0:0:0:
16,304,148668,1,4,3:0:0:0:
16,304,148756,2,0,B|48:272|48:272|288:320,1,225,6|0,1:2|0:0,0:0:0:0:
192,272,149021,1,0,0:0:0:0:
192,272,149109,1,2,0:1:0:0:
384,112,149462,6,0,B|362:35|362:35|447:61,1,135.000005149842,4|0,1:0|0:0,0:0:0:0:
424,124,149727,2,0,B|481:68|481:68|394:48,1,135.000005149842,4|0,1:3|0:0,0:0:0:0:
256,128,149992,5,4,3:0:0:0:
256,128,150080,1,4,3:0:0:0:
256,128,150168,2,0,B|191:61|191:61|167:161,1,180,2|0,1:0|0:0,0:0:0:0:
103,208,150433,2,0,B|77:118|77:118|176:148,1,180,4|0,1:3|0:0,0:0:0:0:
224,224,150697,1,4,3:0:0:0:
464,349,150874,6,0,B|463:248|463:248|421:372,1,225,6|0,1:0|0:0,0:0:0:0:
369,356,151139,2,0,B|343:258|343:258|416:367,1,225,2|0,1:0|0:0,0:0:0:0:
414,335,151403,1,4,3:0:0:0:
415,307,151492,1,4,3:0:0:0:
415,274,151580,6,0,B|451:182|451:182|424:67|424:67|386:115,1,229.500004377365,2|0,1:0|0:0,0:0:0:0:
411,50,151933,6,0,B|403:40|403:40|376:155|376:155|407:240|407:240|315:228|315:228|211:159,1,405.000015449525,2|0,0:0|0:0,0:0:0:0:
144,144,152286,6,0,L|80:154,1,63,4|0,1:0|0:0,0:0:0:0:
0,128,152992,1,4,1:2:0:0:
352,352,153344,6,0,L|456:337,1,99,4|0,1:0|0:0,0:0:0:0:
272,320,154403,1,4,1:2:0:0:
160,304,154580,5,4,3:0:0:0:
160,304,154668,1,4,3:0:0:0:
48,288,154933,5,4,3:0:0:0:
96,64,155109,6,0,L|112:176,1,90,0|0,1:0|0:0,0:0:0:0:
192,128,155286,2,0,L|179:38,1,90,4|0,1:3|0:0,0:0:0:0:
263,21,155462,6,0,L|275:102,1,80.9999975280763,4|0,1:2|0:0,0:0:0:0:
304,176,155815,1,2,1:0:0:0:
496,320,156168,6,0,L|398:333,1,99,4|0,1:0|0:0,0:0:0:0:
384,320,157227,6,0,B|332:345|332:345|274:339|274:339|231:358|231:358|320:273|320:273|464:240|464:240|464:240|464:240|480:240|480:240|397:74,1,566.999982696534,4|0,1:2|0:0,0:0:0:0:
384,48,157933,6,0,L|320:42,1,63,4|0,1:0|0:0,0:0:0:0:
240,64,158639,1,4,1:2:0:0:
144,304,158992,6,0,L|44:312,1,99,4|0,1:0|0:0,0:0:0:0:
16,304,160050,1,4,1:2:0:0:
112,224,160227,5,4,3:0:0:0:
112,224,160315,1,4,3:0:0:0:
224,240,160580,5,4,3:0:0:0:
480,352,160756,6,0,L|464:240,1,90,0|0,1:0|0:0,0:0:0:0:
416,192,160933,2,0,L|400:80,1,90,4|0,1:3|0:0,0:0:0:0:
320,80,161109,6,0,L|307:-9,1,80.9999975280763,4|0,1:2|0:0,0:0:0:0:
288,16,161462,1,4,1:2:0:0:
0,192,161815,6,0,L|74:209,1,74.2499977340699,4|0,1:0|0:0,0:0:0:0:
144,240,162874,5,4,0:3:0:0:
224,224,163139,5,4,0:3:0:0:
320,240,163403,5,4,0:3:0:0:
496,224,163580,6,0,L|352:256,1,135.000005149842,12|0,1:2|0:0,0:0:0:0:
368,176,163844,2,0,L|512:144,1,135.000005149842,0|0,1:0|0:0,0:0:0:0:
352,64,164109,5,4,0:3:0:0:
352,64,164197,1,4,0:3:0:0:
352,64,164286,2,0,L|176:24,1,153.000002918243,14|0,1:2|0:0,0:0:0:0:
112,96,164550,2,0,L|287:135,1,153.000002918243,0|0,1:0|0:0,0:0:0:0:
279,128,164815,1,4,3:0:0:0:
160,224,164992,6,0,L|-36:266,1,161.999995056153,12|0,1:2|0:0,0:0:0:0:
32,336,165256,2,0,L|228:294,1,161.999995056153,0|0,1:0|0:0,0:0:0:0:
320,256,165521,5,4,3:0:0:0:
320,256,165609,1,4,3:0:0:0:
320,256,165697,2,0,L|540:310,1,170.999995433807,14|0,1:2|0:0,0:0:0:0:
512,224,165962,2,0,L|292:170,1,170.999995433807,0|0,1:0|0:0,0:0:0:0:
336,160,166227,1,4,3:0:0:0:
64,16,166403,6,0,L|96:208,1,180,12|0,1:2|0:0,0:0:0:0:
176,208,166668,2,0,L|144:16,1,180,0|0,1:0|0:0,0:0:0:0:
304,128,166933,5,4,3:0:0:0:
304,128,167021,1,4,3:0:0:0:
304,128,167109,2,0,L|263:368,1,188.999994232178,14|0,1:2|0:0,0:0:0:0:
352,352,167374,2,0,L|392:111,1,188.999994232178,0|0,1:0|0:0,0:0:0:0:
400,144,167639,1,4,3:0:0:0:
208,368,167815,6,0,L|-16:336,1,198.000006042481,14|0,1:2|0:0,0:0:0:0:
16,256,168080,2,0,L|240:288,1,198.000006042481,0|0,1:0|0:0,0:0:0:0:
240,128,168344,5,4,3:0:0:0:
240,128,168433,1,4,3:0:0:0:
240,128,168521,2,0,L|16:160,1,207.000003948212,14|0,1:2|0:0,0:0:0:0:
32,80,168786,1,2,3:0:0:0:
32,80,168874,1,2,3:0:0:0:
208,32,169050,5,0,1:0:0:0:
233,38,169139,1,4,3:0:0:0:
259,45,169227,2,0,L|501:26,1,225,14|0,1:2|0:0,0:0:0:0:
496,112,169492,2,0,L|254:131,1,225,0|0,1:0|0:0,0:0:0:0:
256,240,169756,5,4,3:0:0:0:
256,240,169844,1,4,3:0:0:0:
256,240,169933,2,0,L|14:221,1,243.000000926971,14|0,1:2|0:0,0:0:0:0:
0,304,170197,2,0,L|242:323,1,243.000000926971,0|0,1:0|0:0,0:0:0:0:
272,336,170462,1,4,3:0:0:0:
512,128,170639,6,0,L|272:160,1,180,14|0,1:2|0:0,0:0:0:0:
304,80,170903,2,0,L|544:48,1,180,0|0,1:0|0:0,0:0:0:0:
384,16,171168,1,4,3:0:0:0:
352,32,171256,1,4,3:0:0:0:
320,48,171344,1,14,1:2:0:0:
79,104,171697,6,0,L|85:66,6,22.5,0|0|0|0|0|0|0,3:0|3:0|3:0|3:0|3:0|3:0|3:0,0:0:0:0:
174,101,172050,6,0,B|100:138|100:138|43:210|43:210|91:224|91:224|135:208,1,261.000007965088,4|0,1:0|0:0,0:0:0:0:
136,227,172315,2,0,B|210:190|210:190|267:118|267:118|219:104|219:104|175:120,1,261.000007965088,14|0,1:3|0:0,0:0:0:0:
224,224,172580,1,0,3:0:0:0:
224,224,172668,1,0,3:0:0:0:
224,224,172756,1,2,3:1:0:0:
416,272,173021,6,0,B|450:284|450:284|498:270|498:270|441:198|441:198|367:161,1,261.000007965088,14|0,1:3|0:0,0:0:0:0:
356,176,173286,2,0,B|370:189|370:189|492:124,1,130.500003982544,14|0,3:0|0:0,0:0:0:0:
464,64,173462,1,4,1:0:0:0:
192,48,173727,5,14,1:3:0:0:
192,48,173815,2,0,L|13:26,1,130.500003982544,0|2,0:0|0:0,0:0:0:0:
84,120,173992,2,0,L|186:132,1,67.5000025749208,4|4,3:0|3:0,0:0:0:0:
224,176,174168,1,0,3:0:0:0:
363,197,174344,6,0,B|234:205|234:205|138:290,1,180,2|2,3:2|3:2,0:0:0:0:
112,288,174521,6,0,L|81:281,1,27,2|2,3:2|3:2,0:0:0:0:
58,274,174874,6,0,B|180:208|298:307|269:337|360:437|514:339,1,499.5,6|0,1:0|0:0,0:0:0:0:
506,314,184756,6,0,B|434:242|440:171|518:44|518:44|333:78|360:232|360:232|236:139|264:-14|264:-14|63:88|122:316|189:349|189:349|260:308|253:156|213:133|213:133|160:248|275:342|275:342|281:350|310:234|415:300|415:300|378:389|245:347,1,2132.99993490601,0|0,0:0|0:0,0:0:0:0:
256,192,191815,12,2,197462,0:1:0:0:
128,112,200286,6,0,L|92:102,4,22.5,0|0|0|0|0,0:0|0:0|0:0|0:0|0:0,0:0:0:0:
256,128,201697,6,0,L|252:97,3,26.9999991760254,2|0|0|0,0:0|0:0|0:0|0:0,0:0:0:0:
280,134,202403,2,0,L|311:130,3,26.9999991760254,0|0|0|0,0:0|0:0|0:0|0:0,0:0:0:0:
224,197,203109,2,0,L|228:228,3,26.9999991760254,2|0|0|0,0:0|0:0|0:0|0:0,0:0:0:0:
160,128,203827,2,0,L|129:132,3,26.9999991760254,0|0|0|0,0:0|0:0|0:0|0:0,0:0:0:0:
400,256,204546,5,4,0:0:0:0:
400,256,204726,1,0,0:0:0:0:
400,256,204907,2,0,L|431:252,1,26.9999991760254,2|0,0:0|0:0,0:0:0:0:
352,336,205268,1,0,0:0:0:0:
352,336,205448,1,0,0:0:0:0:
352,336,205630,2,0,L|318:339,1,26.9999991760254,2|0,0:0|0:0,0:0:0:0:
224,368,205991,5,4,0:0:0:0:
224,368,206171,1,0,0:0:0:0:
224,368,206354,2,0,L|192:372,1,26.9999991760254,0|0,0:0|0:0,0:0:0:0:
16,304,206718,1,0,0:0:0:0:
16,304,206900,1,0,0:0:0:0:
16,304,207081,2,0,L|42:297,1,26.9999991760254,0|0,0:0|0:0,0:0:0:0:
131,132,207445,6,0,L|126:101,3,26.9999991760254,4|0|0|0,0:0|0:0|0:0|0:0,0:0:0:0:
315,67,208185,2,0,L|346:62,3,26.9999991760254,0|0|0|0,0:0|0:0|0:0|0:0,0:0:0:0:
304,160,208926,2,0,L|309:191,3,26.9999991760254,4|0|0|0,0:0|0:0|0:0|0:0,0:0:0:0:
256,144,209667,2,0,L|224:149,3,26.9999991760254,0|0|2|0,0:0|0:0|0:0|0:0,0:0:0:0:
448,192,210407,5,4,0:0:0:0:
448,192,210593,1,0,0:0:0:0:
448,192,210779,2,0,L|479:186,1,26.9999991760254,0|0,0:0|0:0,0:0:0:0:
416,288,211152,1,2,0:0:0:0:
416,288,211338,1,0,0:0:0:0:
416,288,211524,2,0,L|384:293,1,26.9999991760254,0|0,0:0|0:0,0:0:0:0:
256,352,211897,5,4,0:0:0:0:
256,352,212085,1,0,0:0:0:0:
256,352,212274,2,0,L|227:346,1,26.9999991760254,0|0,0:0|0:0,0:0:0:0:
32,288,212651,1,2,0:0:0:0:
32,288,212840,1,0,0:0:0:0:
32,288,213029,2,0,L|-3:300,1,26.9999991760254,0|0,0:0|0:0,0:0:0:0:
256,144,213406,6,0,L|291:156,3,36,4|0|0|0,0:0|0:0|0:0|0:0,0:0:0:0:
112,48,214175,2,0,L|77:36,3,36,2|0|0|0,0:0|0:0|0:0|0:0,0:0:0:0:
320,64,214944,1,4,0:0:0:0:
320,64,215136,1,0,0:0:0:0:
320,64,215329,2,0,L|346:-2,1,53.9999983520508,0|0,0:0|0:0,0:0:0:0:
480,192,215713,1,2,0:0:0:0:
480,192,215905,1,0,0:0:0:0:
480,192,216098,2,0,L|453:258,1,53.9999983520508,0|0,0:0|0:0,0:0:0:0:
256,288,216482,6,0,L|280:348,3,53.9999983520508,4|0|2|0,0:0|0:0|0:0|0:0,0:0:0:0:
144,288,217261,2,0,L|169:307,3,26.9999991760254,2|0|2|0,0:0|0:0|0:0|0:0,0:0:0:0:
32,304,218040,6,0,L|80:320,1,36,4|0,0:0|0:0,0:0:0:0:
32,192,218432,2,0,L|54:237,1,36,2|0,0:0|0:0,0:0:0:0:
112,112,218824,2,0,L|95:160,1,36,2|0,0:0|0:0,0:0:0:0:
224,96,219216,2,0,L|178:118,1,36,2|0,0:0|0:0,0:0:0:0:
416,192,219608,5,4,0:0:0:0:
416,192,219806,1,0,0:0:0:0:
416,192,220005,2,0,L|419:141,1,36,2|0,0:0|0:0,0:0:0:0:
320,256,220402,2,0,L|347:213,1,36,2|0,0:0|0:0,0:0:0:0:
208,288,220800,2,0,L|253:265,1,36,2|0,0:0|0:0,0:0:0:0:
32,192,221197,5,4,0:0:0:0:
32,192,221398,1,0,0:0:0:0:
32,192,221599,2,0,L|28:242,1,36,2|0,0:0|0:0,0:0:0:0:
144,144,222002,2,0,L|106:177,3,36,2|0|2|0,0:0|0:0|0:0|0:0,0:0:0:0:
400,32,222807,6,0,L|448:48,3,36,4|0|2|0,0:0|0:0|0:0|0:0,0:0:0:0:
460,125,223617,2,0,L|494:163,3,36,2|0|2|0,0:0|0:0|0:0|0:0,0:0:0:0:
384,320,224428,6,0,L|400:272,1,36,4|0,0:0|0:0,0:0:0:0:
288,256,224836,2,0,L|277:206,1,36,2|0,0:0|0:0,0:0:0:0:
192,256,225244,2,0,L|158:218,1,36,2|0,0:0|0:0,0:0:0:0:
128,288,225652,2,0,L|79:271,1,36,2|0,0:0|0:0,0:0:0:0:
48,320,226060,1,2,0:0:0:0:
16,192,226265,6,0,L|22:173,2,13.4999995880127,0|0|2,0:0|0:0|0:0,0:0:0:0:
64,80,226676,2,0,L|70:99,2,13.4999995880127,2|0|0,0:0|0:0|0:0,0:0:0:0:
208,192,226984,1,0,0:0:0:0:
208,192,227087,2,0,L|214:173,1,13.4999995880127,2|0,0:0|0:0,0:0:0:0:
176,32,227292,5,2,0:0:0:0:
256,64,227714,1,2,0:0:0:0:
448,16,228139,1,2,0:0:0:0:
462,21,228651,1,6,0:0:0:0:
