osu file format v14

[General]
AudioFilename: audio.mp3
AudioLeadIn: 0
PreviewTime: 107070
Countdown: 0
SampleSet: Soft
StackLeniency: 0.7
Mode: 3
LetterboxInBreaks: 0
SpecialStyle: 0
WidescreenStoryboard: 0

[Editor]
DistanceSpacing: 0.9
BeatDivisor: 4
GridSize: 32
TimelineZoom: 2.95

[Metadata]
Title:data corruption symphony
TitleUnicode:data corruption symphony
Artist:sakuraburst
ArtistUnicode:sakuraburst
Creator:FAMoss
Version:master machine
Source:
Tags:sylvir deconstructing nature featured artist fa mappers' guild mg electronic instrumental keysounds piano melodic glitch edm dubstep orchestral drum and bass reverb dnb dance music windows 7 10
BeatmapID:2711840
BeatmapSetID:1308099

[Difficulty]
HPDrainRate:8.8
CircleSize:4
OverallDifficulty:7.2
ApproachRate:5
SliderMultiplier:1.4
SliderTickRate:1

[Events]
//Background and Video events
0,0,"BG.jpg",0,0
//Break Periods
2,175250,196262
//Storyboard Layer 0 (Background)
//Storyboard Layer 1 (Fail)
//Storyboard Layer 2 (Pass)
//Storyboard Layer 3 (Foreground)
//Storyboard Layer 4 (Overlay)
//Storyboard Sound Samples
Sample,98992,0,"Windows Navigation Start.wav",100
Sample,99168,0,"Windows Navigation Start.wav",100
Sample,99256,0,"Windows Navigation Start.wav",100
Sample,99344,0,"Windows Navigation Start.wav",100
Sample,99697,0,"Windows Navigation Start.wav",100
Sample,100050,0,"Windows Navigation Start.wav",100
Sample,100403,0,"Windows Navigation Start.wav",100
Sample,100580,0,"Windows Navigation Start.wav",100
Sample,100668,0,"Windows Navigation Start.wav",100
Sample,100756,0,"Windows Navigation Start.wav",100
Sample,101109,0,"Windows Navigation Start.wav",100
Sample,101286,0,"Windows Navigation Start.wav",100
Sample,101815,0,"Windows Navigation Start.wav",100
Sample,101903,0,"Windows Navigation Start.wav",100
Sample,102080,0,"Windows Navigation Start.wav",100
Sample,102168,0,"Windows Navigation Start.wav",100
Sample,102521,0,"Windows Navigation Start.wav",100
Sample,102697,0,"Windows Navigation Start.wav",100
Sample,102874,0,"Windows Navigation Start.wav",100
Sample,103227,0,"Windows Navigation Start.wav",100
Sample,103315,0,"Windows Navigation Start.wav",100
Sample,103492,0,"Windows Navigation Start.wav",100
Sample,103580,0,"Windows Navigation Start.wav",100
Sample,103933,0,"Windows Navigation Start.wav",100
Sample,104109,0,"Windows Navigation Start.wav",100
Sample,104639,0,"Windows Navigation Start.wav",100
Sample,104727,0,"Windows Navigation Start.wav",100
Sample,104903,0,"Windows Navigation Start.wav",100
Sample,104992,0,"Windows Navigation Start.wav",100
Sample,105344,0,"Windows Navigation Start.wav",100
Sample,105521,0,"Windows Navigation Start.wav",100
Sample,105697,0,"Windows Navigation Start.wav",100
Sample,106050,0,"Windows Navigation Start.wav",100
Sample,106139,0,"Windows Navigation Start.wav",100
Sample,106315,0,"Windows Navigation Start.wav",100
Sample,109933,0,"Windows Navigation Start.wav",100
Sample,112756,0,"Windows Navigation Start.wav",100
Sample,116992,0,"Windows Navigation Start.wav",100
Sample,121227,0,"Windows Navigation Start.wav",100
Sample,126874,0,"clap02_edited.wav",70
Sample,128286,0,"Windows Navigation Start.wav",100
Sample,149639,0,"Cymatics - 808 5 - E.wav",100
Sample,149903,0,"Cymatics - 808 5 - E.wav",100
Sample,150344,0,"Cymatics - 808 5 - E.wav",100
Sample,150609,0,"Cymatics - 808 5 - E.wav",100
Sample,172227,0,"Cymatics - 808 5 - E.wav",100
Sample,172492,0,"Cymatics - 808 5 - E.wav",100
Sample,173109,0,"Cymatics - 808 5 - E.wav",100
Sample,173639,0,"Cymatics - 808 5 - E.wav",100
Sample,200550,0,"Windows 7 Exclamation.wav",100
Sample,214175,0,"G4S_s.wav",70

[TimingPoints]
13941,352.941176470588,4,2,1,50,1,0
39345,352.941176470588,4,2,1,50,1,0
107109,-100,4,2,1,50,0,1
129697,-100,4,2,1,50,0,0
140992,-100,4,2,1,50,0,1
151580,-100,4,2,1,50,0,0
152286,-100,4,2,1,50,0,1
162874,-100,4,2,1,50,0,0
163580,-100,4,2,1,50,0,1
174874,-100,4,2,1,50,0,0
203109,359.281437125748,4,2,1,50,1,0
203109,-98.2353,4,2,1,50,0,0
204546,361.44578313253,4,2,1,50,1,0
204546,-97.6471,4,2,1,50,0,0
205991,363.636363636364,4,2,1,50,1,0
205991,-97.0588,4,2,1,50,0,0
207445,370.37037037037,4,2,1,50,1,0
207445,-95.2941,4,2,1,50,0,0
210407,372.670807453416,4,2,1,50,1,0
210407,-94.7059,4,2,1,50,0,0
211897,377.358490566038,4,2,1,50,1,0
211897,-93.5294,4,2,1,50,0,0
213406,384.615384615385,4,2,1,50,1,0
213406,-91.7647,4,2,1,50,0,0
216482,389.61038961039,4,2,1,50,1,0
216482,-90.5882,4,2,1,50,0,0
218040,392.156862745098,4,2,1,50,1,0
218040,-90,4,2,1,50,0,0
219608,397.350993377483,4,2,1,50,1,0
219608,-88.8235,4,2,1,50,0,0
221197,402.684563758389,4,2,1,50,1,0
221197,-87.6471,4,2,1,50,0,0
222807,405.405405405405,4,2,1,50,1,0
222807,-87.0588,4,2,1,50,0,0
224428,408.163265306122,4,2,1,50,1,0
224428,-86.4706,4,2,1,50,0,0
226060,410.958904109589,4,2,1,50,1,0
226060,-85.8824,4,2,1,50,0,0
227292,422.535211267606,4,2,1,50,1,0
227292,-83.5294,4,2,1,50,0,0
227714,425.531914893617,4,2,1,50,1,0
227714,-82.9412,4,2,1,50,0,0
228139,512.820512820513,4,2,1,50,1,0
228139,-68.8235,4,2,1,50,0,0

[HitObjects]
64,192,13941,128,2,14293:0:0:0:0:
192,192,13941,1,0,0:0:0:0:
448,192,13941,128,0,19588:0:0:0:0:
320,192,14293,128,0,14646:0:0:0:0:
64,192,14646,128,0,14999:0:0:0:0:
320,192,14999,128,0,18176:0:0:0:0:
64,192,19588,128,0,20205:0:0:0:0:
320,192,20205,128,0,20382:0:0:0:0:
64,192,20382,1,0,0:0:0:0:
192,192,20470,128,0,20735:0:0:0:0:
192,192,20823,128,0,20911:0:0:0:0:
192,192,20999,128,0,21529:0:0:0:0:
448,192,21617,1,0,0:0:0:0:
320,192,21705,1,0,0:0:0:0:
64,192,21793,128,0,22058:0:0:0:0:
192,192,22146,128,0,22323:0:0:0:0:
448,192,22411,128,0,22764:0:0:0:0:
448,192,22896,128,0,25014:0:0:0:0:
64,192,25014,128,0,25235:0:0:0:0:
448,192,25235,128,0,32735:0:0:0:0:
192,192,32735,128,0,32823:0:0:0:0:
448,192,32823,128,0,33352:0:0:0:0:
64,192,33352,128,0,33441:0:0:0:0:
448,192,33441,128,0,33970:0:0:0:0:
192,192,33970,128,0,34102:0:0:0:0:
320,192,34102,128,0,34235:0:0:0:0:
192,192,34235,128,0,34323:0:0:0:0:
448,192,34323,128,0,34676:0:0:0:0:
64,192,34676,128,0,34764:0:0:0:0:
448,192,34764,128,0,35117:0:0:0:0:
192,192,35117,128,0,35205:0:0:0:0:
448,192,35205,128,0,35470:0:0:0:0:
64,192,35470,128,0,35646:0:0:0:0:
448,192,35646,128,0,35999:0:0:0:0:
64,192,35999,128,0,36176:0:0:0:0:
448,192,36176,128,0,36440:0:0:0:0:
320,192,36235,128,0,36440:0:0:0:0:
192,192,36293,128,0,36440:0:0:0:0:
64,192,36352,128,0,36440:0:0:0:0:
192,192,36529,128,0,38514:0:0:0:0:
320,192,38514,1,0,0:0:0:0:
64,192,38558,1,0,0:0:0:0:
448,192,38646,1,0,0:0:0:0:
192,192,38955,1,0,0:0:0:0:
448,192,39043,1,0,0:0:0:0:
64,192,39220,1,0,0:0:0:0:
320,192,39345,1,0,0:0:0:70:D6S_s.wav
448,192,39345,1,0,0:0:0:0:
192,192,39521,1,0,0:0:0:70:C#6S_Db6S_s.wav
448,192,39697,1,0,0:0:0:70:A5S_s.wav
64,192,39874,1,0,0:0:0:70:F#5S_Gb5S_s.wav
320,192,40050,1,0,0:0:0:70:E5S_s.wav
64,192,40227,1,0,0:0:0:70:A5S_s.wav
192,192,40403,1,0,0:0:0:70:E6S_s.wav
448,192,40580,1,0,0:0:0:70:F#6S_Gb6S_s.wav
320,192,40756,1,0,0:0:0:70:D6S_s.wav
448,192,40756,1,0,0:0:0:0:
192,192,40933,1,0,0:0:0:70:C#6S_Db6S_s.wav
448,192,41109,1,0,0:0:0:70:A5S_s.wav
64,192,41286,1,0,0:0:0:70:F#5S_Gb5S_s.wav
320,192,41462,1,0,0:0:0:70:E5S_s.wav
64,192,41639,1,0,0:0:0:70:A5S_s.wav
192,192,41815,1,0,0:0:0:70:E6S_s.wav
448,192,41992,1,0,0:0:0:70:F#6S_Gb6S_s.wav
320,192,42168,1,0,0:0:0:70:D6S_s.wav
448,192,42168,1,0,0:0:0:0:
192,192,42345,1,0,0:0:0:70:C#6S_Db6S_s.wav
448,192,42521,1,0,0:0:0:70:A5S_s.wav
64,192,42697,1,0,0:0:0:70:F#5S_Gb5S_s.wav
320,192,42874,1,0,0:0:0:70:E5S_s.wav
64,192,43050,1,0,0:0:0:70:A5S_s.wav
192,192,43227,1,0,0:0:0:70:E6S_s.wav
448,192,43403,1,0,0:0:0:70:F#6S_Gb6S_s.wav
320,192,43580,1,0,0:0:0:70:D6S_s.wav
448,192,43580,1,0,0:0:0:0:
192,192,43756,1,0,0:0:0:70:C#6S_Db6S_s.wav
448,192,43933,1,0,0:0:0:70:A5S_s.wav
64,192,44109,1,0,0:0:0:70:F#5S_Gb5S_s.wav
320,192,44286,1,0,0:0:0:70:E5S_s.wav
64,192,44462,1,0,0:0:0:70:A5S_s.wav
192,192,44639,1,0,0:0:0:70:E6S_s.wav
448,192,44815,1,0,0:0:0:70:F#6S_Gb6S_s.wav
64,192,44992,1,0,0:0:0:70:D6S_s.wav
192,192,44992,1,0,0:0:0:0:
320,192,45168,1,0,0:0:0:70:C#6S_Db6S_s.wav
64,192,45345,1,0,0:0:0:70:A5S_s.wav
448,192,45521,1,0,0:0:0:70:F#5S_Gb5S_s.wav
64,192,45697,1,0,0:0:0:70:E5S_s.wav
192,192,45697,1,0,0:0:0:100:Windows Ding.wav
448,192,45874,1,0,0:0:0:70:A5S_s.wav
320,192,46050,1,0,0:0:0:70:E6S_s.wav
64,192,46227,1,0,0:0:0:70:F#6S_Gb6S_s.wav
64,192,46403,1,0,0:0:0:70:D6S_s.wav
192,192,46403,1,0,0:0:0:0:
320,192,46580,1,0,0:0:0:70:C#6S_Db6S_s.wav
64,192,46756,1,0,0:0:0:70:A5S_s.wav
448,192,46933,1,0,0:0:0:70:F#5S_Gb5S_s.wav
64,192,47109,1,0,0:0:0:70:E5S_s.wav
192,192,47109,1,0,0:0:0:100:Windows Ding.wav
448,192,47286,1,0,0:0:0:70:A5S_s.wav
320,192,47462,1,0,0:0:0:70:E6S_s.wav
64,192,47639,1,0,0:0:0:70:F#6S_Gb6S_s.wav
192,192,47815,1,0,0:0:0:70:D6S_s.wav
64,192,47815,1,0,0:0:0:0:
320,192,47992,1,0,0:0:0:70:C#6S_Db6S_s.wav
64,192,48168,1,0,0:0:0:70:A5S_s.wav
448,192,48344,1,0,0:0:0:70:F#5S_Gb5S_s.wav
64,192,48521,1,0,0:0:0:70:E5S_s.wav
192,192,48521,1,0,0:0:0:100:Windows Ding.wav
448,192,48697,1,0,0:0:0:70:A5S_s.wav
320,192,48874,1,0,0:0:0:70:E6S_s.wav
64,192,49050,1,0,0:0:0:70:F#6S_Gb6S_s.wav
64,192,49227,1,0,0:0:0:70:D6S_s.wav
192,192,49227,1,0,0:0:0:0:
320,192,49403,1,0,0:0:0:70:C#6S_Db6S_s.wav
64,192,49580,1,0,0:0:0:70:A5S_s.wav
448,192,49756,1,0,0:0:0:70:F#5S_Gb5S_s.wav
64,192,49933,1,0,0:0:0:70:E5S_s.wav
192,192,49933,1,0,0:0:0:100:Windows Ding.wav
320,192,50109,128,0,50286:0:0:0:100:Windows Logon Sound.wav
192,192,50286,128,0,50462:0:0:0:0:
64,192,50462,1,0,0:0:0:40:LR_Drum Barrel Finish.wav
448,192,50462,1,0,0:0:0:0:
320,192,50639,1,0,0:0:0:70:D6S_s.wav
448,192,50639,1,0,0:0:0:40:LR_Drum Barrel Finish.wav
192,192,50815,1,0,0:0:0:70:C#6S_Db6S_s.wav
448,192,50992,1,0,0:0:0:70:A5S_s.wav
64,192,51168,1,0,0:0:0:70:F#5S_Gb5S_s.wav
320,192,51344,1,0,0:0:0:70:E5S_s.wav
448,192,51344,1,0,0:0:0:100:Windows Ding.wav
64,192,51521,1,0,0:0:0:70:A5S_s.wav
192,192,51697,1,0,0:0:0:70:E6S_s.wav
448,192,51874,1,0,0:0:0:70:F#6S_Gb6S_s.wav
320,192,52050,1,0,0:0:0:70:D6S_s.wav
448,192,52050,1,0,0:0:0:0:
192,192,52227,1,0,0:0:0:70:C#6S_Db6S_s.wav
448,192,52403,1,0,0:0:0:70:A5S_s.wav
64,192,52580,1,0,0:0:0:70:F#5S_Gb5S_s.wav
320,192,52756,1,0,0:0:0:70:E5S_s.wav
448,192,52756,1,0,0:0:0:100:Windows Ding.wav
64,192,52933,1,0,0:0:0:70:A5S_s.wav
192,192,53109,1,0,0:0:0:70:E6S_s.wav
448,192,53286,1,0,0:0:0:70:F#6S_Gb6S_s.wav
320,192,53462,1,0,0:0:0:70:D6S_s.wav
448,192,53462,1,0,0:0:0:0:
192,192,53639,1,0,0:0:0:70:C#6S_Db6S_s.wav
448,192,53815,1,0,0:0:0:70:A5S_s.wav
64,192,53992,1,0,0:0:0:70:F#5S_Gb5S_s.wav
320,192,54168,1,0,0:0:0:70:E5S_s.wav
448,192,54168,1,0,0:0:0:100:Windows Ding.wav
64,192,54344,1,0,0:0:0:70:A5S_s.wav
192,192,54521,1,0,0:0:0:70:E6S_s.wav
448,192,54697,1,0,0:0:0:70:F#6S_Gb6S_s.wav
320,192,54874,1,0,0:0:0:70:D6S_s.wav
448,192,54874,1,0,0:0:0:0:
192,192,55050,1,0,0:0:0:70:C#6S_Db6S_s.wav
448,192,55227,1,0,0:0:0:70:A5S_s.wav
64,192,55403,1,0,0:0:0:70:F#5S_Gb5S_s.wav
320,192,55580,1,0,0:0:0:100:Windows Ding.wav
448,192,55580,1,0,0:0:0:70:E5S_s.wav
192,192,55756,1,0,0:0:0:100:Windows Error.wav
320,192,55800,1,0,0:0:0:0:
320,192,56521,1,0,0:0:0:100:Windows Navigation Start.wav
320,192,56992,1,0,0:0:0:100:Windows Navigation Start.wav
64,192,57168,1,0,0:0:0:100:Windows Critical Stop.wav
448,192,57168,1,0,0:0:0:0:
192,192,58050,128,0,58168:0:0:0:100:Windows 7 Shutdown.wav
448,192,58168,1,0,0:0:0:0:
64,192,58205,128,0,58293:0:0:0:0:
320,192,58293,1,0,0:0:0:0:
64,192,59109,128,2,61844:0:0:0:0:
192,192,59109,128,0,63256:0:0:0:0:
320,192,59109,128,0,60433:0:0:0:0:
448,192,59109,128,0,64668:0:0:0:0:
320,192,60521,128,0,67492:0:0:0:0:
64,192,61933,128,0,66080:0:0:0:0:
192,192,63344,128,0,68903:0:0:0:0:
448,192,64756,128,0,70315:0:0:0:0:
64,192,66168,128,0,71727:0:0:0:0:
320,192,67580,128,0,70315:0:0:0:0:
192,192,68992,128,0,73139:0:0:0:0:
320,192,70403,128,0,73139:0:0:0:0:
448,192,70403,128,0,74550:0:0:0:0:
64,192,71815,128,0,75962:0:0:0:0:
192,192,73227,128,0,75962:0:0:0:0:
320,192,73227,128,0,78786:0:0:0:0:
448,192,74639,128,0,77374:0:0:0:0:
64,192,76050,128,0,80197:0:0:0:0:
192,192,76050,128,0,78786:0:0:0:0:
448,192,77462,128,0,81609:0:0:0:0:
192,192,78874,128,0,81609:0:0:0:0:
320,192,78874,128,0,81609:0:0:0:0:
64,192,80286,128,0,81609:0:0:0:0:
64,192,81697,1,0,0:0:0:0:
192,192,81697,1,0,0:0:0:0:
320,192,81697,128,0,82050:0:0:0:0:
448,192,81697,128,0,83109:0:0:0:0:
64,192,82050,128,0,82403:0:0:0:0:
320,192,82403,128,0,82756:0:0:0:0:
64,192,82756,128,0,83109:0:0:0:0:
192,192,83109,128,0,84521:0:0:0:0:
320,192,83109,1,0,0:0:0:0:
448,192,83462,1,0,0:0:0:50:LR_Snare Drum 3.wav
320,192,83639,1,0,0:0:0:50:LR_Snare Drum 3.wav
64,192,83815,1,0,0:0:0:50:LR_Snare Drum 3.wav
320,192,84168,1,0,0:0:0:0:
320,192,84521,128,0,85933:0:0:0:0:
448,192,84521,1,0,0:0:0:0:
64,192,84874,1,0,0:0:0:50:LR_Snare Drum 3.wav
192,192,85050,1,0,0:0:0:50:LR_Snare Drum 3.wav
448,192,85227,1,0,0:0:0:50:LR_Snare Drum 3.wav
192,192,85492,1,0,0:0:0:50:LR_Snare Drum 3.wav
448,192,85756,1,0,0:0:0:0:
64,192,85933,128,0,87344:0:0:0:50:LR_Snare Drum 3.wav
192,192,85933,1,0,0:0:0:0:
448,192,86286,1,0,0:0:0:50:LR_Snare Drum 3.wav
192,192,86462,1,0,0:0:0:50:LR_Snare Drum 3.wav
320,192,86550,1,0,0:0:0:50:LR_Snare Drum 3.wav
448,192,86639,1,0,0:0:0:50:LR_Snare Drum 3.wav
192,192,86903,1,0,0:0:0:50:LR_Snare Drum 3.wav
448,192,86992,1,0,0:0:0:50:LR_Snare Drum 3.wav
320,192,87168,1,0,0:0:0:50:LR_Snare Drum 3.wav
192,192,87344,1,0,0:0:0:50:LR_Snare Drum 3.wav
320,192,87344,1,0,0:0:0:0:
448,192,87344,1,0,0:0:0:0:
64,192,87521,1,0,0:0:0:0:
192,192,87697,1,0,0:0:0:50:LR_Snare Drum 3.wav
448,192,87874,1,0,0:0:0:50:LR_Snare Drum 3.wav
320,192,87962,1,0,0:0:0:50:LR_Snare Drum 3.wav
192,192,88050,1,0,0:0:0:50:LR_Snare Drum 3.wav
320,192,88315,1,0,0:0:0:50:LR_Snare Drum 3.wav
64,192,88403,1,0,0:0:0:50:LR_Snare Drum 3.wav
448,192,88580,1,0,0:0:0:50:LR_Snare Drum 3.wav
64,192,88756,1,0,0:0:0:50:LR_Snare Drum 3.wav
192,192,88756,1,0,0:0:0:0:
448,192,88933,1,0,0:0:0:0:
320,192,89109,1,0,0:0:0:50:LR_Snare Drum 3.wav
64,192,89286,1,0,0:0:0:50:LR_Snare Drum 3.wav
192,192,89374,1,0,0:0:0:50:LR_Snare Drum 3.wav
320,192,89462,1,0,0:0:0:50:LR_Snare Drum 3.wav
448,192,89462,1,0,0:0:0:0:
192,192,89727,1,0,0:0:0:50:LR_Snare Drum 3.wav
448,192,89815,1,0,0:0:0:50:LR_Snare Drum 3.wav
64,192,89992,1,0,0:0:0:50:LR_Snare Drum 3.wav
320,192,90168,1,0,0:0:0:50:LR_Snare Drum 3.wav
448,192,90168,1,0,0:0:0:0:
64,192,90344,1,0,0:0:0:0:
192,192,90521,1,0,0:0:0:50:LR_Snare Drum 3.wav
448,192,90521,1,0,0:0:0:0:
448,192,90697,1,0,0:0:0:50:LR_Snare Drum 3.wav
320,192,90786,1,0,0:0:0:50:LR_Snare Drum 3.wav
64,192,90874,1,0,0:0:0:50:LR_Snare Drum 3.wav
192,192,90874,1,0,0:0:0:0:
192,192,91139,1,0,0:0:0:50:LR_Snare Drum 3.wav
64,192,91227,1,0,0:0:0:50:LR_Snare Drum 3.wav
448,192,91227,1,0,0:0:0:0:
320,192,91403,1,0,0:0:0:50:LR_Snare Drum 3.wav
64,192,91580,1,0,0:0:0:50:LR_Snare Drum 3.wav
192,192,91580,1,0,0:0:0:0:
448,192,91756,1,0,0:0:0:0:
192,192,91933,1,0,0:0:0:50:LR_Snare Drum 3.wav
320,192,92021,1,0,0:0:0:50:LR_Snare Drum 3.wav
64,192,92109,1,0,0:0:0:50:LR_Snare Drum 3.wav
192,192,92197,1,0,0:0:0:50:LR_Snare Drum 3.wav
320,192,92286,1,0,0:0:0:50:LR_Snare Drum 3.wav
448,192,92286,1,0,0:0:0:0:
320,192,92550,1,0,0:0:0:50:LR_Snare Drum 3.wav
64,192,92639,1,0,0:0:0:50:LR_Snare Drum 3.wav
448,192,92639,1,0,0:0:0:0:
192,192,92815,1,0,0:0:0:50:LR_Snare Drum 3.wav
448,192,92992,128,0,94359:0:0:0:0:
320,192,93036,128,0,94359:0:0:0:0:
64,192,93124,128,0,94359:0:0:0:0:
64,192,94403,1,0,0:0:0:100:Windows Information Bar.wav
192,192,94403,1,0,0:0:0:0:
64,192,95109,128,0,95374:0:0:0:0:
448,192,95109,128,0,95374:0:0:0:0:
64,192,95462,1,0,0:0:0:0:
448,192,95462,1,0,0:0:0:0:
320,192,95639,1,0,0:0:0:0:
192,192,95727,1,0,0:0:0:0:
64,192,95815,1,0,0:0:0:100:Windows Navigation Start.wav
320,192,95815,1,2,0:0:0:0:
448,192,95815,128,0,95903:0:0:0:70:clap02_edited.wav
192,192,95903,128,0,95992:0:0:0:0:
320,192,95992,128,0,96080:0:0:0:0:
64,192,96080,128,0,96168:0:0:0:0:
320,192,96168,1,0,0:0:0:70:clap02_edited.wav
448,192,96168,128,0,96256:0:0:0:100:Windows Navigation Start.wav
192,192,96256,128,0,96344:0:0:0:100:Windows Navigation Start.wav
320,192,96344,128,0,96433:0:0:0:100:Windows Navigation Start.wav
192,192,96433,128,0,96521:0:0:0:100:Windows Navigation Start.wav
448,192,96521,1,0,0:0:0:70:clap02_edited.wav
320,192,96521,128,0,96609:0:0:0:100:Windows Navigation Start.wav
64,192,96609,128,0,96697:0:0:0:0:
192,192,96697,128,0,96786:0:0:0:0:
448,192,96786,128,0,96874:0:0:0:100:Windows Navigation Start.wav
320,192,96874,128,0,96962:0:0:0:70:clap02_edited.wav
64,192,96874,1,0,0:0:0:100:Windows Navigation Start.wav
192,192,96962,128,0,97050:0:0:0:0:
448,192,97050,128,0,97139:0:0:0:100:Windows Navigation Start.wav
192,192,97139,128,0,97227:0:0:0:0:
448,192,97227,128,0,97315:0:0:0:70:clap02_edited.wav
64,192,97227,1,0,0:0:0:100:Windows Navigation Start.wav
320,192,97315,128,0,97403:0:0:0:0:
192,192,97403,128,0,97492:0:0:0:0:
448,192,97492,128,0,97580:0:0:0:0:
192,192,97580,1,0,0:0:0:70:clap02_edited.wav
64,192,97580,128,0,97668:0:0:0:100:Windows Navigation Start.wav
320,192,97668,128,0,97756:0:0:0:100:Windows Navigation Start.wav
192,192,97756,128,0,97844:0:0:0:100:Windows Navigation Start.wav
320,192,97844,128,0,97933:0:0:0:100:Windows Navigation Start.wav
64,192,97933,1,0,0:0:0:70:clap02_edited.wav
192,192,97933,128,0,98021:0:0:0:100:Windows Navigation Start.wav
448,192,98021,128,0,98109:0:0:0:0:
320,192,98109,128,0,98197:0:0:0:0:
64,192,98197,128,0,98286:0:0:0:100:Windows Navigation Start.wav
192,192,98286,128,0,98374:0:0:0:70:clap02_edited.wav
448,192,98286,1,0,0:0:0:100:Windows Navigation Start.wav
320,192,98374,128,0,98462:0:0:0:100:Windows Navigation Start.wav
64,192,98462,128,0,98550:0:0:0:100:Windows Navigation Start.wav
320,192,98550,128,0,98639:0:0:0:100:Windows Navigation Start.wav
64,192,98639,128,0,98727:0:0:0:70:clap02_edited.wav
448,192,98639,1,0,0:0:0:0:
192,192,98727,128,0,98815:0:0:0:0:
320,192,98815,128,0,98903:0:0:0:0:
64,192,98903,128,0,98992:0:0:0:0:
448,192,98992,128,0,99080:0:0:0:70:clap02_edited.wav
320,192,98992,1,0,0:0:0:30:LR_Snare Drum 3.wav
192,192,99080,128,0,99168:0:0:0:100:Windows Navigation Start.wav
320,192,99168,128,0,99256:0:0:0:30:LR_Snare Drum 3.wav
192,192,99256,128,0,99344:0:0:0:30:LR_Snare Drum 3.wav
320,192,99344,128,0,99433:0:0:0:70:clap02_edited.wav
448,192,99344,1,0,0:0:0:30:LR_Snare Drum 3.wav
64,192,99433,128,0,99521:0:0:0:0:
192,192,99521,128,0,99609:0:0:0:0:
448,192,99609,128,0,99697:0:0:0:100:Windows Navigation Start.wav
192,192,99697,1,0,0:0:0:70:clap02_edited.wav
320,192,99697,128,0,99786:0:0:0:30:LR_Snare Drum 3.wav
64,192,99786,128,0,99874:0:0:0:0:
448,192,99874,128,0,99962:0:0:0:100:Windows Navigation Start.wav
64,192,99962,128,0,100050:0:0:0:0:
448,192,100050,128,0,100139:0:0:0:70:clap02_edited.wav
192,192,100050,1,0,0:0:0:40:LR_Snare Drum 3.wav
320,192,100139,128,0,100227:0:0:0:0:
192,192,100227,128,0,100315:0:0:0:0:
448,192,100315,128,0,100403:0:0:0:0:
192,192,100403,1,0,0:0:0:70:clap02_edited.wav
64,192,100403,128,0,100492:0:0:0:40:LR_Snare Drum 3.wav
320,192,100492,128,0,100580:0:0:0:100:Windows Navigation Start.wav
192,192,100580,128,0,100668:0:0:0:40:LR_Snare Drum 3.wav
320,192,100668,128,0,100756:0:0:0:40:LR_Snare Drum 3.wav
64,192,100756,1,0,0:0:0:70:clap02_edited.wav
192,192,100756,128,0,100844:0:0:0:40:LR_Snare Drum 3.wav
448,192,100844,128,0,100933:0:0:0:0:
320,192,100933,128,0,101021:0:0:0:0:
64,192,101021,128,0,101109:0:0:0:100:Windows Navigation Start.wav
192,192,101109,128,0,101197:0:0:0:70:clap02_edited.wav
320,192,101109,1,0,0:0:0:40:LR_Snare Drum 3.wav
448,192,101197,128,0,101286:0:0:0:100:Windows Navigation Start.wav
64,192,101286,128,0,101374:0:0:0:40:LR_Snare Drum 3.wav
448,192,101374,128,0,101462:0:0:0:100:Windows Navigation Start.wav
320,192,101462,1,0,0:0:0:70:clap02_edited.wav
64,192,101462,128,0,101550:0:0:0:50:LR_Snare Drum 3.wav
192,192,101550,128,0,101639:0:0:0:0:
448,192,101639,128,0,101727:0:0:0:0:
320,192,101727,128,0,101815:0:0:0:0:
192,192,101815,128,0,101903:0:0:0:70:clap02_edited.wav
448,192,101815,1,0,0:0:0:50:LR_Snare Drum 3.wav
64,192,101903,128,0,101992:0:0:0:50:LR_Snare Drum 3.wav
320,192,101992,128,0,102080:0:0:0:50:LR_Snare Drum 3.wav
448,192,101992,1,0,0:0:0:100:Windows Navigation Start.wav
64,192,102080,128,0,102168:0:0:0:50:LR_Snare Drum 3.wav
320,192,102168,128,0,102256:0:0:0:50:LR_Snare Drum 3.wav
448,192,102168,1,0,0:0:0:70:clap02_edited.wav
192,192,102256,128,0,102344:0:0:0:0:
64,192,102344,128,0,102433:0:0:0:0:
448,192,102433,128,0,102521:0:0:0:100:Windows Navigation Start.wav
320,192,102521,128,0,102609:0:0:0:70:clap02_edited.wav
64,192,102521,1,0,0:0:0:50:LR_Snare Drum 3.wav
192,192,102609,128,0,102697:0:0:0:0:
448,192,102697,128,0,102786:0:0:0:50:LR_Snare Drum 3.wav
192,192,102786,128,0,102874:0:0:0:0:
448,192,102874,128,0,102962:0:0:0:70:clap02_edited.wav
64,192,102874,1,0,0:0:0:50:LR_Snare Drum 3.wav
320,192,102962,128,0,103050:0:0:0:0:
64,192,103050,128,0,103139:0:0:0:0:
448,192,103139,128,0,103227:0:0:0:0:
192,192,103227,128,0,103315:0:0:0:70:clap02_edited.wav
64,192,103227,1,0,0:0:0:50:LR_Snare Drum 3.wav
320,192,103315,128,0,103403:0:0:0:50:LR_Snare Drum 3.wav
64,192,103403,128,0,103492:0:0:0:50:LR_Snare Drum 3.wav
192,192,103403,1,0,0:0:0:100:Windows Navigation Start.wav
448,192,103492,128,0,103580:0:0:0:50:LR_Snare Drum 3.wav
64,192,103580,128,0,103668:0:0:0:70:clap02_edited.wav
192,192,103580,1,0,0:0:0:50:LR_Snare Drum 3.wav
320,192,103668,128,0,103756:0:0:0:0:
448,192,103756,128,0,103844:0:0:0:0:
64,192,103844,128,0,103933:0:0:0:100:Windows Navigation Start.wav
192,192,103933,128,0,104021:0:0:0:70:clap02_edited.wav
448,192,103933,1,0,0:0:0:50:LR_Snare Drum 3.wav
320,192,104021,128,0,104109:0:0:0:100:Windows Navigation Start.wav
64,192,104109,128,0,104197:0:0:0:50:LR_Snare Drum 3.wav
320,192,104197,128,0,104286:0:0:0:100:Windows Navigation Start.wav
192,192,104286,128,0,104374:0:0:0:70:clap02_edited.wav
64,192,104286,1,0,0:0:0:50:LR_Snare Drum 3.wav
320,192,104374,128,0,104462:0:0:0:0:
448,192,104462,128,0,104550:0:0:0:0:
64,192,104550,128,0,104639:0:0:0:0:
448,192,104639,1,0,0:0:0:70:clap02_edited.wav
320,192,104639,128,0,104727:0:0:0:50:LR_Snare Drum 3.wav
192,192,104727,128,0,104815:0:0:0:50:LR_Snare Drum 3.wav
448,192,104815,128,0,104903:0:0:0:50:LR_Snare Drum 3.wav
320,192,104815,1,0,0:0:0:100:Windows Navigation Start.wav
64,192,104903,128,0,104992:0:0:0:50:LR_Snare Drum 3.wav
320,192,104992,1,0,0:0:0:70:clap02_edited.wav
448,192,104992,128,0,105080:0:0:0:50:LR_Snare Drum 3.wav
192,192,105080,128,0,105168:0:0:0:0:
64,192,105168,128,0,105256:0:0:0:0:
448,192,105256,128,0,105344:0:0:0:100:Windows Navigation Start.wav
64,192,105344,1,0,0:0:0:70:clap02_edited.wav
320,192,105344,128,0,105433:0:0:0:50:LR_Snare Drum 3.wav
192,192,105433,128,0,105521:0:0:0:0:
448,192,105521,128,0,105609:0:0:0:50:LR_Snare Drum 3.wav
192,192,105609,128,0,105697:0:0:0:0:
448,192,105697,1,0,0:0:0:70:clap02_edited.wav
320,192,105697,128,0,105786:0:0:0:50:LR_Snare Drum 3.wav
64,192,105786,128,0,105874:0:0:0:0:
320,192,105874,128,0,105962:0:0:0:0:
64,192,105962,128,0,106050:0:0:0:0:
448,192,106050,128,0,106139:0:0:0:70:clap02_edited.wav
320,192,106050,1,0,0:0:0:50:LR_Snare Drum 3.wav
192,192,106139,128,0,106227:0:0:0:50:LR_Snare Drum 3.wav
448,192,106227,128,0,106315:0:0:0:50:LR_Snare Drum 3.wav
64,192,106227,1,0,0:0:0:100:Windows Navigation Start.wav
192,192,106315,128,0,106403:0:0:0:50:LR_Snare Drum 3.wav
448,192,106403,1,0,0:0:0:70:LR_J Hit Pong.wav
320,192,106403,1,0,0:0:0:0:
192,192,106756,128,0,106844:0:0:0:100:Windows Information Bar.wav
320,192,106756,128,0,106844:0:0:0:0:
64,192,107109,1,2,0:0:0:0:
320,192,107109,1,4,0:0:0:0:
448,192,107109,1,0,0:0:0:70:clap02_edited.wav
192,192,107197,1,0,0:0:0:0:
320,192,107286,1,0,0:0:0:0:
448,192,107374,1,0,0:0:0:100:Windows Navigation Start.wav
64,192,107462,1,0,0:0:0:70:clap02_edited.wav
192,192,107462,1,0,0:0:0:100:Windows Navigation Start.wav
320,192,107550,1,0,0:0:0:0:
192,192,107639,1,0,0:0:0:100:Windows Navigation Start.wav
320,192,107727,1,0,0:0:0:0:
64,192,107815,1,8,0:0:0:0:
192,192,107815,1,0,0:0:0:70:clap02_edited.wav
448,192,107815,1,0,0:0:0:100:Windows Navigation Start.wav
320,192,107903,1,0,0:0:0:0:
192,192,107992,1,2,0:0:0:0:
448,192,107992,1,0,0:0:0:0:
64,192,108080,1,0,0:0:0:100:Windows Navigation Start.wav
320,192,108168,1,0,0:0:0:70:clap02_edited.wav
448,192,108168,1,0,0:0:0:100:Windows Navigation Start.wav
192,192,108256,1,0,0:0:0:0:
320,192,108344,1,0,0:0:0:100:Windows Navigation Start.wav
192,192,108433,1,0,0:0:0:0:
64,192,108521,1,0,0:0:0:70:clap02_edited.wav
448,192,108521,1,0,0:0:0:100:Windows Navigation Start.wav
320,192,108609,1,0,0:0:0:0:
64,192,108697,1,0,0:0:0:0:
192,192,108786,1,0,0:0:0:100:Windows Navigation Start.wav
320,192,108874,1,0,0:0:0:70:clap02_edited.wav
448,192,108874,1,0,0:0:0:100:Windows Navigation Start.wav
192,192,108962,1,0,0:0:0:0:
320,192,109050,1,0,0:0:0:100:Windows Navigation Start.wav
192,192,109139,1,0,0:0:0:0:
64,192,109227,1,0,0:0:0:70:clap02_edited.wav
320,192,109227,1,8,0:0:0:0:
448,192,109227,1,0,0:0:0:100:Windows Navigation Start.wav
192,192,109315,1,0,0:0:0:0:
64,192,109403,1,2,0:0:0:0:
448,192,109403,1,0,0:0:0:0:
320,192,109492,1,0,0:0:0:100:Windows Navigation Start.wav
64,192,109580,1,0,0:0:0:70:clap02_edited.wav
192,192,109580,1,0,0:0:0:100:Windows Navigation Start.wav
320,192,109668,1,0,0:0:0:0:
64,192,109756,128,0,109844:0:0:0:100:Windows Navigation Start.wav
320,192,109844,128,0,109933:0:0:0:0:
64,192,109933,1,0,0:0:0:70:clap02_edited.wav
448,192,109933,1,2,0:0:0:0:
192,192,110021,1,0,0:0:0:0:
320,192,110109,1,0,0:0:0:0:
448,192,110197,1,0,0:0:0:100:Windows Navigation Start.wav
64,192,110286,1,0,0:0:0:70:clap02_edited.wav
192,192,110286,1,0,0:0:0:100:Windows Navigation Start.wav
320,192,110374,1,0,0:0:0:0:
64,192,110462,1,2,0:0:0:0:
192,192,110462,1,0,0:0:0:100:Windows Navigation Start.wav
320,192,110550,1,0,0:0:0:0:
64,192,110639,1,0,0:0:0:70:clap02_edited.wav
192,192,110639,1,8,0:0:0:0:
448,192,110639,1,0,0:0:0:100:Windows Navigation Start.wav
320,192,110727,1,0,0:0:0:0:
192,192,110815,1,0,0:0:0:0:
64,192,110903,1,0,0:0:0:100:Windows Navigation Start.wav
320,192,110992,1,0,0:0:0:70:clap02_edited.wav
448,192,110992,1,0,0:0:0:100:Windows Navigation Start.wav
192,192,111080,1,0,0:0:0:0:
320,192,111168,1,0,0:0:0:100:Windows Navigation Start.wav
192,192,111256,1,0,0:0:0:0:
64,192,111344,1,0,0:0:0:70:clap02_edited.wav
448,192,111344,1,0,0:0:0:100:Windows Navigation Start.wav
320,192,111433,1,0,0:0:0:0:
64,192,111521,1,0,0:0:0:0:
192,192,111609,1,0,0:0:0:100:Windows Navigation Start.wav
320,192,111697,1,0,0:0:0:70:clap02_edited.wav
448,192,111697,1,0,0:0:0:100:Windows Navigation Start.wav
192,192,111786,1,0,0:0:0:0:
320,192,111874,1,0,0:0:0:100:Windows Navigation Start.wav
192,192,111962,1,0,0:0:0:0:
64,192,112050,1,8,0:0:0:0:
320,192,112050,1,0,0:0:0:70:clap02_edited.wav
448,192,112050,1,0,0:0:0:100:Windows Navigation Start.wav
192,192,112139,1,0,0:0:0:0:
64,192,112227,1,2,0:0:0:0:
448,192,112227,1,0,0:0:0:0:
320,192,112315,1,0,0:0:0:100:Windows Navigation Start.wav
64,192,112403,1,0,0:0:0:70:clap02_edited.wav
192,192,112403,1,0,0:0:0:0:
320,192,112492,1,0,0:0:0:0:
64,192,112536,1,0,0:0:0:0:
448,192,112580,1,0,0:0:0:0:
192,192,112712,1,0,0:0:0:0:
64,192,112756,1,2,0:0:0:0:
448,192,112756,1,0,0:0:0:70:clap02_edited.wav
320,192,112844,1,0,0:0:0:0:
192,192,112933,1,0,0:0:0:0:
64,192,113021,1,0,0:0:0:100:Windows Navigation Start.wav
320,192,113109,1,0,0:0:0:70:clap02_edited.wav
448,192,113109,1,0,0:0:0:100:Windows Navigation Start.wav
192,192,113197,1,0,0:0:0:0:
320,192,113286,1,0,0:0:0:100:Windows Navigation Start.wav
192,192,113374,1,0,0:0:0:0:
64,192,113462,1,8,0:0:0:0:
320,192,113462,1,0,0:0:0:70:clap02_edited.wav
448,192,113462,1,0,0:0:0:100:Windows Navigation Start.wav
192,192,113550,1,0,0:0:0:0:
64,192,113639,1,2,0:0:0:0:
320,192,113639,1,0,0:0:0:0:
448,192,113727,1,0,0:0:0:100:Windows Navigation Start.wav
64,192,113815,1,0,0:0:0:70:clap02_edited.wav
192,192,113815,1,0,0:0:0:100:Windows Navigation Start.wav
320,192,113903,1,0,0:0:0:0:
192,192,113992,1,0,0:0:0:100:Windows Navigation Start.wav
320,192,114080,1,0,0:0:0:0:
64,192,114168,1,0,0:0:0:70:clap02_edited.wav
448,192,114168,1,0,0:0:0:100:Windows Navigation Start.wav
192,192,114256,1,0,0:0:0:0:
448,192,114344,1,0,0:0:0:0:
320,192,114433,1,0,0:0:0:100:Windows Navigation Start.wav
64,192,114521,1,0,0:0:0:70:clap02_edited.wav
192,192,114521,1,0,0:0:0:100:Windows Navigation Start.wav
320,192,114609,1,0,0:0:0:0:
192,192,114697,1,0,0:0:0:100:Windows Navigation Start.wav
320,192,114786,1,0,0:0:0:0:
64,192,114874,1,0,0:0:0:70:clap02_edited.wav
192,192,114874,1,8,0:0:0:0:
448,192,114874,1,0,0:0:0:100:Windows Navigation Start.wav
320,192,114962,1,0,0:0:0:0:
64,192,115050,1,2,0:0:0:0:
448,192,115050,1,0,0:0:0:0:
192,192,115139,1,0,0:0:0:100:Windows Navigation Start.wav
320,192,115227,1,0,0:0:0:70:clap02_edited.wav
448,192,115227,1,0,0:0:0:100:Windows Navigation Start.wav
192,192,115315,1,0,0:0:0:0:
448,192,115403,1,0,0:0:0:100:Windows Navigation Start.wav
192,192,115492,1,0,0:0:0:0:
64,192,115580,1,0,0:0:0:70:clap02_edited.wav
448,192,115580,1,0,0:0:0:100:Windows Navigation Start.wav
320,192,115668,1,0,0:0:0:0:
192,192,115756,1,0,0:0:0:0:
64,192,115844,1,0,0:0:0:100:Windows Navigation Start.wav
320,192,115933,1,0,0:0:0:70:clap02_edited.wav
448,192,115933,1,0,0:0:0:100:Windows Navigation Start.wav
192,192,116021,1,0,0:0:0:0:
320,192,116109,1,2,0:0:0:0:
448,192,116109,1,0,0:0:0:100:Windows Navigation Start.wav
192,192,116197,1,0,0:0:0:0:
64,192,116286,1,0,0:0:0:70:clap02_edited.wav
320,192,116286,1,8,0:0:0:0:
448,192,116286,1,0,0:0:0:100:Windows Navigation Start.wav
192,192,116374,1,0,0:0:0:0:
320,192,116462,1,0,0:0:0:0:
448,192,116550,1,0,0:0:0:100:Windows Navigation Start.wav
64,192,116639,1,0,0:0:0:70:clap02_edited.wav
192,192,116639,1,0,0:0:0:100:Windows Navigation Start.wav
320,192,116727,1,0,0:0:0:0:
64,192,116815,1,2,0:0:0:0:
192,192,116815,1,0,0:0:0:100:Windows Navigation Start.wav
320,192,116903,1,0,0:0:0:0:
64,192,116992,1,0,0:0:0:70:clap02_edited.wav
448,192,116992,1,2,0:0:0:0:
192,192,117080,1,0,0:0:0:0:
448,192,117168,1,0,0:0:0:0:
320,192,117256,1,0,0:0:0:100:Windows Navigation Start.wav
64,192,117344,1,0,0:0:0:100:Windows Navigation Start.wav
192,192,117344,1,0,0:0:0:70:clap02_edited.wav
320,192,117433,1,0,0:0:0:0:
192,192,117521,1,0,0:0:0:100:Windows Navigation Start.wav
320,192,117609,1,0,0:0:0:0:
64,192,117697,1,0,0:0:0:100:Windows Navigation Start.wav
192,192,117697,1,8,0:0:0:0:
448,192,117697,1,0,0:0:0:70:clap02_edited.wav
320,192,117786,1,0,0:0:0:0:
64,192,117874,1,0,0:0:0:0:
192,192,117962,1,0,0:0:0:100:Windows Navigation Start.wav
320,192,118050,1,8,0:0:0:0:
448,192,118050,1,0,0:0:0:0:
64,192,118139,1,0,0:0:0:70:tom01.wav
192,192,118139,1,0,0:0:0:0:
64,192,118227,1,0,0:0:0:70:tom02.wav
448,192,118227,1,0,0:0:0:0:
320,192,118315,1,0,0:0:0:70:tom03.wav
448,192,118315,1,0,0:0:0:0:
64,192,118403,1,0,0:0:0:100:Windows Critical Stop.wav
192,192,118403,1,0,0:0:0:0:
64,192,118756,1,0,0:0:0:70:clap02_edited.wav
192,192,118756,1,2,0:0:0:0:
448,192,118756,1,4,0:0:0:0:
320,192,118844,1,0,0:0:0:0:
192,192,118933,1,0,0:0:0:100:Windows Navigation Start.wav
320,192,119021,1,0,0:0:0:0:
64,192,119109,1,0,0:0:0:70:clap02_edited.wav
192,192,119109,1,8,0:0:0:0:
448,192,119109,1,0,0:0:0:100:Windows Navigation Start.wav
320,192,119197,1,0,0:0:0:0:
192,192,119286,1,2,0:0:0:0:
448,192,119286,1,0,0:0:0:100:Windows Navigation Start.wav
64,192,119374,1,0,0:0:0:0:
320,192,119462,1,0,0:0:0:70:clap02_edited.wav
448,192,119462,1,0,0:0:0:100:Windows Navigation Start.wav
192,192,119550,1,0,0:0:0:0:
320,192,119639,1,0,0:0:0:100:Windows Navigation Start.wav
192,192,119727,1,0,0:0:0:0:
64,192,119815,1,0,0:0:0:70:clap02_edited.wav
448,192,119815,1,0,0:0:0:100:Windows Navigation Start.wav
320,192,119903,1,0,0:0:0:0:
64,192,119992,1,0,0:0:0:100:Windows Navigation Start.wav
192,192,120080,1,0,0:0:0:0:
320,192,120168,1,0,0:0:0:70:clap02_edited.wav
448,192,120168,1,0,0:0:0:100:Windows Navigation Start.wav
192,192,120256,1,0,0:0:0:0:
320,192,120344,1,2,0:0:0:0:
448,192,120344,1,0,0:0:0:100:Windows Navigation Start.wav
192,192,120433,1,0,0:0:0:0:
64,192,120521,1,8,0:0:0:0:
320,192,120521,1,0,0:0:0:70:clap02_edited.wav
448,192,120521,1,0,0:0:0:100:Windows Navigation Start.wav
192,192,120609,1,0,0:0:0:0:
64,192,120697,1,2,0:0:0:0:
448,192,120697,1,0,0:0:0:100:Windows Navigation Start.wav
320,192,120786,1,0,0:0:0:0:
64,192,120874,1,0,0:0:0:70:clap02_edited.wav
192,192,120874,1,0,0:0:0:100:Windows Navigation Start.wav
320,192,120962,1,0,0:0:0:0:
64,192,121050,1,0,0:0:0:100:Windows Navigation Start.wav
320,192,121139,1,0,0:0:0:0:
64,192,121227,1,2,0:0:0:0:
448,192,121227,1,0,0:0:0:70:clap02_edited.wav
192,192,121315,1,0,0:0:0:0:
320,192,121403,1,0,0:0:0:100:Windows Navigation Start.wav
448,192,121492,1,0,0:0:0:0:
64,192,121580,1,0,0:0:0:100:Windows Navigation Start.wav
192,192,121580,1,0,0:0:0:70:clap02_edited.wav
320,192,121668,1,0,0:0:0:0:
64,192,121756,1,2,0:0:0:0:
192,192,121756,1,0,0:0:0:100:Windows Navigation Start.wav
320,192,121844,1,0,0:0:0:0:
64,192,121933,1,8,0:0:0:0:
192,192,121933,1,0,0:0:0:70:clap02_edited.wav
448,192,121933,1,0,0:0:0:100:Windows Navigation Start.wav
320,192,122021,1,0,0:0:0:0:
192,192,122109,1,0,0:0:0:100:Windows Navigation Start.wav
64,192,122197,1,0,0:0:0:0:
320,192,122286,1,0,0:0:0:70:clap02_edited.wav
448,192,122286,1,0,0:0:0:100:Windows Navigation Start.wav
192,192,122374,1,0,0:0:0:0:
320,192,122462,1,0,0:0:0:100:Windows Navigation Start.wav
192,192,122550,1,0,0:0:0:0:
64,192,122639,1,0,0:0:0:70:clap02_edited.wav
448,192,122639,1,0,0:0:0:100:Windows Navigation Start.wav
320,192,122727,1,0,0:0:0:0:
64,192,122815,1,0,0:0:0:100:Windows Navigation Start.wav
192,192,122903,1,0,0:0:0:0:
320,192,122992,1,0,0:0:0:70:clap02_edited.wav
448,192,122992,1,0,0:0:0:100:Windows Navigation Start.wav
192,192,123080,1,0,0:0:0:0:
320,192,123168,1,0,0:0:0:100:Windows Navigation Start.wav
192,192,123256,1,0,0:0:0:0:
64,192,123344,1,0,0:0:0:70:clap02_edited.wav
320,192,123344,1,8,0:0:0:0:
448,192,123344,1,0,0:0:0:100:Windows Navigation Start.wav
192,192,123521,1,0,0:0:0:100:Windows Navigation Start.wav
320,192,123609,1,2,0:0:0:0:
448,192,123609,1,0,0:0:0:0:
64,192,123697,1,0,0:0:0:70:clap02_edited.wav
192,192,123697,1,0,0:0:0:100:Windows Navigation Start.wav
448,192,123697,1,8,0:0:0:0:
192,192,123874,1,2,0:0:0:0:
320,192,123874,1,0,0:0:0:100:Windows Navigation Start.wav
64,192,124050,1,0,0:0:0:70:clap02_edited.wav
320,192,124050,1,0,0:0:0:100:Windows Navigation Start.wav
448,192,124050,1,2,0:0:0:0:
192,192,124139,1,0,0:0:0:0:
320,192,124227,1,0,0:0:0:100:Windows Navigation Start.wav
448,192,124315,1,0,0:0:0:0:
64,192,124403,1,0,0:0:0:70:clap02_edited.wav
192,192,124403,1,0,0:0:0:100:Windows Navigation Start.wav
320,192,124492,1,0,0:0:0:0:
192,192,124580,1,0,0:0:0:100:Windows Navigation Start.wav
320,192,124668,1,0,0:0:0:0:
64,192,124756,1,0,0:0:0:100:Windows Navigation Start.wav
192,192,124756,1,0,0:0:0:70:clap02_edited.wav
448,192,124756,1,8,0:0:0:0:
320,192,124844,1,0,0:0:0:0:
192,192,124933,1,2,0:0:0:0:
448,192,124933,1,0,0:0:0:100:Windows Navigation Start.wav
64,192,125021,1,0,0:0:0:0:
320,192,125109,1,0,0:0:0:100:Windows Navigation Start.wav
448,192,125109,1,0,0:0:0:70:clap02_edited.wav
192,192,125197,1,0,0:0:0:0:
320,192,125286,1,0,0:0:0:100:Windows Navigation Start.wav
192,192,125374,1,0,0:0:0:0:
64,192,125462,1,0,0:0:0:100:Windows Navigation Start.wav
448,192,125462,1,0,0:0:0:70:clap02_edited.wav
320,192,125550,1,0,0:0:0:0:
64,192,125639,1,0,0:0:0:100:Windows Navigation Start.wav
192,192,125727,1,0,0:0:0:0:
320,192,125815,1,0,0:0:0:100:Windows Navigation Start.wav
448,192,125815,1,0,0:0:0:70:clap02_edited.wav
192,192,125903,1,0,0:0:0:0:
320,192,125992,1,0,0:0:0:100:Windows Navigation Start.wav
192,192,126080,1,0,0:0:0:0:
64,192,126168,1,0,0:0:0:100:Windows Navigation Start.wav
320,192,126168,1,8,0:0:0:0:
448,192,126168,1,0,0:0:0:70:clap02_edited.wav
192,192,126256,1,0,0:0:0:0:
64,192,126344,1,2,0:0:0:0:
448,192,126344,1,0,0:0:0:100:Windows Navigation Start.wav
320,192,126433,1,0,0:0:0:0:
64,192,126521,1,0,0:0:0:100:Windows Navigation Start.wav
192,192,126521,1,0,0:0:0:70:clap02_edited.wav
320,192,126609,1,0,0:0:0:0:
64,192,126697,1,0,0:0:0:100:Windows Navigation Start.wav
320,192,126786,1,0,0:0:0:0:
64,192,126874,1,2,0:0:0:0:
448,192,126874,1,0,0:0:0:100:Windows Navigation Start.wav
192,192,126962,1,0,0:0:0:0:
320,192,127050,1,0,0:0:0:100:Windows Navigation Start.wav
448,192,127139,1,0,0:0:0:0:
64,192,127227,1,0,0:0:0:100:Windows Navigation Start.wav
192,192,127227,1,0,0:0:0:70:clap02_edited.wav
320,192,127315,1,0,0:0:0:0:
64,192,127403,1,2,0:0:0:0:
192,192,127403,1,0,0:0:0:100:Windows Navigation Start.wav
320,192,127492,1,0,0:0:0:0:
64,192,127580,1,8,0:0:0:0:
192,192,127580,1,0,0:0:0:70:clap02_edited.wav
448,192,127580,1,0,0:0:0:100:Windows Navigation Start.wav
320,192,127668,1,0,0:0:0:0:
192,192,127756,1,0,0:0:0:100:Windows Navigation Start.wav
64,192,127844,1,0,0:0:0:0:
320,192,127933,1,0,0:0:0:70:clap02_edited.wav
448,192,127933,1,0,0:0:0:100:Windows Navigation Start.wav
192,192,128021,1,0,0:0:0:0:
320,192,128109,1,2,0:0:0:0:
448,192,128109,1,0,0:0:0:100:Windows Navigation Start.wav
192,192,128197,1,0,0:0:0:0:
64,192,128286,1,2,0:0:0:0:
448,192,128286,1,0,0:0:0:70:clap02_edited.wav
320,192,128374,1,0,0:0:0:0:
64,192,128462,1,0,0:0:0:100:Windows Navigation Start.wav
192,192,128550,1,0,0:0:0:0:
320,192,128639,1,0,0:0:0:70:clap02_edited.wav
448,192,128639,1,0,0:0:0:100:Windows Navigation Start.wav
192,192,128727,1,0,0:0:0:0:
320,192,128815,1,0,0:0:0:100:Windows Navigation Start.wav
192,192,128903,1,0,0:0:0:0:
64,192,128992,1,8,0:0:0:0:
320,192,128992,1,0,0:0:0:0:
448,192,128992,1,0,0:0:0:0:
192,192,129080,1,0,0:0:0:0:
320,192,129168,1,0,0:0:0:0:
448,192,129256,1,0,0:0:0:0:
64,192,129344,128,0,129609:0:0:0:0:
192,192,129403,128,0,129609:0:0:0:0:
320,192,129462,128,0,129609:0:0:0:0:
448,192,129521,128,0,129609:0:0:0:0:
64,192,129697,1,0,0:0:0:70:D6S_s.wav
192,192,129697,1,4,0:0:0:0:
448,192,129697,1,0,0:0:0:0:
320,192,129874,1,0,0:0:0:70:C#6S_Db6S_s.wav
64,192,130050,1,0,0:0:0:70:A5S_s.wav
448,192,130227,1,0,0:0:0:70:F#5S_Gb5S_s.wav
192,192,130403,1,0,0:0:0:70:E5S_s.wav
448,192,130580,128,0,130756:0:0:0:70:A5S_s.wav
320,192,130756,128,0,130933:0:0:0:70:E6S_s.wav
64,192,130933,1,0,0:0:0:70:F#6S_Gb6S_s.wav
64,192,131109,1,0,0:0:0:70:D6S_s.wav
192,192,131109,1,0,0:0:0:0:
320,192,131286,1,0,0:0:0:70:C#6S_Db6S_s.wav
64,192,131462,1,0,0:0:0:70:A5S_s.wav
448,192,131639,1,0,0:0:0:70:F#5S_Gb5S_s.wav
192,192,131815,1,0,0:0:0:70:E5S_s.wav
448,192,131992,128,0,132168:0:0:0:70:A5S_s.wav
320,192,132168,128,0,132344:0:0:0:70:E6S_s.wav
64,192,132344,1,0,0:0:0:70:F#6S_Gb6S_s.wav
64,192,132521,1,0,0:0:0:70:D6S_s.wav
192,192,132521,1,0,0:0:0:0:
320,192,132697,1,0,0:0:0:70:C#6S_Db6S_s.wav
64,192,132874,1,0,0:0:0:70:A5S_s.wav
448,192,133050,1,0,0:0:0:70:F#5S_Gb5S_s.wav
192,192,133227,1,0,0:0:0:70:E5S_s.wav
448,192,133403,128,0,133580:0:0:0:70:A5S_s.wav
320,192,133580,128,0,133756:0:0:0:70:E6S_s.wav
64,192,133756,1,0,0:0:0:70:F#6S_Gb6S_s.wav
64,192,133933,1,0,0:0:0:70:D6S_s.wav
192,192,133933,1,0,0:0:0:0:
320,192,134109,1,0,0:0:0:70:C#6S_Db6S_s.wav
64,192,134286,1,0,0:0:0:70:A5S_s.wav
448,192,134462,1,0,0:0:0:70:F#5S_Gb5S_s.wav
192,192,134639,1,0,0:0:0:70:E5S_s.wav
448,192,134815,128,0,134992:0:0:0:70:A5S_s.wav
320,192,134992,128,0,135168:0:0:0:70:E6S_s.wav
64,192,135168,1,0,0:0:0:70:F#6S_Gb6S_s.wav
320,192,135344,1,0,0:0:0:70:D6S_s.wav
448,192,135344,1,0,0:0:0:0:
192,192,135521,1,0,0:0:0:70:C#6S_Db6S_s.wav
448,192,135697,1,0,0:0:0:70:A5S_s.wav
64,192,135874,1,0,0:0:0:70:F#5S_Gb5S_s.wav
320,192,136050,1,0,0:0:0:70:E5S_s.wav
448,192,136050,1,0,0:0:0:0:
64,192,136227,128,0,136403:0:0:0:70:A5S_s.wav
192,192,136403,128,0,136580:0:0:0:70:E6S_s.wav
448,192,136580,1,0,0:0:0:70:F#6S_Gb6S_s.wav
320,192,136756,1,0,0:0:0:70:D6S_s.wav
448,192,136756,1,0,0:0:0:0:
192,192,136933,1,0,0:0:0:70:C#6S_Db6S_s.wav
448,192,137109,1,0,0:0:0:70:A5S_s.wav
64,192,137286,1,0,0:0:0:70:F#5S_Gb5S_s.wav
320,192,137462,1,0,0:0:0:70:E5S_s.wav
448,192,137462,1,0,0:0:0:0:
64,192,137639,128,0,137815:0:0:0:70:A5S_s.wav
192,192,137815,128,0,137992:0:0:0:70:E6S_s.wav
448,192,137992,1,0,0:0:0:70:F#6S_Gb6S_s.wav
320,192,138168,1,0,0:0:0:70:D6S_s.wav
448,192,138168,1,0,0:0:0:0:
192,192,138344,1,0,0:0:0:70:C#6S_Db6S_s.wav
448,192,138521,1,0,0:0:0:70:A5S_s.wav
64,192,138697,1,0,0:0:0:70:F#5S_Gb5S_s.wav
320,192,138874,1,0,0:0:0:70:E5S_s.wav
448,192,138874,1,0,0:0:0:0:
64,192,139050,128,0,139227:0:0:0:70:A5S_s.wav
192,192,139227,128,0,139403:0:0:0:70:E6S_s.wav
448,192,139403,1,0,0:0:0:70:F#6S_Gb6S_s.wav
320,192,139580,1,0,0:0:0:70:D6S_s.wav
448,192,139580,1,0,0:0:0:0:
64,192,139756,1,0,0:0:0:70:C#6S_Db6S_s.wav
448,192,139933,1,0,0:0:0:70:A5S_s.wav
192,192,140109,1,0,0:0:0:70:F#5S_Gb5S_s.wav
64,192,140286,1,0,0:0:0:70:tom01.wav
448,192,140286,1,0,0:0:0:0:
320,192,140330,1,0,0:0:0:70:tom02.wav
192,192,140374,1,0,0:0:0:70:tom04.wav
64,192,140462,1,0,0:0:0:70:tom03.wav
320,192,140550,1,2,0:0:0:0:
448,192,140550,1,0,0:0:0:0:
64,192,140639,1,8,0:0:0:0:
192,192,140639,1,0,0:0:0:0:
448,192,140639,1,0,0:0:0:0:
320,192,140727,1,0,0:0:0:70:tom01.wav
64,192,140815,1,0,0:0:0:70:tom02.wav
192,192,140815,1,0,0:0:0:0:
320,192,140903,1,0,0:0:0:70:tom03.wav
64,192,140992,128,2,141168:0:0:0:0:
192,192,140992,128,4,141168:0:0:0:0:
448,192,140992,1,0,0:0:0:0:
64,192,141256,128,0,141433:0:0:0:100:Cymatics - 808 5 - E.wav
192,192,141256,128,0,141433:0:0:0:0:
64,192,141521,1,0,0:0:0:100:Cymatics - 808 5 - E.wav
192,192,141521,1,0,0:0:0:0:
64,192,141609,1,2,0:0:0:0:
192,192,141609,1,0,0:0:0:0:
64,192,141697,1,0,0:0:0:70:snare.wav
192,192,141697,1,0,0:0:0:0:
320,192,141697,1,0,0:0:0:0:
448,192,141697,1,0,0:0:0:0:
320,192,141962,128,0,142139:0:0:0:100:Cymatics - 808 5 - E.wav
448,192,141962,128,0,142139:0:0:0:0:
320,192,142227,128,0,142315:0:0:0:100:Cymatics - 808 5 - E.wav
448,192,142227,128,0,142315:0:0:0:0:
64,192,142403,128,2,142580:0:0:0:0:
320,192,142403,1,0,0:0:0:0:
448,192,142403,128,0,142580:0:0:0:0:
64,192,142668,128,0,142844:0:0:0:100:Cymatics - 808 5 - E.wav
448,192,142668,128,0,142844:0:0:0:0:
64,192,142933,1,0,0:0:0:100:Cymatics - 808 5 - E.wav
192,192,142933,1,0,0:0:0:0:
64,192,143021,1,2,0:0:0:0:
192,192,143021,1,0,0:0:0:0:
64,192,143109,1,0,0:0:0:70:snare.wav
192,192,143109,1,0,0:0:0:0:
320,192,143109,1,0,0:0:0:0:
448,192,143109,1,0,0:0:0:0:
64,192,143374,128,0,143550:0:0:0:100:Cymatics - 808 5 - E.wav
448,192,143374,128,0,143550:0:0:0:0:
64,192,143639,128,0,143727:0:0:0:100:Cymatics - 808 5 - E.wav
448,192,143639,128,0,143727:0:0:0:0:
64,192,143815,1,2,0:0:0:0:
320,192,143815,128,0,143992:0:0:0:0:
448,192,143815,128,0,143992:0:0:0:0:
320,192,144080,128,0,144256:0:0:0:100:Cymatics - 808 5 - E.wav
448,192,144080,128,0,144256:0:0:0:0:
320,192,144344,1,0,0:0:0:100:Cymatics - 808 5 - E.wav
448,192,144344,1,0,0:0:0:0:
320,192,144433,1,2,0:0:0:0:
448,192,144433,1,0,0:0:0:0:
64,192,144521,1,0,0:0:0:70:snare.wav
192,192,144521,1,0,0:0:0:0:
320,192,144521,1,0,0:0:0:0:
448,192,144521,1,0,0:0:0:0:
64,192,144786,128,0,144962:0:0:0:100:Cymatics - 808 5 - E.wav
192,192,144786,128,0,144962:0:0:0:0:
64,192,145050,128,0,145139:0:0:0:100:Cymatics - 808 5 - E.wav
192,192,145050,128,0,145139:0:0:0:0:
64,192,145227,128,2,145403:0:0:0:0:
192,192,145227,1,0,0:0:0:0:
448,192,145227,128,0,145403:0:0:0:0:
64,192,145492,128,0,145668:0:0:0:100:Cymatics - 808 5 - E.wav
448,192,145492,128,0,145668:0:0:0:0:
320,192,145756,1,0,0:0:0:100:Cymatics - 808 5 - E.wav
448,192,145756,1,0,0:0:0:0:
320,192,145844,1,2,0:0:0:0:
448,192,145844,1,0,0:0:0:0:
64,192,145933,1,0,0:0:0:70:snare.wav
192,192,145933,1,0,0:0:0:0:
320,192,145933,1,0,0:0:0:0:
448,192,145933,1,0,0:0:0:0:
64,192,146197,128,0,146374:0:0:0:100:Cymatics - 808 5 - E.wav
192,192,146197,128,0,146286:0:0:0:0:
448,192,146197,128,0,146374:0:0:0:0:
448,192,146462,128,8,146550:0:0:0:0:
192,192,146462,128,0,146550:0:0:0:0:
64,192,146462,128,0,146550:0:0:0:0:
64,192,146639,1,2,0:0:0:0:
320,192,146639,128,0,146815:0:0:0:0:
448,192,146639,128,0,146815:0:0:0:0:
320,192,146903,128,0,147080:0:0:0:100:Cymatics - 808 5 - E.wav
448,192,146903,128,0,147080:0:0:0:0:
320,192,147168,1,0,0:0:0:100:Cymatics - 808 5 - E.wav
448,192,147168,1,0,0:0:0:0:
320,192,147256,1,2,0:0:0:0:
448,192,147256,1,0,0:0:0:0:
64,192,147344,1,0,0:0:0:70:snare.wav
192,192,147344,1,0,0:0:0:0:
320,192,147344,1,0,0:0:0:0:
448,192,147344,1,0,0:0:0:0:
64,192,147609,128,0,147786:0:0:0:100:Cymatics - 808 5 - E.wav
192,192,147609,128,0,147786:0:0:0:0:
64,192,147874,128,0,147962:0:0:0:100:Cymatics - 808 5 - E.wav
192,192,147874,128,0,147962:0:0:0:0:
64,192,148050,128,2,148227:0:0:0:0:
192,192,148050,1,0,0:0:0:0:
448,192,148050,128,0,148227:0:0:0:0:
64,192,148315,128,0,148492:0:0:0:100:Cymatics - 808 5 - E.wav
448,192,148315,128,0,148492:0:0:0:0:
320,192,148580,1,0,0:0:0:100:Cymatics - 808 5 - E.wav
448,192,148580,1,0,0:0:0:0:
320,192,148668,1,2,0:0:0:0:
448,192,148668,1,0,0:0:0:0:
64,192,148756,1,0,0:0:0:70:snare.wav
192,192,148756,1,0,0:0:0:0:
320,192,148756,1,0,0:0:0:0:
448,192,148756,1,0,0:0:0:0:
64,192,149021,128,0,149374:0:0:0:0:
192,192,149065,128,0,149374:0:0:0:0:
64,192,149462,128,2,149639:0:0:0:0:
192,192,149462,128,0,149639:0:0:0:0:
448,192,149462,128,0,149550:0:0:0:0:
64,192,149727,128,2,149903:0:0:0:0:
192,192,149727,128,0,149903:0:0:0:0:
448,192,149727,128,0,149815:0:0:0:0:
64,192,149992,1,0,0:0:0:100:Cymatics - 808 5 - E.wav
192,192,149992,1,0,0:0:0:0:
64,192,150080,1,2,0:0:0:0:
192,192,150080,1,0,0:0:0:0:
64,192,150168,128,0,150256:0:0:0:70:snare.wav
192,192,150168,1,0,0:0:0:0:
320,192,150168,1,0,0:0:0:0:
448,192,150168,1,0,0:0:0:0:
64,192,150433,128,2,150521:0:0:0:0:
320,192,150433,128,0,150609:0:0:0:0:
448,192,150433,128,0,150609:0:0:0:0:
448,192,150697,1,0,0:0:0:100:Cymatics - 808 5 - E.wav
320,192,150697,1,0,0:0:0:0:
192,192,150786,1,0,0:0:0:0:
64,192,150874,128,2,151050:0:0:0:0:
320,192,150874,128,0,150962:0:0:0:0:
448,192,150874,128,0,151050:0:0:0:0:
64,192,151139,128,0,151315:0:0:0:0:
448,192,151139,128,0,151315:0:0:0:0:
320,192,151315,1,0,0:0:0:70:tom01.wav
64,192,151403,1,0,0:0:0:70:tom02.wav
192,192,151403,1,0,0:0:0:0:
320,192,151492,1,0,0:0:0:70:tom03.wav
448,192,151492,1,0,0:0:0:0:
64,192,151580,128,8,152197:0:0:0:0:
448,192,151580,128,0,152197:0:0:0:0:
192,192,151580,128,0,151668:0:0:0:0:
64,192,152286,128,2,152903:0:0:0:0:
192,192,152286,128,4,152903:0:0:0:0:
320,192,152286,128,0,152903:0:0:0:0:
448,192,152286,128,0,152903:0:0:0:0:
64,192,152992,1,0,0:0:0:70:snare.wav
192,192,152992,1,0,0:0:0:0:
320,192,152992,1,0,0:0:0:0:
448,192,152992,1,0,0:0:0:0:
64,192,153344,128,2,154315:0:0:0:0:
192,192,153344,128,0,154315:0:0:0:0:
320,192,153344,128,0,154315:0:0:0:0:
448,192,153344,128,0,154315:0:0:0:0:
64,192,154403,1,0,0:0:0:70:snare.wav
192,192,154403,1,0,0:0:0:0:
320,192,154403,1,0,0:0:0:0:
448,192,154403,1,0,0:0:0:0:
320,192,154580,1,2,0:0:0:0:
448,192,154580,1,0,0:0:0:0:
64,192,154668,1,0,0:0:0:70:tom03.wav
192,192,154668,1,0,0:0:0:0:
64,192,154933,1,0,0:0:0:70:tom04.wav
320,192,154933,1,0,0:0:0:0:
64,192,155109,128,2,155197:0:0:0:0:
192,192,155109,128,0,155197:0:0:0:0:
320,192,155109,128,0,155197:0:0:0:0:
448,192,155109,128,0,155197:0:0:0:0:
64,192,155286,128,2,155374:0:0:0:0:
192,192,155286,128,0,155374:0:0:0:0:
320,192,155286,128,0,155374:0:0:0:0:
448,192,155286,128,0,155374:0:0:0:0:
64,192,155462,128,2,155727:0:0:0:0:
192,192,155462,128,0,155727:0:0:0:0:
320,192,155462,128,0,155727:0:0:0:0:
448,192,155462,128,0,155727:0:0:0:0:
64,192,155815,1,0,0:0:0:70:snare.wav
192,192,155815,1,0,0:0:0:0:
320,192,155815,1,0,0:0:0:0:
448,192,155815,1,0,0:0:0:0:
64,192,156168,128,2,157139:0:0:0:0:
192,192,156168,128,0,157139:0:0:0:0:
320,192,156168,128,0,157139:0:0:0:0:
448,192,156168,128,0,157139:0:0:0:0:
64,192,157227,128,0,157844:0:0:0:70:snare.wav
192,192,157227,128,0,157668:0:0:0:0:
320,192,157227,128,0,157668:0:0:0:0:
448,192,157227,128,0,157844:0:0:0:0:
192,192,157756,128,0,157844:0:0:0:0:
320,192,157756,128,0,157844:0:0:0:0:
64,192,157933,128,4,158550:0:0:0:0:
192,192,157933,128,2,158550:0:0:0:0:
320,192,157933,128,0,158550:0:0:0:0:
448,192,157933,128,0,158550:0:0:0:0:
64,192,158639,1,0,0:0:0:70:snare.wav
192,192,158639,1,0,0:0:0:0:
320,192,158639,1,0,0:0:0:0:
448,192,158639,1,0,0:0:0:0:
64,192,158992,128,2,159962:0:0:0:0:
192,192,158992,128,0,159962:0:0:0:0:
320,192,158992,128,0,159962:0:0:0:0:
448,192,158992,128,0,159962:0:0:0:0:
64,192,160050,1,0,0:0:0:70:snare.wav
192,192,160050,1,0,0:0:0:0:
320,192,160050,1,0,0:0:0:0:
448,192,160050,1,0,0:0:0:0:
64,192,160227,1,2,0:0:0:0:
192,192,160227,1,0,0:0:0:0:
320,192,160315,1,0,0:0:0:70:tom03.wav
448,192,160315,1,0,0:0:0:0:
192,192,160580,1,0,0:0:0:70:tom04.wav
448,192,160580,1,0,0:0:0:0:
64,192,160756,128,2,160844:0:0:0:0:
192,192,160756,128,0,160844:0:0:0:0:
320,192,160756,128,0,160844:0:0:0:0:
448,192,160756,128,0,160844:0:0:0:0:
64,192,160933,128,2,161021:0:0:0:0:
192,192,160933,128,0,161021:0:0:0:0:
320,192,160933,128,0,161021:0:0:0:0:
448,192,160933,128,0,161021:0:0:0:0:
64,192,161109,128,2,161374:0:0:0:0:
192,192,161109,128,0,161374:0:0:0:0:
320,192,161109,128,0,161374:0:0:0:0:
448,192,161109,128,0,161374:0:0:0:0:
64,192,161462,1,0,0:0:0:70:snare.wav
192,192,161462,1,0,0:0:0:0:
320,192,161462,1,0,0:0:0:0:
448,192,161462,1,0,0:0:0:0:
64,192,161815,128,2,162786:0:0:0:0:
192,192,161815,128,0,162786:0:0:0:0:
320,192,161815,128,0,162786:0:0:0:0:
448,192,161815,128,0,162786:0:0:0:0:
320,192,162874,1,0,0:0:0:70:tom01.wav
448,192,162874,1,0,0:0:0:0:
64,192,163139,1,0,0:0:0:70:tom02.wav
320,192,163139,1,0,0:0:0:0:
64,192,163403,1,0,0:0:0:70:tom03.wav
192,192,163403,1,0,0:0:0:0:
64,192,163580,1,2,0:0:0:0:
320,192,163580,1,4,0:0:0:0:
448,192,163580,1,0,0:0:0:70:clap02_edited.wav
192,192,163844,1,0,0:0:0:100:Cymatics - 808 5 - E.wav
448,192,163844,1,0,0:0:0:0:
320,192,164109,1,0,0:0:0:100:Cymatics - 808 5 - E.wav
448,192,164109,1,0,0:0:0:0:
64,192,164197,1,2,0:0:0:0:
192,192,164197,1,0,0:0:0:0:
64,192,164286,1,0,0:0:0:70:clap02_edited.wav
192,192,164286,1,0,0:0:0:70:snare.wav
320,192,164286,1,0,0:0:0:0:
448,192,164286,1,0,0:0:0:0:
192,192,164550,1,0,0:0:0:100:Cymatics - 808 5 - E.wav
448,192,164550,1,0,0:0:0:0:
64,192,164815,1,0,0:0:0:100:Cymatics - 808 5 - E.wav
320,192,164815,1,0,0:0:0:0:
64,192,164992,1,2,0:0:0:0:
192,192,164992,1,0,0:0:0:70:clap02_edited.wav
448,192,164992,1,0,0:0:0:0:
320,192,165256,1,0,0:0:0:100:Cymatics - 808 5 - E.wav
448,192,165256,1,0,0:0:0:0:
64,192,165521,1,0,0:0:0:100:Cymatics - 808 5 - E.wav
192,192,165521,1,0,0:0:0:0:
320,192,165609,1,2,0:0:0:0:
448,192,165609,1,0,0:0:0:0:
64,192,165697,1,0,0:0:0:70:clap02_edited.wav
192,192,165697,1,0,0:0:0:70:snare.wav
320,192,165697,1,0,0:0:0:0:
448,192,165697,1,0,0:0:0:0:
320,192,165962,1,0,0:0:0:100:Cymatics - 808 5 - E.wav
448,192,165962,1,0,0:0:0:0:
64,192,166227,1,0,0:0:0:100:Cymatics - 808 5 - E.wav
320,192,166227,1,0,0:0:0:0:
64,192,166403,1,2,0:0:0:0:
192,192,166403,1,0,0:0:0:70:clap02_edited.wav
448,192,166403,1,0,0:0:0:0:
64,192,166668,1,0,0:0:0:100:Cymatics - 808 5 - E.wav
320,192,166668,1,0,0:0:0:0:
64,192,166933,1,0,0:0:0:100:Cymatics - 808 5 - E.wav
192,192,166933,1,0,0:0:0:0:
320,192,167021,1,2,0:0:0:0:
448,192,167021,1,0,0:0:0:0:
64,192,167109,1,0,0:0:0:70:clap02_edited.wav
192,192,167109,1,0,0:0:0:70:snare.wav
320,192,167109,1,0,0:0:0:0:
448,192,167109,1,0,0:0:0:0:
64,192,167374,1,0,0:0:0:100:Cymatics - 808 5 - E.wav
320,192,167374,1,0,0:0:0:0:
192,192,167639,1,0,0:0:0:100:Cymatics - 808 5 - E.wav
448,192,167639,1,0,0:0:0:0:
64,192,167815,1,2,0:0:0:0:
320,192,167815,1,0,0:0:0:70:clap02_edited.wav
448,192,167815,1,0,0:0:0:0:
64,192,168080,1,0,0:0:0:100:Cymatics - 808 5 - E.wav
192,192,168080,1,0,0:0:0:0:
320,192,168344,1,0,0:0:0:100:Cymatics - 808 5 - E.wav
448,192,168344,1,0,0:0:0:0:
64,192,168433,1,2,0:0:0:0:
192,192,168433,1,0,0:0:0:0:
64,192,168521,1,0,0:0:0:70:clap02_edited.wav
192,192,168521,1,0,0:0:0:70:snare.wav
320,192,168521,1,0,0:0:0:0:
448,192,168521,1,0,0:0:0:0:
192,192,168786,128,0,168874:0:0:0:0:
320,192,168786,128,0,168874:0:0:0:0:
64,192,168874,128,0,168962:0:0:0:0:
448,192,168874,128,0,168962:0:0:0:0:
64,192,169050,1,0,0:0:0:70:snare.wav
320,192,169050,1,0,0:0:0:0:
448,192,169050,1,0,0:0:0:0:
192,192,169139,1,0,0:0:0:70:LR_Snare Drum 3.wav
64,192,169227,128,2,169315:0:0:0:0:
320,192,169227,1,0,0:0:0:70:clap02_edited.wav
448,192,169227,128,0,169315:0:0:0:0:
192,192,169492,128,0,169580:0:0:0:100:Cymatics - 808 5 - E.wav
448,192,169492,128,0,169580:0:0:0:0:
320,192,169756,1,0,0:0:0:100:Cymatics - 808 5 - E.wav
448,192,169756,1,0,0:0:0:0:
64,192,169844,1,2,0:0:0:0:
192,192,169844,1,0,0:0:0:0:
64,192,169933,128,0,170021:0:0:0:70:clap02_edited.wav
192,192,169933,1,0,0:0:0:70:snare.wav
320,192,169933,1,0,0:0:0:0:
448,192,169933,128,0,170021:0:0:0:0:
192,192,170197,128,0,170286:0:0:0:100:Cymatics - 808 5 - E.wav
448,192,170197,128,0,170286:0:0:0:0:
64,192,170462,1,0,0:0:0:100:Cymatics - 808 5 - E.wav
320,192,170462,1,0,0:0:0:0:
64,192,170639,128,2,170727:0:0:0:0:
192,192,170639,1,0,0:0:0:70:clap02_edited.wav
448,192,170639,128,0,170727:0:0:0:0:
320,192,170903,128,0,170992:0:0:0:100:Cymatics - 808 5 - E.wav
448,192,170903,128,0,170992:0:0:0:0:
64,192,171168,1,0,0:0:0:100:Cymatics - 808 5 - E.wav
192,192,171168,1,0,0:0:0:0:
320,192,171256,1,2,0:0:0:0:
448,192,171256,1,0,0:0:0:0:
64,192,171344,128,0,171433:0:0:0:70:clap02_edited.wav
192,192,171344,1,0,0:0:0:70:snare.wav
320,192,171344,1,0,0:0:0:0:
448,192,171344,128,0,171433:0:0:0:0:
320,192,171697,128,0,171815:0:0:0:0:
192,192,171815,128,0,171933:0:0:0:0:
320,192,171933,128,0,172050:0:0:0:0:
64,192,172050,128,2,172139:0:0:0:0:
448,192,172050,128,0,172139:0:0:0:70:clap02_edited.wav
64,192,172315,128,2,172403:0:0:0:0:
320,192,172315,128,0,172403:0:0:0:70:clap02_edited.wav
64,192,172580,1,0,0:0:0:100:Cymatics - 808 5 - E.wav
192,192,172580,1,0,0:0:0:0:
320,192,172668,1,2,0:0:0:0:
448,192,172668,1,0,0:0:0:0:
64,192,172756,128,0,172844:0:0:0:70:clap02_edited.wav
192,192,172756,1,0,0:0:0:70:snare.wav
320,192,172756,1,0,0:0:0:0:
448,192,172756,128,0,172844:0:0:0:0:
64,192,173021,128,2,173109:0:0:0:0:
320,192,173021,128,0,173109:0:0:0:0:
192,192,173286,1,0,0:0:0:100:Cymatics - 808 5 - E.wav
448,192,173286,1,0,0:0:0:0:
64,192,173462,128,2,173550:0:0:0:0:
320,192,173462,1,0,0:0:0:0:
448,192,173462,128,0,173550:0:0:0:0:
64,192,173727,128,0,173815:0:0:0:0:
192,192,173727,128,0,173815:0:0:0:0:
192,192,173903,1,0,0:0:0:100:Cymatics - 808 5 - E.wav
320,192,173992,1,0,0:0:0:70:tom02.wav
448,192,173992,1,0,0:0:0:0:
192,192,174080,1,0,0:0:0:70:tom03.wav
64,192,174168,128,0,174256:0:0:0:70:snare.wav
192,192,174168,1,0,0:0:0:70:clap02_edited.wav
320,192,174168,1,0,0:0:0:0:
448,192,174168,128,0,174256:0:0:0:0:
64,192,174344,128,2,174786:0:0:0:0:
192,192,174344,128,0,174786:0:0:0:0:
320,192,174344,128,0,174786:0:0:0:0:
448,192,174344,128,0,174786:0:0:0:0:
64,192,174874,128,2,175050:0:0:0:0:
192,192,174874,128,4,174962:0:0:0:0:
320,192,174874,128,0,174962:0:0:0:70:LR_J Hit Pong.wav
448,192,174874,128,0,175050:0:0:0:0:
64,192,197462,5,0,0:0:0:100:Windows Ding.wav
448,192,197462,1,0,0:0:0:0:
320,192,200521,1,0,0:0:0:0:
192,192,200580,128,0,200992:0:0:0:0:
64,192,201697,1,0,0:0:0:70:B3S_s.wav
448,192,201697,1,0,0:0:0:70:F#4S_Gb4S_s.wav
192,192,201874,1,0,0:0:0:70:B5S_s.wav
320,192,202050,1,0,0:0:0:70:C#6S_Db6S_s.wav
192,192,202227,1,0,0:0:0:70:D6S_s.wav
64,192,202403,1,0,0:0:0:70:F#4S_Gb4S_s.wav
448,192,202403,1,0,0:0:0:70:B3S_s.wav
192,192,202580,1,0,0:0:0:70:B5S_s.wav
320,192,202756,1,0,0:0:0:70:C#6S_Db6S_s.wav
192,192,202933,1,0,0:0:0:70:D6S_s.wav
64,192,203109,1,0,0:0:0:70:B3S_s.wav
448,192,203109,1,0,0:0:0:70:F#4S_Gb4S_s.wav
192,192,203288,1,0,0:0:0:70:B5S_s.wav
320,192,203468,1,0,0:0:0:70:C#6S_Db6S_s.wav
192,192,203647,1,0,0:0:0:70:D6S_s.wav
64,192,203827,1,0,0:0:0:70:F#4S_Gb4S_s.wav
448,192,203827,1,0,0:0:0:70:B3S_s.wav
192,192,204007,1,0,0:0:0:70:B5S_s.wav
320,192,204186,1,0,0:0:0:70:C#6S_Db6S_s.wav
192,192,204366,1,0,0:0:0:70:D6S_s.wav
320,192,204546,1,0,0:0:0:70:F4S_s.wav
448,192,204546,1,0,0:0:0:70:A#3S_Bb3S_s.wav
64,192,204726,1,0,0:0:0:70:A#5S_Bb5S_s.wav
320,192,204907,1,0,0:0:0:70:C6S_s.wav
192,192,205088,1,0,0:0:0:70:D6S_s.wav
320,192,205268,1,0,0:0:0:70:F4S_s.wav
448,192,205268,1,0,0:0:0:70:A#3S_Bb3S_s.wav
64,192,205449,1,0,0:0:0:70:A#5S_Bb5S_s.wav
320,192,205630,1,0,0:0:0:70:C6S_s.wav
192,192,205811,1,0,0:0:0:70:D6S_s.wav
320,192,205991,1,0,0:0:0:70:A#3S_Bb3S_s.wav
448,192,205991,1,0,0:0:0:70:F4S_s.wav
64,192,206172,1,0,0:0:0:70:A#5S_Bb5S_s.wav
448,192,206354,1,0,0:0:0:70:C6S_s.wav
192,192,206536,1,0,0:0:0:70:E6S_s.wav
320,192,206718,1,0,0:0:0:70:A#3S_Bb3S_s.wav
448,192,206718,1,0,0:0:0:70:F4S_s.wav
64,192,206900,1,0,0:0:0:70:A5S_s.wav
448,192,207081,1,0,0:0:0:70:C6S_s.wav
192,192,207263,1,0,0:0:0:70:E6S_s.wav
64,192,207445,1,0,0:0:0:70:A4S_s.wav
320,192,207445,1,0,0:0:0:70:A#3S_Bb3S_s.wav
448,192,207630,1,0,0:0:0:70:C6S_s.wav
64,192,207815,1,0,0:0:0:70:E6S_s.wav
192,192,208000,1,0,0:0:0:70:F6S_s.wav
64,192,208185,1,0,0:0:0:70:A4S_s.wav
320,192,208185,1,0,0:0:0:70:A#3S_Bb3S_s.wav
448,192,208370,1,0,0:0:0:70:C6S_s.wav
64,192,208556,1,0,0:0:0:70:E6S_s.wav
192,192,208741,1,0,0:0:0:70:F6S_s.wav
64,192,208926,1,0,0:0:0:70:A3S_s.wav
320,192,208926,1,0,0:0:0:70:F4S_s.wav
448,192,209111,1,0,0:0:0:70:C5S_s.wav
64,192,209296,1,0,0:0:0:70:E6S_s.wav
192,192,209482,1,0,0:0:0:70:F6S_s.wav
64,192,209667,1,0,0:0:0:70:F4S_s.wav
320,192,209667,1,0,0:0:0:70:A#3S_Bb3S_s.wav
448,192,209852,1,0,0:0:0:70:A5S_s.wav
64,192,210037,1,0,0:0:0:70:E6S_s.wav
320,192,210222,1,0,0:0:0:70:F6S_s.wav
64,192,210407,1,0,0:0:0:70:G#4S_Ab4S_s.wav
192,192,210407,1,0,0:0:0:70:G#3S_Ab3S_s.wav
448,192,210593,1,0,0:0:0:70:D#6S_Eb6S_s.wav
192,192,210779,1,0,0:0:0:70:G6S_s.wav
320,192,210966,1,0,0:0:0:70:A#6S_Bb6S_s.wav
64,192,211152,1,0,0:0:0:70:G#4S_Ab4S_s.wav
192,192,211152,1,0,0:0:0:70:G#3S_Ab3S_s.wav
448,192,211338,1,0,0:0:0:70:D#6S_Eb6S_s.wav
192,192,211525,1,0,0:0:0:70:G6S_s.wav
320,192,211711,1,0,0:0:0:70:A#6S_Bb6S_s.wav
64,192,211897,1,0,0:0:0:70:G#4S_Ab4S_s.wav
192,192,211897,1,0,0:0:0:70:G#3S_Ab3S_s.wav
320,192,212085,1,0,0:0:0:70:D#6S_Eb6S_s.wav
192,192,212274,1,0,0:0:0:70:G6S_s.wav
448,192,212463,1,0,0:0:0:70:A#6S_Bb6S_s.wav
64,192,212651,1,0,0:0:0:70:A5S_s.wav
320,192,212840,1,0,0:0:0:70:D#6S_Eb6S_s.wav
192,192,213029,1,0,0:0:0:70:G6S_s.wav
448,192,213217,1,0,0:0:0:70:A#6S_Bb6S_s.wav
64,192,213406,1,0,0:0:0:70:A6S_s.wav
448,192,213406,1,0,0:0:0:70:G4S_s.wav
320,192,213598,1,0,0:0:0:70:D6S_s.wav
192,192,213790,1,0,0:0:0:70:G6S_s.wav
448,192,213982,1,0,0:0:0:70:D5S_s.wav
64,192,214175,1,0,0:0:0:70:A6S_s.wav
320,192,214367,1,0,0:0:0:70:D6S_s.wav
448,192,214559,1,0,0:0:0:70:G6S_s.wav
64,192,214752,1,0,0:0:0:70:D5S_s.wav
64,192,214944,1,0,0:0:0:70:D7S_s.wav
192,192,214944,1,0,0:0:0:70:B4S_s.wav
320,192,215136,1,0,0:0:0:70:D6S_s.wav
192,192,215329,1,0,0:0:0:70:B5S_s.wav
448,192,215521,1,0,0:0:0:70:G5S_s.wav
64,192,215713,1,0,0:0:0:70:D7S_s.wav
320,192,215906,1,0,0:0:0:70:D6S_s.wav
192,192,216098,1,0,0:0:0:70:B5S_s.wav
64,192,216290,1,0,0:0:0:70:G5S_s.wav
64,192,216482,1,0,0:0:0:70:B6S_s.wav
448,192,216482,1,0,0:0:0:70:B4S_s.wav
320,192,216676,1,0,0:0:0:70:A6S_s.wav
64,192,216871,1,0,0:0:0:70:B5S_s.wav
448,192,217066,1,0,0:0:0:70:A5S_s.wav
192,192,217261,1,0,0:0:0:70:B4S_s.wav
320,192,217456,1,0,0:0:0:70:A5S_s.wav
64,192,217650,1,0,0:0:0:70:B5S_s.wav
448,192,217845,1,0,0:0:0:70:F#6S_Gb6S_s.wav
320,192,218040,1,0,0:0:0:70:G6S_s.wav
448,192,218040,1,0,0:0:0:70:D4S_s.wav
192,192,218236,1,0,0:0:0:70:F#6S_Gb6S_s.wav
448,192,218432,1,0,0:0:0:70:B5S_s.wav
64,192,218628,1,0,0:0:0:70:G5S_s.wav
320,192,218824,1,0,0:0:0:70:F#5S_Gb5S_s.wav
192,192,219020,1,0,0:0:0:70:G5S_s.wav
448,192,219216,1,0,0:0:0:70:B5S_s.wav
64,192,219412,1,0,0:0:0:70:F#6S_Gb6S_s.wav
64,192,219608,1,0,0:0:0:70:F5S_s.wav
192,192,219608,1,0,0:0:0:70:C7S_s.wav
320,192,219806,1,0,0:0:0:70:A6S_s.wav
192,192,220005,1,0,0:0:0:70:E6S_s.wav
64,192,220204,1,0,0:0:0:70:C6S_s.wav
448,192,220402,1,0,0:0:0:70:A5S_s.wav
192,192,220601,1,0,0:0:0:70:C6S_s.wav
320,192,220800,1,0,0:0:0:70:E6S_s.wav
64,192,220998,1,0,0:0:0:70:F6S_s.wav
64,192,221197,1,0,0:0:0:70:C7S_s.wav
192,192,221197,1,0,0:0:0:70:F4S_s.wav
320,192,221398,1,0,0:0:0:70:A6S_s.wav
192,192,221599,1,0,0:0:0:70:E6S_s.wav
64,192,221801,1,0,0:0:0:70:C6S_s.wav
448,192,222002,1,0,0:0:0:70:A5S_s.wav
192,192,222203,1,0,0:0:0:70:C6S_s.wav
320,192,222405,1,0,0:0:0:70:E6S_s.wav
64,192,222606,1,0,0:0:0:70:F6S_s.wav
64,192,222807,1,0,0:0:0:70:D7S_s.wav
448,192,222807,1,0,0:0:0:70:A#4S_Bb4S_s.wav
320,192,223009,1,0,0:0:0:70:G6S_s.wav
192,192,223212,1,0,0:0:0:70:D6S_s.wav
448,192,223415,1,0,0:0:0:70:C6S_s.wav
64,192,223617,1,0,0:0:0:70:D5S_s.wav
320,192,223820,1,0,0:0:0:70:G5S_s.wav
192,192,224023,1,0,0:0:0:70:D6S_s.wav
448,192,224225,1,0,0:0:0:70:G6S_s.wav
64,192,224428,1,0,0:0:0:70:C7S_s.wav
448,192,224428,1,0,0:0:0:70:E5S_s.wav
192,192,224632,1,0,0:0:0:70:F6S_s.wav
448,192,224836,1,0,0:0:0:70:E6S_s.wav
320,192,225040,1,0,0:0:0:70:C6S_s.wav
64,192,225244,1,0,0:0:0:70:G5S_s.wav
448,192,225448,1,0,0:0:0:70:E5S_s.wav
192,192,225652,1,0,0:0:0:70:C5S_s.wav
320,192,225856,1,0,0:0:0:70:A4S_s.wav
64,192,226060,1,0,0:0:0:70:D4S_s.wav
448,192,226162,1,0,0:0:0:70:A4S_s.wav
192,192,226265,1,0,0:0:0:70:G5S_s.wav
320,192,226368,1,0,0:0:0:70:C#6S_Db6S_s.wav
448,192,226470,1,0,0:0:0:70:D6S_s.wav
64,192,226573,1,0,0:0:0:70:C5S_s.wav
320,192,226676,1,0,0:0:0:70:E6S_s.wav
192,192,226779,1,0,0:0:0:70:F#6S_Gb6S_s.wav
448,192,226881,1,0,0:0:0:70:D5S_s.wav
64,192,226984,1,0,0:0:0:70:A6S_s.wav
192,192,227087,1,0,0:0:0:70:C#7S_Db7S_s.wav
320,192,227292,128,0,227397:0:0:0:70:E7S_s.wav
64,192,227714,128,0,227820:0:0:0:70:F#7S_Gb7S_s.wav
448,192,228139,128,0,228267:0:0:0:70:G#7S_Ab7S_s.wav
192,192,228651,128,0,228780:0:0:0:70:A7S_s.wav
