osu file format v14

[General]
AudioFilename: audio.mp3
AudioLeadIn: 0
PreviewTime: 36638
Countdown: 0
SampleSet: Soft
StackLeniency: 0.5
Mode: 0
LetterboxInBreaks: 0
EpilepsyWarning: 1
WidescreenStoryboard: 1

[Editor]
Bookmarks: 12456,37071,61687,73994,98610,122840,123225,147840,172456,197071,233994,258610,283225,307840,320148,331687,332456,357071,381687,430917,443610
DistanceSpacing: 1
BeatDivisor: 8
GridSize: 16
TimelineZoom: 1.6

[Metadata]
Title:cherry blossoms explode across the dying horizon
TitleUnicode:cherry blossoms explode across the dying horizon
Artist:sakuraburst
ArtistUnicode:sakuraburst
Creator:hytaa
Version:isolation
Source:
Tags:featured artist fa deconstructing nature marathon sylvir electronic instrumental ambient glitch heavy idm distorted horizons sb himada hima cbeatdh
BeatmapID:3405178
BeatmapSetID:1667697

[Difficulty]
HPDrainRate:4
CircleSize:3.7
OverallDifficulty:8
ApproachRate:9.2
SliderMultiplier:1.4
SliderTickRate:1

[Events]
//Background and Video events
0,0,"cherr.jpg",0,0
//Break Periods
2,62079,67270
//Storyboard Layer 0 (Background)
//Storyboard Layer 1 (Fail)
//Storyboard Layer 2 (Pass)
//Storyboard Layer 3 (Foreground)
//Storyboard Layer 4 (Overlay)
//Storyboard Sound Samples

[TimingPoints]
1687,384.615384615385,4,2,1,30,1,0
7840,-100,4,2,1,35,0,0
10148,-100,4,2,1,40,0,0
11302,-100,4,2,1,20,0,0
12456,-200,4,2,1,30,0,0
29379,-100,4,2,1,40,0,0
29956,-100,4,2,1,30,0,0
30148,-100,4,2,1,40,0,0
30533,-100,4,2,1,30,0,0
30917,-133.333333333333,4,2,1,40,0,0
32456,-133.333333333333,4,2,1,10,0,0
32840,-133.333333333333,4,2,1,40,0,0
33898,-133.333333333333,4,2,1,10,0,0
33994,-200,4,2,1,20,0,0
34379,-200,4,2,1,10,0,0
34763,-200,4,2,1,20,0,0
35148,-200,4,2,1,30,0,0
35533,-200,4,2,1,40,0,0
35917,-200,4,2,1,50,0,0
36302,-200,4,2,1,60,0,0
36590,-200,4,2,1,40,0,0
36687,-33.3333333333333,4,2,1,80,0,0
37071,-100,4,2,1,50,0,0
37263,-100,4,2,1,20,0,0
37456,-100,4,2,1,50,0,0
37648,-100,4,2,1,20,0,0
37840,-100,4,2,1,50,0,0
38994,-100,4,2,1,20,0,0
39379,-100,4,2,1,50,0,0
40533,-100,4,2,1,20,0,0
40917,-100,4,2,1,50,0,0
41302,-100,4,2,1,20,0,0
41687,-100,4,2,1,50,0,0
42071,-100,4,2,1,20,0,0
42456,-100,4,2,1,50,0,0
42840,-100,4,2,1,20,0,0
43225,-100,4,2,1,50,0,0
43417,-100,4,2,1,20,0,0
43610,-100,4,2,1,50,0,0
43802,-100,4,2,1,20,0,0
43994,-100,4,2,1,50,0,0
45148,-100,4,2,1,20,0,0
45533,-100,4,2,1,50,0,0
46302,-100,4,2,1,20,0,0
46494,-133.333333333333,4,2,1,50,0,0
47071,-142.857142857143,4,2,1,50,0,0
47840,-166.666666666667,4,2,1,50,0,0
48610,-200,4,2,1,50,0,0
49379,-100,4,2,1,50,0,0
49571,-100,4,2,1,20,0,0
49763,-133.333333333333,4,2,1,50,0,0
49956,-133.333333333333,4,2,1,20,0,0
50148,-200,4,2,1,50,0,0
50340,-200,4,2,1,20,0,0
50533,-133.333333333333,4,2,1,50,0,0
50725,-133.333333333333,4,2,1,20,0,0
50917,-100,4,2,1,50,0,0
51110,-100,4,2,1,20,0,0
51302,-133.333333333333,4,2,1,50,0,0
51494,-133.333333333333,4,2,1,20,0,0
51687,-133.333333333333,4,2,1,50,0,0
51879,-133.333333333333,4,2,1,20,0,0
52071,-100,4,2,1,50,0,0
52263,-100,4,2,1,20,0,0
52456,-133.333333333333,4,2,1,50,0,0
52648,-133.333333333333,4,2,1,20,0,0
52840,-133.333333333333,4,2,1,50,0,0
53033,-133.333333333333,4,2,1,20,0,0
53225,-100,4,2,1,50,0,0
53417,-100,4,2,1,20,0,0
53610,-133.333333333333,4,2,1,50,0,0
53802,-133.333333333333,4,2,1,20,0,0
53994,-100,4,2,1,50,0,0
54187,-100,4,2,1,20,0,0
54379,-80,4,2,1,50,0,0
54571,-80,4,2,1,20,0,0
54763,-100,4,2,1,50,0,0
55148,-100,4,2,1,20,0,0
55340,-100,4,2,1,50,0,0
56687,-100,4,2,1,20,0,0
57071,-100,4,2,1,50,0,0
58225,-100,4,2,1,20,0,0
58610,-100,4,2,1,50,0,0
61494,-100,4,2,1,30,0,0
61687,-100,4,2,4,70,0,0
67840,-133.333333333333,4,2,1,20,0,0
70052,-133.333333333333,4,2,1,30,0,0
70917,-133.333333333333,4,2,1,30,0,0
71302,-133.333333333333,4,2,1,10,0,0
71687,-133.333333333333,4,2,1,20,0,0
72071,-133.333333333333,4,2,1,30,0,0
72456,-133.333333333333,4,2,1,40,0,0
72840,-133.333333333333,4,2,1,50,0,0
73225,-133.333333333333,4,2,1,60,0,0
73610,-133.333333333333,4,2,1,70,0,0
73994,-66.6666666666667,4,2,2,70,0,1
77071,-200,4,2,1,70,0,0
77648,-200,4,2,1,20,0,0
77840,-200,4,2,1,30,0,0
78610,-133.333333333333,4,2,1,40,0,0
79379,-100,4,2,1,50,0,0
80148,-66.6666666666667,4,2,2,70,0,1
83129,-66.6666666666667,4,2,1,50,0,1
83225,-285.714285714286,4,2,1,40,0,0
83321,-285.714285714286,4,2,1,30,0,0
83610,-285.714285714286,4,2,1,10,0,0
83994,-285.714285714286,4,2,1,20,0,0
84379,-285.714285714286,4,2,1,30,0,0
84763,-285.714285714286,4,2,1,40,0,0
85148,-285.714285714286,4,2,1,50,0,0
85533,-285.714285714286,4,2,1,60,0,0
85917,-285.714285714286,4,2,1,70,0,0
86302,-66.6666666666667,4,2,2,70,0,1
89283,-66.6666666666667,4,2,1,60,0,1
89379,-66.6666666666667,4,2,1,60,0,0
89763,-133.333333333333,4,2,1,60,0,0
90148,-200,4,2,1,30,0,0
90917,-133.333333333333,4,2,1,40,0,0
91687,-66.6666666666667,4,2,1,50,0,0
92071,-66.6666666666667,4,2,1,70,0,0
92456,-200,4,2,1,50,0,0
92552,-200,4,2,1,5,0,0
92648,-200,4,2,1,10,0,0
92744,-200,4,2,1,15,0,0
92840,-200,4,2,1,20,0,0
93225,-200,4,2,1,25,0,0
93610,-200,4,2,1,30,0,0
93994,-200,4,2,1,35,0,0
94379,-200,4,2,1,40,0,0
94763,-200,4,2,1,45,0,0
95148,-200,4,2,1,50,0,0
95533,-200,4,2,1,20,0,0
96302,-200,4,2,1,30,0,0
97071,-133.333333333333,4,2,1,40,0,0
97840,-100,4,2,1,50,0,0
98610,-100,4,2,1,70,0,0
98994,-100,4,2,1,40,0,0
99379,-133.333333333333,4,2,1,40,0,0
100148,-200,4,2,1,40,0,0
101687,-100,4,2,1,40,0,0
102456,-133.333333333333,4,2,1,40,0,0
103225,-200,4,2,1,40,0,0
103994,-400,4,2,1,40,0,0
104763,-100,4,2,1,40,0,0
105533,-133.333333333333,4,2,1,40,0,0
106302,-200,4,2,1,40,0,0
107840,-100,4,2,1,40,0,0
108610,-133.333333333333,4,2,1,40,0,0
109379,-200,4,2,1,40,0,0
110148,-400,4,2,1,40,0,0
110917,-400,4,2,1,50,0,0
113321,-400,4,2,1,35,0,0
113994,-400,4,2,1,50,0,0
116687,-400,4,2,1,30,0,0
117071,-400,4,2,3,60,0,0
121687,-66.6666666666667,4,2,3,50,0,0
122456,-66.6666666666667,4,2,3,40,0,0
122840,-200,4,2,2,70,0,0
123225,-25,4,2,2,70,0,1
123610,-40,4,2,2,70,0,1
123898,-33.3333333333333,4,2,2,70,0,1
124187,-40,4,2,2,70,0,1
126302,-25,4,2,2,70,0,1
126687,-100,4,2,2,70,0,1
127840,-40,4,2,2,70,0,1
129379,-25,4,2,2,70,0,1
129763,-50,4,2,2,70,0,1
130725,-50,4,2,6,70,0,1
130917,-33.3333333333333,4,2,2,70,0,1
131302,-66.6666666666667,4,2,2,70,0,1
131590,-100,4,2,2,70,0,1
132071,-40,4,2,2,70,0,1
132456,-25,4,2,2,70,0,1
132840,-33.3333333333333,4,2,2,70,0,1
135148,-66.6666666666667,4,2,2,70,0,1
135244,-66.6666666666667,4,2,6,50,0,1
135533,-66.6666666666667,4,2,2,70,0,1
135917,-40,4,2,2,70,0,1
137071,-50,4,2,2,70,0,1
138610,-25,4,2,2,70,0,1
138994,-100,4,2,2,70,0,1
140148,-50,4,2,2,70,0,1
140533,-40,4,2,2,70,0,1
141687,-25,4,2,2,70,0,1
142071,-66.6666666666667,4,2,2,70,0,1
142864,-66.6666666666667,4,2,2,50,0,1
143225,-25,4,2,2,70,0,1
143610,-100,4,2,2,70,0,1
144571,-100,4,2,6,70,0,1
144763,-25,4,2,2,70,0,1
145148,-33.3333333333333,4,2,2,70,0,1
147456,-33.3333333333333,4,2,2,70,0,0
147552,-33.3333333333333,4,2,6,60,0,0
147648,-33.3333333333333,4,2,2,50,0,0
147744,-33.3333333333333,4,2,6,50,0,0
147840,-25,4,2,2,70,0,1
148610,-50,4,2,2,70,0,1
149187,-33.3333333333333,4,2,2,70,0,1
149763,-25,4,2,2,70,0,1
151302,-25,4,2,2,5,0,1
151398,-25,4,2,2,70,0,1
151687,-100,4,2,2,70,0,1
152648,-33.3333333333333,4,2,2,70,0,1
153994,-25,4,2,2,70,0,1
154763,-100,4,2,2,70,0,1
155340,-33.3333333333333,4,2,2,70,0,1
155917,-25,4,2,2,70,0,1
157071,-30.3030303030303,4,2,2,70,0,1
157840,-25,4,2,2,50,0,0
157937,-133.333333333333,4,2,2,50,0,0
160148,-25,4,2,2,70,0,1
160917,-100,4,2,2,70,0,1
161687,-33.3333333333333,4,2,2,70,0,1
162071,-25,4,2,2,70,0,1
163994,-100,4,2,2,70,0,1
164956,-33.3333333333333,4,2,2,70,0,1
166302,-25,4,2,2,70,0,1
167071,-100,4,2,2,70,0,1
167840,-33.3333333333333,4,2,2,70,0,1
168225,-25,4,2,2,70,0,1
170148,-25,4,2,2,50,0,0
170917,-333.333333333333,4,2,1,50,0,0
172263,-333.333333333333,4,2,1,30,0,0
172456,-333.333333333333,4,2,1,50,0,0
172840,-333.333333333333,4,2,1,30,0,0
174956,-333.333333333333,4,2,1,50,0,0
175917,-333.333333333333,4,2,1,30,0,0
178225,-166.666666666667,4,2,1,30,0,0
178610,-333.333333333333,4,2,1,50,0,0
178994,-333.333333333333,4,2,1,30,0,0
181110,-133.333333333333,4,2,1,50,0,0
182071,-133.333333333333,4,2,1,30,0,0
184763,-133.333333333333,4,2,1,50,0,0
185148,-133.333333333333,4,2,1,30,0,0
194763,-153.846153846154,4,2,1,30,0,0
195148,-181.818181818182,4,2,1,30,0,0
195533,-222.222222222222,4,2,1,30,0,0
195917,-285.714285714286,4,2,1,30,0,0
196302,-400,4,2,1,30,0,0
196687,-666.666666666667,4,2,1,30,0,0
197075,769.230769230769,4,2,1,80,1,0
197075,-109.541023113156,4,2,1,80,0,0
197456,-219.298245614035,4,2,1,30,0,0
203084,555.555555555556,4,2,1,50,1,8
203228,777.20207253886,4,2,1,50,1,0
207891,722.89156626506,4,2,1,50,1,8
208613,819.672131147541,4,2,1,50,1,8
209432,769.230769230769,4,2,1,50,1,0
210970,-129.87012987013,4,2,1,50,0,0
212508,708.382526564345,4,2,1,30,1,8
213216,-100,4,2,1,5,0,0
214278,-100,4,2,1,30,0,0
215341,1016.94915254237,4,2,1,50,1,0
216357,914.634146341464,4,2,1,50,1,8
217271,1250,4,2,1,50,1,8
217271,-66.6666666666667,4,2,1,50,0,0
218521,714.285714285714,4,2,1,50,1,8
218521,-117.647058823529,4,2,1,50,0,0
219235,916.030534351145,4,2,1,50,1,8
220151,517.241379310345,4,2,1,50,1,0
220151,-156.25,4,2,1,50,0,0
224288,869.565217391304,4,2,1,50,1,0
225155,923.076923076923,4,2,1,50,1,8
226068,983.606557377049,4,2,1,50,1,8
226068,-87.719298245614,4,2,1,50,0,0
228035,476.190476190476,4,2,1,50,1,8
228035,-166.666666666667,4,2,1,50,0,0
228511,387.096774193548,4,2,1,50,1,8
228511,-166.666666666667,4,2,1,50,0,0
228898,434.782608695652,4,2,1,50,1,8
228898,-166.666666666667,4,2,1,50,0,0
229332,447.761194029851,7,2,1,50,1,0
229332,-166.666666666667,7,2,1,50,0,0
230451,-166.666666666667,7,2,1,5,0,0
231011,-185.528756957328,7,2,1,50,0,0
232459,384.615384615385,5,2,1,50,1,8
234000,384.615384615385,4,2,1,50,1,0
234000,-222.222222222222,4,2,1,50,0,0
245533,-769.230769230769,4,2,1,30,0,0
246302,-166.666666666667,4,2,1,40,0,0
257074,-166.666666666667,4,2,1,40,0,0
258610,-166.666666666667,4,2,1,50,0,0
270533,-25,4,2,1,50,0,0
270581,-166.666666666667,4,2,1,5,0,0
270629,-166.666666666667,4,2,1,50,0,0
280148,-166.666666666667,4,2,8,50,0,0
281687,-133.333333333333,4,2,8,50,0,0
283033,-66.6666666666667,4,2,8,50,0,0
283225,-25,4,2,4,60,0,0
307840,-22.2222222222222,4,2,4,60,0,0
308225,-100,4,2,4,60,0,0
308994,-22.2222222222222,4,2,4,60,0,0
309379,-100,4,2,4,60,0,0
310148,-22.2222222222222,4,2,4,60,0,0
310533,-100,4,2,4,60,0,0
310917,-22.2222222222222,4,2,4,60,0,0
311302,-100,4,2,4,60,0,0
312071,-22.2222222222222,4,2,4,60,0,0
312456,-100,4,2,4,60,0,0
313225,-22.2222222222222,4,2,4,60,0,0
313610,-100,4,2,4,60,0,0
313994,-22.2222222222222,4,2,4,60,0,0
314379,-100,4,2,4,60,0,0
315148,-22.2222222222222,4,2,4,60,0,0
315533,-100,4,2,4,60,0,0
316302,-22.2222222222222,4,2,4,60,0,0
316687,-100,4,2,4,60,0,0
317071,-22.2222222222222,4,2,4,60,0,0
317456,-100,4,2,4,60,0,0
318225,-22.2222222222222,4,2,4,60,0,0
318610,-100,4,2,4,60,0,0
319379,-22.2222222222222,4,2,4,60,0,0
319763,-100,4,2,4,60,0,0
320148,-200,4,2,3,60,0,0
320533,-142.857142857143,4,2,3,60,0,0
320917,-111.111111111111,4,2,3,60,0,0
321302,-90.9090909090909,4,2,3,60,0,0
321687,-76.9230769230769,4,2,3,60,0,0
322071,-66.6666666666667,4,2,3,60,0,0
322456,-58.8235294117647,4,2,3,60,0,0
323225,-52.6315789473684,4,2,3,60,0,0
323610,-47.6190476190476,4,2,3,60,0,0
323994,-43.4782608695652,4,2,3,60,0,0
324379,-40,4,2,3,60,0,0
324763,-37.037037037037,4,2,3,60,0,0
325148,-34.4827586206897,4,2,3,60,0,0
325533,-32.258064516129,4,2,3,60,0,0
325917,-30.3030303030303,4,2,3,60,0,0
326302,-30.3030303030303,4,2,1,60,0,0
332461,-30.3030303030303,4,2,5,70,0,1
333038,-25,4,2,5,70,0,1
333615,-133.333333333333,4,2,5,70,0,1
334192,-20,4,2,5,70,0,1
334768,-66.6666666666667,4,2,5,70,0,1
335538,-33.3333333333333,4,2,5,70,0,1
336115,-25,4,2,5,70,0,1
336692,-133.333333333333,4,2,5,70,0,1
337268,-20,4,2,5,70,0,1
337845,-66.6666666666667,4,2,5,70,0,1
338615,-66.6666666666667,4,2,5,40,0,1
339192,-25,4,2,5,70,0,1
339768,-133.333333333333,4,2,5,70,0,1
340345,-19.2307692307692,4,2,5,70,0,1
340922,-100,4,2,5,70,0,1
341692,-66.6666666666667,4,2,5,70,0,1
342268,-50,4,2,5,70,0,1
342845,-133.333333333333,4,2,5,70,0,1
343422,-25,4,2,5,70,0,1
344000,-100,4,2,5,70,0,0
344769,-33.3333333333333,4,2,5,70,0,1
345345,-25,4,2,5,70,0,1
345922,-133.333333333333,4,2,5,70,0,1
346499,-20,4,2,5,70,0,1
347076,-100,4,2,5,70,0,1
347845,-50,4,2,5,70,0,1
348422,-33.3333333333333,4,2,5,70,0,1
348999,-133.333333333333,4,2,5,70,0,1
349576,-20,4,2,5,70,0,1
350153,-100,4,2,5,70,0,1
350922,-100,4,2,5,40,0,1
351499,-25,4,2,5,70,0,1
352076,-133.333333333333,4,2,5,70,0,1
352653,-20,4,2,5,70,0,1
353230,-100,4,2,5,70,0,1
353999,-50,4,2,5,70,0,1
354576,-25,4,2,5,70,0,1
355153,-133.333333333333,4,2,5,70,0,1
355730,-20,4,2,5,70,0,1
356307,-20,4,2,7,70,0,0
356499,-50,4,2,7,70,0,0
357076,-100,4,2,5,75,0,1
357653,-25,4,2,5,75,0,1
358230,-100,4,2,5,75,0,1
358807,-20,4,2,5,75,0,1
359384,-66.6666666666667,4,2,5,75,0,1
360153,-100,4,2,5,75,0,1
360730,-25,4,2,5,75,0,1
361307,-133.333333333333,4,2,5,75,0,1
361884,-20.8333333333333,4,2,5,75,0,1
362461,-66.6666666666667,4,2,6,75,0,1
362845,-66.6666666666667,4,2,5,75,0,1
362942,-66.6666666666667,4,2,6,75,0,1
363230,-133.333333333333,4,2,6,75,0,1
363807,-25,4,2,5,75,0,1
364384,-100,4,2,5,75,0,1
364961,-25,4,2,5,75,0,1
365538,-133.333333333333,4,2,5,75,0,1
366307,-50,4,2,5,75,0,1
366884,-33.3333333333333,4,2,5,75,0,1
367461,-100,4,2,5,75,0,1
368038,-20,4,2,5,75,0,1
368615,-100,4,2,5,75,0,1
369384,-100,4,2,5,60,0,0
369768,-66.6666666666667,4,2,5,60,0,0
369865,-66.6666666666667,4,2,2,30,0,0
369961,-25,4,2,5,75,0,1
370538,-133.333333333333,4,2,5,75,0,1
371115,-25,4,2,5,75,0,1
371692,-100,4,2,5,75,0,1
373038,-25,4,2,5,75,0,1
373615,-100,4,2,5,75,0,1
374192,-25,4,2,5,75,0,1
374768,-100,4,2,5,75,0,1
375538,-100,4,2,5,75,0,0
375826,-100,4,2,6,75,0,0
375922,-100,4,2,6,75,0,0
376115,-100,4,2,6,75,0,0
376307,-33.3333333333333,4,2,2,75,0,1
376692,-25,4,2,2,75,0,1
377076,-18.1818181818182,4,2,2,75,0,1
378230,-18.1818181818182,4,2,6,75,0,1
378615,-25,4,2,2,75,0,1
379095,-25,4,2,6,75,0,1
379192,-22.7272727272727,4,2,2,75,0,1
379672,-22.7272727272727,4,2,6,75,0,1
379768,-23.2558139534884,4,2,2,75,0,1
380057,-23.2558139534884,4,2,6,75,0,1
380345,-23.2558139534884,4,2,2,75,0,1
380634,-25,4,2,6,75,0,1
380922,-25,4,2,2,75,0,1
381307,-25,4,2,1,75,0,1
381692,-100,4,2,2,75,0,0

[Colours]
Combo1 : 255,192,243
Combo2 : 255,148,200
Combo3 : 211,88,255
Combo4 : 197,122,255
Combo5 : 255,49,159
Combo6 : 255,88,192
Combo7 : 255,119,204
Combo8 : 255,116,164

[HitObjects]
140,74,2071,117,2,2:2:0:0:
115,183,2456,1,0,2:2:0:0:
135,213,2840,1,2,2:2:0:0:
164,74,3225,5,2,2:2:0:0:
101,172,3610,1,0,2:2:0:0:
146,232,3994,1,2,2:2:0:0:
186,88,4379,101,2,2:2:0:0:
96,150,4763,1,0,2:2:0:0:
137,246,5148,1,2,2:2:0:0:
218,108,5533,5,2,2:2:0:0:
107,130,5918,1,0,2:2:0:0:
137,246,6302,1,2,2:2:0:0:
232,125,6687,101,2,2:2:0:0:
124,114,7071,1,0,2:2:0:0:
119,258,7456,1,2,2:2:0:0:
252,157,7840,5,2,2:2:0:0:
147,111,8225,1,0,2:2:0:0:
95,264,8610,1,2,2:2:0:0:
257,192,8994,101,2,2:2:0:0:
174,127,9379,1,0,2:2:0:0:
68,249,9764,1,2,2:2:0:0:
242,224,10148,5,2,2:2:0:0:
173,147,10533,1,0,2:2:0:0:
51,214,10918,1,2,2:2:0:0:
201,226,11302,101,2,2:2:0:0:
161,153,11687,1,0,2:2:0:0:
43,176,12071,1,2,2:2:0:0:
350,284,12456,6,0,B|324:215|221:214|217:383|408:302,1,280,2|0,0:0|0:0,0:0:0:0:
250,140,14379,1,2,2:2:0:0:
261,311,14763,101,2,2:2:0:0:
408,221,15147,1,0,2:2:0:0:
156,98,15533,6,0,B|172:132|232:85|186:0|36:52|79:207,1,280,2|2,0:0|0:0,0:0:0:0:
314,268,17456,1,0,2:2:0:0:
212,113,17840,1,2,2:2:0:0:
357,98,18225,101,2,2:2:0:0:
226,338,18610,6,0,B|256:279|227:240|209:262|184:207|211:150|279:147|320:189|309:239|275:260,1,280,2|2,0:0|0:0,0:0:0:0:
402,123,20533,101,2,2:2:0:0:
252,277,20917,1,0,2:2:0:0:
133,136,21302,1,2,2:2:0:0:
434,143,21687,6,0,B|407:147|341:78|409:-2|512:64|459:111|413:132|391:159|424:216,1,280,2|0,0:0|0:0,0:0:0:0:
157,93,23610,1,2,2:2:0:0:
435,167,23994,101,2,2:2:0:0:
202,266,24379,1,0,2:2:0:0:
206,20,24763,5,2,2:2:0:0:
280,244,25148,1,0,2:2:0:0:
283,256,25533,1,0,2:2:0:0:
231,14,25917,101,2,2:2:0:0:
305,238,26302,1,0,2:2:0:0:
308,250,26687,1,0,2:2:0:0:
256,6,27071,5,2,2:2:0:0:
330,230,27456,1,0,2:2:0:0:
333,242,27841,1,0,2:2:0:0:
281,0,28225,101,2,2:2:0:0:
355,224,28610,1,0,2:2:0:0:
358,236,28995,1,0,2:2:0:0:
81,237,29379,6,0,B|212:274|240:201|179:157|151:213,1,210,2|0,2:2|2:2,2:2:0:0:
371,147,30148,2,0,B|283:172|271:122|301:93|328:123,1,140,2|0,2:2|2:2,2:2:0:0:
263,302,30725,85,2,2:2:0:0:
263,302,30821,1,2,2:2:0:0:
263,302,30917,2,0,B|289:264|335:269|335:269|342:277|342:277|280:201|101:180|54:266|54:266|168:205|182:317|244:209|173:134|170:173|133:123|139:49|167:33|207:47|230:72|230:122|175:97,1,813.7500310421,2|0,2:2|2:2,2:2:0:0:
323,124,33994,118,0,B|304:143|304:143|313:166|334:157|334:157|335:130|335:130|347:154|347:154|380:152|373:124|373:124|347:120|347:120|374:110|374:110|381:85|354:84|354:84|340:109|340:109|343:77|343:77|321:66|312:86|312:86|327:111|327:111|301:98|301:98|283:112|299:129|299:129|316:124,1,472.5,0|0,2:2|2:2,1:2:0:0:
349,276,36687,70,0,B|326:264|301:265|301:265|306:261|306:261|278:260|259:272|259:272|244:267|239:251|239:251|237:258|237:258|233:247|232:230|232:230|230:260|212:283|212:283|221:280|221:280|189:321|143:330,1,315.000012016297,10|0,2:1|2:2,3:2:0:0:
45,295,37071,54,0,P|65:266|98:248,1,70,2|0,2:2|2:2,2:2:0:0:
73,169,37456,2,0,P|108:165|143:179,1,70,2|0,2:2|2:2,2:2:0:0:
191,114,37840,2,0,B|220:134|228:175|228:175|235:246|169:289|169:289|170:300|170:300|156:165|290:154,1,420,2|0,2:0|2:0,2:2:0:0:
511,20,39379,2,0,B|433:87|456:213|456:213|429:88|331:60,1,420,2|0,2:2|2:2,2:2:0:0:
183,299,40917,6,0,P|136:302|181:292,1,140,2|0,2:2|2:2,2:2:0:0:
373,169,41687,2,0,P|419:159|375:176,1,140,2|0,2:2|2:2,2:2:0:0:
105,52,42456,2,0,P|58:42|102:59,1,140,2|0,2:2|2:2,2:2:0:0:
335,261,43225,102,0,P|270:238|244:241,1,70,2|0,2:2|2:2,2:2:0:0:
242,147,43610,2,0,P|182:182|168:203,1,70,2|0,2:2|2:2,2:2:0:0:
84,150,43994,2,0,B|56:193|68:246|68:246|97:333|3:381|3:381|69:314|10:296|81:246,1,420,2|0,2:2|2:2,2:2:0:0:
356,343,45533,2,0,B|398:117|398:117|380:146|334:159,1,280,2|0,2:2|2:2,2:2:0:0:
250,22,46494,5,2,2:2:0:0:
250,22,46687,2,0,P|230:46|226:91,1,52.5000020027161,2|0,2:2|2:2,2:2:0:0:
356,136,47071,102,0,P|374:116|382:91,1,48.9999985046387,2|0,2:2|2:2,2:2:0:0:
258,36,47456,2,0,P|243:59|240:85,1,48.9999985046387,2|0,2:2|2:2,2:2:0:0:
351,121,47840,6,0,P|365:99|369:73,1,41.9999987182618,2|0,2:2|2:2,2:2:0:0:
266,45,48225,2,0,P|256:70|257:96,1,41.9999987182618,2|0,2:2|2:2,2:2:0:0:
351,106,48610,102,0,P|356:80|351:54,1,35,2|0,2:2|2:2,2:2:0:0:
273,55,48994,2,0,P|267:81|273:107,1,35,2|0,2:2|2:2,2:2:0:0:
437,169,49379,6,0,P|399:209|389:239,1,70,2|0,2:2|2:2,2:2:0:0:
304,204,49763,2,0,P|304:239|316:272,1,52.5000020027161,2|0,2:2|2:2,2:2:0:0:
244,327,50148,2,0,P|271:350|303:359,1,35,0|0,2:2|2:2,2:2:0:0:
360,224,50533,102,0,P|314:193|282:188,1,52.5000020027161,2|0,2:2|2:2,2:2:0:0:
303,101,50917,2,0,P|269:108|239:126,1,70,2|0,2:2|2:2,2:2:0:0:
174,66,51302,2,0,P|151:116|152:148,1,52.5000020027161,0|0,2:2|2:2,2:2:0:0:
239,125,51687,6,0,P|269:108|308:101,1,52.5000020027161,2|0,2:2|2:2,2:2:0:0:
315,15,52071,2,0,P|348:26|375:49,1,70,2|0,2:2|2:2,2:2:0:0:
449,0,52456,2,0,P|461:32|461:67,1,52.5000020027161,0|0,2:2|2:2,2:2:0:0:
443,165,52840,102,0,P|425:195|399:217,1,52.5000020027161,2|0,2:2|2:2,2:2:0:0:
435,301,53225,2,0,P|400:307|366:301,1,70,2|0,2:2|2:2,2:2:0:0:
412,207,53610,2,0,P|430:188|443:165,1,52.5000020027161,0|0,2:2|2:2,2:2:0:0:
357,138,53994,6,0,P|356:103|344:70,1,70,2|0,2:2|2:2,2:2:0:0:
269,121,54379,2,0,P|242:98|192:81,1,87.5,2|0,2:2|2:2,2:2:0:0:
126,188,54763,2,2,B|168:183|192:213|183:213|201:245|247:244,1,140,2|0,2:2|2:2,2:2:0:0:
455,224,55340,1,2,2:2:0:0:
455,224,55437,1,2,2:2:0:0:
455,224,55533,102,2,B|352:168|271:241|271:241|346:209|387:287|361:358|282:355|261:322,1,420,2|0,2:2|2:2,2:2:0:0:
142,114,57071,2,2,B|78:175|77:308|77:308|77:298|77:298|141:193|118:106,1,420,2|0,2:2|2:2,2:2:0:0:
243,143,58610,2,2,B|229:119|239:84|239:84|218:101|196:173|208:261|294:283|396:277|425:208|432:169|350:79|294:64|238:157|220:245|257:320|314:332|314:332|222:277|164:353|151:379|26:415|-46:313|60:218|140:253|109:327|71:325,1,1050,2|0,2:2|2:2,2:2:0:0:
0,164,61687,53,12,3:3:0:0:
411,283,61879,1,12,3:3:0:0:
213,201,67840,70,0,B|186:199|167:179|167:179|257:132|344:205|297:225|412:302|496:204|496:204|447:235|391:223,1,525.000020027161,2|0,2:2|2:2,2:2:0:0:
424,126,70052,118,0,P|429:79|431:125,1,131.25000500679,2|0,2:2|2:2,2:2:0:0:
424,101,70917,2,0,B|301:46|159:46|-7:159|0:305|134:354|199:274|171:219|171:219|202:178|261:167|261:167|218:188|213:230,1,787.500030040742,2|0,2:2|2:2,1:2:0:0:
370,280,73994,38,0,P|353:328|310:355,1,105.000004005432,6|0,3:2|2:2,2:2:0:0:
458,155,74379,2,0,P|464:206|497:252,1,105.000004005432,2|0,2:2|2:2,2:2:0:0:
235,59,74763,2,2,B|251:29|281:24|281:24|220:-15|140:-2|113:62|113:62|188:116|212:192|194:253|73:320|-20:261|3:102|93:50|223:150|235:259|217:315|217:315|237:296|237:296|256:312|256:312|283:297|293:275|293:275|281:263|281:263|298:263|298:263|287:249|287:249|302:250|302:250|292:234|292:234|309:236|309:236|308:212|308:212|333:202|333:202|365:244|365:302,1,1207.50004606247,2|0,2:2|2:2,2:0:0:0:
134,314,77071,54,2,L|28:317,1,105,4|0,3:2|2:2,2:2:0:0:
33,114,77840,2,0,P|5:90|23:123,1,105,2|0,2:2|2:2,2:2:0:0:
256,138,78610,2,0,P|221:97|245:146,1,157.500006008148,2|0,2:2|2:2,2:2:0:0:
492,161,79379,2,0,P|434:114|471:180,1,210,2|0,2:2|2:2,2:2:0:0:
302,261,80148,54,0,P|354:277|399:313,1,105.000004005432,6|0,3:2|2:2,2:2:0:0:
174,210,80533,2,0,P|226:194|271:158,1,105.000004005432,2|0,2:2|2:2,2:2:0:0:
99,252,80917,2,2,B|150:294|136:383|30:394|-49:341|-3:200|74:172|89:228|156:178|146:45|83:2|83:2|61:68|91:100|91:100|98:73|98:73|171:27|328:93|304:225|304:225|295:213|295:213|282:221|282:221|274:208|274:208|260:216|260:216|250:203|250:203|237:211|237:211|231:205|231:205|250:222|250:222|224:236|224:236|239:257|239:257|216:269|216:269|223:294|223:294|207:311|202:337,1,1207.50004606247,2|0,2:2|2:2,2:2:0:0:
394,373,83225,54,0,L|452:9,1,367.49998878479,4|0,3:1|2:2,1:2:0:0:
268,116,86302,54,0,P|229:89|202:22,1,105.000004005432,6|0,3:2|2:2,2:2:0:0:
30,159,86687,2,0,P|80:146|132:155,1,105.000004005432,2|0,2:2|2:2,2:2:0:0:
217,273,87071,2,2,B|194:307|151:312|151:312|272:377|404:346|404:346|354:222|364:165|372:116|436:21|535:93|525:186|494:212|370:202|370:202|380:182|380:182|353:149|313:140|313:140|305:155|305:155|292:144|292:144|285:161|285:161|272:151|272:151|264:168|264:168|249:162|249:162|242:188|242:188|217:182|217:182|158:209|93:190,1,1207.50004606247,2|0,2:2|2:2,2:2:0:0:
13,101,89379,69,0,3:2:0:0:
152,27,89571,2,0,L|167:88,1,52.5000020027161,0|0,3:2|2:2,2:2:0:0:
97,181,89763,2,2,P|135:188|175:185,1,78.7500030040742,0|0,2:3|2:2,2:2:0:0:
320,147,90148,102,0,P|356:141|322:154,1,105,2|0,2:2|2:2,2:2:0:0:
181,203,90917,2,0,P|235:199|184:214,1,157.500006008148,2|0,2:2|2:2,2:2:0:0:
27,259,91687,2,0,P|80:251|30:272,1,157.500006008148,2|0,2:2|2:2,2:2:0:0:
69,88,92071,101,8,2:2:0:0:
315,174,92263,1,0,3:2:0:0:
229,319,92456,2,2,B|211:359|232:394|295:393|341:351|317:292|277:230|163:289|159:153|141:24|178:7|259:-18|292:9|311:43,1,560,6|0,3:2|2:2,2:2:0:0:
93,338,96302,6,0,P|125:357|89:351,1,105,2|0,2:2|2:2,2:2:0:0:
135,186,97071,2,0,P|183:216|128:206,1,157.500006008148,2|0,2:2|2:2,2:2:0:0:
189,11,97840,2,0,P|252:51|179:38,1,210,2|0,2:2|2:2,2:2:0:0:
374,13,98610,69,12,3:3:0:0:
401,234,98802,1,8,3:3:0:0:
282,174,98994,2,0,P|244:181|195:205,1,70,2|0,2:0|2:0,2:0:0:0:
139,319,99379,38,0,P|165:296|187:269,1,52.5000020027161,2|0,1:2|2:0,2:0:0:0:
222,162,99763,2,0,P|195:184|173:211,1,52.5000020027161,2|0,2:0|2:0,2:0:0:0:
180,308,100148,6,0,P|189:283|193:259,1,35,2|0,1:2|2:0,2:0:0:0:
172,175,100532,2,0,P|162:199|156:219,1,35,2|0,2:0|2:0,2:0:0:0:
342,365,100917,101,2,1:2:0:0:
359,357,101013,1,0,3:0:0:0:
372,369,101110,1,0,2:0:0:0:
386,365,101206,1,0,3:0:0:0:
402,373,101302,1,8,2:1:0:0:
328,182,101494,1,2,2:0:0:0:
303,289,101687,6,0,P|337:273|390:269,1,70,4|2,1:2|2:0,2:0:0:0:
491,134,102071,2,0,P|457:150|404:154,1,70,2|0,2:0|2:0,2:0:0:0:
305,233,102456,102,0,P|339:235|372:247,1,52.5000020027161,2|0,1:2|2:0,2:0:0:0:
480,196,102840,2,0,P|445:193|412:181,1,52.5000020027161,2|0,2:0|2:0,2:0:0:0:
327,193,103225,6,0,P|344:203|358:217,1,35,2|0,1:2|2:0,2:0:0:0:
457,235,103609,2,0,P|440:225|426:211,1,35,2|0,2:0|2:0,2:0:0:0:
369,189,103994,54,0,P|374:197|377:207,1,17.5,2|0,1:2|2:0,2:0:0:0:
81,142,104379,1,8,3:1:0:0:
85,134,104475,1,0,3:0:0:0:
89,126,104571,1,0,3:0:0:0:
93,118,104667,1,0,3:0:0:0:
97,110,104763,38,0,P|135:117|184:141,1,70,4|2,3:1|2:0,2:0:0:0:
305,233,105147,2,0,P|267:226|218:202,1,70,2|0,2:0|2:0,2:0:0:0:
162,88,105533,6,0,P|188:110|210:137,1,52.5000020027161,2|0,1:2|2:0,2:0:0:0:
244,244,105917,2,0,P|224:228|206:209,1,52.5000020027161,2|0,2:0|2:0,2:0:0:0:
203,99,106302,102,0,P|212:123|216:147,1,35,2|0,1:2|2:0,2:0:0:0:
195,232,106687,2,0,P|185:207|179:187,1,35,2|0,2:0|2:0,2:0:0:0:
432,67,107071,5,2,1:2:0:0:
444,81,107167,1,0,3:3:0:0:
462,75,107263,1,0,2:0:0:0:
473,84,107360,1,0,3:3:0:0:
491,84,107456,1,8,2:1:0:0:
264,128,107648,1,2,2:0:0:0:
361,361,107840,102,0,P|327:345|274:341,1,70,4|2,1:2|2:0,2:0:0:0:
173,206,108224,2,0,P|207:222|260:226,1,70,2|0,2:0|2:0,2:0:0:0:
359,305,108610,6,0,P|324:307|291:319,1,52.5000020027161,2|0,1:2|2:0,2:0:0:0:
183,268,108994,2,0,P|210:266|235:259,1,52.5000020027161,2|0,2:0|2:0,2:0:0:0:
337,265,109379,102,0,P|320:275|305:289,1,35,2|0,1:2|2:0,2:0:0:0:
207,307,109763,2,0,P|223:296|238:281,1,35,2|0,2:0|2:0,2:0:0:0:
295,261,110148,6,0,P|290:269|287:279,1,17.5,2|0,1:2|2:0,2:0:0:0:
49,326,110533,1,8,3:1:0:0:
51,333,110629,1,0,3:3:0:0:
52,340,110725,1,0,3:3:0:0:
54,347,110821,1,0,3:3:0:0:
56,354,110917,69,6,3:3:0:0:
198,330,111687,1,2,3:3:0:0:
487,288,112456,5,6,3:3:0:0:
330,253,113225,1,2,3:3:0:0:
322,254,113321,1,0,2:0:0:0:
314,255,113417,1,0,2:0:0:0:
306,256,113513,1,0,2:0:0:0:
14,179,113994,101,6,3:3:0:0:
159,142,114379,1,2,2:3:0:0:
506,115,114763,5,2,3:3:0:0:
361,78,115148,1,2,2:3:0:0:
8,64,115533,101,2,3:3:0:0:
153,27,115918,1,2,2:3:0:0:
491,2,116302,5,2,2:3:0:0:
451,330,116687,2,0,L|431:340,1,17.5,0|0,2:0|2:0,2:0:0:0:
365,223,117071,101,12,3:1:0:0:
266,294,117263,1,8,2:1:0:0:
266,294,117456,1,8,2:1:0:0:
266,294,117648,1,8,2:1:0:0:
87,139,117840,5,8,3:1:0:0:
266,204,118033,1,8,2:1:0:0:
266,204,118225,1,8,2:1:0:0:
266,204,118417,1,8,2:1:0:0:
396,71,118610,101,8,3:1:0:0:
179,152,118802,1,8,2:1:0:0:
179,152,118994,1,8,2:1:0:0:
179,152,119187,1,8,2:1:0:0:
67,0,119379,5,8,3:1:0:0:
355,158,119571,1,8,2:1:0:0:
355,158,119763,1,8,2:1:0:0:
355,158,119956,1,8,2:1:0:0:
275,356,120148,101,8,3:1:0:0:
267,358,120244,1,8,2:1:0:0:
259,360,120340,1,8,2:1:0:0:
251,363,120437,1,8,2:1:0:0:
242,272,120533,5,8,3:1:0:0:
254,275,120629,1,8,2:1:0:0:
266,278,120725,1,8,2:1:0:0:
278,282,120822,1,8,2:1:0:0:
291,180,120917,101,8,3:1:0:0:
273,184,121013,1,8,2:1:0:0:
255,189,121109,1,8,2:1:0:0:
237,195,121206,1,8,2:1:0:0:
220,86,121302,5,8,3:1:0:0:
247,92,121398,1,8,2:1:0:0:
274,99,121494,1,8,2:1:0:0:
301,108,121591,1,8,2:1:0:0:
334,12,121687,101,8,3:1:0:0:
288,23,121783,1,8,3:1:0:0:
248,48,121879,1,8,3:1:0:0:
220,86,121975,1,8,3:1:0:0:
210,132,122071,1,8,3:1:0:0:
215,178,122167,1,8,3:1:0:0:
201,223,122263,1,8,3:1:0:0:
168,256,122360,1,8,3:1:0:0:
119,257,122456,1,8,3:1:0:0:
80,214,122552,1,8,3:1:0:0:
84,156,122648,1,8,3:1:0:0:
129,120,122744,1,8,3:1:0:0:
215,178,122840,2,0,P|221:207|230:230,1,52.5,8|0,1:2|2:0,3:0:0:0:
490,190,123225,86,2,B|425:217|346:181|324:123|324:123|307:121|307:121|288:52|218:9|146:24,1,420,4|0,3:2|2:2,2:2:0:0:
443,47,123610,2,2,P|449:108|422:52,1,175,8|0,2:2|2:2,2:3:0:0:
175,159,123898,2,2,P|115:206|189:188,1,210.000008010865,8|0,2:2|2:2,2:3:0:0:
46,74,124187,1,0,3:2:0:0:
54,384,124379,1,8,2:2:0:0:
54,384,124763,6,0,B|69:383|69:383|72:380|72:380|345:374,1,262.5,0|0,3:2|2:2,3:2:0:0:
364,217,125148,2,0,B|407:210|436:173|436:173|429:222|449:260,1,175,8|0,2:2|2:2,1:2:0:0:
221,233,125437,1,8,0:0:0:0:
221,233,125533,2,0,P|245:183|234:122,1,87.5,0|0,2:2|2:2,1:2:0:0:
63,34,125725,1,0,3:2:0:0:
63,34,125821,1,0,3:2:0:0:
63,34,125917,2,2,B|49:79|73:131|90:104|110:156|93:204|73:179|54:234|90:285,1,262.5,10|0,2:1|2:1,2:1:0:0:
289,322,126302,102,2,B|292:264|331:208|398:190|398:190|395:197|395:197|439:115|385:53|385:53|346:69|334:107,1,420,4|0,3:2|2:2,2:2:0:0:
175,141,126687,2,0,L|270:155,1,70,8|0,2:2|2:2,3:2:0:0:
473,323,126975,2,0,L|380:307,1,70,8|0,2:2|2:2,3:2:0:0:
294,342,127263,1,0,3:2:0:0:
439,93,127456,1,8,2:2:0:0:
439,93,127840,6,0,L|427:181,1,87.5,0|0,3:2|2:2,2:2:0:0:
122,253,128033,2,0,L|110:166,1,87.5,0|0,3:2|2:2,2:2:0:0:
275,15,128225,2,0,L|287:268,1,175,10|0,2:2|2:2,2:2:0:0:
276,278,128513,2,0,L|267:103,1,175,10|0,2:2|2:2,2:2:0:0:
464,18,128802,1,0,3:2:0:0:
464,18,128898,1,0,3:2:0:0:
464,18,128994,2,2,B|495:59|467:110|459:86|433:132|462:185,1,175,10|0,2:1|2:1,2:1:0:0:
194,255,129379,102,2,B|235:258|257:295|257:295|242:148|100:140|100:140|107:141|107:141|95:189|46:217,1,420,4|0,3:2|2:2,2:2:0:0:
0,127,129763,2,0,L|27:27,1,70,8|0,2:2|2:2,2:2:0:0:
315,161,130052,2,0,L|295:66,1,70,8|0,2:2|2:2,2:2:0:0:
180,346,130340,1,0,3:3:0:0:
138,134,130533,1,8,2:2:0:0:
196,41,130725,1,4,2:3:0:0:
196,41,130917,6,0,B|250:38|305:22|305:22|299:24|299:24|313:131|349:263,1,315.000012016297,0|0,3:2|2:2,3:2:0:0:
421,346,131302,2,0,P|431:289|448:227,1,105.000004005432,10|0,2:2|2:2,2:2:0:0:
202,205,131590,2,0,P|210:240|226:280,1,70,10|0,2:2|2:2,2:2:0:0:
47,363,131879,1,0,3:2:0:0:
47,363,131975,1,0,3:2:0:0:
47,363,132071,2,2,B|59:187|59:187|64:116|137:97,1,262.5,10|0,2:1|2:1,2:1:0:0:
399,194,132456,102,2,B|313:232|336:378|336:378|309:233|204:223,1,420,4|0,3:2|2:2,2:2:0:0:
60,38,132840,6,2,B|107:5|167:39|147:53|196:89|253:44,1,210.000008010865,10|0,2:1|2:1,2:1:0:0:
62,28,133129,2,2,B|105:-3|172:27|149:42|204:80|255:28,1,210.000008010865,10|0,2:1|2:1,2:1:0:0:
475,44,133417,101,0,3:2:0:0:
475,44,133513,1,0,3:2:0:0:
475,44,133610,2,2,B|470:94|417:121|417:121|432:176|384:219,1,210.000008010865,10|0,2:1|2:1,2:1:0:0:
485,50,133898,2,2,B|480:100|427:127|427:127|442:182|394:225,1,210.000008010865,10|0,2:1|2:1,2:1:0:0:
292,320,134187,5,0,3:2:0:0:
274,324,134251,1,0,3:2:0:0:
256,328,134315,1,0,3:2:0:0:
238,332,134379,2,2,B|270:204|270:204|284:153|326:141,1,210.000008010865,10|0,2:1|2:1,2:1:0:0:
228,327,134667,2,2,B|260:199|260:199|274:148|316:136,1,210.000008010865,10|0,2:1|2:1,2:1:0:0:
452,233,134956,101,0,3:2:0:0:
452,233,135052,1,0,3:2:0:0:
452,233,135148,2,0,P|401:227|377:234,2,52.5000020027161,10|8|4,2:1|2:3|2:3,2:2:0:0:
509,318,135437,1,0,0:0:0:0:
509,318,135533,6,0,L|318:333,1,175.00000667572,0|0,2:2|2:2,2:2:0:0:
217,304,135917,2,2,B|152:273|177:202|177:202|182:241|215:257,1,175,8|0,0:2|0:2,0:3:0:0:
326,166,136206,2,2,B|374:165|398:124|398:124|376:165|393:209,1,175,8|0,0:2|0:2,0:3:0:0:
344,345,136494,1,0,3:2:0:0:
220,9,136687,1,8,2:2:0:0:
220,9,137071,102,0,B|214:105|214:105|216:111|216:111|209:221,1,210,0|0,3:2|2:2,3:2:0:0:
224,314,137456,2,2,P|301:258|306:197,1,140,8|0,2:2|2:2,1:2:0:0:
347,75,137744,2,2,P|381:94|422:172,1,70,8|0,2:2|2:2,1:2:0:0:
498,95,137937,2,2,P|498:133|451:208,1,70,0|0,2:2|2:2,1:2:0:0:
419,344,138129,1,0,2:2:0:0:
419,344,138225,2,2,B|371:324|316:335|316:335|316:341|316:341|255:345|199:295,1,210,8|0,2:2|2:2,2:3:0:0:
57,220,138610,6,2,B|122:211|153:154|153:154|150:161|150:161|230:151|290:189|290:189|286:186|286:186|323:124|407:117,1,420,4|0,3:2|2:2,2:2:0:0:
497,19,138994,2,0,L|415:6,1,70,8|0,2:2|2:2,3:2:0:0:
250,57,139283,2,0,L|168:70,1,70,8|0,2:2|2:2,3:2:0:0:
47,139,139571,1,0,3:2:0:0:
430,109,139763,1,8,2:2:0:0:
191,192,139956,1,0,3:2:0:0:
325,167,140148,102,0,L|331:239,1,70,0|0,3:2|2:2,2:2:0:0:
176,114,140340,2,0,L|182:186,1,70,0|0,3:2|2:2,2:2:0:0:
224,284,140533,2,0,B|193:316|202:366|202:366|193:316|146:296,1,175,8|0,0:0|0:0,0:0:0:0:
277,101,140821,2,0,P|339:22|327:158,1,350,8|0,2:2|2:2,3:2:0:0:
43,269,141302,1,8,2:2:0:0:
69,346,141494,1,2,2:2:0:0:
194,74,141687,6,2,B|143:34|78:51|78:51|195:153|176:370,1,420,4|0,3:2|2:2,2:2:0:0:
50,361,142071,2,2,P|64:304|63:250,1,105.000004005432,8|0,2:2|2:2,2:3:0:0:
296,103,142360,2,2,P|298:163|308:220,1,105.000004005432,8|0,2:2|2:2,2:3:0:0:
332,344,142648,1,0,3:2:0:0:
184,94,142840,2,0,P|195:90|204:83,14,13.125000500679,8|0|0|0|0|0|0|0|0|0|0|0|0|0|0,2:2|2:2|2:2|2:2|2:2|2:2|2:2|2:2|2:2|2:2|2:2|2:2|2:2|2:2|2:2,2:2:0:0:
208,61,143225,102,0,B|271:105|347:64|347:64|365:70|365:70|441:22|520:54|520:54|465:42|424:96,1,420,4|0,3:1|2:2,3:2:0:0:
449,256,143610,2,0,L|369:241,1,70,8|0,2:2|2:2,2:2:0:0:
248,262,143898,2,0,L|168:247,1,70,8|0,2:2|2:2,2:2:0:0:
101,305,144187,5,0,3:2:0:0:
105,286,144283,1,2,3:2:0:0:
76,252,144379,101,8,2:2:0:0:
116,186,144475,1,8,2:2:0:0:
193,166,144571,1,8,2:3:0:0:
241,186,144667,1,4,2:3:0:0:
255,236,144763,2,2,B|191:279|111:310|111:310|119:306|119:306|161:175|228:52,1,420,4|0,3:2|2:2,2:2:0:0:
382,0,145148,6,2,B|400:134|457:67|474:185,1,210.000008010865,10|0,2:1|2:1,2:1:0:0:
372,6,145437,2,2,B|390:140|447:73|464:191,1,210.000008010865,10|0,2:1|2:1,2:1:0:0:
507,357,145725,101,0,3:2:0:0:
507,357,145821,1,0,3:2:0:0:
507,357,145917,2,2,P|366:315|319:209,1,210.000008010865,10|0,2:1|2:1,2:1:0:0:
512,346,146206,2,2,P|372:305|332:212,1,210.000008010865,10|0,2:1|2:1,2:1:0:0:
261,57,146494,5,0,3:2:0:0:
273,61,146558,1,0,3:2:0:0:
285,64,146622,1,0,3:2:0:0:
295,68,146687,2,2,B|259:113|200:109|200:109|142:136|134:198,1,210.000008010865,10|0,2:1|2:1,2:1:0:0:
298,79,146975,2,2,B|263:121|203:120|203:120|148:142|142:213,1,210.000008010865,10|0,2:1|2:1,2:1:0:0:
212,310,147263,102,0,P|180:289|144:280,2,70.0000026702882,0|0|0,3:2|3:2|3:2,2:2:0:0:
391,299,147456,1,2,2:2:0:0:
456,246,147552,1,8,2:3:0:0:
461,183,147648,1,0,3:2:0:0:
427,157,147744,1,4,2:3:0:0:
405,158,147840,6,2,B|264:159|204:293|204:293|197:211|144:158|144:158|149:164|149:164|79:204|51:330,1,560,6|0,3:2|2:2,2:2:0:0:
207,254,148321,2,0,P|278:177|473:154,1,280,2|0,2:2|2:2,2:2:0:0:
512,281,148610,2,0,P|464:337|341:362,1,140,10|0,1:2|2:2,2:2:0:0:
404,362,148898,101,0,3:2:0:0:
409,281,148994,1,8,2:1:0:0:
393,372,149090,1,0,3:2:0:0:
393,372,149379,6,0,P|251:292|290:74,1,315.000012016297,0|0,3:2|2:2,2:2:0:0:
442,165,149763,1,10,1:2:0:0:
442,165,149860,2,2,P|343:80|235:152,1,280,0|0,3:2|2:2,2:2:0:0:
333,271,150148,2,2,P|383:121|280:248,1,420,10|0,1:2|2:2,2:2:0:0:
200,359,150533,1,2,2:3:0:0:
200,359,150917,102,2,B|183:354|183:354|193:334|193:334|171:333|171:333|182:313|182:313|159:310|159:310|170:292|170:292|147:291|147:291|158:271|158:271|135:270|135:270|145:249|145:249|123:250|123:250|135:232|135:232|111:230|111:230|123:211|123:211|101:212|101:212|111:192|111:192|88:185|88:185|104:172|104:172|86:149|86:149|111:146|111:146|107:114|107:114|135:111|135:111|139:88|139:88|174:83,1,560,6|0,3:2|2:2,1:2:0:0:
119,204,151398,2,2,B|134:203|134:203|128:217|128:217|142:217|142:217|135:230|135:230|149:230|149:230|142:242|142:242|157:243|157:243|149:255|149:255|164:255|164:255|157:268|157:268|173:269|173:269|166:282|166:282|181:283|181:283|173:295|173:295|189:297|189:297|181:310|181:310|196:311|196:311|190:324|190:324|200:327,1,280,2|0,2:2|2:2,1:2:0:0:
301,371,151687,6,0,P|319:336|325:290,1,70,8|0,1:2|2:2,2:2:0:0:
258,208,151975,1,0,3:0:0:0:
258,208,152071,2,0,P|274:173|305:143,1,70
449,233,152360,1,0,0:0:0:0:
449,233,152456,2,0,L|462:276,1,35,0|0,3:0|0:0,0:0:0:0:
315,291,152648,102,2,L|418:101,1,210.000008010865,2|0,2:2|2:2,2:2:0:0:
415,106,152937,2,2,L|481:306,1,210.000008010865,2|0,3:2|2:2,2:2:0:0:
339,279,153225,2,2,B|410:148|410:148|409:159|409:159|410:148|410:148|456:284,1,315.000012016297,10|0,1:2|2:2,2:2:0:0:
394,345,153610,1,2,2:3:0:0:
333,114,153994,6,2,B|414:114|452:40|452:40|448:47|448:47|328:-4|132:63|56:199,1,560,6|0,3:2|2:2,2:2:0:0:
334,21,154475,2,2,P|174:70|69:160,1,280,2|0,2:2|2:2,2:2:0:0:
105,315,154763,2,0,L|183:348,1,70,10|0,1:2|2:2,2:2:0:0:
284,333,155052,101,0,3:2:0:0:
317,249,155148,1,8,2:1:0:0:
286,343,155244,1,0,3:2:0:0:
286,343,155533,6,0,P|387:317|342:96,1,315.000012016297,0|0,3:2|2:2,2:2:0:0:
182,195,155917,1,10,1:2:0:0:
182,195,156013,2,2,P|273:97|402:133,1,280,0|0,3:2|2:2,2:2:0:0:
275,327,156302,2,2,P|231:147|410:188,1,420,10|0,1:2|2:2,2:2:0:0:
402,317,156687,1,2,2:3:0:0:
327,127,157071,102,2,B|225:102|151:214|166:306|270:437|462:331|435:201|372:146|372:146|299:74|301:-32|454:-55|519:56|446:148|370:133|346:97,1,924.000008811951,6|8,3:2|1:2,2:2:0:0:
94,59,158033,53,0,0:0:0:0:
94,59,158129,1,0,0:0:0:0:
94,59,158225,2,2,P|64:86|64:157,1,105.000004005432,0|0,0:2|0:2,0:2:0:0:
164,163,158706,2,2,B|146:143|146:143|138:235,1,105.000004005432,0|0,0:2|0:2,0:2:0:0:
31,247,159187,6,2,P|47:250|70:264,1,26.2500010013581,0|0,0:3|0:3,0:3:0:0:
130,304,159379,2,2,P|142:308|155:310,1,26.2500010013581,0|0,0:3|0:3,0:3:0:0:
230,252,159571,2,0,B|246:255|264:282|264:282|263:231|294:195,1,131.25000500679,0|0,0:2|0:2,0:2:0:0:
279,127,160148,38,2,B|364:182|472:142|472:142|267:173|183:368,1,560,6|0,3:2|0:2,0:2:0:0:
210,344,160629,2,2,P|297:236|419:168,1,280,2|0,0:2|0:2,0:2:0:0:
469,42,160917,2,0,L|483:110,1,70,10|0,1:2|0:2,0:2:0:0:
509,225,161206,5,0,3:2:0:0:
425,253,161302,1,8,2:1:0:0:
493,212,161398,1,0,3:2:0:0:
56,129,161687,102,0,P|116:182|291:10,1,315.000012016297,0|0,3:2|0:2,0:2:0:0:
327,279,162071,1,10,1:2:0:0:
327,279,162167,2,2,P|228:196|299:89,1,280,0|0,3:2|0:2,0:2:0:0:
430,240,162456,2,2,P|222:244|267:80,1,420,10|0,1:2|0:2,0:2:0:0:
427,23,162840,1,2,0:3:0:0:
395,306,163225,6,0,B|388:298|388:298|378:301|378:301|370:294|370:294|362:298|362:298|354:291|354:291|346:295|346:295|339:288|339:288|329:291|329:291|321:283|321:283|311:287|311:287|302:279|302:279|291:280|291:280|284:272|284:272|271:273|271:273|265:262|265:262|252:261|252:261|251:249|251:249|238:245|238:245|239:232|239:232|228:225|228:225|231:212|231:212|226:201|226:201|230:191|230:191|228:175|228:175|233:166|233:166|229:158|229:158|231:146|231:146|223:138|223:138|221:127|221:127|210:123|210:123|201:114|201:114|189:113|189:113|183:103|183:103|171:103|171:103|162:94|162:94|151:102|151:102|133:101|133:101|142:132|142:132|116:145|116:145|131:172|131:172|108:195,1,560,6|0,3:2|2:2,1:2:0:0:
323,263,163706,2,0,B|309:267|309:267|302:258|302:258|290:260|290:260|284:250|284:250|270:249|270:249|269:236|269:236|256:232|256:232|257:220|257:220|246:212|246:212|250:198|250:198|245:187|245:187|248:178|248:178|246:161|246:161|251:152|251:152|248:144|248:144|249:132|249:132|241:125|241:125|239:113|239:113|228:111|228:111|220:101|220:101|208:99|208:99|201:91|201:91|189:91|189:91|180:80|180:80,1,280,2|0,2:2|2:2,1:2:0:0:
29,159,163994,102,0,P|18:127|-4:91,1,70,8|0,1:2|0:2,0:2:0:0:
115,230,164283,1,0,3:3:0:0:
115,230,164379,2,0,P|143:190|177:163,1,70
220,57,164763,2,0,P|241:63|258:77,1,35,0|0,3:0|0:0,0:0:0:0:
359,134,164956,6,2,P|305:201|304:351,1,210.000008010865,2|0,0:2|0:2,0:2:0:0:
165,169,165244,2,2,P|251:225|293:320,1,210.000008010865,2|0,3:2|0:2,0:2:0:0:
354,119,165533,2,2,B|297:162|279:240|279:240|277:230|277:230|279:240|279:240|240:174|161:152,1,315.000012016297,10|0,1:2|0:2,0:2:0:0:
11,234,165917,1,2,0:3:0:0:
479,147,166302,102,2,B|343:134|302:19|302:19|305:28|305:28|198:1|107:39|107:39|114:36|114:36|98:102|36:144,1,560,6|0,3:2|0:2,0:2:0:0:
265,36,166783,2,2,B|200:20|121:48|121:48|128:46|128:46|105:115|34:169,1,280,2|0,0:2|0:2,0:2:0:0:
10,271,167071,2,0,L|94:324,1,70,10|0,1:2|0:2,0:2:0:0:
164,362,167360,5,0,3:2:0:0:
181,277,167456,1,8,2:1:0:0:
149,371,167552,1,0,3:2:0:0:
149,371,167840,102,0,P|251:378|278:191,1,315.000012016297,0|0,3:2|0:2,0:2:0:0:
487,259,168225,1,10,1:2:0:0:
487,259,168321,2,2,P|367:308|290:203,1,280,0|0,3:2|0:2,0:2:0:0:
504,146,168610,2,2,P|449:318|272:210,1,420,10|0,1:2|0:2,0:2:0:0:
366,92,168994,1,2,0:3:0:0:
267,282,169379,6,2,B|195:265|212:175|264:123|350:154|421:222|418:325|335:408|211:412|113:392|35:331|-28:241|-43:115|9:27|70:-37|174:-50|282:-13|342:86|286:227|181:228|143:173,1,1120,6|8,3:2|1:2,0:2:0:0:
338,125,170917,2,0,B|366:97|358:58|358:58|366:97|411:112,1,146.999995513916,2|0,0:2|0:2,0:2:0:0:
506,275,172456,1,4,3:2:0:0:
238,217,172840,37,2,0:2:0:0:
412,255,173225,1,2,0:2:0:0:
506,275,173610,1,0,0:2:0:0:
407,99,173994,5,2,0:2:0:0:
233,137,174379,1,2,0:2:0:0:
139,157,174764,1,0,0:2:0:0:
333,258,174956,101,0,3:2:0:0:
386,1,175148,85,10,0:2:0:0:
416,76,175244,1,0,3:2:0:0:
416,76,175533,101,8,3:3:0:0:
214,329,175725,1,8,3:3:0:0:
138,234,175917,1,0,0:2:0:0:
321,112,176302,37,2,0:2:0:0:
324,331,176687,1,2,0:2:0:0:
134,194,177071,1,0,0:2:0:0:
337,128,177456,5,2,0:2:0:0:
329,344,177840,1,2,0:2:0:0:
314,343,177937,1,0,0:2:0:0:
300,343,178033,1,0,0:2:0:0:
285,343,178129,1,0,0:2:0:0:
271,343,178225,2,0,L|256:343,6,10.4999996795654,0|0|0|0|0|0|0,0:2|0:2|0:2|0:2|0:2|0:2|0:2,0:2:0:0:
140,284,178610,101,6,3:2:0:0:
439,266,178994,1,2,0:2:0:0:
403,88,179379,1,0,0:2:0:0:
159,281,179763,5,2,0:2:0:0:
427,258,180147,1,2,0:2:0:0:
395,97,180532,1,0,0:2:0:0:
173,258,180917,101,0,0:2:0:0:
362,335,181110,1,0,3:2:0:0:
493,114,181302,85,8,0:2:0:0:
443,175,181398,1,0,3:2:0:0:
443,175,181687,101,8,3:3:0:0:
121,183,181879,1,8,3:3:0:0:
255,290,182071,38,0,P|289:288|320:268,1,52.5000020027161,2|0,0:0|0:0,0:0:0:0:
375,315,182456,2,0,P|385:282|377:246,1,52.5000020027161,2|2,0:0|0:0,0:0:0:0:
450,224,182840,2,0,P|427:198|391:187,1,52.5000020027161,0|2,0:0|0:0,0:0:0:0:
229,173,183225,6,0,P|251:198|287:209,1,52.5000020027161,2|0,0:0|0:0,0:0:0:0:
303,82,183610,2,0,P|292:114|300:150,1,52.5000020027161,2|0,0:0|0:0,0:0:0:0:
419,100,183994,2,0,P|385:107|358:131,1,52.5000020027161,2|2,0:0|0:0,0:0:0:0:
460,209,184379,2,0,P|437:183|401:172,1,52.5000020027161,0|2,0:0|0:0,0:0:0:0:
59,347,184763,1,4,3:2:0:0:
297,162,185148,101,2,0:0:0:0:
108,215,185533,1,2,0:0:0:0:
59,347,185917,1,0,2:2:0:0:
315,175,186302,5,2,0:0:0:0:
136,201,186687,1,2,0:0:0:0:
84,340,187071,1,0,0:0:0:0:
310,193,187456,101,2,0:0:0:0:
166,192,187840,1,2,0:0:0:0:
112,325,188225,1,0,0:0:0:0:
315,205,188610,5,2,0:0:0:0:
185,182,188994,1,2,0:0:0:0:
128,328,189379,1,0,0:0:0:0:
314,204,189763,101,2,0:0:0:0:
209,164,190148,1,2,0:0:0:0:
159,308,190532,1,0,0:0:0:0:
314,220,190917,5,2,0:0:0:0:
218,158,191302,1,2,0:0:0:0:
173,318,191686,1,0,0:0:0:0:
303,224,192071,101,2,0:0:0:0:
234,153,192456,1,2,0:0:0:0:
205,305,192840,1,0,0:0:0:0:
298,221,193225,5,2,0:0:0:0:
248,148,193610,1,2,0:0:0:0:
46,127,193994,1,0,0:0:0:0:
52,44,194187,21,2,0:0:0:0:
52,44,194379,2,0,P|81:49|105:64,1,52.5000020027161,2|0,0:0|0:0,0:0:0:0:
167,20,194763,2,0,P|177:47|177:72,1,45.4999979171754,2|0,0:0|0:0,0:0:0:0:
251,91,195148,2,0,P|236:116|217:130,1,38.5000011749268,2|0,0:0|0:0,0:0:0:0:
268,189,195533,2,0,P|250:197|231:199,1,31.4999990386963,2|0,0:0|0:0,0:0:0:0:
234,274,195917,2,0,P|218:272|203:268,1,24.4999992523194,2|0,0:0|0:0,0:0:0:0:
180,337,196302,2,0,P|168:332|158:325,1,17.5,2|0,0:0|0:0,0:0:0:0:
113,380,196687,2,0,P|107:376|103:372,1,10.4999996795654,2|0,0:0|0:0,0:0:0:0:
296,345,197075,102,0,B|310:332|340:348|337:406|258:416|231:344|269:279|294:312|289:220|261:165|261:165|256:218|216:256|216:256|204:245|207:228|207:228|196:241|175:238|175:238|183:180|238:153|238:153|174:172|123:145|123:145|131:126|149:123|149:123|133:117|127:100|127:100|188:91|239:128|239:128|201:79|208:20|208:20|224:23|233:36|233:36|235:21|250:13|250:13|283:67|263:122|263:122|290:68|343:51|343:51|348:65|343:80|343:80|356:72|374:81|374:81|339:135|276:144|276:144|338:138|375:183|375:183|361:192|344:191|344:191|356:204|352:222|352:222|298:213|267:168,1,1732.41951327018,14|0,3:0|2:0,2:0:0:0:
51,191,207891,6,2,B|61:211|90:225|90:225|87:251|97:279,1,105,2|0,0:0|0:0,0:0:0:0:
176,237,208613,2,2,B|179:207|170:181|170:181|196:167|209:134,1,105,2|0,0:0|0:0,0:0:0:0:
174,19,209432,2,2,B|127:39|128:105|128:105|119:39|61:28,1,210,2|0,0:0|0:0,0:0:0:0:
43,281,210778,101,2,0:0:0:0:
43,281,210874,1,2,0:0:0:0:
43,281,210970,2,2,B|98:333|214:286|152:234|267:191|326:241,1,314.999990386963,2|0,0:0|0:0,0:0:0:0:
256,192,214278,5,2,0:0:0:0:
400,314,215341,102,2,P|333:302|274:299,1,122.5,2|0,0:0|0:0,0:0:0:0:
204,224,216357,2,2,P|275:215|341:212,1,122.5,2|0,0:0|0:0,0:0:0:0:
338,127,217271,2,2,P|267:181|286:275,1,183.750007009506,2|0,0:0|0:0,0:0:0:0:
414,320,218521,6,2,B|439:318|462:335|462:335|457:298|424:286,1,104.125001986027,2|0,0:0|0:0,0:0:0:0:
361,205,219235,2,2,B|350:216|353:238|353:238|402:226|411:176,1,122.5,2|0,0:0|0:0,0:0:0:0:
276,137,220151,2,2,B|238:92|172:99|172:99|210:194|164:297|164:297|191:239|241:209|296:242|294:313|236:319,1,537.6,0|0,0:0|0:0,0:0:0:0:
506,78,224288,102,2,P|445:94|374:102,1,122.5,2|0,0:0|0:0,0:0:0:0:
288,24,225155,2,2,B|311:83|279:83|305:149,1,122.5,2|0,0:0|0:0,0:0:0:0:
319,232,226068,2,2,B|296:181|261:150|190:141|143:180|126:204|133:246|175:271|219:249|220:220|201:196|179:198|176:226,1,299.249996347046,2|0,0:0|0:0,0:0:0:0:
126,304,228035,6,2,P|162:321|189:322,1,62.9999980773926,2|0,0:0|0:0,0:0:0:0:
326,312,228511,2,2,P|276:300|264:288,1,62.9999980773926,2|0,0:0|0:0,0:0:0:0:
181,221,228898,2,2,P|227:192|233:179,1,62.9999980773926,2|0,0:0|0:0,0:0:0:0:
309,138,229332,2,2,B|285:116|280:81|280:81|323:152|397:172,1,209.999993591309,2|0,0:0|0:0,0:0:0:0:
408,281,231011,2,2,B|387:265|359:263|359:263|351:259|351:259|299:254|241:272|285:284|193:314|141:280|141:280|181:332|273:334|308:278,1,470.749986064835,2|0,0:0|0:0,0:0:0:0:
385,77,234000,70,0,P|365:75|349:79,1,31.4999990386963,6|0,0:0|0:0,0:0:0:0:
298,24,234384,2,0,P|286:40|280:57,1,31.4999990386963,2|0,0:0|0:0,0:0:0:0:
209,76,234769,2,0,P|215:91|225:104,1,31.4999990386963
385,77,235153,6,0,P|399:83|411:92,1,31.4999990386963,2|0,0:0|0:0,0:0:0:0:
298,24,235538,2,0,P|310:14|325:9,1,31.4999990386963,2|0,0:0|0:0,0:0:0:0:
210,77,235923,2,0,P|208:61|210:45,1,31.4999990386963,2|0,0:0|0:0,0:0:0:0:
216,173,236307,102,0,P|217:188|215:204,1,31.4999990386963,2|0,0:0|0:0,0:0:0:0:
265,263,236692,2,0,P|252:272|237:278,1,31.4999990386963,2|0,0:0|0:0,0:0:0:0:
214,351,237076,2,0,P|199:344|187:335,1,31.4999990386963
216,173,237461,6,0,P|225:161|232:147,1,31.4999990386963,2|0,0:0|0:0,0:0:0:0:
265,263,237846,2,0,P|281:264|297:263,1,31.4999990386963,2|0,0:0|0:0,0:0:0:0:
214,351,238230,2,0,P|219:365|229:378,1,31.4999990386963,2|0,0:0|0:0,0:0:0:0:
359,315,238615,102,0,P|368:302|374:287,1,31.4999990386963,2|0,0:0|0:0,0:0:0:0:
449,263,239000,2,0,P|443:248|433:236,1,31.4999990386963,2|0,0:0|0:0,0:0:0:0:
485,178,239384,2,0,P|472:168|457:162,1,31.4999990386963
359,315,239769,6,0,P|353:330|344:343,1,31.4999990386963,2|0,0:0|0:0,0:0:0:0:
449,263,240153,2,0,P|459:275|464:289,1,31.4999990386963,2|0,0:0|0:0,0:0:0:0:
485,178,240538,2,0,P|500:184|513:194,1,31.4999990386963,2|0,0:0|0:0,0:0:0:0:
346,151,240923,102,0,P|331:145|318:135,1,31.4999990386963,2|0,0:0|0:0,0:0:0:0:
243,152,241307,2,0,P|240:136|242:120,1,31.4999990386963,2|0,0:0|0:0,0:0:0:0:
169,96,241692,2,0,P|174:81|184:68,1,31.4999990386963
346,151,242076,6,0,P|362:153|378:151,1,31.4999990386963,2|0,0:0|0:0,0:0:0:0:
243,152,242461,2,0,P|248:166|259:179,1,31.4999990386963,2|0,0:0|0:0,0:0:0:0:
169,96,242846,2,0,P|162:110|161:127,1,31.4999990386963,2|0,0:0|0:0,0:0:0:0:
213,238,243230,102,0,P|215:253|212:269,1,31.4999990386963,2|0,0:0|0:0,0:0:0:0:
132,250,243615,2,0,P|121:261|107:269,1,31.4999990386963,2|0,0:0|0:0,0:0:0:0:
73,197,244000,2,0,P|57:196|42:191,1,31.4999990386963
213,238,244384,6,0,P|223:225|229:211,1,31.4999990386963,2|0,0:0|0:0,0:0:0:0:
132,250,244769,2,0,P|147:250|162:246,1,31.4999990386963,2|0,0:0|0:0,0:0:0:0:
73,197,245153,2,0,P|83:209|96:217,1,31.4999990386963,2|0,0:0|0:0,0:0:0:0:
143,130,245538,102,0,P|158:127|174:127,1,31.849999805603
279,173,246307,6,0,P|288:152|289:126,1,41.9999987182618,2|0,0:0|0:0,0:0:0:0:
276,214,246692,2,0,P|289:232|311:246,1,41.9999987182618,2|0,0:0|0:0,0:0:0:0:
241,188,247076,2,0,P|218:190|195:202,1,41.9999987182618
299,138,247461,102,0,P|294:158|284:176,1,41.9999987182618,2|0,0:0|0:0,0:0:0:0:
299,247,247846,2,0,P|283:233|272:215,1,41.9999987182618,2|0,0:0|0:0,0:0:0:0:
200,190,248230,2,0,P|219:183|240:182,1,41.9999987182618
295,135,248615,6,0,P|296:114|291:93,1,41.9999987182618,2|0,0:0|0:0,0:0:0:0:
299,247,249000,2,0,P|316:258|336:264,1,41.9999987182618,2|0,0:0|0:0,0:0:0:0:
200,190,249384,2,0,P|181:199|166:213,1,41.9999987182618
302,97,249769,102,0,P|305:117|301:138,1,41.9999987182618,2|0,0:0|0:0,0:0:0:0:
328,271,250153,2,0,P|308:264|292:250,1,41.9999987182618,2|0,0:0|0:0,0:0:0:0:
164,203,250538,2,0,P|180:189|199:182,1,41.9999987182618
302,97,250923,6,0,P|296:76|284:59,1,41.9999987182618,2|0,0:0|0:0,0:0:0:0:
328,271,251307,2,0,P|348:276|369:274,1,41.9999987182618,2|0,0:0|0:0,0:0:0:0:
164,203,251692,2,0,P|149:218|140:236,1,41.9999987182618
297,62,252076,102,0,P|307:80|311:100,1,41.9999987182618,2|0,0:0|0:0,0:0:0:0:
360,284,252461,2,0,P|339:284|319:277,1,41.9999987182618,2|0,0:0|0:0,0:0:0:0:
136,224,252846,2,0,P|146:206|162:192,1,41.9999987182618
297,62,253230,6,0,P|283:46|265:35,1,41.9999987182618,2|0,0:0|0:0,0:0:0:0:
360,284,253615,2,0,P|380:280|398:269,1,41.9999987182618,2|0,0:0|0:0,0:0:0:0:
136,224,254000,2,0,P|129:243|128:264,1,41.9999987182618
278,36,254384,102,0,P|295:48|308:65,1,41.9999987182618,2|0,0:0|0:0,0:0:0:0:
391,281,254770,2,0,P|372:289|351:291,1,41.9999987182618,2|0,0:0|0:0,0:0:0:0:
122,252,255153,2,0,P|125:231|133:212,1,41.9999987182618
280,30,255538,6,0,P|260:21|240:19,1,41.9999987182618,2|0,0:0|0:0,0:0:0:0:
391,281,255923,2,0,P|407:268|420:251,1,41.9999987182618,2|0,0:0|0:0,0:0:0:0:
122,252,256307,2,0,P|124:272|132:291,1,41.9999987182618
242,13,256692,102,0,P|262:15|282:24,1,41.9999987182618,2|0,0:0|0:0,0:0:0:0:
420,251,257076,6,0,B|405:277|349:299|309:225|323:186,1,146.999995513916,8|0,2:3|0:0,0:0:0:0:
338,194,257846,2,0,L|359:344,1,146.999995513916
360,356,258615,101,4,3:3:0:0:
439,42,258999,1,2,0:0:0:0:
274,109,259384,2,0,P|307:112|355:88,1,83.9999974365235,2|0,0:0|0:0,0:0:0:0:
193,149,260153,2,0,P|155:167|113:165,3,83.9999974365235,2|0|0|0,0:0|0:0|0:0|0:0,0:0:0:0:
302,194,261692,2,0,P|337:216|378:217,3,83.9999974365235,2|0|0|0,0:0|0:0|0:0|0:0,0:0:0:0:
171,244,263230,2,0,P|151:280|116:302,1,83.9999974365235,2|0,0:0|0:0,0:0:0:0:
315,294,263999,2,0,P|318:335|342:368,1,83.9999974365235,2|0,0:0|0:0,0:0:0:0:
15,174,264768,5,0,3:3:0:0:
65,54,265153,1,2,0:0:0:0:
253,127,265538,2,0,P|299:148|339:145,1,83.9999974365235,2|0,0:0|0:0,0:0:0:0:
446,294,266307,2,0,P|409:275|367:273,3,83.9999974365235,2|0|0|0,0:0|0:0|0:0|0:0,0:0:0:0:
438,112,267845,2,0,P|419:150|417:192,3,83.9999974365235,2|0|0|0,0:0|0:0|0:0|0:0,0:0:0:0:
270,307,269384,2,0,P|289:269|290:227,2,83.9999974365235,2|0|2,0:0|0:0|0:0,0:0:0:0:
174,113,270539,2,0,P|157:97|173:115,1,70,8|0,0:3|0:0,0:0:0:0:
196,288,270922,101,2,3:2:0:0:
287,120,271307,1,0,0:0:0:0:
86,20,271692,2,0,P|68:66|68:106,1,83.9999974365235,2|0,0:0|0:0,0:0:0:0:
243,91,272461,2,0,P|275:128|289:165,3,83.9999974365235,2|0|0|0,0:0|0:0|0:0|0:0,0:0:0:0:
134,155,273999,2,0,P|95:185|75:220,3,83.9999974365235,2|0|0|0,0:0|0:0|0:0|0:0,0:0:0:0:
261,271,275538,2,0,P|306:287|336:314,1,83.9999974365235,2|0,0:0|0:0,0:0:0:0:
87,326,276307,2,0,P|39:332|4:352,1,83.9999974365235,2|0,0:0|0:0,0:0:0:0:
257,382,277076,5,2,0:0:0:0:
208,144,277461,1,0,0:0:0:0:
318,236,277845,2,0,P|347:240|407:228,1,83.9999974365235,2|0,0:0|0:0,0:0:0:0:
385,92,278615,2,0,P|356:88|296:100,3,83.9999974365235,2|0|0|0,0:0|0:0|0:0|0:0,0:0:0:0:
185,187,279961,101,0,0:2:0:0:
185,187,280057,1,0,0:2:0:0:
185,187,280153,1,2,3:2:0:0:
301,175,280346,1,0,3:1:0:0:
231,118,280538,1,0,2:2:0:0:
265,272,280730,1,0,0:2:0:0:
265,272,280826,1,0,0:2:0:0:
265,272,280922,5,0,3:2:0:0:
173,274,281115,1,0,0:2:0:0:
173,274,281211,2,0,P|184:221|207:196,1,83.9999974365235,0|0,3:0|0:0,0:0:0:0:
303,156,281692,102,0,P|303:175|310:188,1,26.2500010013581,2|0,3:2|0:2,0:2:0:0:
382,253,281885,2,0,P|382:234|376:218,1,26.2500010013581,0|0,3:2|0:2,0:2:0:0:
212,191,282076,1,0,0:2:0:0:
199,187,282172,1,0,0:2:0:0:
186,183,282268,1,0,0:2:0:0:
173,178,282365,1,0,0:2:0:0:
160,174,282461,5,2,3:2:0:0:
161,271,282653,1,0,0:2:0:0:
161,271,282749,1,0,3:2:0:0:
222,83,282942,1,0,0:2:0:0:
210,78,283039,2,0,P|212:63|203:45,1,26.2500010013581
196,74,283135,1,0,0:2:0:0:
183,70,283231,54,2,B|131:58|78:78|78:78|74:74|74:74|24:104|-8:154|-8:154|-4:148|-4:148|104:158|132:253,1,420,4|0,3:1|0:2,0:2:0:0:
143,377,283616,37,2,0:2:0:0:
239,4,284000,1,2,0:2:0:0:
81,106,284385,70,2,B|46:98|13:125|13:125|16:122|16:122|50:131|66:161,1,140,4|0,3:1|2:2,2:2:0:0:
262,216,284577,2,2,B|282:228|321:216|321:216|321:211|321:211|316:261|253:274,1,140,4|0,3:1|2:2,2:2:0:0:
103,370,284769,37,2,0:2:0:0:
239,4,285153,1,2,0:2:0:0:
278,266,285539,70,2,B|331:254|336:217|336:217|335:222|335:222|305:219|284:241,1,140,4|0,3:1|0:2,0:2:0:0:
65,158,285731,2,2,B|23:141|13:96|13:96|14:102|14:102|51:106|59:144,1,140,4|0,3:1|0:2,0:2:0:0:
174,180,285923,37,2,0:2:0:0:
427,296,286308,70,2,B|392:309|384:348|384:348|391:309|366:282,1,140,4|0,3:1|0:2,0:2:0:0:
470,110,286500,2,2,B|444:83|452:44|452:44|443:83|409:96,1,140,4|0,3:1|0:2,0:2:0:0:
511,222,286693,37,2,0:2:0:0:
80,104,287077,1,2,0:2:0:0:
432,316,287462,70,2,B|401:324|380:357|380:357|385:358|385:358|379:320|352:301,1,140,4|0,3:1|0:2,0:2:0:0:
488,91,287654,2,2,B|457:74|451:35|451:35|454:36|454:36|435:70|398:74,1,140,4|0,3:1|0:2,0:2:0:0:
511,222,287846,37,2,0:2:0:0:
80,104,288231,1,2,0:2:0:0:
425,347,288616,70,2,B|394:348|368:367|368:367|385:371|385:371|372:343|344:323,1,140,4|0,3:1|0:2,0:2:0:0:
487,68,288808,2,2,B|459:51|444:24|444:24|462:27|462:27|437:47|406:51,1,140,4|0,3:1|0:2,0:2:0:0:
281,196,289000,37,2,0:2:0:0:
158,353,289385,70,2,B|181:194|181:194|179:189|179:189|190:118|190:118|200:61|247:46|247:46|242:43|242:43|297:76|273:167,1,420,4|0,3:1|0:2,0:2:0:0:
81,198,289769,37,2,0:0:0:0:
435,83,290154,1,2,0:0:0:0:
172,344,290539,70,2,B|183:272|183:272|181:268|181:268|193:191,1,140,4|0,3:1|0:0,0:0:0:0:
194,70,290731,2,2,B|215:39|250:30|250:30|246:27|246:27|281:47|295:75,1,140,4|0,3:1|0:0,0:0:0:0:
81,198,290923,37,2,0:0:0:0:
435,83,291308,1,2,0:0:0:0:
152,345,291693,70,2,B|144:308|163:273|163:273|161:269|161:269|181:237|173:192,1,140,4|0,3:1|0:0,0:0:0:0:
186,54,291885,2,2,B|212:32|246:25|246:25|240:22|240:22|285:34|316:69,1,140,4|0,3:1|0:0,0:0:0:0:
246,144,292077,37,2,0:0:0:0:
307,298,292462,70,2,B|275:296|244:324|244:324|271:352|307:353,1,140,4|0,3:1|0:0,0:0:0:0:
409,191,292654,2,2,B|390:164|349:157|349:157|344:195|364:223,1,140,4|0,3:1|0:0,0:0:0:0:
441,334,292846,37,2,0:0:0:0:
77,79,293231,1,2,0:0:0:0:
286,296,293616,70,2,B|254:294|218:326|218:326|223:322|223:322|250:350|286:351,1,140,4|0,3:1|0:0,0:0:0:0:
400,177,293808,2,2,B|381:150|333:142|333:142|340:143|340:143|335:181|355:209,1,140,4|0,3:1|0:0,0:0:0:0:
441,334,294000,37,2,0:0:0:0:
77,79,294385,1,2,0:0:0:0:
272,287,294769,70,2,B|240:285|204:317|204:317|209:313|209:313|245:312|272:342,1,140,4|0,3:1|0:2,0:2:0:0:
402,164,294962,2,2,B|383:137|335:129|335:129|342:130|342:130|367:161|357:196,1,140,4|0,3:1|0:0,0:0:0:0:
238,193,295154,37,2,0:0:0:0:
396,23,295539,70,2,B|316:111|343:215|343:215|323:110|216:57,1,420,4|0,3:1|0:0,0:0:0:0:
35,100,295923,37,2,0:0:0:0:
488,38,296308,1,2,0:0:0:0:
384,43,296693,70,2,B|367:75|367:75|354:107|354:107|347:144|347:144|345:176,1,140,4|0,3:1|0:0,0:0:0:0:
349,216,296885,2,2,B|333:186|333:186|311:157|311:157|283:132|283:132|256:114,1,140,4|0,3:1|0:0,0:0:0:0:
35,100,297077,37,2,0:0:0:0:
488,38,297462,1,2,0:0:0:0:
402,131,297846,70,2,B|374:192|374:192|369:265,1,140,4|0,3:1|0:0,0:0:0:0:
398,345,298038,2,2,B|356:286|356:286|306:240,1,140,4|0,3:1|0:0,0:0:0:0:
256,69,298231,37,2,0:0:0:0:
91,50,298616,70,2,B|56:52|25:79|25:79|32:117|59:138,1,140,4|0,3:1|0:0,0:0:0:0:
252,187,298808,2,2,B|282:184|313:157|313:157|306:119|279:98,1,140,4|0,3:1|0:0,0:0:0:0:
122,299,299000,37,2,0:0:0:0:
200,19,299385,1,2,0:0:0:0:
75,46,299769,70,2,B|49:48|13:79|13:79|18:75|18:75|25:113|42:145,1,140,4|0,3:1|0:0,0:0:0:0:
268,194,299962,2,2,B|294:185|323:159|323:159|324:167|324:167|315:119|296:102,1,140,4|0,3:1|0:0,0:0:0:0:
122,299,300154,37,2,0:0:0:0:
200,19,300539,1,2,0:0:0:0:
44,45,300923,70,2,B|22:56|2:72|2:72|6:69|6:69|9:110|47:179,1,140,4|0,3:1|0:0,0:0:0:0:
267,211,301116,2,2,B|305:195|333:164|333:164|334:171|334:171|328:144|317:122,1,140,4|0,3:1|0:0,0:0:0:0:
163,155,301308,37,2,0:0:0:0:
433,245,301693,70,2,B|463:238|502:264|486:365|382:392|303:293|235:182|292:105|376:119|407:172|383:190,1,420,4|0,3:1|0:0,0:0:0:0:
208,354,302077,37,2,0:0:0:0:
496,154,302462,1,2,0:0:0:0:
488,295,302846,70,2,P|465:355|373:334,1,140,4|0,3:1|0:0,0:0:0:0:
269,177,303039,2,2,P|292:117|384:138,1,140,4|0,3:1|0:0,0:0:0:0:
208,354,303231,37,2,0:0:0:0:
496,154,303616,1,2,0:0:0:0:
511,323,304000,70,2,P|460:374|390:381,1,140,4|0,3:1|0:0,0:0:0:0:
246,144,304193,2,2,P|296:92|367:86,1,140,4|0,3:1|0:0,0:0:0:0:
371,240,304385,37,2,0:0:0:0:
119,259,304769,70,2,B|71:210|71:210|67:210|67:210|15:156,1,140,4|0,3:1|0:0,0:0:0:0:
160,27,304962,2,2,B|208:76|208:76|212:76|212:76|264:130,1,140,4|0,3:1|0:0,0:0:0:0:
245,264,305154,37,2,0:0:0:0:
37,30,305539,1,2,0:0:0:0:
119,259,305923,70,2,B|88:239|71:210|71:210|67:210|67:210|51:176|15:156,1,140,4|0,3:1|0:0,0:0:0:0:
160,27,306116,2,2,B|191:47|208:76|208:76|212:76|212:76|228:110|264:130,1,140,4|0,3:1|0:0,0:0:0:0:
245,264,306308,37,2,0:0:0:0:
36,29,306693,1,2,0:0:0:0:
119,259,307077,70,2,B|82:250|71:210|71:210|67:210|67:210|59:167|15:156,1,140,4|0,3:1|2:0,2:0:0:0:
160,27,307269,2,2,B|197:36|208:76|208:76|212:76|212:76|220:119|264:130,1,140,4|0,3:1|2:0,2:0:0:0:
143,149,307462,37,2,0:0:0:0:
511,214,307654,69,0,0:0:0:0:
511,214,307750,1,0,0:0:0:0:
511,214,307846,2,2,B|277:235|277:235|272:234|272:234|142:246|142:246|65:252|26:334,1,472.500018024445,4|0,3:1|2:2,1:2:0:0:
85,368,308231,38,0,P|130:371|165:357,1,70,2|0,0:2|0:2,0:2:0:0:
396,124,308616,2,0,P|351:121|316:135,1,70,2|0,0:2|0:2,0:2:0:0:
120,258,308904,69,0,0:2:0:0:
120,258,309000,2,2,L|300:242,1,157.500006008148,4|0,3:1|2:2,1:2:0:0:
439,204,309193,2,2,L|254:222,1,157.500006008148,4|0,3:1|2:2,1:2:0:0:
85,368,309385,38,0,P|130:371|165:357,1,70,2|0,0:2|0:2,0:2:0:0:
396,124,309769,2,0,P|351:121|316:135,1,70,2|0,0:2|0:2,0:2:0:0:
130,248,310154,70,2,B|196:241|196:241|224:221|224:221|295:215,1,157.500006008148,4|0,3:1|2:2,1:2:0:0:
481,211,310346,2,2,B|414:217|414:217|386:237|386:237|315:243,1,157.500006008148,4|0,3:1|2:2,1:2:0:0:
181,125,310539,38,0,P|172:91|176:56,1,70,2|0,0:2|0:2,0:2:0:0:
349,13,310827,69,0,0:2:0:0:
349,13,310923,2,2,B|375:84|375:84|345:208,1,157.500006008148,4|0,3:1|2:2,1:2:0:0:
159,165,311116,2,2,B|132:93|132:93|162:-30,1,157.500006008148,4|0,3:1|2:2,1:2:0:0:
256,255,311308,38,0,L|258:329,1,70,2|0,0:2|0:2,0:2:0:0:
252,69,311693,2,0,L|250:-5,1,70,2|0,0:2|0:2,0:2:0:0:
349,13,311981,69,0,0:2:0:0:
349,13,312077,2,2,B|370:44|375:84|375:84|377:78|377:78|345:208,1,157.500006008148,4|0,3:1|2:2,1:2:0:0:
159,165,312270,2,2,B|137:132|132:93|132:93|131:100|131:100|162:-30,1,157.500006008148,4|0,3:1|2:2,1:2:0:0:
256,255,312462,38,0,P|261:286|258:329,1,70,2|0,0:2|0:2,0:2:0:0:
252,69,312846,2,0,P|247:32|250:-5,1,70,2|0,0:2|0:2,0:2:0:0:
349,13,313231,70,2,B|370:44|377:90|377:90|375:84|375:84|349:117|348:159,1,157.500006008148,4|0,3:1|2:2,1:2:0:0:
159,165,313423,2,2,B|137:132|131:88|131:88|132:93|132:93|162:57|159:18,1,157.500006008148,4|0,3:1|2:2,1:2:0:0:
444,156,313616,38,0,P|454:185|446:230,1,70,2|0,0:2|0:2,0:2:0:0:
474,323,313904,69,0,0:2:0:0:
474,323,314000,2,2,B|404:323|329:330|329:330|300:344|300:344|241:352|183:349|183:349|116:346|111:253|185:239|218:276,1,472.500018024445,4|0,3:1|2:2,1:2:0:0:
304,252,314385,38,0,P|345:247|389:244,1,70,2|0,0:2|0:2,0:2:0:0:
211,178,314769,2,0,P|170:173|126:170,1,70,2|0,0:2|0:2,0:2:0:0:
94,344,315058,69,0,0:2:0:0:
94,344,315154,2,2,B|139:354|170:351|170:351|173:345|173:345|210:348|247:339,1,157.500006008148,4|0,3:1|2:2,1:2:0:0:
475,337,315347,2,2,B|426:332|396:335|396:335|397:328|397:328|360:328|328:338,1,157.500006008148,4|0,3:1|2:2,1:2:0:0:
304,252,315539,38,0,P|342:242|386:246,1,70,2|0,0:2|0:2,0:2:0:0:
211,178,315923,2,0,P|171:167|131:171,1,70,2|0,0:2|0:2,0:2:0:0:
94,344,316308,70,2,B|137:338|170:351|170:351|173:345|173:345|210:348|247:339,1,157.500006008148,4|0,3:1|2:2,1:2:0:0:
475,337,316500,2,2,B|426:332|396:335|396:335|397:328|397:328|360:347|329:343,1,157.500006008148,4|0,3:1|2:2,1:2:0:0:
131,185,316693,38,0,P|113:155|105:122,1,70,2|0,0:2|0:2,0:2:0:0:
297,40,316981,1,0,0:0:0:0:
297,39,317077,70,2,P|346:28|298:59,1,157.500006008148,4|0,3:1|2:2,1:2:0:0:
200,240,317269,2,2,P|150:251|198:220,1,157.500006008148,4|0,3:1|2:2,1:2:0:0:
340,217,317462,38,0,P|349:247|324:233,1,70,2|0,0:0|0:0,0:0:0:0:
83,57,317846,2,0,P|74:27|99:41,1,70,2|0,0:0|0:0,0:0:0:0:
297,40,318135,69,0,0:0:0:0:
297,40,318231,2,2,B|305:6|368:-2|384:79|322:95|286:87,1,157.500006008148,4|0,3:1|2:2,1:2:0:0:
200,239,318423,2,2,B|191:272|128:282|112:199|174:183|210:191,1,157.500006008148,4|0,3:1|2:2,1:2:0:0:
357,217,318616,38,0,P|358:252|330:252,1,70,2|0,0:0|0:0,0:0:0:0:
64,56,319000,2,0,P|63:22|94:20,1,70,2|0,0:0|0:0,0:0:0:0:
297,40,319385,70,2,B|302:14|365:4|383:84|333:121,1,157.500006008148,4|0,3:1|2:2,1:2:0:0:
200,239,319577,2,2,B|194:264|131:274|113:194|163:157,1,157.500006008148,4|0,3:1|2:2,1:2:0:0:
175,23,319769,38,0,P|201:45|207:84,1,70,2|0,0:0|0:0,0:0:0:0:
48,171,320058,1,0,0:0:0:0:
48,171,320154,102,2,P|33:155|53:160,1,52.5,4|0,3:2|0:2,0:2:0:0:
55,188,320539,2,2,P|27:190|50:171,1,73.4999977569581,2|0,3:2|0:2,0:2:0:0:
83,208,320923,2,2,P|41:200|72:189,1,94.499997116089,2|0,3:2|0:2,0:2:0:0:
258,113,321308,102,2,P|250:71|225:111,1,115.50000352478,4|0,3:2|0:2,0:2:0:0:
281,154,321693,2,2,P|302:98|255:126,1,136.499993751526,2|0,3:2|0:2,0:2:0:0:
251,195,322077,2,2,P|315:172|277:154,1,157.500006008148,2|0,3:2|0:2,0:2:0:0:
144,156,322462,6,2,P|82:124|151:138,1,178.500003404617,4|0,3:2|0:2,0:2:0:0:
176,205,322846,2,2,P|104:213|169:170,1,178.500003404617,2|0,3:2|0:2,0:2:0:0:
302,80,323231,102,2,P|253:24|256:106,1,199.499994672775,6|0,3:2|0:2,0:2:0:0:
349,128,323616,2,2,P|394:69|301:83,1,220.499993270874,2|0,3:2|0:2,0:2:0:0:
318,212,324000,2,2,P|410:210|341:130,1,241.500004606247,2|0,3:2|0:2,0:2:0:0:
159,249,324385,6,2,P|95:291|144:189,1,262.5,4|0,3:2|0:2,0:2:0:0:
268,255,324769,2,2,P|207:354|159:249,1,283.500001081467,2|0,3:2|0:2,0:2:0:0:
326,146,325154,2,2,P|393:252|268:255,1,304.500009292603,2|0,3:2|0:2,0:2:0:0:
210,82,325539,102,2,P|96:13|139:153,1,325.500002483368,4|0,3:2|0:2,0:2:0:0:
340,158,325923,2,2,P|336:13|209:81,1,346.500003304482,2|0,3:2|2:2,2:2:0:0:
401,100,326308,5,4,3:2:0:0:
304,238,326500,1,0,3:2:0:0:
511,222,326693,1,2,3:2:0:0:
323,152,326885,1,0,3:2:0:0:
377,352,327077,101,2,3:2:0:0:
428,176,327269,1,0,3:2:0:0:
282,248,327462,1,0,3:2:0:0:
469,294,327654,1,0,3:2:0:0:
386,79,327846,5,2,3:2:0:0:
266,250,328039,1,0,3:2:0:0:
505,148,328231,1,2,3:2:0:0:
294,84,328423,1,0,3:2:0:0:
357,274,328616,101,0,3:2:0:0:
475,77,328808,1,0,3:2:0:0:
195,202,329000,1,2,3:2:0:0:
465,286,329193,1,0,3:2:0:0:
328,18,329385,5,0,3:2:0:0:
290,14,329481,1,0,3:2:0:0:
252,11,329577,1,0,3:2:0:0:
214,9,329674,1,0,3:2:0:0:
205,55,329770,101,2,3:2:0:0:
247,53,329865,1,0,3:2:0:0:
289,50,329961,1,0,3:2:0:0:
331,47,330057,1,0,3:2:0:0:
340,126,330154,5,2,3:2:0:0:
294,122,330250,1,0,3:2:0:0:
248,118,330346,1,0,3:2:0:0:
201,115,330443,1,0,3:2:0:0:
190,199,330538,101,0,3:2:0:0:
241,194,330635,1,0,3:2:0:0:
292,190,330731,1,0,3:2:0:0:
343,186,330827,1,0,3:2:0:0:
353,285,330923,5,2,3:2:0:0:
298,278,331019,1,0,3:2:0:0:
242,274,331115,1,0,3:2:0:0:
186,270,331212,1,0,3:2:0:0:
177,381,331308,101,2,3:2:0:0:
237,376,331404,1,0,3:2:0:0:
297,371,331500,1,0,3:2:0:0:
358,365,331596,1,0,3:2:0:0:
256,192,331692,12,0,332365,0:0:0:0:
158,180,332462,6,0,B|171:90|171:90|186:84|186:84|115:111|57:63|57:63|67:72|67:72|52:162,1,346.500003304482,8|0,3:3|0:2,0:2:0:0:
288,348,333039,86,0,B|243:105|476:22|476:22|517:191|377:269,1,700,14|0,3:2|0:2,0:2:0:0:
119,290,333616,54,0,B|117:285|117:285|83:280,1,26.2500010013581,4|0,3:3|0:2,0:2:0:0:
27,243,333808,2,0,B|22:245|22:245|12:303,1,52.5000020027161,0|0,2:2|0:2,0:2:0:0:
425,245,334193,38,0,B|521:173|472:10|472:10|475:22|475:22|329:64|298:197|370:173|342:318|225:328|225:328|231:341|231:341|198:279|187:230|225:176,1,875,6|0,3:1|0:2,0:2:0:0:
478,114,334769,38,0,P|471:166|436:221,1,105.000004005432,0|0,3:2|0:2,0:2:0:0:
83,99,335154,2,0,P|89:48|117:3,1,105.000004005432,8|0,3:2|0:2,0:2:0:0:
180,232,335539,2,0,B|206:315|127:380|127:380|133:374|133:374|134:287|71:240,1,315.000012016297,8|0,3:3|0:2,0:2:0:0:
507,234,336116,86,0,B|462:183|392:192|392:192|285:208|222:149|222:149|124:56|3:103|3:103|92:88|149:141,1,700,14|0,3:2|2:2,2:2:0:0:
399,311,336693,54,0,B|400:316|400:316|394:349,1,26.2500010013581,4|0,3:3|0:2,0:2:0:0:
267,326,336885,2,0,B|272:324|272:324|319:333,1,52.5000020027161,0|0,2:2|0:2,0:2:0:0:
147,158,337269,38,0,B|95:107|20:110|20:110|5:119|5:119|88:68|186:132|186:132|208:125|208:125|237:246|426:270|501:116|423:-24|319:-11|278:7,1,875,6|0,3:1|2:2,2:2:0:0:
287,184,337846,38,0,L|405:208,1,105.000004005432,0|0,3:2|0:2,0:2:0:0:
171,20,338231,2,0,L|53:-4,1,105.000004005432,8|0,3:2|0:2,0:2:0:0:
90,104,338616,2,0,L|128:90,11,26.2500010013581,0|0|0|0|0|0|0|0|0|0|0|0,0:2|0:2|0:2|0:2|0:2|0:2|0:2|0:2|0:2|0:2|0:2|0:2,0:2:0:0:
114,94,339193,86,0,B|225:149|234:285|234:285|225:290|225:290|363:323|478:272|478:272|470:276|470:276|390:230|364:129,1,700,14|0,3:2|0:2,0:2:0:0:
107,238,339769,54,0,B|104:235|104:235|64:244,1,26.2500010013581,4|0,3:3|0:2,0:2:0:0:
98,318,339962,2,0,B|101:321|101:321|90:370,1,52.5000020027161,0|0,2:2|0:2,0:2:0:0:
356,158,340346,38,0,B|382:201|424:209|424:209|439:248|477:277|477:277|480:272|480:272|413:252|343:274|379:300|301:324|224:289|224:289|233:284|233:284|176:232|177:154|177:154|186:161|186:161|153:99|81:54|81:54|67:60|67:60|149:22|218:47,1,909.999958343508,6|0,3:1|0:2,0:2:0:0:
417,61,340923,38,0,B|435:32|386:78|344:61,1,70,0|0,3:2|0:2,0:2:0:0:
118,331,341308,2,0,P|169:309|189:264,1,105,8|0,3:2|0:2,0:2:0:0:
319,149,341693,2,2,B|276:160|237:136|253:130|214:105|168:115,1,157.500006008148,8|0,3:3|0:2,0:2:0:0:
488,237,342269,86,0,B|534:328|534:328|283:253,1,350,14|0,3:2|0:0,0:0:0:0:
422,88,342846,54,0,B|427:94|427:94|424:129,1,26.2500010013581,4|0,3:3|0:0,0:0:0:0:
322,95,343039,2,0,B|317:101|317:101|322:151,1,52.5000020027161,0|0,2:2|0:0,0:0:0:0:
103,78,343423,38,0,B|17:108|14:206|14:206|0:209|0:209|268:160|268:160|276:163|276:163|510:120,1,700,6|0,3:1|0:0,0:0:0:0:
234,1,344000,38,0,B|241:34|241:34|228:67,1,70,0|0,3:2|0:0,0:0:0:0:
407,30,344385,2,0,B|394:63|394:63|401:96,1,70,8|0,3:2|0:0,0:0:0:0:
87,303,344769,2,0,B|72:271|89:240|89:240|125:297|189:298|189:298|254:273|323:301,1,315.000012016297,12|0,3:3|0:0,0:0:0:0:
314,297,345154,1,2,0:0:0:0:
98,54,345346,86,0,B|262:111|392:17|392:17|493:113|437:259|437:259|391:188|280:179,1,700,14|0,3:2|0:0,0:0:0:0:
434,364,345923,54,0,B|454:381|454:381|521:374,1,78.7500030040742,4|0,3:3|0:0,0:0:0:0:
506,375,346308,1,2,0:0:0:0:
98,53,346500,38,0,B|177:88|265:78|265:78|308:20|398:18|398:18|389:2|389:2|430:77|486:120|486:120|493:195|448:264|448:264|465:273|465:273|409:249|393:202|393:202|343:216|286:182,1,875,6|0,3:1|0:0,0:0:0:0:
78,240,347077,38,0,P|134:230|145:219,1,70,0|0,3:2|2:2,2:2:0:0:
351,121,347462,2,0,P|305:154|299:169,1,70,8|0,3:2|0:0,0:0:0:0:
485,102,347846,2,0,P|398:109|297:204,1,210,8|0,3:3|0:0,0:0:0:0:
306,185,348231,1,2,0:0:0:0:
80,29,348423,86,0,B|140:129|128:282|128:282|137:129|224:44,1,525.000020027161,14|0,3:2|0:0,0:0:0:0:
223,253,349000,54,0,B|229:272|229:272|206:338,1,78.7500030040742,4|0,3:3|0:0,0:0:0:0:
210,328,349385,1,2,0:0:0:0:
220,40,349577,38,0,B|176:80|147:138|147:138|154:135|154:135|122:198|124:278|124:278|128:286|128:286|49:140|74:13|74:13|73:23|73:23|168:184|360:190,1,875,6|0,3:1|0:0,0:0:0:0:
191,335,350154,38,0,P|144:320|115:279,1,70,0|0,3:0|0:0,0:0:0:0:
315,20,350539,2,0,P|316:54|307:88,1,70,8|0,3:2|0:0,0:0:0:0:
115,174,350923,2,0,L|133:171,11,17.5
132,171,351500,86,2,B|144:184|144:184|156:176|156:176|184:258|312:240|310:142|310:142|306:137|306:137|365:56|464:97|464:97|459:102|459:102|507:167|499:272|437:333,1,700,14|0,3:2|0:0,0:0:0:0:
83,369,352077,54,0,B|66:362|66:362|4:380,1,78.7500030040742,4|0,3:3|0:0,0:0:0:0:
8,378,352462,1,2,0:0:0:0:
140,167,352654,38,0,B|193:278|334:255|334:255|328:249|328:249|449:207|457:87|457:87|474:94|474:94|373:67|312:135|312:135|308:128|308:128|241:237|356:364,1,875,6|0,3:1|0:0,0:0:0:0:
460,75,353231,38,0,P|441:45|410:32,1,70,0|0,3:3|0:0,0:0:0:0:
55,135,353616,2,0,P|73:105|104:92,1,70,8|0,3:2|0:0,0:0:0:0:
124,372,354000,2,0,B|156:325|156:325|128:160,1,210,8|0,3:3|0:0,0:0:0:0:
130,174,354385,1,2,0:0:0:0:
329,241,354577,86,0,B|259:269|257:359|257:359|225:169|225:169|219:164|219:164|201:27|201:27|329:20|420:136,1,700,14|0,3:2|0:0,0:0:0:0:
126,79,355154,54,0,B|114:71|114:71|40:98,1,78.7500030040742,4|0,3:3|0:0,0:0:0:0:
53,93,355539,1,2,0:0:0:0:
401,103,355731,38,0,B|329:18|190:16|190:16|206:17|206:17|229:143|229:143|219:177|219:177|243:346|243:346|257:231|419:207|418:348|327:355,1,875,6|0,3:1|0:0,0:0:0:0:
116,271,356308,37,4,0:3:0:0:
346,179,356500,2,0,B|361:208|390:216|390:216|322:263|208:194|255:110|255:110|253:152|280:175,1,350,4|0,0:3|0:0,0:0:0:0:
432,328,357077,86,0,P|373:333|311:369,1,105,10|0,3:3|0:0,0:0:0:0:
332,352,357462,1,2,0:0:0:0:
72,94,357654,2,0,B|77:207|-20:271|-20:271|191:328|329:200|329:200|264:201|224:161,1,700,14|0,3:2|0:0,0:0:0:0:
154,303,358231,102,0,P|157:345|175:310,1,105,6|0,3:3|0:0,0:0:0:0:
177,314,358616,1,2,0:0:0:0:
405,79,358808,2,0,B|397:144|428:188|428:188|479:214|513:285|513:285|532:280|532:280|419:319|279:302|279:302|282:310|282:310|153:288|104:202|104:202|180:203|227:156,1,875,6|0,3:1|0:0,0:0:0:0:
23,32,359385,22,0,P|73:47|117:73,1,105.000004005432,2|0,3:2|0:0,0:0:0:0:
339,223,359769,2,0,P|319:174|312:123,1,105.000004005432,10|0,3:2|0:0,0:0:0:0:
478,330,360154,102,0,P|509:302|467:299,1,105,10|0,3:3|0:0,0:0:0:0:
467,299,360539,1,2,0:0:0:0:
186,370,360731,2,0,B|247:256|176:139|176:139|365:58|510:195|510:195|430:180|379:264,1,700,14|0,3:2|0:0,0:0:0:0:
115,234,361308,102,0,P|105:281|115:329,1,78.7500030040742,6|0,3:3|0:0,0:0:0:0:
108,311,361693,1,2,0:0:0:0:
385,306,361885,2,0,B|328:283|322:219|322:219|316:226|316:226|323:123|376:72|376:72|366:2|304:-1|304:-1|239:27|161:29|161:29|163:25|163:25|71:29|0:60|0:60|14:54|14:54|85:50|115:123,1,839.999974365235,6|0,3:1|0:0,0:0:0:0:
259,364,362462,22,0,P|231:305|181:284,1,105.000004005432,2|0,3:2|0:0,0:0:0:0:
470,53,362846,1,10,3:2:0:0:
486,130,362943,1,2,0:0:0:0:
458,174,363039,1,2,0:0:0:0:
432,181,363135,1,2,0:0:0:0:
420,172,363231,102,0,P|395:156|361:156,2,52.5000020027161,4|0|0,0:3|0:0|0:0,0:0:0:0:
271,327,363808,2,0,B|145:231|158:86|158:86|221:139|297:107|297:107|280:254|129:298,1,700,14|0,3:2|0:0,0:0:0:0:
57,96,364385,102,0,P|83:51|83:0,1,105,6|0,3:3|0:0,0:0:0:0:
83,0,364769,1,2,0:0:0:0:
379,259,364962,2,0,B|366:294|392:329|392:329|402:334|402:334|274:264|210:155|210:155|220:159|232:158|232:158|137:247|13:247|13:247|24:247|24:247|59:227|64:190,1,700,6|0,3:1|0:0,0:0:0:0:
321,131,365539,22,0,P|355:170|376:180,1,52.5000020027161,2|0,3:2|0:0,0:0:0:0:
150,345,365923,2,0,P|189:311|207:281,1,78.7500030040742,10|0,3:2|0:0,0:0:0:0:
65,84,366308,102,0,B|38:100|-1:95|-1:95|89:113|172:44,1,210,10|0,3:3|0:0,0:0:0:0:
135,70,366693,1,2,0:0:0:0:
352,225,366885,2,0,B|448:320|314:408|211:357|215:221|222:127|302:11|438:41,1,525.000020027161,14|0,3:2|0:0,0:0:0:0:
511,234,367462,102,0,P|469:211|482:246,1,105,6|0,3:3|0:0,0:0:0:0:
509,314,367846,1,2,0:0:0:0:
162,159,368039,2,0,B|130:152|117:122|117:122|115:132|115:132|112:93|127:75|127:75|118:79|118:79|148:50|189:48|189:48|181:44|181:44|226:51|252:81|252:81|249:73|249:73|276:114|282:162|282:162|286:153|286:153|283:215|249:262|249:262|256:259|256:259|208:305|143:312|143:312|150:317|150:317|97:305|66:261|66:261|58:257|58:257|99:276|142:264,1,875,6|0,3:1|0:0,0:0:0:0:
319,312,368616,22,0,P|338:283|350:250,1,70,2|0,3:2|0:0,0:0:0:0:
39,261,369000,2,0,P|23:226|24:179,1,70,10|0,3:2|0:0,0:0:0:0:
369,66,369385,101,0,3:0:0:0:
415,133,369577,1,2,0:0:0:0:
289,261,369769,2,0,P|261:259|239:236,1,52.5000020027161,2|8,0:0|0:0,0:0:0:0:
91,145,369962,2,0,B|76:54|76:54|70:-15|163:-26|172:49|172:49|183:126|183:126|200:249|81:230|90:348|90:348|110:282|186:250,1,700,14|0,3:2|0:0,0:0:0:0:
372,236,370539,102,0,P|416:250|444:295,1,78.7500030040742,6|0,3:3|0:0,0:0:0:0:
436,273,370923,1,2,0:0:0:0:
193,121,371116,2,0,B|165:78|169:33|169:33|145:-31|59:-2|79:65|79:65|74:73|74:73|103:133|103:133|99:141|99:141|131:228|85:220|112:311|112:311|114:310|114:310|132:373|218:339|187:280|187:280|177:254|196:220,1,700,6|0,3:1|0:0,0:0:0:0:
439,206,371693,22,0,P|428:239|436:273,1,70,2|0,3:2|0:0,0:0:0:0:
268,157,372077,2,0,P|278:124|271:90,1,70,10|0,3:2|0:0,0:0:0:0:
223,344,372462,102,0,P|183:375|124:377,1,105,10|0,3:3|0:0,0:0:0:0:
130,378,372846,1,2,0:0:0:0:
379,76,373039,2,0,B|438:-10|575:84|509:202|333:250|230:158|292:89|180:19|66:79|66:79|129:65|180:132,1,700,14|0,3:2|0:0,0:0:0:0:
122,342,373616,102,0,P|171:327|221:342,1,105,6|0,3:3|0:0,0:0:0:0:
222,343,374000,1,2,0:0:0:0:
82,247,374193,2,0,B|-31:244|-52:56|134:44|161:145|161:145|159:132|159:132|250:126|285:40|285:40|277:38|277:38|267:132|356:189,1,700,6|0,3:1|0:0,0:0:0:0:
235,347,374769,22,0,P|227:300|191:274,1,70,2|0,3:2|0:0,0:0:0:0:
61,82,375154,1,10,3:2:0:0:
141,83,375250,1,2,0:2:0:0:
185,110,375346,1,2,0:2:0:0:
190,134,375443,1,2,0:2:0:0:
182,138,375539,22,0,P|171:144|156:147,5,17.5
247,65,375827,2,0,P|258:59|273:56,2,17.5,8|0|4,0:3|0:0|0:3,0:0:0:0:
434,198,376116,1,4,3:3:0:0:
434,198,376212,1,8,2:3:0:0:
434,198,376308,54,0,P|455:84|351:159,1,315.000012016297,6|0,3:2|0:0,0:0:0:0:
432,219,376693,2,0,B|510:191|514:106|465:67|465:67|468:55|468:55|458:63|458:63|402:30|340:52|315:118|332:159,1,420,2|0,3:2|0:0,0:0:0:0:
438,234,377077,2,0,B|493:231|526:155|513:109|513:109|522:117|522:117|516:41|413:5|361:44|361:44|362:36|362:36|304:54|277:168|342:217,1,577.500005507469,2|0,3:2|0:0,0:0:0:0:
511,306,377462,1,8,0:0:0:0:
262,97,377654,6,0,B|269:66|296:53|296:53|263:115|282:186,1,192.500001835823,2|0,3:2|0:0,0:0:0:0:
511,1,378039,1,8,0:0:0:0:
329,253,378231,6,0,B|304:267|276:266|276:266|361:292|416:208,1,192.500001835823,2|0,3:2|0:0,0:0:0:0:
162,41,378423,1,8,0:3:0:0:
149,89,378519,1,4,0:3:0:0:
148,133,378616,86,0,B|181:188|148:267|148:267|142:264|142:264|187:191|264:179,1,280,2|0,3:2|0:0,0:0:0:0:
473,174,378904,1,8,0:0:0:0:
102,293,379096,5,4,0:3:0:0:
128,270,379193,2,0,B|171:202|136:137|136:137|149:133|149:133|51:150|38:235,1,308.000009399414,2|0,3:2|0:0,0:0:0:0:
263,307,379481,1,8,0:0:0:0:
27,253,379673,101,4,0:3:0:0:
28,216,379769,2,0,B|46:143|138:120|138:120|130:123|130:123|189:173|258:131,1,301.000004592896,2|0,3:2|0:0,0:0:0:0:
251,30,380058,5,8,0:2:0:0:
223,37,380154,1,8,0:3:0:0:
201,55,380250,1,4,0:3:0:0:
259,119,380346,2,0,B|222:147|166:150|134:108|134:108|143:104|143:104|99:55|55:43|-15:74,1,301.000004592896,2|0,3:2|0:0,0:0:0:0:
22,177,380635,101,8,0:0:0:0:
44,160,380731,1,8,0:3:0:0:
52,133,380827,1,4,0:3:0:0:
6,55,380923,2,0,B|76:31|126:73|126:73|167:0|259:16,1,280,2|8,3:2|0:0,0:0:0:0:
457,67,381212,1,8,0:0:0:0:
457,67,381308,6,0,P|399:109|406:212,1,140,8|0,0:3|0:0,0:0:0:0:
486,384,381500,2,0,P|508:315|442:236,1,140,8|0,0:3|0:0,0:0:0:0:
255,192,381692,37,4,3:2:0:0:
