osu file format v14

[General]
AudioFilename: audio.mp3
AudioLeadIn: 0
PreviewTime: 121600
Countdown: 0
SampleSet: Drum
StackLeniency: 0.3
Mode: 0
LetterboxInBreaks: 0
StoryFireInFront: 0
EpilepsyWarning: 1
WidescreenStoryboard: 1

[Editor]
Bookmarks: 2081,36696,74004,98619,107850,114004,123234,141696,147850,172465,197081,234004,258619,283234,320157,329388,332465,381696,430927,443619,443643
DistanceSpacing: 1.6
BeatDivisor: 4
GridSize: 32
TimelineZoom: 4.000004

[Metadata]
Title:cherry blossoms explode across the dying horizon
TitleUnicode:「cherry blossoms explode across the dying horizon」
Artist:sakuraburst
ArtistUnicode:【sakuraburst】
Creator:Waaif
Version:petals flew across the sky
Source:
Tags:deconstructing nature electronic ambient glitch heavy idm noise orchestral distorted horizons koshys photonplay experimental
BeatmapID:1802925
BeatmapSetID:861869

[Difficulty]
HPDrainRate:6.8
CircleSize:5
OverallDifficulty:8.3
ApproachRate:9.5
SliderMultiplier:3.59999990463257
SliderTickRate:1

[Events]
//Background and Video events
0,0,"ce0634ccfbb6a13ab6eb531b986d2294.jpg",0,0
//Break Periods
2,62184,69536
2,197281,214825
//Storyboard Layer 0 (Background)
//Storyboard Layer 1 (Fail)
//Storyboard Layer 2 (Pass)
//Storyboard Layer 3 (Foreground)
//Storyboard Layer 4 (Overlay)
//Storyboard Sound Samples

[TimingPoints]
2081,384.615384615385,4,2,1,5,1,0
2081,-100,4,2,1,5,0,0
3234,-100,4,2,1,7,0,0
4388,-100,4,2,1,9,0,0
5542,-100,4,2,1,11,0,0
6696,-100,4,2,1,13,0,0
7849,-100,4,2,1,15,0,0
12465,-250,4,2,1,25,0,0
15542,-400,4,2,1,25,0,0
18619,-285.714285714286,4,2,1,25,0,0
29388,-666.666666666667,4,2,1,25,0,0
36696,-222.222222222222,4,2,1,25,0,0
36792,-166.666666666667,4,2,1,25,0,0
36888,-200,4,2,1,25,0,0
36984,-250.000000000001,4,2,1,25,0,0
37081,-166.666666666667,4,2,1,25,0,0
37465,-250,4,2,1,25,0,0
37849,-333.333333333333,4,2,1,25,0,0
40927,-500,4,2,1,25,0,0
41600,-500,4,2,1,5,0,0
41696,-400,4,2,1,25,0,0
42369,-400,4,2,1,5,0,0
42465,-333.333333333333,4,2,1,25,0,0
43138,-333.333333333333,4,2,1,5,0,0
43234,-250,4,2,1,25,0,0
43522,-250,4,2,1,5,0,0
43619,-333.333333333333,4,2,1,25,0,0
43907,-250,4,2,1,5,0,0
44003,-500,4,2,1,25,0,0
45542,-666.666666666667,4,2,1,25,0,0
46696,-333.333333333333,4,2,1,25,0,0
47081,-312.5,4,2,1,25,0,0
47465,-294.117647058824,4,2,1,25,0,0
47850,-277.777777777778,4,2,1,25,0,0
48234,-250,4,2,1,25,0,0
48619,-227.272727272727,4,2,1,25,0,0
49004,-200,4,2,1,25,0,0
49388,-333.333333333333,4,2,1,25,0,0
49677,-333.333333333333,4,2,1,5,0,0
49773,-333.333333333333,4,2,1,25,0,0
50061,-333.333333333333,4,2,1,5,0,0
50157,-333.333333333333,4,2,1,25,0,0
56984,-333.333333333333,4,2,1,5,0,0
57080,-500,4,2,1,25,0,0
58523,-500,4,2,1,5,0,0
58619,-500,4,2,1,25,0,0
61696,-133.333333333333,4,2,1,25,0,0
74292,-133.333333333333,4,2,1,5,0,0
74388,-133.333333333333,4,2,1,25,0,0
74677,-133.333333333333,4,2,1,5,0,0
74772,-333.333333333333,4,2,1,25,0,0
76888,-200,4,2,1,25,0,0
77080,-192.307692307692,4,2,1,25,0,0
77754,-192.307692307692,4,2,1,5,0,0
77850,-192.307692307692,4,2,1,25,0,0
79388,-500,4,2,1,25,0,0
80061,-500,4,2,1,5,0,0
80157,-125,4,2,1,25,0,0
80446,-125,4,2,1,5,0,0
80542,-125,4,2,1,25,0,0
80831,-125,4,2,1,5,0,0
80926,-285.714285714286,4,2,1,25,0,0
82272,-666.666666666667,4,2,1,25,0,0
82657,-222.222222222222,4,2,1,25,0,0
86311,-117.647058823529,4,2,1,25,0,0
86600,-117.647058823529,4,2,1,5,0,0
86696,-153.846153846154,4,2,1,25,0,0
86984,-153.846153846154,4,2,1,5,0,0
87080,-833.333333333333,4,2,1,25,0,0
88619,-200,4,2,1,25,0,0
88715,-125,4,2,1,25,0,0
91696,-212.765957446809,4,2,1,25,0,0
96311,-166.666666666667,4,2,1,25,0,0
96984,-166.666666666667,4,2,1,5,0,0
97081,-166.666666666667,4,2,1,25,0,0
97754,-166.666666666667,4,2,1,5,0,0
97849,-149.253731343284,4,2,1,25,0,0
98523,-149.253731343284,4,2,1,5,0,0
98619,-142.857142857143,4,2,1,25,0,0
110542,-149.253731343284,4,2,1,25,0,0
110782,-149.253731343284,4,2,1,5,0,0
110831,-149.253731343284,4,2,1,25,0,0
110879,-149.253731343284,4,2,1,5,0,0
110927,-149.253731343284,4,2,1,25,0,0
114003,-175.438596491229,4,2,1,25,0,0
114292,-175.438596491229,4,2,1,5,0,0
114388,-175.438596491229,4,2,1,25,0,0
114677,-175.438596491229,4,2,1,5,0,0
114773,-175.438596491229,4,2,1,25,0,0
115061,-175.438596491229,4,2,1,5,0,0
115157,-175.438596491229,4,2,1,25,0,0
115446,-175.438596491229,4,2,1,5,0,0
115542,-129.87012987013,4,2,1,25,0,0
115831,-129.87012987013,4,2,1,5,0,0
115927,-129.87012987013,4,2,1,25,0,0
116215,-129.87012987013,4,2,1,5,0,0
116311,-129.87012987013,4,2,1,25,0,0
116600,-129.87012987013,4,2,1,5,0,0
116696,-500,4,2,1,25,0,0
122850,-500,4,2,1,65,0,0
123138,-500,4,2,1,5,0,0
123234,-100,4,2,1,65,0,0
123619,-500,4,2,1,65,0,0
123907,-142.857142857143,4,2,1,65,0,0
124196,-111.111111111111,4,2,1,65,0,0
124772,-666.666666666667,4,2,1,65,0,0
125157,-100,4,2,1,65,0,0
125926,-66.6666666666667,4,2,1,40,0,0
126311,-666.666666666667,4,2,1,65,0,0
126696,-100,4,2,1,65,0,0
126984,-66.6666666666667,4,2,1,65,0,0
127849,-500,4,2,1,65,0,0
128234,-76.9230769230769,4,2,1,65,0,0
129003,-133.333333333333,4,2,1,65,0,0
129388,-142.857142857143,4,2,1,65,0,0
129772,-76.9230769230769,4,2,1,65,0,0
130349,-66.6666666666667,4,2,1,65,0,0
130542,-333.333333333333,4,2,1,65,0,0
130734,-500,4,2,1,65,0,0
130926,-100,4,2,1,65,0,0
131311,-66.6666666666667,4,2,1,65,0,0
131599,-100,4,2,1,65,0,0
132080,-133.333333333333,4,2,1,65,0,0
132465,-500,4,2,1,65,0,0
132849,-66.6666666666667,4,2,1,65,0,0
134388,-63.2911392405063,4,2,1,65,0,0
135542,-500,4,2,1,65,0,0
135926,-76.9230769230769,4,2,1,65,0,0
136215,-66.6666666666667,4,2,1,65,0,0
136503,-333.333333333333,4,2,1,65,0,0
137080,-500,4,2,1,65,0,0
137465,-100,4,2,1,65,0,0
138619,-500,4,2,1,65,0,0
139292,-200,4,2,1,65,0,0
139772,-333.333333333333,4,2,1,65,0,0
140157,-500,4,2,1,65,0,0
140542,-100,4,2,1,65,0,0
140830,-66.6666666666667,4,2,1,65,0,0
141311,-500,4,2,1,65,0,0
141696,-142.857142857143,4,2,1,65,0,0
142080,-100,4,2,1,65,0,0
142849,-333.333333333333,4,2,1,30,0,0
143234,-142.857142857143,4,2,1,65,0,0
143619,-100,4,2,1,65,0,0
143907,-86.9565217391304,4,2,1,65,0,0
144772,-66.6666666666667,4,2,1,65,0,0
145734,-133.333333333333,4,2,1,65,0,0
145926,-57.1428571428571,4,2,1,65,0,0
146503,-133.333333333333,4,2,1,65,0,0
146696,-44.8430493273543,4,2,1,65,0,0
147272,-133.333333333333,4,2,1,65,0,0
147849,-100,4,2,1,35,0,0
148330,-83.3333333333333,4,2,1,35,0,0
148619,-200,4,2,1,35,0,0
149388,-100,4,2,1,35,0,0
149869,-166.666666666667,4,2,1,35,0,0
150157,-250,4,2,1,35,0,0
150542,-125,4,2,1,35,0,0
150926,-100,4,2,1,35,0,0
151696,-500,4,2,1,35,0,0
151984,-666.666666666667,4,2,1,35,0,0
152753,-200,4,2,1,35,0,0
152946,-166.666666666667,4,2,1,35,0,0
154003,-125,4,2,1,35,0,0
154484,-66.6666666666667,4,2,1,35,0,0
155542,-83.3333333333333,4,2,1,35,0,0
156023,-90.9090909090909,4,2,1,35,0,0
156311,-200,4,2,1,35,0,0
157080,-125,4,2,1,35,0,0
160157,-100,4,2,1,35,0,0
160926,-333.333333333333,4,2,1,35,0,0
161696,-125,4,2,1,35,0,0
162465,-100,4,2,1,35,0,0
162849,-125,4,2,1,35,0,0
163234,-200,4,2,1,35,0,0
164003,-100,4,2,1,35,0,0
164292,-142.857142857143,4,2,1,35,0,0
164772,-200,4,2,1,35,0,0
164965,-125,4,2,1,35,0,0
165542,-100,4,2,1,35,0,0
165926,-125,4,2,1,35,0,0
166311,-100,4,2,1,35,0,0
167080,-200,4,2,1,35,0,0
167849,-153.846153846154,4,2,1,35,0,0
168234,-200,4,2,1,35,0,0
169003,-125,4,2,1,35,0,0
172273,-125,4,2,1,35,0,0
172465,-125,4,2,1,25,0,0
175542,-142.857142857143,4,2,1,25,0,0
178234,-333.333333333334,4,2,1,25,0,0
181407,-125,4,2,1,25,0,0
181696,-142.857142857143,4,2,1,25,0,0
194196,-333.333333333334,4,2,1,25,0,0
194581,-400,4,2,1,25,0,0
194965,-588.235294117647,4,2,1,25,0,0
195542,-400,4,2,1,25,0,0
195926,-285.714285714286,4,2,1,25,0,0
196311,-200,4,2,1,25,0,0
215349,-666.666666666667,4,2,1,15,0,0
216215,-666.666666666667,4,2,1,5,0,0
216311,-666.666666666667,4,2,1,15,0,0
217177,-666.666666666667,4,2,1,5,0,0
217273,-833.333333333333,4,2,1,15,0,0
218427,-666.666666666667,4,2,1,5,0,0
218523,-666.666666666667,4,2,1,15,0,0
219100,-666.666666666667,4,2,1,5,0,0
219196,-833.333333333333,4,2,1,15,0,0
219965,-666.666666666667,4,2,1,5,0,0
220061,-666.666666666667,4,2,1,15,0,0
225061,-666.666666666667,4,2,1,5,0,0
225157,-666.666666666667,4,2,1,15,0,0
225927,-666.666666666667,4,2,1,5,0,0
226023,-666.666666666667,4,2,1,15,0,0
227850,-666.666666666667,4,2,1,5,0,0
227946,-666.666666666667,4,2,1,15,0,0
228331,-666.666666666667,4,2,1,5,0,0
228427,-666.666666666667,4,2,1,15,0,0
228811,-666.666666666667,4,2,1,5,0,0
228907,-666.666666666667,4,2,1,15,0,0
229292,-666.666666666667,4,2,1,5,0,0
229388,-666.666666666667,4,2,1,15,0,0
230734,-666.666666666667,4,2,1,5,0,0
234004,-666.666666666667,4,2,1,15,0,0
256311,-333.333333333333,4,2,1,15,0,0
257080,-1000,4,2,1,15,0,0
257754,-1000,4,2,1,5,0,0
257849,-166.666666666667,4,2,1,15,0,0
257850,-166.666666666667,4,2,2,100,0,0
258523,-166.666666666667,4,2,1,15,0,0
259003,-666.666666666667,4,2,1,15,0,0
270157,-200,4,2,1,15,0,0
270590,-200,4,2,1,5,0,0
270926,-666.666666666667,4,2,1,25,0,0
276311,-1000,4,2,1,25,0,0
277080,-666.666666666667,4,2,1,25,0,0
279004,-666.666666666667,4,2,1,15,0,0
279388,-500,4,3,1,25,0,0
282081,-500,4,3,2,25,0,0
283042,-333.333333333333,4,3,2,25,0,0
283234,-125,4,3,2,45,0,0
284388,-100,4,3,2,45,0,0
285157,-125,4,3,2,45,0,0
285542,-100,4,3,2,45,0,0
286119,-125,4,3,2,45,0,0
289388,-100,4,3,2,45,0,0
290157,-125,4,3,2,45,0,0
290542,-100,4,3,2,45,0,0
292657,-90.9090909090909,4,3,2,45,0,0
293619,-100,4,3,2,45,0,0
295349,-125,4,3,2,45,0,0
295542,-100,4,3,2,45,0,0
298426,-125,4,3,2,45,0,0
298619,-90.9090909090909,4,3,2,45,0,0
299772,-100,4,3,2,45,0,0
301696,-90.9090909090909,4,3,2,45,0,0
302849,-100,4,3,2,45,0,0
307850,-100,4,3,2,55,0,0
312272,-90.9090909090909,4,3,2,55,0,0
313234,-100,4,3,2,55,0,0
314003,-90.9090909090909,4,3,2,55,0,0
317080,-95.2380952380952,4,3,2,55,0,0
319388,-95.2380952380952,4,3,2,55,0,0
320061,-95.2380952380952,4,3,1,55,0,0
320157,-250,4,2,1,25,0,0
320446,-250,4,2,1,5,0,0
320542,-250,4,2,1,25,0,0
320831,-250,4,2,1,5,0,0
320927,-250,4,2,1,25,0,0
321215,-250,4,2,1,5,0,0
321311,-250,4,2,1,25,0,0
321600,-250,4,2,1,5,0,0
321696,-250,4,2,1,25,0,0
321984,-250,4,2,1,5,0,0
322081,-250,4,2,1,25,0,0
322369,-250,4,2,1,5,0,0
322465,-250,4,2,1,25,0,0
322754,-250,4,2,1,5,0,0
322850,-250,4,2,1,25,0,0
323138,-250,4,2,1,5,0,0
323234,-250,4,2,1,25,0,0
323523,-250,4,2,1,5,0,0
323619,-250,4,2,1,25,0,0
323907,-250,4,2,1,5,0,0
324004,-250,4,2,1,25,0,0
324292,-250,4,2,1,5,0,0
324388,-250,4,2,1,25,0,0
324677,-250,4,2,1,5,0,0
324773,-166.666666666667,4,2,1,25,0,0
325061,-166.666666666667,4,2,1,5,0,0
325157,-166.666666666667,4,2,1,25,0,0
325446,-166.666666666667,4,2,1,5,0,0
325542,-166.666666666667,4,2,1,25,0,0
325831,-166.666666666667,4,2,1,5,0,0
325927,-500.000000000003,4,2,1,25,0,0
331696,-1000,4,2,1,25,0,0
332369,-1000,4,2,1,5,0,0
333042,-40,4,3,2,60,0,1
333427,-40,4,2,1,30,0,0
333619,-1000,4,2,1,30,0,0
334196,-34.6020761245675,4,3,3,75,0,1
334581,-34.6020761245675,4,2,1,30,0,0
334773,-500,4,2,1,30,0,0
335542,-1000,4,2,1,30,0,0
336119,-40,4,3,2,60,0,1
336504,-40,4,2,1,30,0,0
336696,-1000,4,2,1,30,0,0
337273,-36.7647058823529,4,3,3,75,0,1
337657,-36.7647058823529,4,2,1,30,0,0
337850,-66.6666666666667,4,2,1,30,0,0
338234,-65.359477124183,4,2,1,30,0,0
338619,-200,4,2,1,30,0,0
339196,-40,4,3,2,60,0,1
339581,-40,4,2,1,30,0,0
339773,-1000,4,2,1,30,0,0
340350,-37.037037037037,4,3,3,75,0,1
340734,-37.037037037037,4,2,1,30,0,0
340927,-66.6666666666667,4,2,1,30,0,0
341311,-50,4,2,1,30,0,0
341696,-100,4,2,1,30,0,0
342273,-1000,4,2,1,30,0,0
342850,-500,4,2,1,30,0,0
343427,-35.7142857142857,4,3,3,75,0,1
343811,-35.7142857142857,4,2,1,30,0,0
344004,-333.333333333333,4,2,1,30,0,0
345350,-40,4,3,2,65,0,1
345734,-40,4,2,1,30,0,0
345927,-1000,4,2,1,30,0,0
346504,-36.90036900369,4,3,3,75,0,1
346888,-37.037037037037,4,2,1,30,0,0
347081,-1000,4,2,1,30,0,0
348427,-40,4,3,2,65,0,1
348811,-40,4,2,1,30,0,0
349004,-500,4,2,1,30,0,0
349581,-40,4,3,3,75,0,1
349965,-40,4,2,1,30,0,0
350157,-66.6666666666667,4,2,1,30,0,0
350542,-58.4795321637427,4,2,1,30,0,0
350927,-250,4,2,1,30,0,0
351504,-40,4,3,2,65,0,1
351888,-40,4,2,1,30,0,0
352081,-500,4,2,1,30,0,0
352657,-37.593984962406,4,3,3,75,0,1
353042,-37.8787878787879,4,2,1,30,0,0
353234,-250,4,2,1,30,0,0
354581,-40,4,3,2,65,0,1
354965,-40,4,2,1,30,0,0
355157,-500,4,2,1,30,0,0
355734,-40,4,3,3,75,0,1
356119,-40,4,2,1,30,0,0
356311,-133.333333333333,4,2,1,30,0,0
357081,-666.666666666667,4,2,1,40,0,1
357657,-43.4782608695652,4,3,2,65,0,1
358234,-666.666666666667,4,2,1,40,0,1
358811,-40,4,3,3,80,0,1
359388,-500,4,2,1,40,0,1
360157,-666.666666666667,4,2,1,40,0,1
360734,-43.4782608695652,4,3,2,65,0,1
361311,-666.666666666667,4,2,1,40,0,1
361888,-40,4,3,3,80,0,1
362465,-333.333333333333,4,2,1,40,0,1
363282,-333.333333333333,4,2,1,5,0,1
363426,-200,4,2,1,25,0,1
363475,-200,4,2,1,5,0,1
363619,-142.857142857143,4,2,1,25,0,1
363667,-142.857142857143,4,2,1,5,0,1
363811,-43.4782608695652,4,3,2,40,0,1
364388,-333.333333333333,4,2,1,25,0,1
364965,-40,4,3,3,50,0,1
365542,-333.333333333333,4,2,1,25,0,1
365926,-100,4,2,1,25,0,1
366311,-333.333333333333,4,2,1,25,0,1
366888,-100,4,2,1,25,0,1
367465,-500,4,2,1,25,0,1
368042,-40,4,3,3,80,0,1
368619,-500,4,2,1,40,0,1
369003,-125,4,2,1,40,0,1
369388,-100,4,2,1,25,0,1
369580,-71.4285714285714,4,2,1,45,0,1
369772,-55.5555555555555,4,2,1,75,0,1
369965,-43.4782608695652,4,3,2,65,0,1
370542,-500,4,2,1,40,0,1
371119,-40,4,3,3,80,0,1
371696,-500,4,2,1,40,0,1
373042,-43.4782608695652,4,3,2,65,0,1
373619,-333.333333333333,4,2,1,45,0,1
374196,-40,4,3,3,80,0,1
374772,-250,4,2,1,40,0,1
375542,-100,4,2,1,50,0,1
378907,-333.333333333333,4,2,1,50,0,1
379196,-100,4,2,1,50,0,1
379484,-333.333333333333,4,2,1,50,0,1
379772,-100,4,2,1,50,0,1
380061,-166.666666666667,4,2,1,50,0,1
380349,-125,4,2,1,50,0,1
380926,-100,4,2,1,50,0,1
381311,-133.333333333333,4,2,1,50,0,0

[Colours]
Combo1 : 220,149,31
Combo2 : 0,128,192
Combo3 : 188,51,217
Combo4 : 140,215,66

[HitObjects]
291,221,2081,5,8,2:0:0:0:
263,237,2465,1,0,2:0:0:0:
232,231,2850,1,0,2:0:0:0:
402,163,3234,5,8,2:0:0:0:
402,197,3619,1,0,2:0:0:0:
379,223,4004,1,0,2:0:0:0:
358,70,4388,5,8,2:0:0:0:
399,67,4773,1,0,2:0:0:0:
431,95,5157,1,0,2:0:0:0:
370,230,5542,5,8,2:0:0:0:
329,222,5927,1,0,2:0:0:0:
306,188,6311,1,0,2:0:0:0:
455,230,6696,5,8,2:0:0:0:
445,279,7081,1,0,2:0:0:0:
404,306,7465,1,0,2:0:0:0:
240,257,7850,5,8,2:0:0:0:
205,206,8234,1,0,2:0:0:0:
217,148,8619,1,0,2:0:0:0:
359,112,9004,5,8,2:0:0:0:
401,174,9388,1,0,2:0:0:0:
385,243,9773,1,0,2:0:0:0:
151,94,10157,5,8,2:0:0:0:
219,47,10542,1,0,2:0:0:0:
300,61,10927,1,0,2:0:0:0:
383,281,11311,5,8,2:0:0:0:
293,343,11696,1,0,2:0:0:0:
193,320,12081,1,0,2:0:0:0:
21,175,12465,6,0,B|53:168|69:113|69:113|51:215|126:311|126:311|131:241|170:224|161:161|161:161|217:184|282:164|335:83|259:30|259:30|157:94|273:160|227:226|212:266|212:266|237:244|287:241,1,1007.99997329712,6|0,0:0|0:0,0:0:0:0:
321,67,15542,6,0,B|385:37|436:41|436:41|381:152|381:152|402:155|402:155|367:245|367:245|345:243|345:243|318:306|318:306|366:344|455:293|455:293|438:340,1,629.9999833107,2|2,0:0|0:0,0:0:0:0:
111,327,18619,6,0,B|21:187|181:156|63:12|63:12|217:50|217:50|296:148|203:189|203:189|156:88|293:34|331:97,1,881.999949718477,2|0,0:0|0:0,0:0:0:0:
391,217,21696,6,0,B|397:177|415:118|415:118|354:87|354:87|320:151|310:292|310:292|277:219|229:188|229:188|272:143|261:72|211:69|165:21|114:141|197:138,1,755.999956901552,2|0,0:0|0:0,0:0:0:0:
176,135,24388,1,2,0:0:0:0:
48,280,24773,5,2,0:0:0:0:
160,293,25157,1,0,0:0:0:0:
176,305,25542,1,0,0:0:0:0:
345,55,25927,5,2,0:0:0:0:
386,193,26311,1,0,0:0:0:0:
402,205,26696,1,0,0:0:0:0:
250,326,27081,5,2,0:0:0:0:
207,189,27465,1,0,0:0:0:0:
223,201,27850,1,0,0:0:0:0:
163,30,28234,5,2,0:0:0:0:
92,197,28619,1,0,0:0:0:0:
108,209,29004,1,0,0:0:0:0:
367,64,29388,6,0,L|363:125,1,53.9999969215394,8|0,0:0|0:0,0:0:0:0:
280,285,30157,6,0,L|284:224,1,53.9999969215394,8|0,0:0|0:0,0:0:0:0:
224,64,30734,5,2,3:0:0:0:
222,90,30831,1,2,3:0:0:0:
194,157,30927,1,4,3:0:0:0:
256,192,31311,12,0,36503,0:0:0:0:
330,124,36696,6,0,L|324:158,1,20.2499988455773
304,167,36792,6,0,L|308:211,1,26.9999984607697
315,216,36888,6,0,L|321:237,1,22.4999994039536
308,265,36984,6,0,L|302:296,1,17.9999995231628
223,266,37081,6,0,P|214:185|143:149,1,161.999990764618,12|0,0:0|0:0,0:0:0:0:
105,300,37465,6,0,P|153:317|219:277,1,107.999997138977,8|0,0:0|0:0,0:0:0:0:
0,142,37850,6,0,B|-8:71|12:51|84:-9|97:40|235:168|45:101|25:207|93:312,1,431.999975372315,8|8,0:0|2:0,0:0:0:0:
90,308,40157,1,0,0:0:0:0:
178,60,40927,6,0,P|258:70|283:118,1,125.99999666214,2|0,0:0|0:0,0:0:0:0:
402,140,41696,2,0,P|327:170|303:246,1,157.499995827675,2|0,0:0|0:0,0:0:0:0:
321,336,42465,2,0,P|256:302|141:326,1,188.999989225388,2|0,0:0|0:0,0:0:0:0:
163,53,43234,6,0,B|151:100|163:146|163:146|131:140,1,107.999997138977,2|0,0:0|0:2,0:0:0:0:
188,75,43619,6,0,B|166:95|168:136|168:136|141:132,1,80.9999953823091,2|0,0:0|0:2,0:0:0:0:
191,260,44004,6,0,B|193:187|234:134|234:134|154:123,1,215.999994277954,2|0,0:0|0:0,0:0:0:0:
140,111,45542,2,0,L|251:126,1,107.999993843079,8|0,2:0|0:0,0:0:0:0:
111,270,46504,5,2,0:0:0:0:
104,287,46696,2,2,P|135:286|161:297,1,53.9999969215394
205,179,47081,2,2,P|176:180|135:161,1,57.5999984741211
98,309,47465,2,2,P|131:305|164:312,1,61.1999987522888
211,134,47850,6,2,P|195:87|198:58,1,64.7999998654175
263,268,48234,2,2,P|270:239|258:190,1,71.9999980926514
122,324,48619,2,2,P|155:333|204:321,1,79.2000003189087
63,181,49004,2,2,P|51:224|63:273,1,89.9999976158143
306,323,49388,6,0,P|346:278|388:277,1,80.9999953823091,8|2,0:0|0:0,0:0:0:0:
286,137,49773,2,2,P|304:194|284:231,1,80.9999953823091,10|2,0:0|0:0,0:0:0:0:
457,212,50157,5,8,0:0:0:0:
375,154,50542,1,0,0:0:0:0:
298,211,50927,1,0,0:0:0:0:
99,269,51311,5,8,0:0:0:0:
176,240,51696,1,8,0:0:0:0:
231,299,52081,1,8,0:0:0:0:
445,164,52465,5,8,0:0:0:0:
377,192,52850,1,0,0:0:0:0:
329,136,53234,1,0,0:0:0:0:
79,101,53619,5,8,0:0:0:0:
134,121,54004,1,8,0:0:0:0:
171,78,54388,1,8,0:0:0:0:
421,20,54773,6,0,B|406:141,1,107.999993843079,2|0,0:0|0:0,0:0:0:0:
391,217,55350,1,2,3:0:0:0:
350,208,55446,1,2,3:0:0:0:
278,235,55542,6,0,P|269:292|221:173,1,404.999976911546,4|0,3:0|0:0,0:0:0:0:
193,194,57081,6,0,P|154:293|255:256,1,269.999992847443,0|0,3:0|0:0,0:0:0:0:
197,252,58619,5,8,0:0:0:0:
256,192,58811,12,0,61503,0:0:0:0:
82,50,61696,6,0,L|88:120,1,67.5000007867814,8|0,3:0|0:0,3:0:0:0:
222,308,61888,2,0,L|213:376,1,67.5000007867814,8|0,3:0|0:0,3:0:0:0:
108,128,70061,5,2,2:0:0:0:
404,256,70927,1,2,2:0:0:0:
256,192,71119,12,0,73811,0:0:0:0:
161,21,74004,6,0,L|149:251,1,202.500002360344,12|0,0:0|0:0,0:0:0:0:
246,343,74388,2,0,L|235:140,1,202.500002360344,8|0,0:0|0:0,0:0:0:0:
315,15,74773,6,0,B|293:91|355:130|318:242|318:242|341:181|379:160|379:160|521:197,1,458.999973833085,8|0,0:0|0:0,0:0:0:0:
182,235,76504,6,2,L|200:242,4,13.4999992303849
272,176,76792,1,0,0:0:0:0:
272,176,76888,2,0,P|263:156|259:181,1,44.9999988079071
338,219,77081,2,2,P|276:79|173:188,1,327.599989322052
171,157,77850,5,2,0:0:0:0:
158,246,78619,1,2,0:0:0:0:
142,334,79388,6,0,L|273:344,1,125.99999666214,2|0,0:0|0:0,0:0:0:0:
346,347,80157,6,0,B|379:351|403:323|398:291|376:275|351:273|351:273|259:266,1,215.999994277954,12|0,0:0|0:0,0:0:0:0:
180,262,80542,6,0,B|146:263|127:232|133:201|157:187|182:187|182:187|274:190,1,215.999994277954,8|0,0:0|0:0,0:0:0:0:
351,193,80927,6,0,B|384:197|406:170|403:137|381:121|356:119|356:119|298:114|298:114|267:107|260:83|264:57|281:45|302:43|302:43|415:52,1,377.999978450776,8|0,0:0|0:0,0:0:0:0:
474,62,82273,6,0,P|476:84|470:106,1,40.4999976911546
452,191,82657,6,2,P|437:186|423:187,3,20.2499988455773
368,259,82850,6,2,P|383:254|397:255,6,20.2499988455773
455,325,83234,5,8,2:0:0:0:
256,192,83427,12,0,86120,0:0:0:0:
174,157,86311,6,0,B|197:99|137:54|137:54|88:106|114:159,1,229.499998297691,12|0,0:0|0:0,0:0:0:0:
177,241,86696,6,0,B|198:281|248:255|248:255|255:192|194:192,1,175.499987317086,8|0,0:0|0:0,0:0:0:0:
120,199,87081,6,0,B|91:197|75:213|69:251|69:251|109:272|132:260|140:241,1,161.999999663544,8|0,0:0|3:0,3:0:0:0:
225,80,88619,6,2,L|253:87,1,22.4999994039536
215,112,88715,2,2,P|187:112|168:116,5,35.9999990463257
224,189,89004,6,2,P|264:189|306:216,1,71.9999980926514,0|0,0:0|0:0,0:0:0:0:
197,321,89196,2,0,P|177:286|179:236,1,71.9999980926514
317,279,89388,2,8,P|308:309|287:326,2,35.9999990463257
246,261,89581,5,8,0:0:0:0:
244,242,89677,1,8,0:0:0:0:
238,224,89773,2,8,L|200:224,6,35.9999990463257
303,180,90157,5,2,0:0:0:0:
144,0,90927,1,2,0:0:0:0:
69,228,91696,1,2,0:0:0:0:
303,180,92081,5,8,3:0:0:0:
144,0,92273,1,8,0:0:0:0:
69,228,92465,1,12,0:0:0:0:
256,192,92657,12,0,95542,0:0:0:0:
179,170,96311,6,0,P|87:247|188:175,1,377.999978450776,0|0,3:0|3:0,3:0:0:0:
134,169,97081,6,0,B|92:200|92:200|89:249|89:249|125:288|125:288|175:291|175:291|212:255|212:255|213:204|213:204|182:171|182:171|144:165,1,377.999978450776,0|0,3:0|3:0,3:0:0:0:
91,195,97849,6,0,L|89:278|89:278|179:301|179:301|227:224|227:224|168:154|168:154|105:186,1,422.099968851892,0|0,3:0|3:0,3:0:0:0:
82,50,98619,6,0,L|88:113,1,62.9999964084627,0|0,3:0|3:0,3:0:0:0:
222,308,98811,2,0,L|216:371,1,62.9999964084627,0|0,3:0|3:0,3:0:0:0:
280,65,99388,5,0,2:0:0:0:
280,65,100157,1,0,2:0:0:0:
280,65,100926,5,8,2:2:0:0:
274,100,101022,1,8,2:2:0:0:
199,137,101119,5,8,2:2:0:0:
205,172,101215,1,8,2:2:0:0:
268,231,101311,5,8,2:2:0:0:
81,317,101696,5,4,2:0:0:0:
81,317,102465,1,0,2:0:0:0:
81,317,103234,1,0,2:0:0:0:
81,317,104004,1,0,2:0:0:0:
81,317,104388,5,8,2:0:0:0:
116,311,104484,1,8,2:0:0:0:
44,246,104581,5,8,2:0:0:0:
9,240,104677,1,8,2:0:0:0:
117,149,104773,5,12,2:0:0:0:
117,149,105542,1,0,2:0:0:0:
117,149,106311,1,0,2:0:0:0:
117,149,107081,5,8,2:0:0:0:
108,102,107177,1,8,2:0:0:0:
179,216,107273,5,8,2:0:0:0:
175,262,107369,1,8,2:0:0:0:
113,324,107465,5,8,2:0:0:0:
345,212,107850,5,4,2:0:0:0:
345,212,108619,1,0,2:0:0:0:
345,212,109388,1,0,2:0:0:0:
345,212,110157,1,0,2:0:0:0:
345,212,110542,6,8,L|325:169,1,30.1499977751352
286,267,110638,6,8,L|277:220,1,30.1499977751352
214,304,110734,6,8,L|218:256,1,30.1499977751352
134,321,110831,6,8,L|150:276,1,30.1499977751352
54,317,110927,5,12,0:0:0:0:
122,68,111696,6,8,L|113:147,1,60.2999955502703,8|8,3:0|3:0,3:0:0:0:
187,311,112465,6,8,L|178:232,1,60.2999955502703,8|8,3:0|3:0,3:0:0:0:
122,68,113234,6,8,L|113:147,1,60.2999955502703,8|8,3:0|3:0,3:0:0:0:
111,153,113427,1,8,0:0:0:0:
207,148,113523,1,8,0:0:0:0:
140,309,114004,6,0,P|200:282|177:325,1,153.89999404438,8|0,0:0|0:0,0:0:0:0:
336,214,114388,6,0,P|276:187|299:230,1,153.89999404438
199,21,114773,6,0,P|259:48|236:5,1,153.89999404438
130,161,115157,6,0,P|70:188|93:145,1,153.89999404438
322,323,115542,6,0,B|358:318|358:318|401:311|410:267|386:231|344:237|344:237|284:246,1,207.899990368538,8|0,0:0|0:0,0:0:0:0:
149,274,115927,6,0,B|112:276|112:276|69:276|52:235|68:195|112:193|112:193|173:192,1,207.899990368538
318,163,116311,6,0,B|354:158|354:158|397:151|406:107|382:72|340:77|340:77|280:86,1,207.899990368538
144,113,116696,6,0,B|105:115,1,35.9999990463257
151,228,116984,1,0,0:0:0:0:
151,228,117081,5,14,0:0:0:0:
147,256,117273,1,2,0:0:0:0:
143,285,117465,1,2,0:0:0:0:
140,313,117657,1,2,0:0:0:0:
133,181,117850,5,10,0:0:0:0:
128,229,118042,1,2,0:0:0:0:
124,281,118234,1,2,0:0:0:0:
121,330,118427,1,2,0:0:0:0:
106,132,118619,5,10,0:0:0:0:
102,202,118811,1,2,0:0:0:0:
100,274,119004,1,2,0:0:0:0:
100,345,119196,1,2,0:0:0:0:
70,101,119388,5,10,0:0:0:0:
71,185,119581,1,2,0:0:0:0:
73,273,119773,1,2,0:0:0:0:
77,358,119965,1,2,0:0:0:0:
187,62,120157,5,8,0:0:0:0:
188,79,120254,1,0,0:0:0:0:
190,97,120350,1,0,0:0:0:0:
192,115,120446,1,0,0:0:0:0:
159,57,120542,5,8,0:0:0:0:
169,80,120638,1,0,0:0:0:0:
176,104,120734,1,0,0:0:0:0:
179,130,120831,1,0,0:0:0:0:
129,64,120927,5,8,0:0:0:0:
149,86,121023,1,0,0:0:0:0:
161,112,121119,1,0,0:0:0:0:
165,145,121215,1,0,0:0:0:0:
88,80,121311,5,8,0:0:0:0:
123,96,121407,1,0,0:0:0:0:
144,125,121504,1,0,0:0:0:0:
149,164,121600,1,0,0:0:0:0:
104,239,121696,5,8,3:0:0:0:
126,247,121792,1,8,3:0:0:0:
150,250,121888,1,8,3:0:0:0:
173,247,121984,1,8,3:0:0:0:
193,237,122081,5,8,3:0:0:0:
233,226,122177,1,8,3:0:0:0:
274,231,122273,1,8,3:0:0:0:
310,253,122369,1,8,3:0:0:0:
337,286,122465,5,8,3:0:0:0:
327,226,122561,1,8,3:0:0:0:
336,167,122657,1,8,3:0:0:0:
362,113,122754,1,8,3:0:0:0:
423,174,122850,6,0,L|489:178,1,53.9999985694885,2|2,2:0|2:0,2:0:0:0:
425,252,123234,6,0,B|382:273|339:356|339:356|352:272|315:200,1,269.999992847443,8|0,1:0|0:0,0:0:0:0:
152,56,123619,6,0,P|179:58|201:63,1,35.9999990463257,0|0,3:0|0:0,0:0:0:0:
306,150,123907,2,0,P|293:109|293:157,1,125.999992816925,2|0,3:0|0:0,0:0:0:0:
151,226,124196,2,0,P|166:196|174:227,1,80.9999953823091,2|0,3:0|0:0,0:0:0:0:
282,340,124388,1,8,0:0:0:0:
282,340,124773,6,0,L|330:337,1,40.4999976911546
139,223,125157,6,0,B|91:240|96:191|122:169|144:150|172:261|229:196|289:170,1,179.999995231629,8|0,1:0|0:0,0:0:0:0:
315,95,125446,2,0,B|265:63|177:90|177:90|192:130|242:147,1,179.999995231629,8|0,1:0|0:0,0:0:0:0:
348,330,125734,5,10,0:0:0:0:
374,197,125831,1,10,0:0:0:0:
401,65,125927,2,0,P|416:43|408:72,6,67.5000007867814,0|0|0|0|0|0|0,2:0|2:0|2:0|2:0|2:0|2:0|2:0,2:0:0:0:
241,84,126311,6,0,L|281:92,1,40.4999976911546,8|0,3:0|0:0,0:0:0:0:
167,143,126696,6,0,L|124:133,4,44.9999988079071,0|0|0|0|0,3:0|0:0|0:0|0:0|0:0,0:0:0:0:
81,279,126984,6,0,B|88:302|13:351|6:209|65:204|112:254|129:317|240:282,1,270.000003147125,8|0,1:0|0:0,0:0:0:0:
311,254,127273,1,8,3:0:0:0:
141,35,127465,1,8,0:0:0:0:
141,35,127850,6,0,L|168:39,1,17.9999995231628,0|0,3:0|0:0,3:0:0:0:
326,231,128042,2,0,L|299:235,1,17.9999995231628,0|0,3:0|0:0,3:0:0:0:
106,208,128234,6,0,B|71:150|71:150|60:334,1,233.999983089448,10|0,0:0|0:0,0:0:0:0:
216,217,128523,2,0,B|207:52|207:52|172:110,1,233.999983089448,10|0,0:0|0:0,0:0:0:0:
154,316,128811,5,0,0:0:0:0:
270,311,128907,1,0,0:0:0:0:
387,306,129004,6,8,P|366:262|361:205,2,67.5000007867814,8|0|8,1:0|0:0|1:0,1:0:0:0:
82,50,129388,6,8,L|88:113,1,62.9999964084627,8|0,3:0|0:0,3:0:0:0:
222,308,129581,2,8,L|216:371,1,62.9999964084627,8|0,3:0|0:0,3:0:0:0:
180,114,129773,6,0,B|307:61|303:165|447:106,1,233.999983089448,2|0,3:0|0:0,0:0:0:0:
180,114,130061,2,0,B|301:162|303:60|436:134,1,233.999983089448,2|0,3:0|0:0,0:0:0:0:
345,198,130350,6,0,B|340:300|340:300|286:241,1,135.000001573563
191,308,130542,2,0,L|239:313,1,26.9999984607697
115,232,130734,2,0,L|91:237,1,17.9999995231628
289,0,130927,6,0,B|278:64|295:109|295:109|275:140|275:140|320:169|320:169|304:205|330:294,1,269.999992847443,8|0,0:0|0:0,0:0:0:0:
77,134,131311,6,0,B|127:101|127:101|107:262|107:262|153:235,1,270.000003147125,2|0,0:0|0:0,0:0:0:0:
95,144,131600,2,0,B|118:127|118:127|104:241|104:241|143:217,1,179.999995231629,2|0,0:0|0:0,0:0:0:0:
251,147,131888,5,0,0:0:0:0:
221,229,131984,1,0,0:0:0:0:
249,310,132081,2,0,B|301:308|301:308|336:286|336:286|371:307|371:307|439:305,1,202.500002360344
446,295,132465,6,0,L|382:296,1,53.9999985694885,8|0,0:0|0:0,0:0:0:0:
77,63,132850,6,0,P|220:115|384:95,1,270.000003147125,2|0,0:0|0:0,0:0:0:0:
352,346,133138,6,0,P|378:196|477:64,1,270.000003147125,2|0,0:0|0:0,0:0:0:0:
167,213,133427,5,8,0:0:0:0:
154,122,133523,1,8,0:0:0:0:
77,63,133619,6,0,B|160:105|160:105|259:121|259:121|391:102,1,270.000003147125,2|0,0:0|0:0,0:0:0:0:
352,346,133907,6,0,B|357:253|357:253|392:159|392:159|477:64,1,270.000003147125,2|0,0:0|0:0,0:0:0:0:
167,213,134196,5,8,0:0:0:0:
156,154,134260,1,8,0:0:0:0:
125,103,134324,1,8,0:0:0:0:
77,63,134388,6,0,B|107:95|107:95|164:100|164:100|205:124|205:124|250:112|250:112|299:124|299:124|413:80,1,284.399999409332,2|0,0:0|0:0,0:0:0:0:
352,346,134677,6,0,B|339:304|339:304|363:252|363:252|363:204|363:204|396:171|396:171|410:123|410:123|505:65,1,284.399999409332
167,213,134965,5,2,0:0:0:0:
154,122,135061,1,2,0:0:0:0:
77,63,135157,5,8,0:0:0:0:
157,34,135254,1,8,0:0:0:0:
218,76,135350,1,8,0:0:0:0:
270,39,135446,1,8,0:0:0:0:
311,59,135542,2,0,L|368:69,1,53.9999985694885,0|0,3:0|0:0,0:0:0:0:
406,184,135927,6,0,B|387:129|391:13|391:13|379:59|343:89,1,233.999983089448,2|0,2:0|0:0,0:0:0:0:
290,262,136215,6,0,B|258:282|227:337|227:337|191:267|299:237|166:54,1,270.000003147125,2|0,2:0|0:0,0:0:0:0:
178,88,136504,2,0,L|135:85,1,26.9999984607697
411,20,136696,5,8,0:0:0:0:
411,20,137081,6,0,L|406:79,1,53.9999985694885
325,196,137465,6,0,P|339:150|341:213,1,179.999995231629,8|0,0:0|0:0,0:0:0:0:
181,232,137754,6,0,P|191:181|151:159,1,89.9999976158143,8|0,0:0|0:0,0:0:0:0:
127,170,137946,2,0,P|113:210|142:241,1,89.9999976158143,8|0,0:0|0:0,0:0:0:0:
271,247,138138,5,0,0:0:0:0:
307,152,138234,2,0,B|290:175|279:237|279:237|282:116|193:79,1,269.999992847443,8|0,0:0|0:0,0:0:0:0:
76,89,138619,6,0,L|136:85,1,53.9999985694885,2|0,0:0|0:0,0:0:0:0:
294,91,139004,6,0,L|291:142,1,35.9999990463257,8|0,0:0|0:0,0:0:0:0:
226,201,139292,2,0,L|232:304,1,89.9999976158143,8|0,0:0|0:0,0:0:0:0:
307,358,139581,1,8,0:0:0:0:
231,290,139773,2,0,L|228:241,1,26.9999984607697
291,126,139965,2,0,L|294:76,1,26.9999984607697
363,41,140157,6,2,L|386:43,1,17.9999995231628
291,126,140350,2,2,L|314:124,1,17.9999995231628
222,22,140542,6,0,P|188:140|210:224,1,179.999995231629,2|0,0:0|0:0,0:0:0:0:
282,302,140831,6,0,B|404:233|529:22|361:14|233:-29|236:150|286:202,1,540.000006294251,2|0,0:0|0:0,0:0:0:0:
337,115,141311,6,2,L|331:146,1,17.9999995231628,10|2,0:0|0:0,0:0:0:0:
394,320,141504,2,2,L|400:351,1,17.9999995231628,10|2,0:0|0:0,0:0:0:0:
82,50,141696,6,0,L|88:113,1,62.9999964084627,8|0,3:0|0:0,3:0:0:0:
222,308,141888,2,0,L|216:371,1,62.9999964084627,8|0,3:0|0:0,3:0:0:0:
146,223,142081,6,0,B|109:224|109:224|78:225|54:183|82:150|113:151|113:151|209:149,1,179.999995231629
298,147,142369,2,0,B|335:148|335:148|366:149|391:109|364:73|330:75|330:75|235:73,1,179.999995231629
110,78,142657,1,0,0:0:0:0:
262,245,142850,6,0,L|266:267,6,13.4999992303849
82,50,143234,6,8,L|88:113,1,62.9999964084627,8|0,3:0|0:0,3:0:0:0:
222,308,143427,2,8,L|216:371,1,62.9999964084627,8|0,3:0|0:0,3:0:0:0:
67,166,143619,6,0,L|315:209,1,179.999995231629
67,166,143907,2,0,B|99:149|99:149|126:176|126:176|187:187|187:187|215:212|215:212|259:189,1,206.999998464584
194,57,144195,5,2,0:0:0:0:
214,52,144292,1,2,0:0:0:0:
265,156,144388,5,0,0:0:0:0:
289,162,144484,1,0,0:0:0:0:
334,47,144581,5,0,2:0:0:0:
362,39,144677,1,0,2:0:0:0:
425,129,144773,6,0,B|425:198|425:198|400:238|400:238|402:302|402:302|397:342|359:349|328:338|324:296|324:296|325:238|264:236|264:236|221:236,1,405.000004720688,10|0,0:0|0:0,0:0:0:0:
108,51,145157,6,0,L|135:327,1,270.000003147125,2|0,0:0|0:0,0:0:0:0:
347,68,145446,2,0,L|320:344,1,270.000003147125,2|0,0:0|0:0,0:0:0:0:
108,51,145734,6,8,L|155:46,2,33.7500003933907
108,51,145927,6,0,B|112:102|112:102|124:111|124:111|114:120|114:120|117:149|117:149|111:163|111:163|120:174|120:174|124:211|124:211|111:220|111:220|125:226|125:226|130:278|130:278|144:284|144:284|132:296|132:296|139:365,1,314.999994659424,2|0,0:0|0:0,0:0:0:0:
347,68,146215,6,0,B|343:119|343:119|331:128|331:128|341:137|341:137|338:166|338:166|344:180|344:180|335:191|335:191|331:228|331:228|344:237|344:237|330:243|330:243|325:295|325:295|311:301|311:301|323:313|323:313|316:382,1,314.999994659424,2|0,0:0|0:0,0:0:0:0:
108,51,146504,6,8,L|155:46,2,33.7500003933907
108,51,146696,6,0,B|112:102|112:102|151:107|151:107|114:120|114:120|120:174|120:174|91:195|91:195|125:216|125:216|127:253|127:253|155:284|155:284|134:320|134:320|136:344,1,401.400000391312,2|0,0:0|0:0,0:0:0:0:
347,68,146984,6,0,B|343:119|343:119|304:124|304:124|341:137|341:137|335:191|335:191|364:212|364:212|330:233|330:233|328:270|328:270|300:301|300:301|321:337|321:337|319:358,1,401.400000391312,2|0,0:0|0:0,0:0:0:0:
108,51,147273,6,8,L|155:46,2,33.7500003933907
110,97,147465,5,0,2:0:0:0:
178,144,147561,1,0,2:0:0:0:
261,145,147657,1,0,2:0:0:0:
294,122,147754,1,0,2:0:0:0:
300,107,147850,6,0,B|258:166|277:226|277:226|248:264|248:264|263:295|298:323|298:323|234:307|165:337,1,359.999990463257,4|0,0:0|0:0,0:0:0:0:
64,243,148331,2,0,P|130:197|101:273,1,215.999987686158
54,123,148619,2,0,P|122:112|164:128,1,89.9999976158143
213,147,148907,5,0,0:0:0:0:
231,40,149004,1,0,0:0:0:0:
314,110,149100,1,0,0:0:0:0:
370,223,149388,6,0,B|415:159|415:159|401:364,1,269.999992847443,2|0,0:0|0:0,0:0:0:0:
288,303,149773,5,0,0:0:0:0:
307,332,149869,2,0,B|250:315|250:315|187:325,1,107.999993843079,2|0,0:0|0:0,0:0:0:0:
143,262,150157,2,0,B|86:279|86:279|23:269,1,107.999993843079,2|0,0:0|0:0,0:0:0:0:
82,197,150542,6,0,L|86:144,1,35.9999990463257
82,196,150927,6,0,B|169:176|169:176|225:204|225:204|282:187|313:233|313:233|299:166|322:109,1,359.999990463257,2|0,0:0|0:0,0:0:0:0:
418,308,151407,2,0,B|459:313|456:368|413:376|370:282|231:353,1,179.999995231629,2|0,0:0|0:0,0:0:0:0:
177,338,151696,6,0,L|181:290,1,35.9999990463257
85,287,151984,2,0,L|81:225,1,53.9999969215394
166,187,152465,6,0,L|172:148,1,26.9999984607697
110,95,152754,6,0,P|178:72|187:74,1,44.9999988079071
229,69,152946,2,0,P|286:95|312:171,1,107.999993843079
305,210,153234,2,0,B|282:275|215:285|215:285|249:287|285:321,1,161.999990764618
348,341,153619,6,0,L|352:302,1,26.9999984607697,8|0,0:0|2:0,0:0:0:0:
348,341,154004,6,0,B|325:205|347:161|407:136|421:178|474:189|426:263|392:239,1,287.999992370606,2|0,0:0|0:0,0:0:0:0:
253,175,154484,2,0,B|316:71|257:-10|257:-10|203:-1|177:116,1,270.000003147125,2|0,0:0|0:0,0:0:0:0:
75,190,154773,1,8,0:0:0:0:
75,190,155061,5,0,0:0:0:0:
100,45,155157,1,0,0:0:0:0:
211,139,155254,1,0,0:0:0:0:
324,145,155542,6,0,P|398:64|345:171,1,323.999981529237,2|0,0:0|0:0,0:0:0:0:
269,253,155927,1,0,0:0:0:0:
255,260,156023,2,0,P|290:324|283:243,1,198.000000797272,2|0,0:0|0:0,0:0:0:0:
223,127,156311,2,0,P|171:144|218:172,1,134.999996423721,2|0,0:0|0:0,0:0:0:0:
292,59,156696,6,0,L|313:34,1,22.4999994039536,8|0,0:0|2:0,0:0:0:0:
292,59,157081,6,0,B|330:15|330:15|311:162|311:162|337:207|337:207|309:253|321:324|321:324|256:267|146:320,1,503.99998664856,6|0,0:0|0:0,0:0:0:0:
132,349,157850,1,8,0:0:0:0:
256,192,157946,12,0,159965,0:0:0:0:
79,293,160157,6,0,B|138:319|196:272|196:272|262:261|295:305|295:305|247:234|282:143,1,359.999990463257,6|0,0:0|0:0,0:0:0:0:
97,93,160638,2,0,P|207:68|269:119,1,179.999995231629,2|0,0:0|0:0,0:0:0:0:
334,136,160927,2,0,L|403:142,1,53.9999969215394,2|0,0:0|0:0,0:0:0:0:
447,53,161215,5,8,0:0:0:0:
376,195,161311,1,8,0:0:0:0:
447,337,161407,1,8,0:0:0:0:
447,337,161696,6,0,B|492:307|492:307|298:315,1,215.999994277954,2|0,0:0|0:0,0:0:0:0:
196,322,162081,5,0,0:0:0:0:
201,293,162177,1,0,0:0:0:0:
148,209,162273,2,0,L|239:215,1,71.9999980926514
301,256,162465,6,0,P|307:153|460:40,1,269.999992847443,2|0,0:0|0:0,0:0:0:0:
246,64,162850,6,0,L|184:58,1,35.9999990463257,8|0,0:0|2:0,0:0:0:0:
148,132,163234,6,2,L|144:170,8,22.4999994039536
211,220,163715,6,2,L|215:258,4,22.4999994039536
63,308,164004,6,0,P|142:299|242:348,1,179.999995231629
368,237,164292,2,0,P|289:228|219:256,1,125.999992816925
140,159,164580,2,0,P|181:158|219:171,1,62.9999964084627
277,96,164773,2,0,P|242:88|192:102,1,44.9999988079071
354,46,164965,6,0,B|363:158|363:158|408:114,1,143.999996185303,2|0,0:0|0:0,0:0:0:0:
434,210,165254,2,0,B|425:322|425:322|380:278,1,143.999996185303,2|0,0:0|0:0,0:0:0:0:
348,359,165542,6,0,B|270:295|183:310|183:310|249:295|263:236,1,269.999992847443,2|0,0:0|0:0,0:0:0:0:
179,227,165927,6,0,L|138:223,1,35.9999990463257,8|0,0:0|2:0,0:0:0:0:
39,148,166311,6,0,B|20:86|95:55|140:101|146:133|90:238|90:238|123:219|123:219|222:231,1,359.999990463257,6|0,0:0|0:0,0:0:0:0:
190,304,166792,6,0,B|138:297|138:297|77:330|77:330|103:295|103:248,1,179.999995231629,2|0,0:0|0:0,0:0:0:0:
178,226,167081,6,0,L|270:236,1,89.9999976158143,2|0,0:0|0:0,0:0:0:0:
297,320,167369,5,8,0:0:0:0:
218,157,167465,1,8,0:0:0:0:
38,149,167561,1,8,0:0:0:0:
94,218,167850,6,0,B|37:147|37:147|45:59,1,175.499987317086,2|0,0:0|0:0,0:0:0:0:
132,0,168234,1,0,0:0:0:0:
130,28,168331,6,0,L|122:124,1,89.9999976158143,2|0,0:0|0:0,0:0:0:0:
29,237,168619,6,0,L|37:145,1,89.9999976158143,2|0,0:0|0:0,0:0:0:0:
121,180,169004,6,0,L|179:185,1,35.9999990463257,8|0,0:0|2:0,0:0:0:0:
208,240,169388,6,0,B|202:268|209:310|209:310|213:347|249:357|284:346|285:306|285:306|272:248|286:201|286:201|234:154|178:173|178:173|265:85|140:18|112:152|229:132,1,575.999984741211,6|8,0:0|0:0,0:0:0:0:
256,192,170254,12,0,172273,0:0:0:0:
81,148,172465,5,8,2:0:0:0:
146,215,172850,1,0,2:0:0:0:
172,125,173234,1,0,2:0:0:0:
337,236,173619,5,8,2:0:0:0:
272,303,174004,1,0,2:0:0:0:
246,213,174388,1,0,2:0:0:0:
172,125,174773,1,0,0:0:0:0:
378,94,174965,6,0,L|261:82,1,71.9999980926514
172,125,175157,1,0,0:0:0:0:
147,200,175254,2,0,P|239:179|249:111,1,143.999996185303
82,50,175542,6,0,L|88:113,1,62.9999964084627,8|0,3:0|0:0,0:0:0:0:
222,308,175734,2,0,L|216:371,1,62.9999964084627,8|0,3:0|0:0,0:0:0:0:
336,212,175927,1,8,2:0:0:0:
320,289,176311,5,0,2:0:0:0:
393,269,176696,1,0,2:0:0:0:
412,196,177081,1,8,2:0:0:0:
359,142,177465,1,0,2:0:0:0:
276,128,177850,5,0,3:0:0:0:
245,137,177946,1,0,3:0:0:0:
173,206,178042,5,0,3:0:0:0:
204,215,178138,1,0,3:0:0:0:
234,294,178234,6,0,L|228:313,6,13.4999992303849,0|0|0|0|0|0|0,3:0|3:0|3:0|3:0|3:0|3:0|3:0,3:0:0:0:
324,189,178619,5,8,2:0:0:0:
306,273,179004,1,0,2:0:0:0:
288,357,179388,1,0,2:0:0:0:
270,105,179773,5,8,2:0:0:0:
288,189,180157,1,0,2:0:0:0:
306,273,180542,1,0,2:0:0:0:
324,21,180927,5,0,0:0:0:0:
288,189,181119,6,0,L|299:138,1,26.9999984607697
357,106,181311,1,0,0:0:0:0:
443,46,181407,2,0,B|470:62|470:62|404:57|347:108,1,143.999996185303
82,50,181696,6,0,L|88:113,1,62.9999964084627,8|0,3:0|3:0,3:0:0:0:
222,308,181888,2,0,L|216:371,1,62.9999964084627,8|0,3:0|3:0,3:0:0:0:
209,115,182081,5,0,0:0:0:0:
110,285,182273,1,0,0:0:0:0:
209,115,182465,5,0,0:0:0:0:
160,201,182657,1,0,0:0:0:0:
259,201,182850,1,0,0:0:0:0:
351,52,183042,5,0,0:0:0:0:
383,123,183234,1,0,0:0:0:0:
304,116,183427,1,0,0:0:0:0:
374,205,183619,5,0,0:0:0:0:
416,247,183811,1,0,0:0:0:0:
431,189,184003,1,0,0:0:0:0:
393,123,184196,1,0,0:0:0:0:
309,95,184388,1,0,0:0:0:0:
206,142,184581,1,0,0:0:0:0:
429,43,184773,5,12,2:0:0:0:
390,136,185157,1,0,2:0:0:0:
351,229,185542,1,0,2:0:0:0:
329,56,185927,5,8,2:0:0:0:
390,136,186311,1,0,2:0:0:0:
451,216,186696,1,0,2:0:0:0:
291,149,187081,5,8,2:0:0:0:
490,123,187465,1,8,2:0:0:0:
92,126,187850,5,8,2:0:0:0:
131,219,188234,1,0,2:0:0:0:
170,312,188619,1,0,2:0:0:0:
192,139,189004,5,8,2:0:0:0:
131,219,189388,1,0,2:0:0:0:
70,299,189773,1,0,2:0:0:0:
230,232,190157,5,8,2:0:0:0:
31,206,190542,1,8,2:0:0:0:
111,321,190927,5,8,2:0:0:0:
202,279,191311,1,0,2:0:0:0:
301,296,191696,1,0,2:0:0:0:
452,188,192081,5,8,2:0:0:0:
353,170,192465,1,0,2:0:0:0:
262,213,192850,1,0,2:0:0:0:
73,142,193234,5,8,2:0:0:0:
263,117,193619,1,0,2:0:0:0:
163,82,194004,1,8,2:0:0:0:
374,49,194196,6,2,L|320:101,1,53.9999969215394
454,86,194581,2,2,L|409:118,1,44.9999988079071
512,150,194965,2,2,L|475:164,1,30.5999993761444
264,212,195350,1,0,0:0:0:0:
232,242,195542,6,2,P|254:216|282:206,1,44.9999988079071
205,161,195927,2,2,P|240:133|265:132,1,62.9999964084627
250,56,196311,2,2,P|294:61|327:94,1,89.9999976158143
355,172,196696,1,2,0:0:0:0:
114,111,196888,1,2,0:0:0:0:
182,349,197081,5,12,0:0:0:0:
74,168,215350,6,0,L|204:161,1,121.499993073464,2|0,2:0|0:0,0:0:0:0:
195,161,216311,6,0,P|242:126|280:167,1,121.499993073464,2|0,0:0|0:0,0:0:0:0:
280,164,217273,6,0,P|243:204|196:157,1,129.599999730835,2|0,0:0|0:0,0:0:0:0:
195,163,218523,6,0,L|187:248,1,80.9999953823091,2|0,0:0|0:0,0:0:0:0:
111,261,219196,6,0,L|119:348,1,86.3999998205567,2|0,0:0|0:0,0:0:0:0:
118,347,220061,6,0,B|232:306|328:345|328:345|310:271|354:226,1,337.499980759621,2|0,0:0|0:0,0:0:0:0:
351,229,223234,5,4,0:0:0:0:
82,92,224292,6,0,B|151:86|151:86|188:100,1,107.999993843079,2|0,0:0|0:0,0:0:0:0:
187,99,225157,6,0,B|256:93|256:93|293:107,1,107.999993843079,2|0,0:0|0:0,0:0:0:0:
292,106,226023,6,0,P|287:154|379:92,1,256.499985377312,2|0,0:0|0:0,0:0:0:0:
285,30,227946,6,0,P|248:43|227:58,1,53.9999969215394,2|0,0:0|0:0,0:0:0:0:
235,50,228427,6,0,P|211:95|209:109,1,53.9999969215394,2|0,0:0|0:0,0:0:0:0:
222,181,228907,6,0,P|189:166|171:163,1,53.9999969215394,2|0,0:0|0:0,0:0:0:0:
171,163,229388,6,0,B|187:236|166:289|166:289|127:274|125:241,1,188.999989225388,2|0,0:0|2:0,0:0:0:0:
256,192,231119,12,0,233811,0:0:0:0:
88,185,234004,5,8,2:0:0:0:
111,102,234388,1,0,2:0:0:0:
134,19,234773,1,0,2:0:0:0:
157,268,235157,5,8,2:0:0:0:
111,102,235542,1,8,2:0:0:0:
134,185,235927,1,8,2:0:0:0:
217,276,236311,5,8,2:0:0:0:
223,189,236696,1,0,2:0:0:0:
230,103,237081,1,0,2:0:0:0:
122,330,237465,5,8,2:0:0:0:
223,189,237850,1,8,2:0:0:0:
173,260,238234,1,8,2:0:0:0:
311,308,238619,5,8,2:0:0:0:
305,221,239004,1,0,2:0:0:0:
298,135,239388,1,0,2:0:0:0:
406,362,239773,5,8,2:0:0:0:
305,221,240157,1,8,2:0:0:0:
355,292,240542,1,8,2:0:0:0:
445,228,240927,5,8,2:0:0:0:
351,193,241311,1,0,2:0:0:0:
259,234,241696,1,0,2:0:0:0:
387,99,242081,5,8,2:0:0:0:
259,234,242465,1,8,2:0:0:0:
295,140,242850,1,8,2:0:0:0:
151,323,243234,5,8,2:0:0:0:
245,288,243619,1,0,2:0:0:0:
337,329,244004,1,0,2:0:0:0:
209,194,244388,5,8,2:0:0:0:
337,329,244773,1,8,2:0:0:0:
301,235,245157,1,8,2:0:0:0:
309,181,245542,6,0,L|300:239,1,53.9999969215394,8|0,0:0|0:0,0:0:0:0:
108,85,246311,6,8,L|101:141,2,53.9999969215394
171,249,247465,2,8,L|165:196,2,53.9999969215394
130,91,248619,6,8,L|123:147,2,53.9999969215394
193,255,249773,2,8,L|186:201,2,53.9999969215394
286,95,250927,6,8,P|325:92|345:96,2,53.9999969215394
283,216,252081,2,8,P|244:219|224:215,2,53.9999969215394
322,93,253234,6,8,P|364:113|375:128,2,53.9999969215394
246,217,254388,2,8,P|204:197|191:183,2,53.9999969215394
97,72,255542,6,0,L|103:130,1,53.9999969215394,8|0,0:0|0:0,0:0:0:0:
159,189,256311,2,0,L|146:310,1,107.999993843079,8|0,0:0|0:0,0:0:0:0:
159,189,257081,6,0,L|226:176,1,62.99999833107,8|0,0:0|0:0,0:0:0:0:
220,176,257850,6,2,B|243:191|249:224|249:224|273:126|273:126|260:57|260:57|277:125|277:125|346:189,1,377.999978450776,2|0,2:0|0:0,2:0:0:0:
334,178,258619,5,12,2:0:0:0:
350,304,259004,1,0,2:0:0:0:
350,304,259388,6,0,L|290:294,1,53.9999969215394,8|0,2:0|2:0,2:0:0:0:
179,239,260157,2,0,L|239:229,1,53.9999969215394,8|0,2:0|2:0,2:0:0:0:
300,115,260927,5,0,2:0:0:0:
297,135,261311,1,0,2:0:0:0:
181,122,261696,6,0,L|189:182,1,53.9999969215394,8|0,2:0|2:0,2:0:0:0:
300,115,262465,5,0,2:0:0:0:
297,135,262850,1,0,2:0:0:0:
391,56,263234,6,0,P|399:89|389:118,1,53.9999969215394,8|0,2:0|2:0,2:0:0:0:
340,176,264004,2,0,P|332:209|342:238,1,53.9999969215394,8|0,2:0|2:0,2:0:0:0:
429,278,264773,5,12,2:0:0:0:
429,286,265157,2,0,L|369:292,1,53.9999969215394,8|0,2:0|2:0,2:0:0:0:
323,167,265927,5,0,2:0:0:0:
315,167,266311,2,0,L|309:227,1,53.9999969215394,8|0,2:0|2:0,2:0:0:0:
216,264,267081,5,0,2:0:0:0:
242,272,267465,1,0,2:0:0:0:
216,264,267850,6,0,L|269:280,1,53.9999969215394,8|0,2:0|2:0,2:0:0:0:
158,193,268619,5,0,2:0:0:0:
132,201,269004,1,0,2:0:0:0:
158,193,269388,6,0,L|105:209,1,53.9999969215394,8|0,2:0|2:0,2:0:0:0:
216,133,270157,6,0,P|232:49|285:21,1,134.999996423721,2|0,2:0|2:0,2:0:0:0:
289,101,270542,2,0,L|317:103,1,22.4999994039536,0|0,2:0|2:0,2:0:0:0:
418,128,270927,6,0,L|359:147,1,53.9999969215394,12|0,2:0|2:0,2:0:0:0:
410,222,271696,2,0,L|368:267,1,53.9999969215394,8|0,2:0|2:0,2:0:0:0:
450,307,272465,2,0,L|436:367,1,53.9999969215394,8|0,2:0|2:0,2:0:0:0:
410,222,273234,1,0,2:0:0:0:
391,244,273619,1,0,2:0:0:0:
418,128,274004,6,0,L|359:147,1,53.9999969215394,8|0,2:0|2:0,2:0:0:0:
469,60,274773,1,0,2:0:0:0:
436,50,275157,1,0,2:0:0:0:
221,66,275542,6,0,L|281:52,1,53.9999969215394,8|0,2:0|2:0,2:0:0:0:
234,171,276311,2,0,L|263:145,1,35.9999990463257,8|0,2:0|2:0,2:0:0:0:
73,252,277081,6,0,L|61:188,1,53.9999969215394,8|0,2:0|2:0,2:0:0:0:
148,281,277850,2,0,L|169:219,1,53.9999969215394,8|0,2:0|2:0,2:0:0:0:
198,343,278619,2,0,L|247:300,1,53.9999969215394,8|0,2:0|2:0,2:0:0:0:
148,281,279388,6,0,L|155:252,1,17.9999995231628,0|0,3:0|3:0,3:0:0:0:
172,189,279581,1,0,3:0:0:0:
172,189,279677,1,0,3:0:0:0:
172,189,279773,1,0,3:0:0:0:
199,342,279965,1,0,3:0:0:0:
301,289,280157,6,0,L|272:270,1,17.9999995231628,8|0,3:0|3:0,3:0:0:0:
323,206,280350,2,0,L|299:180,1,17.9999995231628,0|0,3:0|3:0,3:0:0:0:
381,143,280542,1,0,3:0:0:0:
416,273,280734,1,0,3:0:0:0:
216,119,280927,5,0,3:0:0:0:
217,136,281023,1,0,3:0:0:0:
219,154,281119,1,0,3:0:0:0:
220,172,281215,1,0,3:0:0:0:
222,190,281311,1,0,3:0:0:0:
137,65,281504,1,0,3:0:0:0:
72,175,281696,5,0,3:0:0:0:
72,175,281792,1,0,3:0:0:0:
72,175,281888,1,0,3:0:0:0:
132,281,282081,5,0,3:0:0:0:
143,277,282177,1,0,3:0:0:0:
154,273,282273,1,0,3:0:0:0:
166,270,282369,1,0,3:0:0:0:
210,193,282465,5,0,3:0:0:0:
223,197,282561,1,0,3:0:0:0:
237,201,282657,1,0,3:0:0:0:
251,205,282754,1,0,3:0:0:0:
281,290,282850,5,2,3:0:0:0:
296,284,282946,1,2,3:0:0:0:
314,277,283042,2,2,L|331:269,2,13.4999992303849,2|2|2,3:0|3:0|3:0,3:0:0:0:
366,208,283234,6,0,B|389:224|400:251|400:251|389:184|418:87,1,215.999994277954,8|0,1:0|3:0,3:0:0:0:
362,130,283619,5,0,3:0:0:0:
336,120,283715,1,0,3:0:0:0:
311,111,283811,1,0,3:0:0:0:
416,92,284004,5,0,3:0:0:0:
376,106,284100,1,0,3:0:0:0:
336,120,284196,1,0,3:0:0:0:
296,135,284292,1,0,3:0:0:0:
219,99,284388,6,0,B|229:125|205:143|205:143|177:124|178:94,1,89.9999976158143,8|0,2:0|3:0,3:0:0:0:
81,36,284581,2,0,B|70:41|76:75|76:75|106:79|118:54,1,89.9999976158143,8|0,2:0|3:0,3:0:0:0:
51,153,284773,5,0,2:0:0:0:
58,197,284869,1,0,3:0:0:0:
65,241,284965,1,0,3:0:0:0:
65,241,285157,6,0,L|146:229,1,71.9999980926514,0|0,3:0|3:0,3:0:0:0:
211,318,285350,2,0,L|130:305,1,71.9999980926514,0|0,3:0|3:0,3:0:0:0:
216,237,285542,6,0,B|231:167|231:167|250:182,1,89.9999976158143,8|0,2:0|3:0,3:0:0:0:
323,172,285734,2,0,B|308:102|308:102|289:117,1,89.9999976158143,8|0,2:0|3:0,3:0:0:0:
119,45,285927,5,2,3:0:0:0:
208,36,286023,1,2,3:0:0:0:
298,27,286119,2,2,L|340:22,2,35.9999990463257,2|2|2,3:0|3:0|3:0,3:0:0:0:
396,92,286311,6,0,P|406:142|441:183,1,71.9999980926514,8|0,2:0|3:0,3:0:0:0:
335,190,286504,2,0,P|325:240|290:281,1,71.9999980926514,8|0,2:0|3:0,3:0:0:0:
225,208,286696,5,0,3:0:0:0:
223,172,286792,1,0,3:0:0:0:
221,136,286888,1,0,3:0:0:0:
221,136,287081,5,0,3:0:0:0:
170,154,287177,1,0,3:0:0:0:
135,194,287273,1,0,3:0:0:0:
121,246,287369,1,0,3:0:0:0:
212,229,287465,6,0,P|230:204|204:138,1,71.9999980926514,8|0,2:0|3:0,3:0:0:0:
68,105,287657,2,0,P|49:80|75:14,1,71.9999980926514,8|0,2:0|3:0,3:0:0:0:
148,47,287850,5,0,3:0:0:0:
219,52,287946,1,0,3:0:0:0:
291,58,288042,1,0,3:0:0:0:
291,58,288234,5,0,3:0:0:0:
269,108,288331,1,0,3:0:0:0:
247,157,288427,1,0,3:0:0:0:
225,206,288523,1,0,3:0:0:0:
203,256,288619,6,0,P|167:244|106:246,1,71.9999980926514,8|0,2:0|3:0,3:0:0:0:
309,203,288811,2,0,P|348:199|380:210,1,71.9999980926514,8|0,2:0|3:0,3:0:0:0:
325,344,289004,5,2,3:0:0:0:
236,335,289100,1,2,3:0:0:0:
146,326,289196,2,2,L|104:321,2,35.9999990463257,2|2|2,3:0|3:0|3:0,3:0:0:0:
66,161,289388,6,0,P|63:72|139:156,1,269.999992847443,0|0,1:0|3:0,0:0:0:0:
131,231,289773,5,0,3:0:0:0:
174,240,289869,1,0,3:0:0:0:
216,256,289965,1,0,3:0:0:0:
216,256,290157,6,0,P|254:237|305:235,1,71.9999980926514,0|0,3:0|3:0,3:0:0:0:
218,93,290350,2,0,P|215:135|191:180,1,71.9999980926514,0|0,3:0|3:0,3:0:0:0:
372,160,290542,6,0,B|358:154|343:123|343:123|336:153|297:181,1,89.9999976158143,8|0,2:0|3:0,3:0:0:0:
417,267,290734,2,0,B|431:273|446:304|446:304|453:274|492:246,1,89.9999976158143,8|0,2:0|3:0,3:0:0:0:
216,204,290927,6,0,B|208:243|234:294,1,89.9999976158143,0|0,3:0|3:0,3:0:0:0:
306,343,291119,1,0,3:0:0:0:
306,343,291311,5,0,3:0:0:0:
249,307,291407,1,0,3:0:0:0:
183,297,291504,1,0,3:0:0:0:
118,314,291600,1,0,3:0:0:0:
65,356,291696,6,0,P|55:289|77:214,1,89.9999976158143,8|0,2:0|3:0,3:0:0:0:
131,190,291888,2,0,P|136:145|123:100,1,89.9999976158143,8|0,2:0|3:0,3:0:0:0:
81,22,292081,5,2,3:0:0:0:
125,27,292177,1,2,3:0:0:0:
170,21,292273,2,2,L|241:29,1,44.9999988079071,2|2,3:0|3:0,3:0:0:0:
210,44,292369,2,2,L|281:52,1,44.9999988079071,2|2,3:0|3:0,3:0:0:0:
247,57,292465,6,0,P|269:84|261:48,1,89.9999976158143,8|0,2:0|3:0,3:0:0:0:
377,145,292657,2,0,P|353:176|363:136,1,99.0000003986359,8|0,2:0|3:0,3:0:0:0:
131,259,292850,5,0,3:0:0:0:
104,216,292946,1,0,3:0:0:0:
63,188,293042,1,0,3:0:0:0:
66,189,293234,5,0,3:0:0:0:
115,186,293331,1,0,3:0:0:0:
161,168,293427,1,0,3:0:0:0:
200,138,293523,1,0,3:0:0:0:
134,89,293619,6,0,P|110:145|118:205,1,89.9999976158143,8|0,2:0|3:0,3:0:0:0:
131,259,293811,2,0,P|167:307|223:330,1,89.9999976158143,8|0,2:0|3:0,3:0:0:0:
266,190,294004,1,0,3:0:0:0:
266,190,294100,1,0,3:0:0:0:
266,190,294196,1,0,3:0:0:0:
206,105,294388,5,0,3:0:0:0:
270,91,294484,1,0,3:0:0:0:
330,119,294581,1,0,3:0:0:0:
361,178,294677,1,0,3:0:0:0:
313,253,294772,6,0,P|277:204|285:150,1,89.9999976158143,8|0,2:0|3:0,3:0:0:0:
292,87,294965,2,0,P|330:39|384:33,1,89.9999976158143,8|0,2:0|3:0,3:0:0:0:
453,69,295157,5,2,3:0:0:0:
421,196,295254,1,2,3:0:0:0:
305,258,295350,2,2,L|246:263,2,35.9999990463257,2|2|2,3:0|3:0|3:0,3:0:0:0:
199,328,295542,6,0,B|150:248|210:176|210:176|147:184|119:169|119:169|114:227,1,269.999992847443,12|0,1:0|3:0,3:0:0:0:
159,53,295927,5,0,3:0:0:0:
196,29,296023,1,0,3:0:0:0:
241,25,296119,1,0,3:0:0:0:
282,41,296215,1,0,3:0:0:0:
364,133,296311,5,0,3:0:0:0:
326,156,296407,1,0,3:0:0:0:
281,160,296504,1,0,3:0:0:0:
240,144,296600,1,0,3:0:0:0:
371,18,296696,6,0,P|384:67|376:142,1,89.9999976158143,8|0,2:0|3:0,3:0:0:0:
146,174,296888,2,0,P|138:129|143:85,1,89.9999976158143,8|0,2:0|3:0,3:0:0:0:
362,285,297081,6,0,P|270:279|230:224,1,89.9999976158143,0|0,3:0|3:0,3:0:0:0:
221,221,297273,1,0,3:0:0:0:
221,221,297465,5,0,3:0:0:0:
188,188,297561,1,0,3:0:0:0:
146,174,297657,1,0,3:0:0:0:
101,179,297754,1,0,3:0:0:0:
146,257,297850,6,0,B|148:304|165:321|165:321|198:287,1,89.9999976158143,8|0,2:0|3:0,3:0:0:0:
307,198,298042,2,0,B|305:151|288:134|288:134|255:168,1,89.9999976158143,8|0,2:0|3:0,3:0:0:0:
258,287,298234,5,2,3:0:0:0:
348,279,298331,1,2,3:0:0:0:
437,289,298427,2,2,L|414:226,2,35.9999990463257,2|2|2,3:0|3:0|3:0,3:0:0:0:
372,95,298619,6,0,B|320:80|287:86|287:86|306:74|318:58,1,99.0000003986359,8|0,2:0|3:0,3:0:0:0:
165,158,298811,2,0,B|217:143|250:149|250:149|233:137|219:121,1,99.0000003986359,8|0,2:0|3:0,3:0:0:0:
197,62,299004,5,0,3:0:0:0:
164,57,299100,1,0,3:0:0:0:
131,52,299196,1,0,3:0:0:0:
98,48,299292,1,0,3:0:0:0:
22,148,299388,5,0,3:0:0:0:
54,143,299484,1,0,3:0:0:0:
87,138,299581,1,0,3:0:0:0:
120,134,299677,1,0,3:0:0:0:
174,247,299773,6,0,P|119:226|57:226,1,89.9999976158143,8|0,2:0|3:0,3:0:0:0:
0,330,299965,2,0,P|55:309|115:313,1,89.9999976158143,8|0,2:0|3:0,3:0:0:0:
293,363,300157,5,0,3:0:0:0:
312,317,300254,1,0,3:0:0:0:
349,286,300350,1,0,3:0:0:0:
349,286,300542,5,0,3:0:0:0:
339,213,300638,1,0,3:0:0:0:
299,151,300734,1,0,3:0:0:0:
237,111,300831,1,0,3:0:0:0:
212,179,300927,6,0,P|210:128|244:79,1,89.9999976158143,8|0,2:0|3:0,3:0:0:0:
300,43,301119,2,0,P|351:41|400:75,1,89.9999976158143,8|0,2:0|3:0,3:0:0:0:
459,37,301311,5,2,3:0:0:0:
449,126,301407,1,2,3:0:0:0:
440,216,301504,2,2,L|503:197,2,44.9999988079071,2|2|2,3:0|3:0|3:0,3:0:0:0:
504,279,301696,6,0,B|450:321|390:292|390:292|349:337|349:337|364:267|304:236|266:253,1,297.000001195908,12|0,1:0|3:0,3:0:0:0:
149,319,302081,5,0,3:0:0:0:
134,289,302177,1,0,3:0:0:0:
132,256,302273,1,0,3:0:0:0:
142,225,302369,1,0,3:0:0:0:
266,338,302465,5,0,3:0:0:0:
236,352,302561,1,0,3:0:0:0:
203,354,302657,1,0,3:0:0:0:
172,344,302754,1,0,3:0:0:0:
277,229,302850,6,0,P|296:287|283:340,1,89.9999976158143,8|0,2:0|3:0,3:0:0:0:
226,88,303042,2,0,P|207:146|220:199,1,89.9999976158143,8|0,2:0|3:0,3:0:0:0:
364,119,303234,5,0,3:0:0:0:
408,116,303330,1,0,3:0:0:0:
449,96,303427,1,0,3:0:0:0:
449,96,303619,5,0,3:0:0:0:
473,133,303715,1,0,3:0:0:0:
480,177,303811,1,0,3:0:0:0:
469,220,303907,1,0,3:0:0:0:
369,252,304003,6,0,P|365:207|379:165,1,89.9999976158143,8|0,2:0|3:0,3:0:0:0:
512,321,304196,2,0,B|463:343|410:312,1,89.9999976158143,8|0,2:0|3:0,3:0:0:0:
298,289,304388,5,2,3:0:0:0:
267,184,304484,1,2,3:0:0:0:
336,80,304581,6,2,B|310:93|310:93|291:129,2,44.9999988079071,2|2|2,3:0|3:0|3:0,3:0:0:0:
220,114,304773,6,0,B|165:122|165:122|131:113,1,89.9999976158143,8|0,2:0|3:0,3:0:0:0:
29,237,304965,2,0,B|83:228|83:228|117:236,1,89.9999976158143,8|0,2:0|3:0,3:0:0:0:
213,303,305157,5,0,3:0:0:0:
218,273,305254,1,0,3:0:0:0:
224,244,305349,1,0,3:0:0:0:
230,214,305446,1,0,3:0:0:0:
304,145,305542,5,0,3:0:0:0:
309,174,305638,1,0,3:0:0:0:
315,203,305734,1,0,3:0:0:0:
321,233,305831,1,0,3:0:0:0:
298,324,305927,6,0,P|340:302|404:296,1,89.9999976158143,8|0,2:0|3:0,3:0:0:0:
493,238,306119,2,0,P|448:215|387:210,1,89.9999976158143,8|0,2:0|3:0,3:0:0:0:
284,163,306311,5,0,3:0:0:0:
321,138,306407,1,0,3:0:0:0:
359,115,306504,1,0,3:0:0:0:
359,115,306696,5,0,3:0:0:0:
315,124,306792,1,0,3:0:0:0:
271,133,306888,1,0,3:0:0:0:
227,142,306984,1,0,3:0:0:0:
255,49,307081,6,0,B|308:35|308:35|312:26|312:26|320:32|320:32|366:22,1,89.9999976158143,8|0,2:0|3:0,3:0:0:0:
170,37,307273,2,0,B|155:40|155:40|147:34|147:34|143:43|143:43|90:57,1,89.9999976158143,8|0,2:0|3:0,3:0:0:0:
32,174,307465,5,2,3:0:0:0:
117,145,307561,1,2,3:0:0:0:
202,117,307657,2,2,L|161:132,2,44.9999988079071,2|2|2,3:0|3:0|3:0,3:0:0:0:
325,83,307850,6,0,B|292:122|286:161|286:161|276:171|276:171|282:183|282:183|277:211|280:247|280:247|297:260|321:256|321:256|327:261|327:261|329:255|329:255|364:247|388:218,1,269.999992847443,12|0,1:0|3:0,3:0:0:0:
465,346,308234,5,0,3:0:0:0:
420,343,308331,1,0,3:0:0:0:
382,320,308427,1,0,3:0:0:0:
343,342,308523,1,0,3:0:0:0:
299,345,308619,5,0,3:0:0:0:
350,300,308715,1,0,3:0:0:0:
383,249,308811,1,0,3:0:0:0:
415,302,308907,1,0,3:0:0:0:
465,346,309004,6,0,B|471:326|468:295|468:295|473:289|473:289|467:283|467:283|461:252|436:206,1,89.9999976158143,8|0,2:0|3:0,3:0:0:0:
421,188,309196,2,0,B|415:168|418:137|418:137|413:131|413:131|419:125|419:125|425:94|450:48,1,89.9999976158143,8|0,2:0|3:0,3:0:0:0:
476,40,309388,6,0,B|426:26|426:26|362:46,1,89.9999976158143,0|0,3:0|3:0,3:0:0:0:
315,95,309581,1,0,3:0:0:0:
315,95,309773,5,0,3:0:0:0:
298,146,309869,1,0,3:0:0:0:
244,146,309965,1,0,3:0:0:0:
227,95,310061,1,0,3:0:0:0:
271,63,310157,6,0,B|224:59|224:59|167:97,1,89.9999976158143,8|0,2:0|3:0,3:0:0:0:
120,131,310350,2,0,B|83:161|83:161|70:228,1,89.9999976158143,0|0,2:0|3:0,3:0:0:0:
106,301,310542,5,2,3:0:0:0:
157,293,310638,1,2,3:0:0:0:
192,257,310734,2,2,P|195:221|163:184,1,44.9999988079071,2|2,3:0|3:0,3:0:0:0:
206,207,310830,1,2,3:0:0:0:
196,157,310927,6,0,B|246:150|246:150|251:143|251:143|259:148|259:148|310:142,1,89.9999976158143,8|0,2:0|3:0,3:0:0:0:
351,184,311119,2,0,B|372:181|372:181|380:186|380:186|385:179|385:179|435:172,1,89.9999976158143,8|0,2:0|3:0,3:0:0:0:
422,88,311311,5,0,3:0:0:0:
419,61,311407,1,0,3:0:0:0:
446,58,311504,1,0,3:0:0:0:
448,85,311600,1,0,3:0:0:0:
362,147,311696,5,0,3:0:0:0:
337,136,311792,1,0,3:0:0:0:
328,161,311888,1,0,3:0:0:0:
353,170,311984,1,0,3:0:0:0:
434,271,312081,6,0,B|452:240|452:240|432:212|432:212|412:240,1,89.9999976158143,8|0,2:0|3:0,3:0:0:0:
341,341,312273,2,0,B|319:308|319:308|340:276|340:276|366:310,1,99.0000003986359,8|0,2:0|3:0,3:0:0:0:
273,216,312465,5,0,3:0:0:0:
225,226,312561,1,0,3:0:0:0:
177,213,312657,1,0,3:0:0:0:
177,213,312850,5,0,3:0:0:0:
194,168,312946,1,0,3:0:0:0:
229,129,313042,1,0,3:0:0:0:
193,96,313138,1,0,3:0:0:0:
176,48,313234,6,0,B|219:57|219:57|226:62|226:62|234:57|234:57|287:50,1,89.9999976158143,8|0,2:0|3:0,3:0:0:0:
335,23,313427,2,0,B|363:19|363:19|371:14|371:14|378:19|378:19|421:27,1,89.9999976158143,8|0,2:0|3:0,3:0:0:0:
365,112,313619,5,2,3:0:0:0:
337,197,313715,1,2,3:0:0:0:
347,285,313811,2,2,P|319:282|291:286,2,44.9999988079071,2|2|2,3:0|3:0|3:0,3:0:0:0:
209,324,314004,6,0,B|223:277|218:237|218:237|206:230|206:230|212:220|212:220|205:195|173:162|173:162|209:167|232:163|232:163|238:152|238:152|242:162|242:162|278:158|312:165,1,297.000001195908,12|0,1:0|3:0,3:0:0:0:
220,84,314388,5,0,3:0:0:0:
157,69,314484,1,0,3:0:0:0:
99,98,314581,1,0,3:0:0:0:
74,158,314677,1,0,3:0:0:0:
169,84,314773,5,0,3:0:0:0:
111,114,314869,1,0,3:0:0:0:
87,174,314965,1,0,3:0:0:0:
108,235,315061,1,0,3:0:0:0:
252,219,315157,6,0,B|242:199|219:187|219:187|218:177|218:177|207:180|207:180|182:169|158:169,1,99.0000003986359,8|0,2:0|3:0,3:0:0:0:
245,379,315350,2,0,B|261:364|267:338|267:338|276:335|276:335|271:325|271:325|275:298|268:275,1,99.0000003986359,8|0,2:0|3:0,3:0:0:0:
169,283,315542,5,0,3:0:0:0:
139,322,315638,1,0,3:0:0:0:
129,371,315734,1,0,3:0:0:0:
129,371,315927,5,0,3:0:0:0:
201,376,316023,1,0,3:0:0:0:
257,330,316119,1,0,3:0:0:0:
267,258,316215,1,0,3:0:0:0:
225,199,316311,6,0,B|189:176|139:185|139:185|164:145,1,99.0000003986359,8|0,2:0|3:0,3:0:0:0:
186,103,316504,2,0,B|222:79|272:88|272:88|247:48,1,99.0000003986359,8|0,2:0|3:0,3:0:0:0:
379,37,316696,5,2,3:0:0:0:
388,83,316792,1,2,3:0:0:0:
379,131,316888,2,2,B|386:161|386:161|371:215,1,49.500000199318,2|2,3:0|3:0,3:0:0:0:
392,182,316984,1,2,3:0:0:0:
316,233,317080,6,0,B|297:217|277:214|277:214|273:207|273:207|269:214|269:214|234:228|210:254,1,94.499994612694,8|0,2:0|3:0,3:0:0:0:
275,309,317273,2,0,B|291:334|314:328|314:328|318:335|318:335|322:328|322:328|358:325|381:288,1,94.499994612694,8|0,2:0|3:0,3:0:0:0:
330,147,317465,5,0,3:0:0:0:
269,132,317561,1,0,3:0:0:0:
208,147,317657,1,0,3:0:0:0:
160,187,317754,1,0,3:0:0:0:
148,133,317850,5,0,3:0:0:0:
208,147,317946,1,0,3:0:0:0:
269,132,318042,1,0,3:0:0:0:
317,92,318138,1,0,3:0:0:0:
216,54,318234,6,0,B|224:101|224:101|217:109|217:109|226:117|226:117|236:179,1,94.499994612694,8|0,2:0|3:0,3:0:0:0:
245,220,318427,2,0,B|248:243|248:243|257:251|257:251|250:259|250:259|258:306,1,94.499994612694,8|0,2:0|3:0,3:0:0:0:
338,297,318619,1,0,3:0:0:0:
385,293,318715,1,0,3:0:0:0:
432,289,318811,1,0,3:0:0:0:
432,289,319004,5,0,3:0:0:0:
413,245,319100,1,0,3:0:0:0:
383,209,319196,1,0,3:0:0:0:
396,169,319292,1,0,3:0:0:0:
402,122,319388,6,0,P|461:115|516:160,1,94.499994612694,8|0,2:0|3:0,3:0:0:0:
344,24,319581,2,0,P|320:78|254:103,1,94.499994612694,8|0,2:0|3:0,3:0:0:0:
144,200,319773,5,2,3:0:0:0:
221,150,319869,1,2,3:0:0:0:
306,182,319965,2,2,B|284:192|284:192|255:176,2,47.249997306347,2|2|2,3:0|3:0|3:0,3:0:0:0:
216,239,320157,6,0,L|206:358,1,107.999997138977,12|0,0:0|0:0,0:0:0:0:
261,158,320542,2,0,L|142:148,1,107.999997138977
350,160,320927,2,0,L|360:41,1,107.999997138977
305,241,321311,2,0,L|424:251,1,107.999997138977
213,232,321696,6,0,P|218:286|192:350,1,107.999997138977,12|0,0:0|0:0,0:0:0:0:
264,149,322081,2,0,P|211:154|147:128,1,107.999997138977
358,160,322465,2,0,P|353:106|379:42,1,107.999997138977
307,243,322850,2,0,P|360:238|424:264,1,107.999997138977
132,94,323234,6,0,B|170:67|170:67|163:149,1,107.999997138977,12|0,0:0|0:0,0:0:0:0:
283,48,323619,2,0,B|245:75|245:75|252:-7,1,107.999997138977
287,139,324004,6,0,B|325:112|325:112|318:194,1,107.999997138977,12|0,0:0|0:0,0:0:0:0:
438,93,324388,2,0,B|400:120|400:120|407:38,1,107.999997138977
340,316,324773,6,0,B|342:288|342:288|352:251|389:241|425:254|433:297|433:297|435:332,1,161.999990764618,12|0,0:0|0:0,0:0:0:0:
245,150,325157,2,0,B|267:166|267:166|295:193|285:230|255:255|214:240|214:240|183:224,1,161.999990764618
437,151,325542,2,0,B|412:162|412:162|374:172|347:145|341:107|374:79|374:79|403:60,1,161.999990764618
463,239,325927,6,0,L|456:284,1,35.9999990463257,2|0,0:0|0:0,0:0:0:0:
372,317,326215,1,0,3:0:0:0:
372,317,326311,5,10,0:0:0:0:
332,304,326503,1,2,0:0:0:0:
290,307,326696,1,2,0:0:0:0:
251,323,326888,1,2,0:0:0:0:
383,225,327080,5,10,0:0:0:0:
329,236,327273,1,2,0:0:0:0:
284,266,327465,1,2,0:0:0:0:
251,309,327657,1,2,0:0:0:0:
339,124,327850,5,10,0:0:0:0:
289,168,328042,1,2,0:0:0:0:
259,228,328234,1,2,0:0:0:0:
251,295,328427,1,2,0:0:0:0:
241,51,328619,5,10,0:0:0:0:
216,125,328811,1,2,0:0:0:0:
222,204,329004,1,2,0:0:0:0:
252,279,329196,1,2,0:0:0:0:
107,87,329388,5,8,0:0:0:0:
99,66,329484,1,0,0:0:0:0:
119,59,329581,1,0,0:0:0:0:
127,79,329677,1,0,0:0:0:0:
149,204,329773,5,8,0:0:0:0:
137,236,329869,1,0,0:0:0:0:
167,246,329965,1,0,0:0:0:0:
179,216,330061,1,0,0:0:0:0:
259,109,330157,5,8,0:0:0:0:
246,65,330254,1,0,0:0:0:0:
287,55,330350,1,0,0:0:0:0:
300,96,330446,1,0,0:0:0:0:
376,233,330542,5,8,0:0:0:0:
356,286,330638,1,0,0:0:0:0:
406,303,330734,1,0,0:0:0:0:
426,253,330831,1,0,0:0:0:0:
376,140,330926,5,8,3:0:0:0:
382,110,331022,1,8,3:0:0:0:
396,84,331119,1,8,3:0:0:0:
417,63,331215,1,8,3:0:0:0:
449,243,331311,5,8,3:0:0:0:
428,298,331407,1,8,3:0:0:0:
379,331,331504,1,8,3:0:0:0:
320,330,331600,1,8,3:0:0:0:
294,229,331696,6,0,L|357:238,1,62.99999833107,8|0,0:0|0:0,0:0:0:0:
78,224,332465,6,0,L|101:224,1,17.9999995231628,0|0,2:0|2:0,2:0:0:0:
78,224,333042,6,0,B|432:203|318:425|116:398|68:424|226:48|263:-26|144:-32|80:54|-92:50|68:190|238:253|400:65,1,899.999976158142,8|0,3:0|3:0,3:0:0:0:
78,224,333619,6,0,L|101:224,1,17.9999995231628,0|0,2:0|2:0,2:0:0:0:
78,224,334196,6,0,B|120:222|120:222|263:247|263:247|275:362|275:362|181:297|181:297|204:221|204:221|169:156|169:156|160:75|160:75|72:34|72:34|87:137|87:137|235:160|235:160|458:114,1,1040.39993156006,12|0,3:0|3:0,3:0:0:0:
502,290,334773,6,0,L|510:339,1,35.9999990463257,0|0,2:0|2:0,2:0:0:0:
347,110,335157,2,0,L|385:131,1,35.9999990463257,0|0,2:0|2:0,2:0:0:0:
137,28,335542,2,0,L|159:21,1,17.9999995231628,0|0,2:0|2:0,2:0:0:0:
137,28,336119,6,0,B|30:139|320:351|-32:331|-23:254|-17:207|67:102|146:107|160:264|313:118|313:118|225:238|396:354,1,899.999976158142,8|0,3:0|3:0,3:0:0:0:
332,120,336696,6,0,L|308:117,1,17.9999995231628,0|0,2:0|2:0,2:0:0:0:
137,28,337273,6,0,B|103:102|103:102|124:238|124:238|51:286|51:286|30:199|30:199|102:151|102:151|168:146|168:146|218:192|218:192|277:171|277:171|313:118|313:118|285:175|285:175|299:274|299:274|361:328,1,979.199980036621,12|0,3:0|3:0,3:0:0:0:
372,2,337850,6,0,B|425:68|410:130|410:130|431:70|570:20,1,270.000003147125
507,45,338234,2,0,B|440:80|440:80|410:130|410:130|419:74|419:74|370:0,1,275.40000510109
334,88,338619,6,2,L|305:81,10,22.4999994039536,2|2|2|2|2|2|2|2|2|2|2,3:0|3:1|3:1|3:1|3:1|3:1|3:1|3:1|3:1|3:1|3:1,3:1:0:0:
370,271,339196,6,0,B|380:224|440:240|431:256|434:268|464:253|469:277|449:349|443:349|385:363|377:409|331:387|309:309|245:369|212:310|185:179|211:43|488:214|499:197|487:126|398:36|382:32|422:-31|373:-24|216:-6|217:2|197:255|440:133,1,899.999976158142,8|0,3:0|3:0,3:0:0:0:
334,88,339773,6,0,L|312:83,1,17.9999995231628,0|0,2:0|2:0,2:0:0:0:
370,271,340350,6,0,B|404:236|404:236|448:254|448:254|454:297|454:297|398:353|398:353|311:342|311:342|288:251|288:251|370:161|370:161|415:62|415:62|313:6|313:6|251:108|251:108|409:203,1,971.99997795868,12|0,3:0|3:0,3:0:0:0:
75,213,340927,6,0,P|97:105|116:216,1,270.000003147125,0|0,2:0|2:0,2:0:0:0:
205,242,341311,2,0,P|270:358|279:217,1,359.999990463257,0|0,2:0|2:0,2:0:0:0:
244,141,341696,6,0,P|242:70|291:134,1,179.999995231629,0|0,2:0|2:0,2:0:0:0:
186,23,342273,6,0,P|169:40|160:54,1,35.9999990463257,0|0,2:0|0:0,0:0:0:0:
92,136,342850,2,0,P|103:122|117:111,1,35.9999990463257,0|0,2:0|2:0,2:0:0:0:
201,123,343427,6,0,B|222:228|222:228|213:279|213:279|224:345|224:345|148:330|148:330|141:277|141:277|150:230|150:230|142:186|142:186|190:173|190:173|235:181|235:181|285:165|285:165|273:118|273:118|277:96|277:96|267:58|267:58|361:44|361:44|335:26|335:26|349:95|349:95|345:115|345:115|353:144|353:144|424:126,1,1007.9999425354,12|0,3:0|3:0,3:0:0:0:
404,317,344004,2,0,B|375:312|375:312|360:289,1,53.9999985694885,0|0,2:0|2:0,2:0:0:0:
366,204,344388,2,0,B|384:181|384:181|412:179,1,53.9999985694885,0|0,2:0|2:0,2:0:0:0:
482,227,344773,6,0,B|492:254|492:254|479:279,1,53.9999985694885,0|0,2:0|2:0,2:0:0:0:
403,243,345350,6,0,B|333:147|359:76|411:2|501:23|624:225|458:221|341:233|92:282|299:217|29:13|31:-45|244:-131|407:-2|332:69|289:255|256:375|141:362,1,899.999976158142,8|0,3:0|3:0,3:0:0:0:
282,209,345927,2,0,L|276:231,1,17.9999995231628,0|0,2:0|2:0,2:0:0:0:
403,243,346504,6,0,B|377:216|377:216|375:100|375:100|447:81|447:81|447:158|447:158|328:180|328:180|196:128|196:128|192:0|192:0|291:71|291:71|286:197|286:197|275:239,1,975.600007649995,12|0,3:0|3:0,3:0:0:0:
135,306,347081,2,0,L|155:290,1,17.9999995231628,0|0,2:0|2:0,2:0:0:0:
187,208,347465,2,0,L|190:233,1,17.9999995231628,0|0,2:0|2:0,2:0:0:0:
245,302,347850,6,0,L|221:292,1,17.9999995231628,0|0,2:0|2:0,2:0:0:0:
207,143,348427,6,0,B|175:102|110:140|110:140|161:94|169:22|169:22|177:117|371:215|414:294|334:303|302:371|217:328|209:238|350:17,1,899.999976158142,8|0,3:0|3:0,3:0:0:0:
326,56,349004,6,0,P|315:74|306:93,1,35.9999990463257,0|0,2:0|2:0,2:0:0:0:
207,143,349581,6,12,B|165:123|165:123|111:141|111:141|145:92|145:92|167:31|167:31|188:89|188:89|340:247|340:247|307:321|307:321|250:270|250:270|293:81|293:81|331:51,1,899.999976158142,12|0,3:0|3:0,3:0:0:0:
399,187,350157,6,0,B|349:127|426:74|426:74|495:143|425:200,1,270.000003147125,0|0,2:0|2:0,2:0:0:0:
437,190,350542,6,0,B|472:137|472:137|425:62|425:62|366:133|366:133|405:194,1,307.800001474228,0|0,2:0|2:0,2:0:0:0:
324,66,350927,6,0,L|344:45,10,17.9999995231628,0|0|0|0|0|0|0|0|0|0|0,2:0|2:0|2:0|2:0|2:0|2:0|2:0|2:0|2:0|2:0|2:0,2:0:0:0:
363,177,351504,6,0,B|344:160|350:134|298:147|284:131|262:172|253:204|287:244|353:281|353:281|249:241|66:193|48:189|19:255|14:336|81:326|139:338|167:335|143:15,1,899.999976158142,8|0,3:0|3:0,3:0:0:0:
147,84,352081,6,0,P|149:116|149:133,1,35.9999990463257,0|0,2:0|2:0,2:0:0:0:
363,177,352657,6,0,B|298:132|298:132|280:208|280:208|351:279|351:279|254:235|254:235|160:225|160:225|56:224|56:224|44:305|44:305|130:304|130:304|153:163|153:163|142:23,1,957.599935180362,12|0,3:0|3:0,3:0:0:0:
294,50,353234,6,0,L|224:68,1,71.9999980926514,0|0,2:0|2:0,2:0:0:0:
434,13,353619,6,0,L|364:31,1,71.9999980926514,0|0,2:0|2:0,2:0:0:0:
312,119,354004,6,0,L|294:50,1,71.9999980926514,0|0,2:0|2:0,2:0:0:0:
131,39,354581,6,0,B|151:50|23:-17|-36:-16|-44:64|32:229|54:151|114:225|209:-165|411:-52|421:3|529:108|409:274|321:255|205:263|156:34|334:46,1,899.999976158142,8|0,3:0|3:0,3:0:0:0:
312,119,355157,6,0,L|324:152,1,35.9999990463257,0|0,2:0|2:0,2:0:0:0:
131,39,355734,6,0,B|61:19|61:19|9:64|9:64|60:109|60:109|314:44|314:44|394:101|394:101|337:202|337:202|242:133|242:133|321:0,1,899.999976158142,12|0,3:0|3:0,3:0:0:0:
82,50,356311,6,0,L|88:120,1,67.5000007867814
222,308,356504,2,0,L|213:376,1,67.5000007867814
64,223,357081,6,0,L|101:218,1,26.9999984607697,2|0,2:0|2:0,2:0:0:0:
197,143,357465,1,2,0:0:0:0:
336,188,357657,6,0,B|413:251|434:372|434:372|409:215|418:117|418:117|346:106|296:109|296:109|245:111|248:39|296:40|296:40|334:39|372:42|372:42|346:18|339:-19,1,827.999993858338,8|0,3:0|3:0,3:0:0:0:
187,36,358234,6,0,P|184:57|182:73,1,26.9999984607697,2|0,2:0|2:0,2:0:0:0:
75,140,358619,2,2,L|99:138,1,13.4999992303849
167,182,358811,6,0,B|131:215|53:223|53:223|137:218|206:251|206:251|227:237|227:237|360:261|360:261|377:289|377:289|369:155|369:155|408:86|484:49|484:49|410:82|309:64,1,899.999976158142,12|0,3:0|3:0,3:0:0:0:
158,44,359388,6,0,L|153:92,1,35.9999990463257,2|0,2:0|2:0,2:0:0:0:
246,114,359772,6,2,L|243:142,1,17.9999995231628
231,213,359965,2,2,L|228:241,1,17.9999995231628
340,208,360157,6,0,P|323:202|306:202,1,26.9999984607697,2|0,2:0|2:0,2:0:0:0:
210,260,360542,1,2,0:0:0:0:
273,137,360734,6,0,B|379:156|397:165|429:177|448:139|499:109|444:28|380:0|321:80|293:108|346:150|439:192|415:318|415:318|326:309|290:236|290:236|321:310|271:369,1,827.999993858338,8|0,3:0|3:0,3:0:0:0:
97,52,361311,6,0,L|100:88,1,26.9999984607697,2|0,2:0|2:0,2:0:0:0:
37,151,361696,6,2,L|34:174,1,13.4999992303849,0|0,0:0|0:0,0:0:0:0:
64,250,361888,6,0,B|115:332|115:332|104:208|104:208|125:91|125:91|114:22|114:22|185:33|185:33|201:122|201:122|266:85|370:116|304:207|304:207|205:170|256:89|391:22,1,899.999976158142,12|0,3:0|3:0,3:0:0:0:
266,275,362465,6,0,P|302:286|343:279,1,53.9999969215394,2|0,2:0|0:0,0:0:0:0:
472,18,362850,5,2,0:0:0:0:
414,84,362946,1,2,0:0:0:0:
383,165,363042,1,2,0:0:0:0:
380,252,363138,1,2,0:0:0:0:
406,336,363234,6,2,L|424:339,1,13.4999992303849,10|2,0:0|0:0,0:0:0:0:
248,289,363427,6,0,L|266:274,1,22.4999994039536,8|0,0:0|0:0,0:0:0:0:
112,351,363619,6,0,L|120:312,1,31.4999982042313,8|0,0:0|0:0,0:0:0:0:
175,54,363811,6,0,B|116:73|61:39|61:39|64:68|64:68|92:93|92:93|97:152|97:152|83:187|83:187|115:240|112:351|112:351|133:244|163:175|163:175|240:176|284:195|284:195|253:174|211:93,1,827.999993858338,8|0,3:0|3:0,3:0:0:0:
340,143,364388,6,0,P|307:110|298:88,1,53.9999969215394,2|0,2:0|0:0,0:0:0:0:
325,9,364773,1,2,0:0:0:0:
453,75,364965,6,0,B|370:68|370:68|313:68|304:147|364:159|364:159|392:160|392:160|395:165|395:165|400:161|400:161|414:161|414:161|419:157|419:157|422:162|422:162|436:164|436:164|466:166|481:191|480:225|480:225|480:254|480:254|472:262|472:262|480:271|480:271|480:286|480:286|483:307|458:335|418:327|418:327|388:325|388:325|383:331|383:331|380:324|380:324|324:320|324:320|320:327|320:327|315:319|315:319|276:315|276:315|229:313|226:245|274:241|274:241|326:246|326:246|332:241|332:241|335:247|335:247|452:255,1,899.999976158142,12|0,3:0|3:0,3:0:0:0:
259,47,365542,6,0,P|246:88|246:120,1,53.9999969215394,2|0,2:0|2:0,2:0:0:0:
263,208,365927,2,2,B|177:180|177:180|45:216,1,179.999995231629,0|0,0:0|0:0,0:0:0:0:
221,278,366311,6,2,P|262:291|294:291,1,53.9999969215394,2|2,2:0|0:0,0:0:0:0:
389,184,366696,1,2,0:0:0:0:
162,139,366888,6,8,P|212:5|241:125,1,359.999990463257,8|8,3:0|3:0,0:0:0:0:
192,73,367465,6,2,L|187:27,1,35.9999990463257,2|2,2:0|2:0,2:0:0:0:
151,204,367850,1,2,0:0:0:0:
110,336,368042,6,0,B|60:310|60:310|201:296|201:296|277:317|277:317|388:308|388:308|433:234|433:234|282:245|282:245|219:226|219:226|271:139|226:-9,1,899.999976158142,12|0,3:0|3:0,3:0:0:0:
76,107,368619,6,0,L|105:67,1,35.9999990463257,2|0,2:0|0:0,0:0:0:0:
123,49,369004,2,2,L|117:229,1,143.999996185303
61,311,369388,6,8,P|77:275|84:305,1,89.9999976158143,8|0,0:0|0:0,0:0:0:0:
183,237,369580,6,8,P|207:192|206:235,1,125.999992816925,8|0,0:0|0:0,0:0:0:0:
346,213,369773,6,8,P|381:163|369:215,1,161.999990764618,8|0,0:0|0:0,0:0:0:0:
53,86,369965,6,0,B|106:29|106:29|71:175|85:358|85:358|141:316|141:316|67:320|-13:317|-13:317|36:245|36:245|91:249|227:237,1,827.999993858338,8|0,3:0|3:0,3:0:0:0:
182,158,370542,6,0,L|228:160,1,35.9999990463257,2|0,2:0|0:0,0:0:0:0:
115,84,370927,1,2,0:0:0:0:
326,236,371119,6,12,B|326:307|326:307|397:351|397:351|397:214|397:214|380:157|380:157|384:56|384:56|383:24|350:15|350:15|313:15|313:15|307:8|307:8|303:15|303:15|265:15|265:15|220:20|219:87|263:92|263:92|280:92|280:92|284:98|284:98|289:92|289:92|320:91|320:91|324:97|324:97|325:91|325:91|442:94,1,899.999976158142,12|0,3:0|3:0,3:0:0:0:
88,334,371696,6,0,L|96:284,1,35.9999990463257,2|0,2:0|0:0,0:0:0:0:
125,116,372081,2,2,L|127:133,1,17.9999995231628
140,209,372273,2,2,L|142:226,1,17.9999995231628
178,298,372465,6,0,L|226:298,1,35.9999990463257,2|0,2:0|0:0,0:0:0:0:
313,252,372850,1,2,0:0:0:0:
407,204,373042,6,8,B|281:50|197:74|74:168|209:259|286:255|353:255|368:130|321:-31|238:-98|159:-29|115:-17|171:70|137:126|182:100|252:92|403:22,1,827.999993858338,12|0,3:0|3:0,3:0:0:0:
90,70,373619,6,0,P|94:106|91:136,1,53.9999969215394,2|0,3:0|0:0,0:0:0:0:
70,217,374004,1,2,0:0:0:0:
184,253,374196,6,0,B|279:225|392:260|392:260|398:362|398:362|310:315|310:315|325:189|310:140|310:140|293:81|332:44|332:44|288:79|83:28,1,899.999976158142,12|0,3:0|3:0,3:0:0:0:
255,233,374773,6,0,P|212:237|166:252,1,71.9999980926514,2|0,2:0|0:0,0:0:0:0:
63,53,375157,5,2,0:0:0:0:
90,128,375254,1,2,0:0:0:0:
98,209,375350,1,2,0:0:0:0:
86,289,375446,1,2,0:0:0:0:
55,363,375542,6,0,P|77:356|118:354,6,44.9999988079071,2|0|0|0|0|0|0,0:0|3:0|0:0|3:0|3:0|3:0|3:0,3:0:0:0:
169,298,375927,6,2,P|216:300|263:345,1,89.9999976158143,2|2,3:0|3:0,3:0:0:0:
315,255,376119,1,0,3:0:0:0:
315,255,376215,1,0,3:0:0:0:
315,255,376311,6,0,P|297:215|340:261,1,179.999995231629,6|0,0:0|0:0,0:0:0:0:
151,176,376696,2,0,P|169:136|126:182,1,179.999995231629,2|0,0:0|0:0,0:0:0:0:
356,59,377081,2,0,P|338:19|381:65,1,179.999995231629,2|0,0:0|0:0,0:0:0:0:
432,166,377369,1,0,0:0:0:0:
432,166,377465,2,0,B|372:112|291:179,1,89.9999976158143
195,74,377657,6,0,B|241:26|241:26|227:173,1,179.999995231629
133,214,377946,2,0,L|230:223,2,89.9999976158143
349,266,378234,2,2,B|303:218|303:218|317:365,1,179.999995231629,2|0,0:0|0:0,0:0:0:0:
301,334,378523,1,0,0:0:0:0:
283,336,378619,6,0,B|238:332|179:344|179:344|214:309|199:211,1,179.999995231629
192,283,378907,2,0,P|183:318|159:344,1,53.9999969215394,2|0,0:0|0:0,0:0:0:0:
94,127,379196,6,0,B|190:127|190:127|271:181,1,179.999995231629
261,187,379484,2,0,L|202:149,1,53.9999969215394,2|0,0:0|0:0,0:0:0:0:
328,238,379773,6,0,B|377:158|280:133|357:20,1,179.999995231629
343,66,380061,2,0,P|335:107|343:134,2,53.9999969215394,0|0|0,3:0|0:0|0:0,0:0:0:0:
116,35,380350,6,0,L|100:193,1,143.999996185303,2|0,0:0|3:0,0:0:0:0:
137,182,380638,1,0,3:0:0:0:
172,186,380734,1,0,3:0:0:0:
208,190,380831,1,0,3:0:0:0:
244,195,380927,2,0,B|260:247|251:318|251:318|264:286|283:269,1,179.999995231629,2|0,0:0|0:0,0:0:0:0:
82,50,381215,5,0,0:0:0:0:
82,50,381311,2,8,L|88:120,1,67.5000007867814,10|8,3:0|3:0,3:0:0:0:
222,308,381504,2,8,L|213:376,1,67.5000007867814,10|8,3:0|3:0,3:0:0:0:
320,132,381696,5,6,0:0:0:0:
