osu file format v14

[General]
AudioFilename: cherry blossoms explode across the dying horizon.mp3
AudioLeadIn: 0
PreviewTime: -1
Countdown: 0
SampleSet: Normal
StackLeniency: 0.7
Mode: 0
LetterboxInBreaks: 0
WidescreenStoryboard: 0

[Editor]
Bookmarks: 37127,73994,172510,197126,234049,283279,357126
DistanceSpacing: 1.1
BeatDivisor: 4
GridSize: 8
TimelineZoom: 1.8

[Metadata]
Title:cherry blossoms explode across the dying horizon
TitleUnicode:cherry blossoms explode across the dying horizon
Artist:sakuraburst
ArtistUnicode:【sakuraburst】
Creator:Quite Cynical
Version:Uncompressed Fury of Two Dumb Mappers
Source:
Tags:
BeatmapID:891124
BeatmapSetID:410652

[Difficulty]
HPDrainRate:6
CircleSize:4.5
OverallDifficulty:8.5
ApproachRate:9.5
SliderMultiplier:1.4
SliderTickRate:1

[Events]
//Background and Video events
0,0,"Konachan.com - 190303 cherry_blossoms forest long_hair original petals scenic topipan tree water wings.jpg",0,0
//Break Periods
2,77903,123139
//Storyboard Layer 0 (Background)
//Storyboard Layer 1 (Fail)
//Storyboard Layer 2 (Pass)
//Storyboard Layer 3 (Foreground)
//Storyboard Sound Samples

[TimingPoints]
2127,384.615384615385,4,1,0,25,1,0
73994,-133.333333333333,4,2,0,25,0,0
76453,-133.333333333333,4,2,0,5,0,0
76550,-50,4,2,0,25,0,0
77127,-66.6666666666667,4,2,0,100,0,0
77703,-100,4,2,0,5,0,0
123280,192.307692307692,4,1,0,25,1,0
123280,-100,4,1,0,25,0,0
123664,-133.333333333333,4,1,0,25,0,0
123856,-100,4,1,0,5,0,0
123953,-100,4,1,0,25,0,0
124145,-100,4,1,0,5,0,0
124241,-80,4,1,0,25,0,0
124337,-100,4,1,0,5,0,0
124433,-100,4,1,0,25,0,0
124818,-200,4,1,0,25,0,0
125203,-100,4,1,0,25,0,0
126645,-100,4,1,0,5,0,0
126741,-133.333333333333,4,1,0,25,0,0
126933,-100,4,1,0,5,0,0
127030,-100,4,1,0,25,0,0
127222,-100,4,1,0,5,0,0
127318,-80,4,1,0,25,0,0
127895,-100,4,1,0,25,0,0
129049,-80,4,1,0,25,0,0
129337,-100,4,1,0,5,0,0
129433,-100,4,1,0,25,0,0
130395,-100,4,1,0,25,0,0
130491,-100,4,1,0,5,0,0
130587,-100,4,1,0,25,0,0
130972,-200,4,1,0,25,0,0
131356,-100,4,1,0,25,0,0
131645,-133.333333333333,4,1,0,25,0,0
131933,-100,4,1,0,25,0,0
132510,-80,4,1,0,25,0,0
135491,-80,4,1,0,5,0,0
135587,-200,4,1,0,5,0,0
135972,-151.515151515152,4,1,0,25,0,0
136164,-151.515151515152,4,1,0,5,0,0
136260,-100,4,1,0,25,0,0
136453,-100,4,1,0,5,0,0

[HitObjects]
93,93,74050,5,0,0:0:0:0:
155,131,74434,1,0,0:0:0:0:
223,159,74819,2,0,B|299:161|376:114|376:114|333:194|333:194|373:201|373:201|346:267|391:326|452:325,1,446.250017023087
497,305,76550,2,0,L|521:292,11,17.5
443,242,76934,1,0,0:0:0:0:
337,194,77127,2,0,B|224:185|147:265|147:265|86:217|108:138,1,315.000012016297
159,270,123664,6,0,B|208:305|208:305|258:289,1,105.000004005432,2|0,0:3|0:0,0:0:0:0:
229,187,123953,2,0,B|334:157|334:157|371:179,1,140,2|0,0:3|0:0,0:0:0:0:
229,183,124241,2,0,P|177:165|155:128,1,87.5
206,46,124433,1,2,0:3:0:0:
403,78,124818,2,0,B|382:102|382:102|405:102|405:102|382:120|382:120|404:120|404:120,1,105
327,193,125203,6,0,L|275:256,1,70,2|0,0:3|0:0,0:0:0:0:
256,145,125395,1,0,0:3:0:0:
234,172,125491,2,0,L|182:235,1,70,2|0,0:3|0:0,0:0:0:0:
160,125,125683,1,0,0:0:0:0:
141,153,125780,2,0,L|89:216,1,70
122,328,125972,1,2,0:3:0:0:
122,328,126356,6,0,B|184:349|184:349|256:330|256:330|325:348,1,210
317,268,126741,2,0,B|287:260|287:260|263:183,1,105.000004005432,2|0,0:3|0:0,0:0:0:0:
368,168,127030,2,0,P|414:208|424:303,1,140,2|0,0:3|0:0,0:0:0:0:
294,339,127318,2,0,B|242:327|242:327|213:304,1,87.5
147,193,127510,1,2,0:3:0:0:
147,193,127895,2,0,L|128:150,1,35
29,175,128087,2,0,L|10:132,1,35
109,330,128279,2,0,L|76:262,1,70,2|0,0:3|0:0,0:0:0:0:
207,325,128472,1,0,0:0:0:0:
192,293,128568,2,0,L|161:230,1,70,2|0,0:3|0:0,0:0:0:0:
286,293,128760,1,0,0:0:0:0:
271,261,128856,2,0,L|238:193,1,70
301,42,129049,2,0,B|226:35|226:35|265:80|265:80|213:137|245:209,1,262.5,2|0,0:3|0:0,0:0:0:0:
336,159,129433,5,4,0:0:0:0:
127,127,129626,1,4,0:0:0:0:
163,290,129818,2,0,P|235:321|295:303,1,140,2|0,0:3|0:0,0:0:0:0:
385,352,130106,2,0,P|399:273|340:219,1,140,2|0,0:3|0:0,0:0:0:0:
265,193,130395,2,0,P|259:149|273:95,1,70
292,23,130587,1,2,0:3:0:0:
292,23,130972,6,0,B|317:48|317:48|317:23|317:23|339:48|339:48|339:25|339:25,1,105
410,113,131356,2,0,B|398:178|398:178|434:258,1,140,2|0,0:3|0:0,0:0:0:0:
353,273,131645,2,0,L|233:288,1,105.000004005432,2|0,0:3|0:0,0:0:0:0:
214,292,131933,1,0,0:0:0:0:
179,296,132030,1,0,0:0:0:0:
90,239,132126,1,2,0:3:0:0:
90,239,132510,6,0,L|377:200,1,262.5
416,145,132895,2,0,B|452:110|452:110|319:100,1,175,2|0,0:3|0:0,0:0:0:0:
251,142,133183,2,0,B|204:148|204:148|248:23,1,175,2|0,0:3|0:0,0:0:0:0:
158,29,133472,6,0,L|119:134,1,87.5
96,192,133664,6,0,B|46:318|46:318|98:307,1,175,2|0,0:3|0:0,0:0:0:0:
169,285,133953,2,0,B|210:256|210:256|237:389,1,175,2|0,0:3|0:0,0:0:0:0:
315,344,134241,6,0,L|297:258,1,87.5
313,172,134433,6,0,P|369:104|465:147,1,175,2|0,0:3|0:0,0:0:0:0:
429,207,134722,2,0,P|372:274|276:231,1,175,2|0,0:3|0:0,0:0:0:0:
227,201,135010,2,0,L|165:139,1,87.5
83,106,135203,2,0,P|29:211|116:304,1,262.5
151,308,135587,2,0,B|172:297|172:297|161:318|161:318|192:297|192:297|183:319|183:319,1,105
254,320,135972,2,0,P|294:320|344:295,1,92.3999997180176,2|0,0:3|0:0,0:0:0:0:
274,213,136260,2,0,B|217:121|217:121|271:124,1,140,2|0,0:3|0:0,0:0:0:0:
