osu file format v14

[General]
AudioFilename: audio.mp3
AudioLeadIn: 0
PreviewTime: -1
Countdown: 0
SampleSet: Normal
StackLeniency: 1
Mode: 1
LetterboxInBreaks: 0
WidescreenStoryboard: 0

[Editor]
DistanceSpacing: 1
BeatDivisor: 4
GridSize: 32
TimelineZoom: 2.500005

[Metadata]
Title:cherry blossoms explode across the dying horizon
TitleUnicode:cherry blossoms explode across the dying horizon
Artist:sakuraburst
ArtistUnicode:sakuraburst
Creator:Melissa
Version:Sakura
Source:osu!
Tags:deconstructing nature distorted horizon
BeatmapID:1565008
BeatmapSetID:741888

[Difficulty]
HPDrainRate:4
CircleSize:2
OverallDifficulty:4
ApproachRate:4
SliderMultiplier:1.2
SliderTickRate:1

[Events]
//Background and Video events
0,0,"scorched_earth_by_arcipello-d5118nz.jpg",0,0
//Break Periods
2,33795,35158
2,58795,60352
2,231487,232660
//Storyboard Layer 0 (Background)
//Storyboard Layer 1 (Fail)
//Storyboard Layer 2 (Pass)
//Storyboard Layer 3 (Foreground)
//Storyboard Layer 4 (Overlay)
//Storyboard Sound Samples

[TimingPoints]
2057,384.615384615385,4,1,0,100,1,0
2057,-250.000000000001,4,1,0,5,0,0
3210,-250.000000000001,4,1,0,10,0,0
4364,-250.000000000001,4,1,0,15,0,0
5518,-250.000000000001,4,1,0,20,0,0
6672,-250.000000000001,4,1,0,30,0,0
7826,-250.000000000001,4,1,0,35,0,0
8980,-250.000000000001,4,1,0,40,0,0
10133,-250.000000000001,4,1,0,45,0,0
11287,-250,4,1,0,50,0,0
12441,-250,4,1,0,55,0,0
13595,-250,4,1,0,60,0,0
14749,-250,4,1,0,65,0,0
15903,-250,4,1,0,70,0,0
17057,-250,4,1,0,70,0,0
18210,-250,4,1,0,70,0,0
19364,-250,4,1,0,70,0,0
20518,-250,4,1,0,70,0,0
21672,-250,4,1,0,75,0,0
23595,-250,4,1,0,70,0,0
24749,-166.666666666667,4,1,0,70,0,0
30518,-166.666666666667,4,1,0,40,0,0
31287,-166.666666666667,4,1,0,15,0,0
32057,-166.666666666667,4,1,0,15,0,0
32826,-166.666666666667,4,1,0,15,0,0
33595,-166.666666666667,4,1,0,10,0,0
33980,-161.290322580645,4,1,0,70,0,0
34364,-156.25,4,1,0,70,0,0
34749,-151.515151515152,4,1,0,70,0,0
35133,-147.058823529412,4,1,0,70,0,0
35518,-142.857142857143,4,1,0,70,0,0
35903,-133.333333333333,4,1,0,70,0,0
36287,-125,4,1,0,70,0,0
36383,-100,4,1,0,70,0,0
36478,384.615384615385,4,1,0,70,1,0
36478,-50,4,1,0,50,0,0
36670,285.714285714286,4,1,0,70,1,0
36670,-50,4,1,0,50,0,0
36860,384.615384615385,4,1,0,70,1,0
36860,-50,4,1,0,70,0,0
37057,384.615384615385,4,1,0,70,1,0
37057,-50,4,1,0,50,0,0
37153,-166.666666666667,4,1,0,70,0,0
37441,-166.666666666667,4,1,0,50,0,0
38499,-166.666666666667,4,1,0,30,0,0
38691,-166.666666666667,4,1,0,50,0,0
40037,-166.666666666667,4,1,0,30,0,0
40230,-166.666666666667,4,1,0,50,0,0
46287,-166.666666666667,4,1,0,50,0,0
46480,-166.666666666667,4,1,0,25,0,0
47057,-166.666666666667,4,1,0,20,0,0
47633,-166.666666666667,4,1,0,15,0,0
48210,-166.666666666667,4,1,0,10,0,0
48787,-166.666666666667,4,1,0,5,0,0
49364,-250.000000000001,4,1,0,30,0,0
50230,-250.000000000001,4,1,0,100,0,0
50518,-250.000000000001,4,1,0,50,0,0
55614,-250.000000000001,4,1,0,70,0,0
61672,-50,4,1,0,70,0,0
61864,-50,4,1,0,70,0,0
61960,-125,4,1,0,70,0,0
65807,-125,4,1,0,20,0,0
73980,-83.3333333333333,4,1,0,70,0,1
76480,-45.4545454545455,4,1,0,5,0,1
76960,-83.3333333333333,4,1,0,5,0,1
77057,-83.3333333333333,4,1,0,70,0,1
82057,-45.4545454545455,4,1,0,5,0,1
82249,-83.3333333333333,4,1,0,5,0,1
82633,-45.4545454545455,4,1,0,5,0,1
83114,-83.3333333333333,4,1,0,5,0,1
83210,-83.3333333333333,4,1,0,70,0,1
83595,-133.333333333333,4,1,0,40,0,1
85646,-45.4545454545455,4,1,0,70,0,1
88787,-45.4545454545455,4,1,0,70,0,1
89268,-83.3333333333333,4,1,0,70,0,1
92441,-100,4,1,0,70,0,0
96287,-100,4,1,0,40,0,0
98595,-100,4,1,0,70,0,0
102057,-100,4,1,0,15,0,0
102153,-100,4,1,0,70,0,0
105133,-100,4,1,0,15,0,0
105230,-100,4,1,0,70,0,0
105903,-100,4,1,0,30,0,0
105999,-100,4,1,0,70,0,0
108210,-100,4,1,0,30,0,0
108307,-100,4,1,0,70,0,0
123210,-71.4285714285714,4,1,0,70,0,1
124749,-41.6666666666667,4,1,0,70,0,1
124845,-71.4285714285714,4,1,0,70,0,1
126287,-41.6666666666667,4,1,0,70,0,1
126383,-71.4285714285714,4,1,0,70,0,1
129364,-41.6666666666667,4,1,0,70,0,1
129460,-71.4285714285714,4,1,0,70,0,1
132441,-41.6666666666667,4,1,0,70,0,1
132537,-71.4285714285714,4,1,0,70,0,1
137057,-41.6666666666667,4,1,0,70,0,1
137153,-71.4285714285714,4,1,0,70,0,1
138595,-41.6666666666667,4,1,0,70,0,1
138691,-71.4285714285714,4,1,0,70,0,1
143210,-41.6666666666667,4,1,0,70,0,1
143307,-71.4285714285714,4,1,0,70,0,1
150903,-41.6666666666667,4,1,0,70,0,1
150999,-71.4285714285714,4,1,0,70,0,1
153980,-41.6666666666667,4,1,0,70,0,1
154076,-71.4285714285714,4,1,0,70,0,1
157057,-41.6666666666667,4,1,0,70,0,1
157153,-71.4285714285714,4,1,0,70,0,1
163210,-41.6666666666667,4,1,0,70,0,1
163307,-71.4285714285714,4,1,0,70,0,1
166287,-41.6666666666667,4,1,0,70,0,1
166383,-71.4285714285714,4,1,0,70,0,1
169364,-41.6666666666667,4,1,0,70,0,1
169460,-71.4285714285714,4,1,0,70,0,1
170903,-41.6666666666667,4,1,0,70,0,1
170999,-71.4285714285714,4,1,0,70,0,1
172441,-125,4,1,0,40,0,0
175518,-55.5555555555556,4,1,0,60,0,0
175807,-125,4,1,0,40,0,0
178595,-55.5555555555556,4,1,0,60,0,0
178691,-125,4,1,0,40,0,0
181672,-55.5555555555556,4,1,0,60,0,0
181960,-125,4,1,0,40,0,0
182057,-83.3333333333333,4,1,0,40,0,0
184749,-55.5555555555556,4,1,0,60,0,0
184845,-125,4,1,0,40,0,0
193980,-125,4,1,0,5,0,0
194364,-125,4,1,0,10,0,0
194749,-125,4,1,0,15,0,0
195133,-125,4,1,0,20,0,0
195518,-125,4,1,0,25,0,0
195903,-125,4,1,0,30,0,0
196287,-125,4,1,0,35,0,0
196672,-125,4,1,0,40,0,0
197057,-100,4,1,0,10,0,0
203114,-250,4,1,0,10,0,0
210903,-100,4,1,0,10,0,0
214364,-250,4,1,0,10,0,0
220133,-100,4,1,0,10,0,0
223307,-250,4,1,0,10,0,0
229172,-100,4,1,0,10,0,0
230614,-250,4,1,0,10,0,0
233980,-125,4,1,0,40,0,0
246191,-125,4,1,0,55,0,0
258595,-166.666666666667,4,1,0,30,0,0
283210,-62.5,4,1,0,70,0,1
283499,-166.666666666667,4,1,0,40,0,0
284364,-62.5,4,1,0,70,0,1
284653,-166.666666666667,4,1,0,40,0,0
285518,-62.5,4,1,0,70,0,1
285807,-166.666666666667,4,1,0,40,0,0
286287,-62.5,4,1,0,70,0,1
286576,-166.666666666667,4,1,0,40,0,0
287441,-62.5,4,1,0,70,0,1
287730,-166.666666666667,4,1,0,40,0,0
288595,-62.5,4,1,0,70,0,1
288883,-166.666666666667,4,1,0,40,0,0
289364,-62.5,4,1,0,70,0,1
289653,-166.666666666667,4,1,0,40,0,0
290518,-62.5,4,1,0,70,0,1
290807,-166.666666666667,4,1,0,40,0,0
291672,-62.5,4,1,0,70,0,1
291960,-166.666666666667,4,1,0,40,0,0
292441,-62.5,4,1,0,70,0,1
292730,-166.666666666667,4,1,0,40,0,0
293595,-62.5,4,1,0,70,0,1
293883,-166.666666666667,4,1,0,40,0,0
294749,-62.5,4,1,0,70,0,1
295037,-166.666666666667,4,1,0,40,0,0
295518,-62.5,4,1,0,70,0,1
295807,-166.666666666667,4,1,0,40,0,0
296672,-62.5,4,1,0,70,0,1
296960,-166.666666666667,4,1,0,40,0,0
297826,-62.5,4,1,0,70,0,1
298114,-166.666666666667,4,1,0,40,0,0
298595,-62.5,4,1,0,70,0,1
298883,-166.666666666667,4,1,0,40,0,0
299749,-62.5,4,1,0,70,0,1
300037,-166.666666666667,4,1,0,40,0,0
300903,-62.5,4,1,0,70,0,1
301191,-166.666666666667,4,1,0,40,0,0
301672,-62.5,4,1,0,70,0,1
301960,-166.666666666667,4,1,0,40,0,0
302826,-62.5,4,1,0,70,0,1
303114,-166.666666666667,4,1,0,40,0,0
303980,-62.5,4,1,0,70,0,1
304268,-166.666666666667,4,1,0,40,0,0
304749,-62.5,4,1,0,70,0,1
305037,-166.666666666667,4,1,0,40,0,0
305903,-62.5,4,1,0,70,0,1
306191,-166.666666666667,4,1,0,40,0,0
307057,-62.5,4,1,0,70,0,1
307345,-166.666666666667,4,1,0,40,0,0
307633,-125,4,1,0,40,0,0
307826,-55.5555555555556,4,1,0,70,0,1
308114,-125,4,1,0,40,0,0
308980,-55.5555555555556,4,1,0,70,0,1
309268,-125,4,1,0,40,0,0
310133,-55.5555555555556,4,1,0,70,0,1
310422,-125,4,1,0,40,0,0
310903,-55.5555555555556,4,1,0,70,0,1
311191,-125,4,1,0,40,0,0
312057,-55.5555555555556,4,1,0,70,0,1
312345,-125,4,1,0,40,0,0
313210,-55.5555555555556,4,1,0,70,0,1
313499,-125,4,1,0,40,0,0
313980,-55.5555555555556,4,1,0,70,0,1
314268,-125,4,1,0,40,0,0
315133,-55.5555555555556,4,1,0,70,0,1
315422,-125,4,1,0,40,0,0
316287,-55.5555555555556,4,1,0,70,0,1
316576,-125,4,1,0,40,0,0
317057,-55.5555555555556,4,1,0,70,0,1
317345,-125,4,1,0,40,0,0
318210,-55.5555555555556,4,1,0,70,0,1
318499,-125,4,1,0,40,0,0
319364,-55.5555555555556,4,1,0,70,0,1
319653,-125,4,1,0,40,0,0
320133,-55.5555555555556,4,1,0,70,0,1
320422,-125,4,1,0,40,0,0
321287,-55.5555555555556,4,1,0,70,0,0
321383,-125,4,1,0,40,0,0
322441,-55.5555555555556,4,1,0,70,0,0
322537,-125,4,1,0,40,0,0
323210,-55.5555555555556,4,1,0,70,0,0
323307,-125,4,1,0,40,0,0
324364,-55.5555555555556,4,1,0,70,0,0
324460,-125,4,1,0,40,0,0
325518,-55.5555555555556,4,1,0,70,0,0
325614,-125,4,1,0,40,0,0
326287,-55.5555555555556,4,1,0,70,0,0
326383,-125,4,1,0,40,0,0
327441,-55.5555555555556,4,1,0,70,0,0
327537,-125,4,1,0,40,0,0
331672,-50,4,1,0,40,0,0
332537,-100,4,1,0,40,0,0
334172,-50,4,1,0,70,0,0
334268,-100,4,1,0,40,0,0
337249,-50,4,1,0,70,0,0
337345,-100,4,1,0,40,0,0
338595,-50,4,1,0,40,0,0
339172,-50,4,1,0,70,0,0
339268,-100,4,1,0,40,0,0
340326,-50,4,1,0,70,0,0
340422,-100,4,1,0,40,0,0
343403,-50,4,1,0,70,0,0
343499,-100,4,1,0,40,0,0
346480,-50,4,1,0,70,0,0
346576,-100,4,1,0,40,0,0
349557,-50,4,1,0,70,0,0
349653,-100,4,1,0,40,0,0
350903,-50,4,1,0,40,0,0
351480,-50,4,1,0,70,0,0
351576,-100,4,1,0,40,0,0
352633,-50,4,1,0,70,0,0
352730,-100,4,1,0,40,0,0
355710,-50,4,1,0,70,0,0
355807,-100,4,1,0,40,0,0
357057,-50,4,1,0,70,0,0
357153,-100,4,1,0,40,0,0
358787,-50,4,1,0,70,0,0
358883,-100,4,1,0,40,0,0
361864,-50,4,1,0,70,0,0
361960,-100,4,1,0,40,0,0
364941,-50,4,1,0,70,0,0
365037,-100,4,1,0,40,0,0
368018,-50,4,1,0,70,0,0
368114,-100,4,1,0,40,0,0
371095,-50,4,1,0,70,0,0
371191,-100,4,1,0,40,0,0
374172,-50,4,1,0,70,0,0
374268,-100,4,1,0,40,0,0
375518,-50,4,1,0,40,0,0
375807,-100,4,1,0,40,0,0
381768,-250,4,1,0,40,0,0
394749,-250,4,1,0,10,0,0
395133,-125,4,1,0,60,0,0
395230,-250,4,1,0,40,0,0
395326,-250,4,1,0,10,0,0
395710,-125,4,1,0,60,0,0
395807,-250,4,1,0,40,0,0
395903,-250,4,1,0,10,0,0
396287,-125,4,1,0,60,0,0
396383,-250,4,1,0,40,0,0
396480,-250,4,1,0,10,0,0
396672,-125,4,1,0,60,0,0
396768,-250,4,1,0,40,0,0
396864,-250,4,1,0,10,0,0
397057,-125,4,1,0,60,0,0
397153,-250,4,1,0,40,0,0
397249,-250,4,1,0,10,0,0
397633,-125,4,1,0,60,0,0
397730,-250,4,1,0,40,0,0
397826,-250,4,1,0,10,0,0
398210,-125,4,1,0,60,0,0
398307,-250,4,1,0,40,0,0
398403,-250,4,1,0,10,0,0
398787,-125,4,1,0,60,0,0
398883,-250,4,1,0,40,0,0
398980,-250,4,1,0,10,0,0
399364,-125,4,1,0,60,0,0
399460,-250,4,1,0,40,0,0
399557,-250,4,1,0,10,0,0
399749,-125,4,1,0,60,0,0
400230,-250,4,1,0,40,0,0
400326,-250,4,1,0,10,0,0
400710,-125,4,1,0,60,0,0
400807,-250,4,1,0,40,0,0
400903,-250,4,1,0,10,0,0
401287,-125,4,1,0,60,0,0
401383,-250,4,1,0,40,0,0
401480,-250,4,1,0,10,0,0
401864,-125,4,1,0,60,0,0
401960,-250,4,1,0,40,0,0
402057,-250,4,1,0,10,0,0
402441,-125,4,1,0,60,0,0
402537,-250,4,1,0,40,0,0
402633,-250,4,1,0,10,0,0
402826,-125,4,1,0,60,0,0
402922,-250,4,1,0,40,0,0
403018,-250,4,1,0,10,0,0
403210,-125,4,1,0,60,0,0
403307,-250,4,1,0,40,0,0
403403,-250,4,1,0,10,0,0
403787,-125,4,1,0,60,0,0
403883,-250,4,1,0,40,0,0
403980,-250,4,1,0,10,0,0
404364,-125,4,1,0,60,0,0
404460,-250,4,1,0,40,0,0
404557,-250,4,1,0,10,0,0
404941,-125,4,1,0,60,0,0
405037,-250,4,1,0,40,0,0
405133,-250,4,1,0,10,0,0
405518,-125,4,1,0,60,0,0
405614,-250,4,1,0,40,0,0
405710,-250,4,1,0,10,0,0
405903,-125,4,1,0,60,0,0
406383,-250,4,1,0,40,0,0
406480,-250,4,1,0,10,0,0
407057,-125,4,1,0,60,0,0
407153,-250,4,1,0,40,0,0
407249,-250,4,1,0,10,0,0
407826,-125,4,1,0,60,0,0
407922,-250,4,1,0,40,0,0
408018,-250,4,1,0,10,0,0
409364,-125,4,1,0,60,0,0
409460,-250,4,1,0,40,0,0
409557,-250,4,1,0,10,0,0
410903,-125,4,1,0,60,0,0
410999,-250,4,1,0,40,0,0
411095,-250,4,1,0,10,0,0
411672,-125,4,1,0,60,0,0
411768,-250,4,1,0,40,0,0
411864,-250,4,1,0,10,0,0
412057,-250,4,1,0,10,0,0
413210,-125,4,1,0,60,0,0
413307,-250,4,1,0,40,0,0
413403,-250,4,1,0,10,0,0
413595,-250,4,1,0,10,0,0
413980,-125,4,1,0,60,0,0
414076,-250,4,1,0,40,0,0
414172,-250,4,1,0,10,0,0
415518,-125,4,1,0,60,0,0
415614,-250,4,1,0,40,0,0
415710,-250,4,1,0,10,0,0
417057,-125,4,1,0,60,0,0
417153,-250,4,1,0,40,0,0
417249,-250,4,1,0,10,0,0
417826,-125,4,1,0,60,0,0
417922,-250,4,1,0,40,0,0
418018,-250,4,1,0,10,0,0
418210,-125,4,1,0,60,0,0
418691,-250,4,1,0,40,0,0
418787,-250,4,1,0,10,0,0
419364,-125,4,1,0,60,0,0
419460,-250,4,1,0,40,0,0
419557,-250,4,1,0,10,0,0
420133,-125,4,1,0,60,0,0
420230,-250,4,1,0,40,0,0
420326,-250,4,1,0,10,0,0
421672,-125,4,1,0,60,0,0
421768,-250,4,1,0,40,0,0
421864,-250,4,1,0,10,0,0
423210,-125,4,1,0,60,0,0
423307,-250,4,1,0,40,0,0
423403,-250,4,1,0,10,0,0
424749,-125,4,1,0,60,0,0
424845,-250,4,1,0,40,0,0
424941,-250,4,1,0,10,0,0
425518,-125,4,1,0,60,0,0
425614,-250,4,1,0,40,0,0
425710,-250,4,1,0,10,0,0
426287,-125,4,1,0,60,0,0
426383,-250,4,1,0,40,0,0
426480,-250,4,1,0,10,0,0
427826,-125,4,1,0,60,0,0
427922,-250,4,1,0,40,0,0
428018,-250,4,1,0,10,0,0
429364,-125,4,1,0,60,0,0
429460,-250,4,1,0,40,0,0
429557,-250,4,1,0,10,0,0
430133,-125,4,1,0,60,0,0
430230,-250,4,1,0,40,0,0
430518,-50,4,1,0,40,0,0
430807,-250,4,1,0,40,0,0
430903,-250,4,1,0,10,0,0

[Colours]
Combo1 : 40,0,40
Combo2 : 255,198,255
Combo3 : 89,0,45
Combo4 : 255,221,255

[HitObjects]
256,192,2057,5,2,0:0:0:0:
256,192,2441,1,8,0:0:0:0:
256,192,2826,1,0,0:0:0:0:
256,192,3210,1,2,0:0:0:0:
256,192,3595,1,8,0:0:0:0:
256,192,3980,1,0,0:0:0:0:
256,192,4364,1,2,0:0:0:0:
256,192,4749,1,8,0:0:0:0:
256,192,5133,1,0,0:0:0:0:
256,192,5518,1,2,0:0:0:0:
256,192,5903,1,8,0:0:0:0:
256,192,6095,1,8,0:0:0:0:
256,192,6287,1,0,0:0:0:0:
256,192,6672,1,2,0:0:0:0:
256,192,7057,1,8,0:0:0:0:
256,192,7441,1,0,0:0:0:0:
256,192,7826,1,2,0:0:0:0:
256,192,8210,1,8,0:0:0:0:
256,192,8595,1,0,0:0:0:0:
256,192,8980,1,2,0:0:0:0:
256,192,9364,1,8,0:0:0:0:
256,192,9749,1,0,0:0:0:0:
256,192,10133,1,2,0:0:0:0:
256,192,10518,1,8,0:0:0:0:
256,192,10710,1,8,0:0:0:0:
256,192,10903,1,0,0:0:0:0:
256,192,11287,1,2,0:0:0:0:
256,192,11672,1,8,0:0:0:0:
256,192,12057,1,0,0:0:0:0:
256,192,12441,1,2,0:0:0:0:
256,192,12826,1,8,0:0:0:0:
256,192,13018,1,0,0:0:0:0:
256,192,13210,1,8,0:0:0:0:
256,192,13595,1,2,0:0:0:0:
256,192,13980,1,8,0:0:0:0:
256,192,14172,1,0,0:0:0:0:
256,192,14364,1,8,0:0:0:0:
256,192,14749,1,2,0:0:0:0:
256,192,15133,1,8,0:0:0:0:
256,192,15326,1,8,0:0:0:0:
256,192,15518,1,0,0:0:0:0:
256,192,15903,1,2,0:0:0:0:
256,192,16287,1,8,0:0:0:0:
256,192,16480,1,0,0:0:0:0:
256,192,16672,1,8,0:0:0:0:
256,192,17057,1,2,0:0:0:0:
256,192,17441,1,0,0:0:0:0:
256,192,17826,1,0,0:0:0:0:
256,192,18210,1,2,0:0:0:0:
256,192,18403,1,8,0:0:0:0:
256,192,18595,1,0,0:0:0:0:
256,192,18787,1,8,0:0:0:0:
256,192,18980,1,0,0:0:0:0:
256,192,19364,1,2,0:0:0:0:
256,192,19749,1,0,0:0:0:0:
256,192,20133,1,0,0:0:0:0:
256,192,20518,1,2,0:0:0:0:
256,192,20903,1,8,0:0:0:0:
256,192,21095,1,8,0:0:0:0:
256,192,21287,1,0,0:0:0:0:
256,192,21672,1,2,0:0:0:0:
256,192,22057,1,0,0:0:0:0:
256,192,22441,1,0,0:0:0:0:
256,192,22826,1,8,0:0:0:0:
256,192,23210,1,0,0:0:0:0:
256,192,23403,1,8,0:0:0:0:
256,192,23595,5,2,0:0:0:0:
256,192,23787,1,8,0:0:0:0:
256,192,23980,1,0,0:0:0:0:
256,192,24172,1,0,0:0:0:0:
256,192,24364,1,0,0:0:0:0:
256,192,24749,5,2,0:0:0:0:
256,192,25133,1,0,0:0:0:0:
256,192,25518,1,0,0:0:0:0:
256,192,25903,1,2,0:0:0:0:
256,192,26287,1,0,0:0:0:0:
256,192,26480,1,8,0:0:0:0:
256,192,26672,1,0,0:0:0:0:
256,192,27057,1,2,0:0:0:0:
256,192,27441,1,0,0:0:0:0:
256,192,27826,1,0,0:0:0:0:
256,192,28210,1,2,0:0:0:0:
256,192,28595,1,0,0:0:0:0:
256,192,28787,1,8,0:0:0:0:
256,192,28980,1,0,0:0:0:0:
256,192,29364,1,2,0:0:0:0:
256,192,29749,1,8,0:0:0:0:
256,192,30133,1,2,0:0:0:0:
256,192,30518,1,0,0:0:0:0:
256,192,30710,1,0,0:0:0:0:
256,192,30807,1,0,0:0:0:0:
256,192,30903,1,2,0:0:0:0:
256,192,31287,1,0,0:0:0:0:
256,192,31672,1,2,0:0:0:0:
256,192,32057,1,0,0:0:0:0:
256,192,32441,1,2,0:0:0:0:
256,192,32826,1,0,0:0:0:0:
256,192,33210,1,2,0:0:0:0:
256,192,33595,1,0,0:0:0:0:
256,192,36478,5,4,0:0:0:0:
256,192,36670,1,6,0:0:0:0:
256,192,36860,1,6,0:0:0:0:
256,192,37057,1,4,0:0:0:0:
256,192,37441,1,8,0:0:0:0:
256,192,37826,1,0,0:0:0:0:
256,192,38595,1,0,0:0:0:0:
256,192,39364,1,6,0:0:0:0:
256,192,40133,5,0,0:0:0:0:
256,192,40903,5,2,0:0:0:0:
256,192,41672,1,2,0:0:0:0:
256,192,42441,1,2,0:0:0:0:
256,192,43210,1,2,0:0:0:0:
256,192,43403,1,0,0:0:0:0:
256,192,43595,1,2,0:0:0:0:
256,192,43787,1,0,0:0:0:0:
256,192,43980,5,2,0:0:0:0:
256,192,45518,5,2,0:0:0:0:
256,192,46480,5,0,0:0:0:0:
256,192,46672,1,2,0:0:0:0:
256,192,46864,1,0,0:0:0:0:
256,192,47057,1,2,0:0:0:0:
256,192,47249,1,0,0:0:0:0:
256,192,47441,1,2,0:0:0:0:
256,192,47633,1,0,0:0:0:0:
256,192,47826,1,2,0:0:0:0:
256,192,48018,1,0,0:0:0:0:
256,192,48210,1,2,0:0:0:0:
256,192,48403,1,0,0:0:0:0:
256,192,48595,1,2,0:0:0:0:
256,192,48787,1,0,0:0:0:0:
256,192,48980,1,2,0:0:0:0:
256,192,49172,1,0,0:0:0:0:
256,192,49364,1,2,0:0:0:0:
256,192,49749,1,2,0:0:0:0:
256,192,50133,1,2,0:0:0:0:
256,192,50326,1,0,0:0:0:0:
256,192,50518,1,2,0:0:0:0:
256,192,50710,1,0,0:0:0:0:
256,192,50903,1,0,0:0:0:0:
256,192,51287,1,2,0:0:0:0:
256,192,51480,1,0,0:0:0:0:
256,192,51672,1,2,0:0:0:0:
256,192,52057,1,2,0:0:0:0:
256,192,52441,1,2,0:0:0:0:
256,192,52633,1,0,0:0:0:0:
256,192,52826,1,2,0:0:0:0:
256,192,53210,1,2,0:0:0:0:
256,192,53595,1,2,0:0:0:0:
256,192,53787,1,0,0:0:0:0:
256,192,53980,1,2,0:0:0:0:
256,192,54364,1,2,0:0:0:0:
256,192,54749,1,0,0:0:0:0:
256,192,55133,1,0,0:0:0:0:
256,192,55326,1,0,0:0:0:0:
256,192,55422,1,0,0:0:0:0:
256,192,55518,1,2,0:0:0:0:
256,192,57057,1,2,0:0:0:0:
256,192,58595,1,2,0:0:0:0:
256,192,61672,5,4,0:0:0:0:
256,192,61864,1,4,0:0:0:0:
256,192,65807,1,0,0:0:0:0:
256,192,67153,1,0,0:0:0:0:
256,192,68307,1,0,0:0:0:0:
256,192,68883,1,0,0:0:0:0:
256,192,69460,1,0,0:0:0:0:
256,192,70037,1,2,0:0:0:0:
256,192,70326,1,0,0:0:0:0:
256,192,70903,1,2,0:0:0:0:
256,192,73980,1,6,0:0:0:0:
256,192,74364,1,0,0:0:0:0:
256,192,74749,1,0,0:0:0:0:
256,192,76480,2,0,L|416:192,1,132.00000402832
256,192,77057,1,6,0:0:0:0:
256,192,77826,1,0,0:0:0:0:
256,192,78595,1,2,0:0:0:0:
256,192,79364,1,2,0:0:0:0:
256,192,80133,1,6,0:0:0:0:
256,192,80518,1,0,0:0:0:0:
256,192,80903,1,0,0:0:0:0:
256,192,82057,2,0,L|416:192,1,132.00000402832
256,192,82633,2,0,L|448:192,1,132.00000402832
256,192,83210,1,6,0:0:0:0:
256,192,83787,1,8,0:0:0:0:
256,192,83883,1,0,0:0:0:0:
256,192,83980,1,8,0:0:0:0:
256,192,84172,1,8,0:0:0:0:
256,192,84364,1,8,0:0:0:0:
256,192,84557,1,0,0:0:0:0:
256,192,84749,1,8,0:0:0:0:
256,192,86287,1,6,0:0:0:0:
256,192,86672,1,0,0:0:0:0:
256,192,87057,1,0,0:0:0:0:
256,192,88787,2,0,L|416:192,1,132.00000402832
256,192,89364,1,2,0:0:0:0:
256,192,89557,1,0,0:0:0:0:
256,192,89653,1,0,0:0:0:0:
256,192,89749,1,2,0:0:0:0:
256,192,90133,1,0,0:0:0:0:
256,192,90903,1,0,0:0:0:0:
256,192,91672,1,0,0:0:0:0:
256,192,92057,1,6,0:0:0:0:
256,192,92153,5,0,0:0:0:0:
256,192,92249,1,4,0:0:0:0:
256,192,92441,5,4,0:0:0:0:
256,192,96287,1,2,0:0:0:0:
256,192,97057,1,2,0:0:0:0:
256,192,97826,1,2,0:0:0:0:
256,192,98595,1,12,0:0:0:0:
256,192,98787,1,4,0:0:0:0:
256,192,99364,1,8,0:0:0:0:
256,192,99557,1,0,0:0:0:0:
256,192,99749,1,2,0:0:0:0:
256,192,99941,1,0,0:0:0:0:
256,192,100133,1,0,0:0:0:0:
256,192,100903,1,8,0:0:0:0:
256,192,100999,1,8,0:0:0:0:
256,192,101095,1,8,0:0:0:0:
256,192,101191,1,8,0:0:0:0:
256,192,101287,1,0,0:0:0:0:
256,192,101672,1,6,0:0:0:0:
256,192,102057,1,0,0:0:0:0:
256,192,102441,1,2,0:0:0:0:
256,192,103210,1,2,0:0:0:0:
256,192,103980,1,2,0:0:0:0:
256,192,104364,1,0,0:0:0:0:
256,192,104460,1,0,0:0:0:0:
256,192,104557,1,0,0:0:0:0:
256,192,104653,1,0,0:0:0:0:
256,192,104749,1,2,0:0:0:0:
256,192,105133,1,0,0:0:0:0:
256,192,105518,1,2,0:0:0:0:
256,192,105903,1,0,0:0:0:0:
256,192,106287,1,2,0:0:0:0:
256,192,107057,1,0,0:0:0:0:
256,192,107153,1,0,0:0:0:0:
256,192,107249,1,0,0:0:0:0:
256,192,107345,1,0,0:0:0:0:
256,192,107441,1,2,0:0:0:0:
256,192,107826,1,2,0:0:0:0:
256,192,108210,1,0,0:0:0:0:
256,192,108595,1,2,0:0:0:0:
256,192,109364,1,2,0:0:0:0:
256,192,110133,1,2,0:0:0:0:
256,192,110518,1,0,0:0:0:0:
256,192,110614,1,0,0:0:0:0:
256,192,110710,1,0,0:0:0:0:
256,192,110807,1,0,0:0:0:0:
256,192,110903,1,6,0:0:0:0:
256,192,111672,1,2,0:0:0:0:
256,192,112441,1,2,0:0:0:0:
256,192,113210,1,2,0:0:0:0:
256,192,113307,1,0,0:0:0:0:
256,192,113403,1,0,0:0:0:0:
256,192,113980,1,2,0:0:0:0:
256,192,114364,1,2,0:0:0:0:
256,192,114749,1,2,0:0:0:0:
256,192,115133,1,2,0:0:0:0:
256,192,115518,1,2,0:0:0:0:
256,192,115903,1,2,0:0:0:0:
256,192,116287,1,2,0:0:0:0:
256,192,116672,1,0,0:0:0:0:
256,192,116864,1,0,0:0:0:0:
256,192,117057,1,2,0:0:0:0:
256,192,117249,1,0,0:0:0:0:
256,192,117441,1,0,0:0:0:0:
256,192,117633,1,0,0:0:0:0:
256,192,117826,1,0,0:0:0:0:
256,192,118018,1,0,0:0:0:0:
256,192,118210,1,0,0:0:0:0:
256,192,118403,1,0,0:0:0:0:
256,192,118595,1,2,0:0:0:0:
256,192,118787,1,0,0:0:0:0:
256,192,118980,1,0,0:0:0:0:
256,192,119172,1,0,0:0:0:0:
256,192,119364,5,2,0:0:0:0:
256,192,119557,1,2,0:0:0:0:
256,192,119749,1,0,0:0:0:0:
256,192,119941,1,0,0:0:0:0:
256,192,120133,1,0,0:0:0:0:
256,192,120230,1,0,0:0:0:0:
256,192,120326,1,0,0:0:0:0:
256,192,120422,1,0,0:0:0:0:
256,192,120518,1,2,0:0:0:0:
256,192,120614,1,0,0:0:0:0:
256,192,120710,1,0,0:0:0:0:
256,192,120807,1,0,0:0:0:0:
256,192,120903,1,2,0:0:0:0:
256,192,120999,1,0,0:0:0:0:
256,192,121095,1,0,0:0:0:0:
256,192,121191,1,0,0:0:0:0:
256,192,121287,1,2,0:0:0:0:
256,192,121383,1,0,0:0:0:0:
256,192,121480,1,0,0:0:0:0:
256,192,121576,1,0,0:0:0:0:
256,192,121672,1,2,0:0:0:0:
256,192,121768,1,0,0:0:0:0:
256,192,121864,1,0,0:0:0:0:
256,192,121960,1,0,0:0:0:0:
256,192,122057,1,0,0:0:0:0:
256,192,122153,1,0,0:0:0:0:
256,192,122249,1,0,0:0:0:0:
256,192,122345,1,0,0:0:0:0:
256,192,122441,1,0,0:0:0:0:
256,192,122537,1,0,0:0:0:0:
256,192,122633,1,0,0:0:0:0:
256,192,122730,1,0,0:0:0:0:
256,192,122826,1,0,0:0:0:0:
256,192,123018,1,6,0:0:0:0:
256,192,123210,1,6,0:0:0:0:
256,192,123595,1,0,0:0:0:0:
256,192,123883,1,0,0:0:0:0:
256,192,124172,1,2,0:0:0:0:
256,192,124364,1,0,0:0:0:0:
256,192,124749,1,4,0:0:0:0:
256,192,125133,1,2,0:0:0:0:
256,192,125422,1,2,0:0:0:0:
256,192,125710,1,0,0:0:0:0:
256,192,125807,1,2,0:0:0:0:
256,192,125903,1,0,0:0:0:0:
256,192,126287,1,4,0:0:0:0:
256,192,126672,1,0,0:0:0:0:
256,192,126960,1,0,0:0:0:0:
256,192,127249,1,2,0:0:0:0:
256,192,127441,1,0,0:0:0:0:
256,192,127826,1,0,0:0:0:0:
256,192,128018,1,0,0:0:0:0:
256,192,128210,1,2,0:0:0:0:
256,192,128499,1,2,0:0:0:0:
256,192,128787,1,0,0:0:0:0:
256,192,128883,1,2,0:0:0:0:
256,192,128980,1,0,0:0:0:0:
256,192,129364,1,4,0:0:0:0:
256,192,129749,1,2,0:0:0:0:
256,192,130037,1,2,0:0:0:0:
256,192,130326,1,0,0:0:0:0:
256,192,130518,1,0,0:0:0:0:
256,192,130710,1,2,0:0:0:0:
256,192,130903,1,0,0:0:0:0:
256,192,131287,1,2,0:0:0:0:
256,192,131576,1,2,0:0:0:0:
256,192,131864,1,0,0:0:0:0:
256,192,131960,1,2,0:0:0:0:
256,192,132057,1,0,0:0:0:0:
256,192,132441,1,4,0:0:0:0:
256,192,132826,1,2,0:0:0:0:
256,192,133114,1,2,0:0:0:0:
256,192,133403,1,0,0:0:0:0:
256,192,133499,1,2,0:0:0:0:
256,192,133595,1,0,0:0:0:0:
256,192,133883,1,2,0:0:0:0:
256,192,134172,1,0,0:0:0:0:
256,192,134268,1,2,0:0:0:0:
256,192,134364,1,0,0:0:0:0:
256,192,134653,1,2,0:0:0:0:
256,192,134941,1,0,0:0:0:0:
256,192,135037,1,2,0:0:0:0:
256,192,135133,1,0,0:0:0:0:
256,192,135422,1,2,0:0:0:0:
256,192,135903,1,0,0:0:0:0:
256,192,136191,1,0,0:0:0:0:
256,192,136480,1,2,0:0:0:0:
256,192,136672,1,0,0:0:0:0:
256,192,137057,1,4,0:0:0:0:
256,192,137441,1,2,0:0:0:0:
256,192,137730,1,2,0:0:0:0:
256,192,138018,1,0,0:0:0:0:
256,192,138114,1,2,0:0:0:0:
256,192,138210,1,0,0:0:0:0:
256,192,138595,1,4,0:0:0:0:
256,192,138980,1,0,0:0:0:0:
256,192,139268,1,0,0:0:0:0:
256,192,139557,1,2,0:0:0:0:
256,192,139749,1,0,0:0:0:0:
256,192,139941,1,2,0:0:0:0:
256,192,140133,1,2,0:0:0:0:
256,192,140326,1,2,0:0:0:0:
256,192,140518,1,0,0:0:0:0:
256,192,140807,1,0,0:0:0:0:
256,192,141287,1,0,0:0:0:0:
256,192,141480,1,2,0:0:0:0:
256,192,141672,1,0,0:0:0:0:
256,192,142057,1,0,0:0:0:0:
256,192,142345,1,0,0:0:0:0:
256,192,142633,1,2,0:0:0:0:
256,192,142826,1,0,0:0:0:0:
256,192,143210,1,4,0:0:0:0:
256,192,143595,1,2,0:0:0:0:
256,192,143883,1,2,0:0:0:0:
256,192,144172,1,2,0:0:0:0:
256,192,144268,1,0,0:0:0:0:
256,192,144364,1,2,0:0:0:0:
256,192,144460,1,0,0:0:0:0:
256,192,144557,1,0,0:0:0:0:
256,192,144653,1,0,0:0:0:0:
256,192,144749,1,2,0:0:0:0:
256,192,145133,1,0,0:0:0:0:
256,192,145422,1,0,0:0:0:0:
256,192,145710,1,2,0:0:0:0:
256,192,145903,1,0,0:0:0:0:
256,192,146191,1,2,0:0:0:0:
256,192,146480,1,2,0:0:0:0:
256,192,146576,1,2,0:0:0:0:
256,192,146672,1,0,0:0:0:0:
256,192,146960,1,0,0:0:0:0:
256,192,147249,1,0,0:0:0:0:
256,192,147345,1,0,0:0:0:0:
256,192,147441,1,2,0:0:0:0:
256,192,147537,1,0,0:0:0:0:
256,192,147633,1,0,0:0:0:0:
256,192,147730,1,0,0:0:0:0:
256,192,147826,1,2,0:0:0:0:
256,192,148595,1,0,0:0:0:0:
256,192,148883,1,0,0:0:0:0:
256,192,148980,1,2,0:0:0:0:
256,192,149076,1,0,0:0:0:0:
256,192,149364,1,2,0:0:0:0:
256,192,149749,1,0,0:0:0:0:
256,192,149845,1,2,0:0:0:0:
256,192,150037,1,0,0:0:0:0:
256,192,150133,1,2,0:0:0:0:
256,192,150422,1,0,0:0:0:0:
256,192,150518,1,2,0:0:0:0:
256,192,150903,1,4,0:0:0:0:
256,192,151672,1,2,0:0:0:0:
256,192,151960,1,2,0:0:0:0:
256,192,152441,1,0,0:0:0:0:
256,192,152730,1,0,0:0:0:0:
256,192,153018,1,8,0:0:0:0:
256,192,153210,1,0,0:0:0:0:
256,192,153595,1,2,0:0:0:0:
256,192,153980,1,4,0:0:0:0:
256,192,154749,1,0,0:0:0:0:
256,192,155037,1,0,0:0:0:0:
256,192,155133,1,2,0:0:0:0:
256,192,155230,1,0,0:0:0:0:
256,192,155518,1,2,0:0:0:0:
256,192,155903,1,0,0:0:0:0:
256,192,155999,1,2,0:0:0:0:
256,192,156191,1,0,0:0:0:0:
256,192,156287,1,2,0:0:0:0:
256,192,156576,1,0,0:0:0:0:
256,192,156672,1,2,0:0:0:0:
256,192,157057,1,4,0:0:0:0:
256,192,157826,1,0,0:0:0:0:
256,192,160133,1,2,0:0:0:0:
256,192,160903,1,0,0:0:0:0:
256,192,161191,1,0,0:0:0:0:
256,192,161287,1,2,0:0:0:0:
256,192,161383,1,0,0:0:0:0:
256,192,161672,1,2,0:0:0:0:
256,192,162057,1,0,0:0:0:0:
256,192,162153,1,2,0:0:0:0:
256,192,162345,1,0,0:0:0:0:
256,192,162441,1,2,0:0:0:0:
256,192,162730,1,0,0:0:0:0:
256,192,162826,1,2,0:0:0:0:
256,192,163210,1,4,0:0:0:0:
256,192,163980,1,2,0:0:0:0:
256,192,164268,1,0,0:0:0:0:
256,192,164749,1,0,0:0:0:0:
256,192,165230,1,2,0:0:0:0:
256,192,165518,1,2,0:0:0:0:
256,192,165903,1,0,0:0:0:0:
256,192,166287,1,4,0:0:0:0:
256,192,167057,1,0,0:0:0:0:
256,192,167345,1,0,0:0:0:0:
256,192,167441,1,2,0:0:0:0:
256,192,167537,1,0,0:0:0:0:
256,192,167826,1,2,0:0:0:0:
256,192,168307,1,0,0:0:0:0:
256,192,168499,1,0,0:0:0:0:
256,192,168595,1,2,0:0:0:0:
256,192,168980,1,2,0:0:0:0:
256,192,169364,1,4,0:0:0:0:
256,192,170133,1,0,0:0:0:0:
256,192,170903,1,6,0:0:0:0:
256,192,172441,1,2,0:0:0:0:
256,192,172826,1,0,0:0:0:0:
256,192,173210,1,0,0:0:0:0:
256,192,173595,1,0,0:0:0:0:
256,192,173980,1,2,0:0:0:0:
256,192,174364,1,0,0:0:0:0:
256,192,174749,1,0,0:0:0:0:
256,192,174941,1,0,0:0:0:0:
256,192,175133,1,2,0:0:0:0:
256,192,175230,1,0,0:0:0:0:
256,192,175518,1,4,0:0:0:0:
256,192,175710,1,4,0:0:0:0:
256,192,175903,1,0,0:0:0:0:
256,192,176287,1,2,0:0:0:0:
256,192,176672,1,0,0:0:0:0:
256,192,177057,1,0,0:0:0:0:
256,192,177441,1,2,0:0:0:0:
256,192,177826,1,0,0:0:0:0:
256,192,177922,1,0,0:0:0:0:
256,192,178018,1,0,0:0:0:0:
256,192,178114,1,0,0:0:0:0:
256,192,178210,1,0,0:0:0:0:
256,192,178595,1,4,0:0:0:0:
256,192,178980,1,0,0:0:0:0:
256,192,179364,1,2,0:0:0:0:
256,192,179749,1,0,0:0:0:0:
256,192,180133,1,0,0:0:0:0:
256,192,180518,1,2,0:0:0:0:
256,192,180903,1,0,0:0:0:0:
256,192,181095,1,0,0:0:0:0:
256,192,181287,1,2,0:0:0:0:
256,192,181383,1,0,0:0:0:0:
256,192,181672,1,4,0:0:0:0:
256,192,181864,1,4,0:0:0:0:
256,192,182057,1,2,0:0:0:0:
256,192,182249,1,0,0:0:0:0:
256,192,182441,1,2,0:0:0:0:
256,192,182633,1,2,0:0:0:0:
256,192,182826,1,0,0:0:0:0:
256,192,183018,1,2,0:0:0:0:
256,192,183210,1,0,0:0:0:0:
256,192,183403,1,0,0:0:0:0:
256,192,183595,1,2,0:0:0:0:
256,192,183787,1,0,0:0:0:0:
256,192,183980,1,2,0:0:0:0:
256,192,184172,1,0,0:0:0:0:
256,192,184364,1,0,0:0:0:0:
256,192,184557,1,2,0:0:0:0:
256,192,184749,1,4,0:0:0:0:
256,192,185133,1,0,0:0:0:0:
256,192,185518,1,0,0:0:0:0:
256,192,185903,1,2,0:0:0:0:
256,192,186287,1,0,0:0:0:0:
256,192,186672,1,0,0:0:0:0:
256,192,187057,1,2,0:0:0:0:
256,192,187441,1,0,0:0:0:0:
256,192,187826,1,0,0:0:0:0:
256,192,188210,1,2,0:0:0:0:
256,192,188595,1,0,0:0:0:0:
256,192,188980,1,0,0:0:0:0:
256,192,189364,1,2,0:0:0:0:
256,192,189749,1,0,0:0:0:0:
256,192,190133,1,0,0:0:0:0:
256,192,190518,1,2,0:0:0:0:
256,192,190903,1,0,0:0:0:0:
256,192,191287,1,0,0:0:0:0:
256,192,191672,1,2,0:0:0:0:
256,192,192057,1,0,0:0:0:0:
256,192,192441,1,0,0:0:0:0:
256,192,192826,1,2,0:0:0:0:
256,192,193210,1,0,0:0:0:0:
256,192,193595,1,0,0:0:0:0:
256,192,193980,1,2,0:0:0:0:
256,192,194172,1,0,0:0:0:0:
256,192,194364,1,2,0:0:0:0:
256,192,194557,1,0,0:0:0:0:
256,192,194749,1,2,0:0:0:0:
256,192,194941,1,0,0:0:0:0:
256,192,195133,1,2,0:0:0:0:
256,192,195326,1,0,0:0:0:0:
256,192,195518,1,2,0:0:0:0:
256,192,195710,1,0,0:0:0:0:
256,192,195903,1,2,0:0:0:0:
256,192,196095,1,0,0:0:0:0:
256,192,196287,1,2,0:0:0:0:
256,192,196480,1,0,0:0:0:0:
256,192,196672,1,2,0:0:0:0:
256,192,196864,1,0,0:0:0:0:
256,192,197057,8,0,203018,0:0:0:0:
256,192,203210,5,0,0:0:0:0:
256,192,207826,1,0,0:0:0:0:
256,192,208595,1,0,0:0:0:0:
256,192,209364,1,2,0:0:0:0:
256,192,210710,1,0,0:0:0:0:
256,192,210807,1,2,0:0:0:0:
256,192,210903,12,0,214268,0:0:0:0:
256,192,215326,5,0,0:0:0:0:
256,192,216287,1,2,0:0:0:0:
256,192,217249,1,0,0:0:0:0:
256,192,218499,1,0,0:0:0:0:
256,192,219172,1,0,0:0:0:0:
256,192,220037,12,0,223210,0:0:0:0:
256,192,224268,5,0,0:0:0:0:
256,192,225133,1,0,0:0:0:0:
256,192,226095,1,0,0:0:0:0:
256,192,228018,1,0,0:0:0:0:
256,192,228403,1,0,0:0:0:0:
256,192,228787,1,0,0:0:0:0:
256,192,229172,12,0,230518,0:0:0:0:
256,192,231287,5,0,0:0:0:0:
256,192,233980,5,2,0:0:0:0:
256,192,234364,1,0,0:0:0:0:
256,192,234749,1,0,0:0:0:0:
256,192,235133,1,2,0:0:0:0:
256,192,235518,1,2,0:0:0:0:
256,192,235903,1,2,0:0:0:0:
256,192,236287,1,0,0:0:0:0:
256,192,236672,1,0,0:0:0:0:
256,192,237057,1,0,0:0:0:0:
256,192,237441,1,2,0:0:0:0:
256,192,237826,1,2,0:0:0:0:
256,192,238210,1,2,0:0:0:0:
256,192,238595,1,0,0:0:0:0:
256,192,238980,1,0,0:0:0:0:
256,192,239364,1,0,0:0:0:0:
256,192,239749,1,2,0:0:0:0:
256,192,240133,1,2,0:0:0:0:
256,192,240518,1,2,0:0:0:0:
256,192,240903,1,0,0:0:0:0:
256,192,241287,1,0,0:0:0:0:
256,192,241672,1,0,0:0:0:0:
256,192,242057,1,2,0:0:0:0:
256,192,242441,1,2,0:0:0:0:
256,192,242826,1,2,0:0:0:0:
256,192,243210,1,0,0:0:0:0:
256,192,243595,1,0,0:0:0:0:
256,192,243980,1,0,0:0:0:0:
256,192,244364,1,2,0:0:0:0:
256,192,244749,1,2,0:0:0:0:
256,192,245133,1,2,0:0:0:0:
256,192,246287,1,2,0:0:0:0:
256,192,246672,1,2,0:0:0:0:
256,192,247057,1,0,0:0:0:0:
256,192,247441,1,2,0:0:0:0:
256,192,247826,1,2,0:0:0:0:
256,192,248210,1,0,0:0:0:0:
256,192,248595,1,2,0:0:0:0:
256,192,248980,1,2,0:0:0:0:
256,192,249364,1,0,0:0:0:0:
256,192,249749,1,2,0:0:0:0:
256,192,250133,1,2,0:0:0:0:
256,192,250518,1,0,0:0:0:0:
256,192,250903,1,2,0:0:0:0:
256,192,251287,1,2,0:0:0:0:
256,192,251672,1,0,0:0:0:0:
256,192,252057,1,2,0:0:0:0:
256,192,252441,1,2,0:0:0:0:
256,192,252826,1,0,0:0:0:0:
256,192,253210,1,2,0:0:0:0:
256,192,253595,1,2,0:0:0:0:
256,192,253980,1,0,0:0:0:0:
256,192,254364,1,2,0:0:0:0:
256,192,254749,1,2,0:0:0:0:
256,192,255133,1,0,0:0:0:0:
256,192,255518,1,2,0:0:0:0:
256,192,255903,1,2,0:0:0:0:
256,192,256287,1,0,0:0:0:0:
256,192,256672,1,0,0:0:0:0:
256,192,257057,1,4,0:0:0:0:
256,192,258595,1,0,0:0:0:0:
256,192,258980,1,2,0:0:0:0:
256,192,259364,1,2,0:0:0:0:
256,192,259749,1,0,0:0:0:0:
256,192,260133,1,2,0:0:0:0:
256,192,261672,1,2,0:0:0:0:
256,192,263210,1,2,0:0:0:0:
256,192,263980,1,2,0:0:0:0:
256,192,265133,1,0,0:0:0:0:
256,192,265518,1,0,0:0:0:0:
256,192,266287,1,2,0:0:0:0:
256,192,267826,1,2,0:0:0:0:
256,192,269364,1,0,0:0:0:0:
256,192,270133,1,0,0:0:0:0:
256,192,270518,1,0,0:0:0:0:
256,192,270903,1,2,0:0:0:0:
256,192,271672,1,0,0:0:0:0:
256,192,272441,1,2,0:0:0:0:
256,192,273980,1,0,0:0:0:0:
256,192,275518,1,2,0:0:0:0:
256,192,276287,1,0,0:0:0:0:
256,192,277057,1,2,0:0:0:0:
256,192,277441,1,0,0:0:0:0:
256,192,277826,1,2,0:0:0:0:
256,192,278595,1,0,0:0:0:0:
256,192,279364,1,2,0:0:0:0:
256,192,280133,1,2,0:0:0:0:
256,192,281672,1,0,0:0:0:0:
256,192,282441,1,0,0:0:0:0:
256,192,283210,1,4,0:0:0:0:
256,192,283403,1,6,0:0:0:0:
256,192,283595,1,0,0:0:0:0:
256,192,283980,1,2,0:0:0:0:
256,192,284364,1,4,0:0:0:0:
256,192,284557,1,6,0:0:0:0:
256,192,284749,1,0,0:0:0:0:
256,192,285133,1,2,0:0:0:0:
256,192,285518,1,4,0:0:0:0:
256,192,285710,1,6,0:0:0:0:
256,192,285903,1,0,0:0:0:0:
256,192,286287,1,4,0:0:0:0:
256,192,286480,1,6,0:0:0:0:
256,192,286672,1,0,0:0:0:0:
256,192,287057,1,2,0:0:0:0:
256,192,287441,1,4,0:0:0:0:
256,192,287633,1,6,0:0:0:0:
256,192,287826,1,0,0:0:0:0:
256,192,288210,1,2,0:0:0:0:
256,192,288595,1,4,0:0:0:0:
256,192,288787,1,6,0:0:0:0:
256,192,288980,1,0,0:0:0:0:
256,192,289364,1,4,0:0:0:0:
256,192,289557,1,6,0:0:0:0:
256,192,289749,1,0,0:0:0:0:
256,192,290133,1,2,0:0:0:0:
256,192,290518,1,4,0:0:0:0:
256,192,290710,1,6,0:0:0:0:
256,192,290903,1,0,0:0:0:0:
256,192,291287,1,2,0:0:0:0:
256,192,291672,1,4,0:0:0:0:
256,192,291864,1,6,0:0:0:0:
256,192,292057,1,0,0:0:0:0:
256,192,292441,1,4,0:0:0:0:
256,192,292633,1,6,0:0:0:0:
256,192,292826,1,0,0:0:0:0:
256,192,293210,1,2,0:0:0:0:
256,192,293595,1,4,0:0:0:0:
256,192,293787,1,6,0:0:0:0:
256,192,293980,1,0,0:0:0:0:
256,192,294364,1,2,0:0:0:0:
256,192,294749,1,4,0:0:0:0:
256,192,294941,1,6,0:0:0:0:
256,192,295133,1,0,0:0:0:0:
256,192,295518,1,4,0:0:0:0:
256,192,295710,1,6,0:0:0:0:
256,192,295903,1,0,0:0:0:0:
256,192,296287,1,2,0:0:0:0:
256,192,296672,1,4,0:0:0:0:
256,192,296864,1,6,0:0:0:0:
256,192,297057,1,0,0:0:0:0:
256,192,297441,1,2,0:0:0:0:
256,192,297826,1,4,0:0:0:0:
256,192,298018,1,6,0:0:0:0:
256,192,298210,1,0,0:0:0:0:
256,192,298595,1,4,0:0:0:0:
256,192,298787,1,6,0:0:0:0:
256,192,298980,1,0,0:0:0:0:
256,192,299364,1,2,0:0:0:0:
256,192,299749,1,4,0:0:0:0:
256,192,299941,1,6,0:0:0:0:
256,192,300133,1,0,0:0:0:0:
256,192,300518,1,2,0:0:0:0:
256,192,300903,1,4,0:0:0:0:
256,192,301095,1,6,0:0:0:0:
256,192,301287,1,0,0:0:0:0:
256,192,301672,1,4,0:0:0:0:
256,192,301864,1,6,0:0:0:0:
256,192,302057,1,0,0:0:0:0:
256,192,302441,1,2,0:0:0:0:
256,192,302826,1,4,0:0:0:0:
256,192,303018,1,6,0:0:0:0:
256,192,303210,1,0,0:0:0:0:
256,192,303595,1,2,0:0:0:0:
256,192,303980,1,4,0:0:0:0:
256,192,304172,1,6,0:0:0:0:
256,192,304364,1,0,0:0:0:0:
256,192,304749,1,4,0:0:0:0:
256,192,304941,1,6,0:0:0:0:
256,192,305133,1,0,0:0:0:0:
256,192,305518,1,2,0:0:0:0:
256,192,305903,1,4,0:0:0:0:
256,192,306095,1,6,0:0:0:0:
256,192,306287,1,0,0:0:0:0:
256,192,306672,1,2,0:0:0:0:
256,192,307057,1,4,0:0:0:0:
256,192,307249,1,6,0:0:0:0:
256,192,307441,1,0,0:0:0:0:
256,192,307826,1,4,0:0:0:0:
256,192,308018,1,6,0:0:0:0:
256,192,308210,1,0,0:0:0:0:
256,192,308595,1,2,0:0:0:0:
256,192,308980,1,4,0:0:0:0:
256,192,309172,1,6,0:0:0:0:
256,192,309364,1,0,0:0:0:0:
256,192,309749,1,2,0:0:0:0:
256,192,310133,1,4,0:0:0:0:
256,192,310326,1,6,0:0:0:0:
256,192,310518,1,0,0:0:0:0:
256,192,310903,1,4,0:0:0:0:
256,192,311095,1,6,0:0:0:0:
256,192,311287,1,0,0:0:0:0:
256,192,311672,1,2,0:0:0:0:
256,192,312057,1,4,0:0:0:0:
256,192,312249,1,6,0:0:0:0:
256,192,312441,1,0,0:0:0:0:
256,192,312826,1,2,0:0:0:0:
256,192,313210,1,4,0:0:0:0:
256,192,313403,1,6,0:0:0:0:
256,192,313595,1,0,0:0:0:0:
256,192,313980,1,4,0:0:0:0:
256,192,314172,1,6,0:0:0:0:
256,192,314364,1,0,0:0:0:0:
256,192,314749,1,2,0:0:0:0:
256,192,315133,1,4,0:0:0:0:
256,192,315326,1,6,0:0:0:0:
256,192,315518,1,0,0:0:0:0:
256,192,315903,1,2,0:0:0:0:
256,192,316287,1,4,0:0:0:0:
256,192,316480,1,6,0:0:0:0:
256,192,316672,1,0,0:0:0:0:
256,192,317057,1,4,0:0:0:0:
256,192,317249,1,6,0:0:0:0:
256,192,317441,1,0,0:0:0:0:
256,192,317826,1,2,0:0:0:0:
256,192,318210,1,4,0:0:0:0:
256,192,318403,1,6,0:0:0:0:
256,192,318595,1,0,0:0:0:0:
256,192,318980,1,2,0:0:0:0:
256,192,319364,1,4,0:0:0:0:
256,192,319557,1,6,0:0:0:0:
256,192,319749,1,0,0:0:0:0:
256,192,320133,1,4,0:0:0:0:
256,192,320326,1,6,0:0:0:0:
256,192,320518,1,0,0:0:0:0:
256,192,320903,1,2,0:0:0:0:
256,192,321287,1,0,0:0:0:0:
256,192,321672,1,0,0:0:0:0:
256,192,322057,1,2,0:0:0:0:
256,192,322441,1,0,0:0:0:0:
256,192,322826,1,0,0:0:0:0:
256,192,323210,1,0,0:0:0:0:
256,192,323595,1,0,0:0:0:0:
256,192,323980,1,2,0:0:0:0:
256,192,324364,1,0,0:0:0:0:
256,192,324749,1,0,0:0:0:0:
256,192,325133,1,2,0:0:0:0:
256,192,325518,1,0,0:0:0:0:
256,192,325903,1,0,0:0:0:0:
256,192,326287,1,0,0:0:0:0:
256,192,326480,1,0,0:0:0:0:
256,192,326672,1,0,0:0:0:0:
256,192,326864,1,0,0:0:0:0:
256,192,327057,1,2,0:0:0:0:
256,192,327249,1,0,0:0:0:0:
256,192,327441,1,0,0:0:0:0:
256,192,327633,1,0,0:0:0:0:
256,192,327826,1,0,0:0:0:0:
256,192,328018,1,0,0:0:0:0:
256,192,328210,1,2,0:0:0:0:
256,192,328403,1,0,0:0:0:0:
256,192,328595,1,0,0:0:0:0:
256,192,328787,1,0,0:0:0:0:
256,192,328980,1,0,0:0:0:0:
256,192,329172,1,0,0:0:0:0:
256,192,329268,1,0,0:0:0:0:
256,192,329364,1,2,0:0:0:0:
256,192,329460,1,0,0:0:0:0:
256,192,329557,1,2,0:0:0:0:
256,192,329653,1,0,0:0:0:0:
256,192,329749,1,0,0:0:0:0:
256,192,329845,1,0,0:0:0:0:
256,192,329941,1,2,0:0:0:0:
256,192,330037,1,0,0:0:0:0:
256,192,330133,1,2,0:0:0:0:
256,192,330230,1,0,0:0:0:0:
256,192,330326,1,0,0:0:0:0:
256,192,330422,1,0,0:0:0:0:
256,192,330518,1,2,0:0:0:0:
256,192,330614,1,0,0:0:0:0:
256,192,330710,1,2,0:0:0:0:
256,192,330807,1,0,0:0:0:0:
256,192,330903,1,0,0:0:0:0:
256,192,330999,1,0,0:0:0:0:
256,192,331095,1,2,0:0:0:0:
256,192,331191,1,0,0:0:0:0:
256,192,331287,1,2,0:0:0:0:
256,192,331383,1,0,0:0:0:0:
256,192,331480,1,0,0:0:0:0:
256,192,331576,1,0,0:0:0:0:
256,192,331672,2,0,L|640:192,1,360
256,192,332441,1,4,0:0:0:0:
256,192,333018,1,2,0:0:0:0:
256,192,333595,1,0,0:0:0:0:
256,192,334172,1,6,0:0:0:0:
256,192,334749,1,0,0:0:0:0:
256,192,335133,1,2,0:0:0:0:
256,192,335518,1,0,0:0:0:0:
256,192,336095,1,2,0:0:0:0:
256,192,336672,1,0,0:0:0:0:
256,192,337249,1,6,0:0:0:0:
256,192,337826,1,0,0:0:0:0:
256,192,338210,1,2,0:0:0:0:
167,205,338595,2,0,L|445:208,1,240
256,192,339172,1,6,0:0:0:0:
256,192,339749,1,0,0:0:0:0:
256,192,340326,1,6,0:0:0:0:
256,192,340903,1,0,0:0:0:0:
256,192,341287,1,2,0:0:0:0:
256,192,341672,1,0,0:0:0:0:
256,192,342249,1,2,0:0:0:0:
256,192,342826,1,0,0:0:0:0:
256,192,343403,1,6,0:0:0:0:
256,192,343980,1,0,0:0:0:0:
256,192,344364,1,2,0:0:0:0:
256,192,344749,1,0,0:0:0:0:
256,192,345326,1,2,0:0:0:0:
256,192,345903,1,0,0:0:0:0:
256,192,346480,1,6,0:0:0:0:
256,192,347057,1,0,0:0:0:0:
256,192,347441,1,2,0:0:0:0:
256,192,347826,1,0,0:0:0:0:
256,192,348403,1,2,0:0:0:0:
256,192,348980,1,0,0:0:0:0:
256,192,349557,1,6,0:0:0:0:
256,192,350133,1,0,0:0:0:0:
256,192,350518,1,2,0:0:0:0:
256,192,350903,2,2,L|537:194,1,240
256,192,351480,1,6,0:0:0:0:
256,192,352057,1,0,0:0:0:0:
256,192,352633,1,6,0:0:0:0:
256,192,353210,1,0,0:0:0:0:
256,192,353595,1,2,0:0:0:0:
256,192,353980,1,0,0:0:0:0:
256,192,354557,1,2,0:0:0:0:
256,192,355133,1,2,0:0:0:0:
256,192,355710,1,6,0:0:0:0:
256,192,356287,1,6,0:0:0:0:
256,192,356480,1,4,0:0:0:0:
256,192,357057,1,4,0:0:0:0:
256,192,357633,1,0,0:0:0:0:
256,192,358210,1,2,0:0:0:0:
256,192,358787,1,6,0:0:0:0:
256,192,359364,1,2,0:0:0:0:
256,192,359749,1,2,0:0:0:0:
256,192,360133,1,0,0:0:0:0:
256,192,360710,1,0,0:0:0:0:
256,192,361287,1,2,0:0:0:0:
256,192,361864,1,6,0:0:0:0:
256,192,362441,1,0,0:0:0:0:
256,192,362826,1,0,0:0:0:0:
256,192,362922,1,0,0:0:0:0:
256,192,363018,1,0,0:0:0:0:
256,192,363114,1,0,0:0:0:0:
256,192,363210,1,2,0:0:0:0:
256,192,363403,1,2,0:0:0:0:
256,192,363595,1,2,0:0:0:0:
256,192,363787,1,0,0:0:0:0:
256,192,364364,1,2,0:0:0:0:
256,192,364941,1,6,0:0:0:0:
256,192,365518,1,2,0:0:0:0:
256,192,365903,1,2,0:0:0:0:
256,192,366287,1,0,0:0:0:0:
256,192,366864,1,0,0:0:0:0:
256,192,367441,1,2,0:0:0:0:
256,192,368018,1,6,0:0:0:0:
256,192,368595,1,2,0:0:0:0:
256,192,368980,1,4,0:0:0:0:
256,192,369364,1,4,0:0:0:0:
256,192,369557,1,2,0:0:0:0:
256,192,369749,1,2,0:0:0:0:
256,192,369941,1,2,0:0:0:0:
256,192,370133,1,0,0:0:0:0:
256,192,370518,1,2,0:0:0:0:
256,192,371095,1,6,0:0:0:0:
256,192,371672,1,2,0:0:0:0:
256,192,372057,1,2,0:0:0:0:
256,192,372441,1,0,0:0:0:0:
256,192,373018,1,0,0:0:0:0:
256,192,373595,1,2,0:0:0:0:
256,192,374172,1,6,0:0:0:0:
256,192,374749,1,0,0:0:0:0:
256,192,375133,1,0,0:0:0:0:
256,192,375230,1,0,0:0:0:0:
256,192,375326,1,0,0:0:0:0:
256,192,375422,1,0,0:0:0:0:
256,192,375518,2,2,L|416:192,1,120
256,192,375903,1,2,0:0:0:0:
256,192,376095,1,2,0:0:0:0:
256,192,376287,1,2,0:0:0:0:
256,192,376672,1,2,0:0:0:0:
256,192,377057,1,2,0:0:0:0:
256,192,377441,1,0,0:0:0:0:
256,192,377633,1,2,0:0:0:0:
256,192,378018,1,0,0:0:0:0:
256,192,378210,1,2,0:0:0:0:
256,192,378595,1,0,0:0:0:0:
256,192,378787,1,0,0:0:0:0:
256,192,378883,1,2,0:0:0:0:
256,192,379172,1,0,0:0:0:0:
256,192,379364,1,0,0:0:0:0:
256,192,379460,1,2,0:0:0:0:
256,192,379749,1,0,0:0:0:0:
256,192,379941,1,0,0:0:0:0:
256,192,380037,1,2,0:0:0:0:
256,192,380326,1,0,0:0:0:0:
256,192,380518,1,0,0:0:0:0:
256,192,380614,1,2,0:0:0:0:
256,192,380807,1,0,0:0:0:0:
256,192,380903,1,0,0:0:0:0:
256,192,380999,1,2,0:0:0:0:
256,192,381095,1,2,0:0:0:0:
256,192,381191,1,2,0:0:0:0:
256,192,381287,1,4,0:0:0:0:
256,192,381480,1,4,0:0:0:0:
256,192,381672,1,4,0:0:0:0:
256,192,382249,1,2,0:0:0:0:
256,192,382826,1,0,0:0:0:0:
256,192,383403,1,2,0:0:0:0:
256,192,383980,1,2,0:0:0:0:
256,192,384364,1,0,0:0:0:0:
256,192,384749,1,2,0:0:0:0:
256,192,385326,1,0,0:0:0:0:
256,192,385903,1,2,0:0:0:0:
256,192,386480,1,0,0:0:0:0:
256,192,387057,1,0,0:0:0:0:
256,192,387441,1,2,0:0:0:0:
256,192,387537,1,2,0:0:0:0:
256,192,387633,1,2,0:0:0:0:
256,192,387730,1,2,0:0:0:0:
256,192,387826,1,0,0:0:0:0:
256,192,388403,1,0,0:0:0:0:
256,192,388980,1,0,0:0:0:0:
256,192,389557,1,2,0:0:0:0:
256,192,390133,1,2,0:0:0:0:
256,192,390518,1,2,0:0:0:0:
256,192,390903,1,0,0:0:0:0:
256,192,391480,1,0,0:0:0:0:
256,192,392057,1,2,0:0:0:0:
256,192,392441,1,0,0:0:0:0:
256,192,392633,1,2,0:0:0:0:
256,192,393210,1,2,0:0:0:0:
256,192,393595,1,2,0:0:0:0:
256,192,393691,1,2,0:0:0:0:
256,192,393787,1,2,0:0:0:0:
256,192,393883,1,2,0:0:0:0:
256,192,393980,1,0,0:0:0:0:
256,192,394172,1,2,0:0:0:0:
256,192,394364,1,0,0:0:0:0:
256,192,394557,1,2,0:0:0:0:
256,192,394749,1,0,0:0:0:0:
256,192,394941,1,0,0:0:0:0:
256,192,395133,1,2,0:0:0:0:
256,192,395326,1,0,0:0:0:0:
256,192,395518,1,0,0:0:0:0:
256,192,395710,1,2,0:0:0:0:
256,192,395903,1,0,0:0:0:0:
256,192,396095,1,0,0:0:0:0:
256,192,396287,1,2,0:0:0:0:
256,192,396480,1,0,0:0:0:0:
256,192,396672,1,2,0:0:0:0:
256,192,396864,1,0,0:0:0:0:
256,192,397057,1,2,0:0:0:0:
256,192,397249,1,0,0:0:0:0:
256,192,397441,1,0,0:0:0:0:
256,192,397633,1,2,0:0:0:0:
256,192,397826,1,0,0:0:0:0:
256,192,398018,1,0,0:0:0:0:
256,192,398210,1,2,0:0:0:0:
256,192,398403,1,0,0:0:0:0:
256,192,398595,1,0,0:0:0:0:
256,192,398787,1,2,0:0:0:0:
256,192,398980,1,0,0:0:0:0:
256,192,399172,1,0,0:0:0:0:
256,192,399364,1,2,0:0:0:0:
256,192,399557,1,0,0:0:0:0:
256,192,399749,1,2,0:0:0:0:
256,192,399845,1,2,0:0:0:0:
256,192,399941,1,2,0:0:0:0:
256,192,400037,1,2,0:0:0:0:
256,192,400133,1,0,0:0:0:0:
256,192,400326,1,0,0:0:0:0:
256,192,400518,1,0,0:0:0:0:
256,192,400710,1,2,0:0:0:0:
256,192,400903,1,0,0:0:0:0:
256,192,401095,1,0,0:0:0:0:
256,192,401287,1,2,0:0:0:0:
256,192,401480,1,0,0:0:0:0:
256,192,401672,1,0,0:0:0:0:
256,192,401864,1,2,0:0:0:0:
256,192,402057,1,0,0:0:0:0:
256,192,402249,1,0,0:0:0:0:
256,192,402441,1,2,0:0:0:0:
256,192,402633,1,0,0:0:0:0:
256,192,402826,1,2,0:0:0:0:
256,192,403018,1,0,0:0:0:0:
256,192,403210,1,2,0:0:0:0:
256,192,403403,1,0,0:0:0:0:
256,192,403595,1,0,0:0:0:0:
256,192,403787,1,2,0:0:0:0:
256,192,403980,1,0,0:0:0:0:
256,192,404172,1,0,0:0:0:0:
256,192,404364,1,2,0:0:0:0:
256,192,404557,1,0,0:0:0:0:
256,192,404749,1,0,0:0:0:0:
256,192,404941,1,2,0:0:0:0:
256,192,405133,1,0,0:0:0:0:
256,192,405326,1,0,0:0:0:0:
256,192,405518,1,2,0:0:0:0:
256,192,405710,1,0,0:0:0:0:
256,192,405903,1,2,0:0:0:0:
256,192,405999,1,2,0:0:0:0:
256,192,406095,1,2,0:0:0:0:
256,192,406191,1,2,0:0:0:0:
256,192,406287,1,0,0:0:0:0:
256,192,406480,1,0,0:0:0:0:
256,192,406672,1,0,0:0:0:0:
256,192,407057,1,2,0:0:0:0:
256,192,407249,1,0,0:0:0:0:
256,192,407441,1,0,0:0:0:0:
256,192,407826,1,2,0:0:0:0:
256,192,408018,1,0,0:0:0:0:
256,192,408210,1,0,0:0:0:0:
256,192,408595,1,0,0:0:0:0:
256,192,408787,1,0,0:0:0:0:
256,192,408980,1,0,0:0:0:0:
256,192,409364,1,2,0:0:0:0:
256,192,409557,1,0,0:0:0:0:
256,192,409749,1,0,0:0:0:0:
256,192,410133,1,0,0:0:0:0:
256,192,410326,1,0,0:0:0:0:
256,192,410518,1,0,0:0:0:0:
256,192,410903,1,2,0:0:0:0:
256,192,411095,1,0,0:0:0:0:
256,192,411287,1,0,0:0:0:0:
256,192,411672,1,2,0:0:0:0:
256,192,411864,1,0,0:0:0:0:
256,192,412057,1,0,0:0:0:0:
256,192,412153,1,0,0:0:0:0:
256,192,412249,1,0,0:0:0:0:
256,192,412345,1,0,0:0:0:0:
256,192,412441,1,0,0:0:0:0:
256,192,412633,1,0,0:0:0:0:
256,192,412826,1,0,0:0:0:0:
256,192,413210,1,2,0:0:0:0:
256,192,413403,1,0,0:0:0:0:
256,192,413595,1,0,0:0:0:0:
256,192,413980,1,2,0:0:0:0:
256,192,414172,1,0,0:0:0:0:
256,192,414364,1,0,0:0:0:0:
256,192,414749,1,0,0:0:0:0:
256,192,414941,1,0,0:0:0:0:
256,192,415133,1,0,0:0:0:0:
256,192,415518,1,2,0:0:0:0:
256,192,415710,1,0,0:0:0:0:
256,192,415903,1,0,0:0:0:0:
256,192,416287,1,0,0:0:0:0:
256,192,416480,1,0,0:0:0:0:
256,192,416672,1,0,0:0:0:0:
256,192,417057,1,2,0:0:0:0:
256,192,417249,1,0,0:0:0:0:
256,192,417441,1,0,0:0:0:0:
256,192,417826,1,2,0:0:0:0:
256,192,418018,1,0,0:0:0:0:
256,192,418210,1,2,0:0:0:0:
256,192,418307,1,2,0:0:0:0:
256,192,418403,1,2,0:0:0:0:
256,192,418499,1,2,0:0:0:0:
256,192,418595,1,0,0:0:0:0:
256,192,418787,1,0,0:0:0:0:
256,192,418980,1,0,0:0:0:0:
256,192,419364,1,2,0:0:0:0:
256,192,419557,1,0,0:0:0:0:
256,192,419749,1,0,0:0:0:0:
256,192,420133,1,2,0:0:0:0:
256,192,420326,1,0,0:0:0:0:
256,192,420518,1,0,0:0:0:0:
256,192,420903,1,0,0:0:0:0:
256,192,421095,1,0,0:0:0:0:
256,192,421287,1,0,0:0:0:0:
256,192,421672,1,2,0:0:0:0:
256,192,421864,1,0,0:0:0:0:
256,192,422057,1,0,0:0:0:0:
256,192,422441,1,0,0:0:0:0:
256,192,422633,1,0,0:0:0:0:
256,192,422826,1,0,0:0:0:0:
256,192,423210,1,2,0:0:0:0:
256,192,423403,1,0,0:0:0:0:
256,192,423595,1,0,0:0:0:0:
256,192,423980,1,0,0:0:0:0:
256,192,424172,1,0,0:0:0:0:
256,192,424364,1,0,0:0:0:0:
256,192,424749,1,2,0:0:0:0:
256,192,424941,1,0,0:0:0:0:
256,192,425133,1,0,0:0:0:0:
256,192,425518,1,2,0:0:0:0:
256,192,425710,1,0,0:0:0:0:
256,192,425903,1,0,0:0:0:0:
256,192,426287,1,2,0:0:0:0:
256,192,426480,1,0,0:0:0:0:
256,192,426672,1,0,0:0:0:0:
256,192,427057,1,0,0:0:0:0:
256,192,427249,1,0,0:0:0:0:
256,192,427441,1,0,0:0:0:0:
256,192,427826,5,2,0:0:0:0:
256,192,428018,1,0,0:0:0:0:
256,192,428210,1,0,0:0:0:0:
256,192,428595,1,0,0:0:0:0:
256,192,428787,1,0,0:0:0:0:
256,192,428980,1,0,0:0:0:0:
256,192,429364,5,2,0:0:0:0:
256,192,429557,1,0,0:0:0:0:
256,192,429749,1,0,0:0:0:0:
256,192,430133,1,2,0:0:0:0:
256,192,430518,6,0,L|424:195,1,120
256,192,430903,1,4,0:0:0:0:
