osu file format v14

[General]
AudioFilename: audio.mp3
AudioLeadIn: 0
PreviewTime: 122838
Countdown: 0
SampleSet: Normal
StackLeniency: 0.7
Mode: 1
LetterboxInBreaks: 0
WidescreenStoryboard: 1

[Editor]
Bookmarks: 37069,61684,73992,98607,123223,172453,197069,233998,257842,283227,295535,307842,320150,332458,381688
DistanceSpacing: 1
BeatDivisor: 8
GridSize: 32
TimelineZoom: 1.7

[Metadata]
Title:cherry blossoms explode across the dying horizon
TitleUnicode:cherry blossoms explode across the dying horizon
Artist:sakuraburst
ArtistUnicode:sakuraburst
Creator:-GN Junior
Version:inner oni
Source:osu!
Tags:sv featured artist deconstructing nature electronic ambient glitch idm noise orchestral neurofunk
BeatmapID:1956637
BeatmapSetID:878621

[Difficulty]
HPDrainRate:5.5
CircleSize:10
OverallDifficulty:6
ApproachRate:10
SliderMultiplier:1.4
SliderTickRate:1

[Events]
//Background and Video events
0,0,"cherry-blossom-689525_960_720.jpg",0,0
//Break Periods
2,62082,65471
//Storyboard Layer 0 (Background)
//Storyboard Layer 1 (Fail)
//Storyboard Layer 2 (Pass)
//Storyboard Layer 3 (Foreground)
//Storyboard Sound Samples

[TimingPoints]
538,384.615384615385,3,2,0,5,1,0
538,-200,3,2,0,5,0,0
912,-200,3,2,0,6,0,0
1297,-196.72131147541,3,2,0,8,0,0
1681,-193.548387096774,3,2,0,9,0,0
2066,-190.47619047619,3,2,0,11,0,0
2451,-187.5,3,2,0,12,0,0
2835,-184.615384615385,3,2,0,14,0,0
3220,-181.818181818182,3,2,0,15,0,0
3604,-179.10447761194,3,2,0,17,0,0
3989,-176.470588235294,3,2,0,18,0,0
4374,-173.913043478261,3,2,0,20,0,0
4758,-171.428571428571,3,2,0,21,0,0
5143,-169.014084507042,3,2,0,22,0,0
5528,-166.666666666667,3,2,0,24,0,0
5912,-164.383561643836,3,2,0,25,0,0
6297,-162.162162162162,3,2,0,27,0,0
6681,-160,3,2,0,28,0,0
7066,-157.894736842105,3,2,0,30,0,0
7451,-155.844155844156,3,2,0,31,0,0
7835,-153.846153846154,3,2,0,33,0,0
8220,-151.898734177215,3,2,0,34,0,0
8604,-150,3,2,0,35,0,0
8989,-148.148148148148,3,2,0,37,0,0
9374,-146.341463414634,3,2,0,38,0,0
9758,-144.578313253012,3,2,0,40,0,0
10143,-142.857142857143,3,2,0,41,0,0
10528,-141.176470588235,3,2,0,43,0,0
10912,-139.53488372093,3,2,0,44,0,0
11297,-137.931034482759,3,2,0,46,0,0
11681,-136.363636363636,3,2,0,47,0,0
12066,-134.831460674157,3,2,0,49,0,0
12451,-133.333333333333,3,1,0,30,0,0
15528,-137.931034482759,3,1,0,30,0,0
18604,-129.032258064516,3,1,0,40,0,0
24758,-125,3,1,0,50,0,0
25143,-131.578947368421,3,1,0,50,0,0
25912,-125,3,1,0,50,0,0
26297,-131.578947368421,3,1,0,50,0,0
27066,-125,3,1,0,50,0,0
27451,-131.578947368421,3,1,0,50,0,0
28220,-125,4,1,0,50,0,0
28604,-131.578947368421,4,1,0,50,0,0
29383,384.615384615385,4,1,0,50,1,0
29383,-125,4,1,0,50,0,0
29757,-128.205128205128,4,1,0,50,0,0
30142,-131.578947368421,4,1,0,50,0,0
30719,-125,4,1,0,50,0,0
30815,-128.205128205128,4,1,0,50,0,0
30921,384.615384615385,4,1,0,50,1,0
30921,-131.578947368421,4,1,0,50,0,0
31296,-138.888888888889,4,1,0,40,0,0
32065,-147.058823529412,4,1,0,35,0,0
32834,-156.25,4,1,0,30,0,0
33603,-166.666666666667,4,1,0,28,0,0
33796,-166.666666666667,4,2,0,5,0,0
33988,-153.846153846154,4,2,0,5,0,0
34373,-142.857142857143,4,2,0,15,0,0
34757,-133.333333333333,4,2,0,25,0,0
35142,-125,4,2,0,35,0,0
35526,-117.647058823529,4,2,0,45,0,0
35911,-111.111111111111,4,2,0,55,0,0
36296,-105.263157894737,4,2,0,65,0,0
36680,-100,4,2,0,75,0,0
37001,-111.111111111111,4,1,0,100,0,0
46488,-100,4,1,0,60,0,0
46680,-100.671140939597,4,1,0,59,0,0
46873,-101.351351351351,4,1,0,57,0,0
47065,-102.040816326531,4,1,0,56,0,0
47257,-102.739726027397,4,1,0,54,0,0
47449,-103.448275862069,4,1,0,53,0,0
47642,-104.166666666667,4,1,0,51,0,0
47834,-104.895104895105,4,1,0,50,0,0
48026,-105.633802816901,4,1,0,49,0,0
48219,-106.382978723404,4,1,0,47,0,0
48411,-107.142857142857,4,1,0,46,0,0
48603,-107.913669064748,4,1,0,44,0,0
48796,-108.695652173913,4,1,0,43,0,0
48988,-109.489051094891,4,1,0,41,0,0
49180,-110.294117647059,4,1,0,40,0,0
49373,-111.111111111111,4,1,0,100,0,0
50526,-125,4,1,0,100,0,0
50911,-123.595505617978,4,1,0,80,0,0
51296,-122.222222222222,4,1,0,82,0,0
51680,-120.879120879121,4,1,0,84,0,0
52065,-119.565217391304,4,1,0,86,0,0
52449,-118.279569892473,4,1,0,88,0,0
52834,-117.021276595745,4,1,0,90,0,0
53219,-115.789473684211,4,1,0,92,0,0
53603,-114.583333333333,4,1,0,94,0,0
53988,-113.40206185567,4,1,0,96,0,0
54373,-112.244897959184,4,1,0,98,0,0
54757,-111.111111111111,4,1,0,100,0,0
55334,-113.636363636364,4,1,0,95,0,0
55430,-116.279069767442,4,1,0,92,0,0
55526,-119.047619047619,4,1,0,90,0,0
57065,-129.87012987013,4,1,0,80,0,0
58603,-142.857142857143,4,1,0,70,0,0
58796,-142.857142857143,4,2,0,50,0,0
60142,-166.666666666667,4,2,0,50,0,0
61680,-62.5,4,1,0,100,0,0
62065,-62.5,4,1,0,5,0,0
63219,-133.333333333333,4,2,0,5,0,0
65911,-133.333333333333,4,2,0,5,0,0
66296,-133.333333333333,4,2,0,7,0,0
66680,-133.333333333333,4,2,0,9,0,0
67065,-133.333333333333,4,2,0,11,0,0
67449,-133.333333333333,4,2,0,13,0,0
67834,-133.333333333333,4,2,0,15,0,0
68219,-131.147540983607,4,2,0,18,0,0
68603,-129.032258064516,4,2,0,21,0,0
68988,-126.984126984127,4,2,0,24,0,0
69373,-125,4,2,0,28,0,0
69757,-123.076923076923,4,2,0,31,0,0
70142,-121.212121212121,4,2,0,34,0,0
70526,-119.402985074627,4,2,0,37,0,0
70911,-117.647058823529,4,2,0,40,0,0
71103,-114.503816793893,4,2,0,44,0,0
71296,-111.524163568773,4,2,0,47,0,0
71488,-108.695652173913,4,2,0,51,0,0
71680,-106.007067137809,4,2,0,55,0,0
71873,-103.448275862069,4,2,0,58,0,0
72065,-101.010101010101,4,2,0,62,0,0
72257,-98.6842105263158,4,2,0,66,0,0
72449,-96.4630225080386,4,2,0,69,0,0
72642,-94.3396226415094,4,2,0,73,0,0
72834,-92.3076923076923,4,2,0,77,0,0
73026,-90.3614457831325,4,2,0,80,0,0
73219,-88.495575221239,4,2,0,84,0,0
73411,-86.7052023121387,4,2,0,88,0,0
73603,-84.985835694051,4,2,0,91,0,0
73796,-83.3333333333333,4,2,0,95,0,0
73997,-66.6666666666667,4,1,0,100,0,1
76296,-80,4,1,0,100,0,1
77074,-66.6666666666667,4,1,0,100,0,0
77834,-125,4,1,0,60,0,0
78603,-111.111111111111,4,1,0,60,0,0
79373,-100,4,1,0,60,0,0
80151,-66.6666666666667,4,1,0,100,0,1
82642,-80,4,1,0,100,0,1
83228,-66.6666666666667,4,1,0,100,0,0
83411,-66.6666666666667,4,1,0,5,0,0
83603,-80,4,1,0,11,0,0
83796,-81.25,4,1,0,17,0,0
83988,-82.5396825396825,4,1,0,23,0,0
84180,-83.8709677419355,4,1,0,29,0,0
84373,-89.6551724137931,4,1,0,35,0,0
84565,-88.135593220339,4,1,0,41,0,0
84757,-86.6666666666667,4,1,0,48,0,0
84949,-85.2459016393443,4,1,0,54,0,0
85142,-91.2280701754386,4,1,0,60,0,0
85334,-92.8571428571429,4,1,0,66,0,0
85526,-94.5454545454545,4,1,0,72,0,0
85719,-96.2962962962963,4,1,0,78,0,0
85911,-98.1132075471698,4,1,0,84,0,0
86103,-100,4,1,0,90,0,0
86305,-66.6666666666667,4,1,0,100,0,1
88796,-80,4,1,0,100,0,1
89308,-74.0740740740741,4,1,0,100,0,1
89373,-71.4285714285714,4,1,0,100,0,1
89437,-69.7674418604651,4,1,0,100,0,1
89501,-68.1818181818182,4,1,0,100,0,1
89565,-66.6666666666667,4,1,0,100,0,1
89757,-76.9230769230769,4,1,0,100,0,1
89949,-76.9230769230769,4,1,0,100,0,1
90014,-80,4,1,0,100,0,1
90078,-83.3333333333333,4,1,0,100,0,1
90151,-86.9565217391304,4,1,0,60,0,0
90911,-111.111111111111,4,1,0,60,0,0
91680,-100,4,1,0,60,0,0
92065,-80,4,1,0,100,0,0
92257,-83.3333333333333,4,1,0,100,0,0
92449,-86.9565217391304,4,1,0,100,0,0
92642,-90.9090909090909,4,2,0,5,0,0
92834,-89.7435897435897,4,2,0,8,0,0
93026,-88.6075949367089,4,2,0,11,0,0
93219,-87.5,4,2,0,15,0,0
93411,-86.4197530864197,4,2,0,18,0,0
93603,-85.3658536585366,4,2,0,21,0,0
93796,-84.3373493975904,4,2,0,24,0,0
93988,-83.3333333333333,4,2,0,28,0,0
94180,-82.3529411764706,4,2,0,31,0,0
94373,-81.3953488372093,4,2,0,34,0,0
94565,-80.4597701149425,4,2,0,37,0,0
94757,-79.5454545454545,4,2,0,40,0,0
94949,-78.6516853932584,4,2,0,44,0,0
95142,-77.7777777777778,4,2,0,47,0,0
95334,-76.9230769230769,4,2,0,50,0,0
95536,-125,4,2,0,5,0,0
96258,-125,4,1,0,60,0,0
97065,-111.111111111111,4,1,0,70,0,0
97834,-100,4,1,0,80,0,0
98603,-74.0740740740741,4,1,0,100,0,0
99373,-100,4,2,0,70,0,0
110911,-100,4,1,0,75,0,0
111296,-98.7685536728074,4,1,0,75,0,0
111680,-97.5671627956895,4,1,0,76,0,0
112065,-96.3945544788284,4,1,0,76,0,0
112449,-95.2498880813815,4,1,0,76,0,0
113219,-93.0401328613097,4,1,0,77,0,0
113315,-92.7710910436933,4,1,0,77,0,0
113411,-92.5036007026573,4,1,0,77,0,0
113507,-92.2376484564952,4,1,0,78,0,0
113988,-90.9338910611985,4,1,0,78,0,0
114373,-89.7078216249675,4,1,0,78,0,0
114757,-88.5143747344569,4,1,0,78,0,0
115142,-87.3522654810052,4,1,0,79,0,0
115526,-86.2202755600007,4,1,0,79,0,0
115911,-85.117249010512,4,1,0,79,0,0
116296,-84.0420882778095,4,1,0,80,0,0
116680,-82.993750570582,4,1,0,80,0,0
116873,-81.9712444874338,4,1,0,80,0,0
116969,-80.973626889722,4,1,0,81,0,0
117065,-80,4,1,0,81,0,0
117257,-79.5180722891566,4,1,0,81,0,0
117449,-79.0419161676647,4,1,0,82,0,0
117642,-78.5714285714286,4,1,0,82,0,0
117834,-78.1065088757397,4,1,0,82,0,0
118026,-77.6470588235294,4,1,0,83,0,0
118219,-77.1929824561404,4,1,0,83,0,0
118411,-76.7441860465116,4,1,0,83,0,0
118603,-76.3005780346821,4,1,0,84,0,0
118796,-75.8620689655172,4,1,0,84,0,0
118988,-75.4285714285714,4,1,0,84,0,0
119180,-75,4,1,0,85,0,0
119373,-74.5762711864407,4,1,0,85,0,0
119565,-74.1573033707865,4,1,0,85,0,0
119661,-73.7430167597765,4,1,0,85,0,0
119757,-73.3333333333333,4,1,0,86,0,0
119949,-72.9281767955801,4,1,0,86,0,0
120142,-72.5274725274725,4,1,0,86,0,0
120238,-72.1311475409836,4,1,0,87,0,0
120334,-71.7391304347826,4,1,0,87,0,0
120430,-71.3513513513513,4,1,0,87,0,0
120526,-70.9677419354839,4,1,0,88,0,0
120623,-70.5882352941176,4,1,0,88,0,0
120719,-70.2127659574468,4,1,0,88,0,0
120815,-69.8412698412698,4,1,0,89,0,0
120911,-69.4736842105263,4,1,0,89,0,0
121007,-69.1099476439791,4,1,0,89,0,0
121103,-68.75,4,1,0,90,0,0
121199,-68.3937823834197,4,1,0,90,0,0
121296,-68.0412371134021,4,1,0,90,0,0
121392,-67.6923076923077,4,1,0,91,0,0
121488,-67.3469387755102,4,1,0,91,0,0
121584,-67.005076142132,4,1,0,91,0,0
121680,-66.6666666666667,4,1,0,92,0,0
121776,-67.9012345679012,4,1,0,92,0,0
121873,-69.1823899371069,4,1,0,92,0,0
121969,-70.5128205128205,4,1,0,92,0,0
122065,-71.8954248366013,4,1,0,93,0,0
122161,-73.3333333333333,4,1,0,93,0,0
122257,-74.8299319727891,4,1,0,93,0,0
122353,-76.3888888888889,4,1,0,94,0,0
122449,-78.0141843971631,4,1,0,94,0,0
122546,-79.7101449275362,4,1,0,94,0,0
122642,-81.4814814814815,4,1,0,95,0,0
122738,-83.3333333333333,4,1,0,95,0,0
122834,-66.6666666666667,4,1,0,100,0,0
123228,-57.1428571428571,4,1,0,100,0,1
123603,-66.6666666666667,4,1,0,100,0,1
125975,-68.0272108843537,4,1,0,100,0,1
126039,-69.4444444444444,4,1,0,100,0,1
126103,-70.9219858156028,4,1,0,100,0,1
126296,-57.1428571428571,4,1,0,100,0,1
126680,-66.6666666666667,4,1,0,100,0,1
129373,-57.1428571428571,4,1,0,100,0,1
129565,-61.5384615384615,4,1,0,100,0,1
129757,-66.6666666666667,4,1,0,100,0,1
130911,-57.1428571428571,4,1,0,100,0,1
131103,-66.6666666666667,4,1,0,100,0,1
132129,-68.0272108843537,4,1,0,100,0,1
132193,-69.4444444444444,4,1,0,100,0,1
132257,-70.9219858156028,4,1,0,100,0,1
132449,-57.1428571428571,4,1,0,100,0,1
132844,-62.5,4,1,0,100,0,1
132940,-63.4920634920635,4,1,0,100,0,1
133036,-64.5161290322581,4,1,0,100,0,1
133133,-62.5,4,1,0,100,0,1
133229,-63.2911392405063,4,1,0,100,0,1
133421,-65.5737704918033,4,1,0,100,0,1
133613,-62.5,4,1,0,100,0,1
133709,-63.4920634920635,4,1,0,100,0,1
133806,-64.5161290322581,4,1,0,100,0,1
133902,-62.5,4,1,0,100,0,1
133998,-63.4920634920635,4,1,0,100,0,1
134190,-65.5737704918033,4,1,0,100,0,1
134382,-62.5,4,1,0,100,0,1
134479,-63.4920634920635,4,1,0,100,0,1
134575,-64.5161290322581,4,1,0,100,0,1
134671,-62.5,4,1,0,100,0,1
134767,-63.4920634920635,4,1,0,100,0,1
134949,-66.6666666666667,4,1,0,100,0,1
135046,-68.4931506849315,4,1,0,100,0,1
135142,-70.4225352112676,4,1,0,100,0,1
135238,-72.463768115942,4,1,0,100,0,1
135334,-74.6268656716418,4,1,0,100,0,1
135430,-76.9230769230769,4,1,0,100,0,1
135911,-66.6666666666667,4,1,0,100,0,1
138283,-65.359477124183,4,1,0,100,0,1
138347,-64.1025641025641,4,1,0,100,0,1
138411,-62.8930817610063,4,1,0,100,0,1
138603,-57.1428571428571,4,1,0,100,0,1
138988,-66.6666666666667,4,1,0,100,0,1
140142,-57.1428571428571,4,1,0,100,0,1
140334,-66.6666666666667,4,1,0,100,0,1
140815,-64.5161290322581,4,1,0,100,0,1
140911,-62.8930817610063,4,1,0,100,0,1
140975,-61.1620795107034,4,1,0,100,0,1
141103,-59.5238095238095,4,1,0,100,0,1
141296,-61.3496932515337,4,1,0,100,0,1
141488,-63.2911392405063,4,1,0,100,0,1
141680,-57.1428571428571,4,1,0,100,0,1
141873,-61.5384615384615,4,1,0,100,0,1
142065,-66.6666666666667,4,1,0,100,0,1
143219,-57.1428571428571,4,1,0,100,0,1
143603,-66.6666666666667,4,1,0,100,0,1
144757,-57.1428571428571,4,1,0,100,0,1
145142,-62.5,4,1,0,100,0,1
145248,-63.4920634920635,4,1,0,100,0,1
145344,-64.5161290322581,4,1,0,100,0,1
145431,-62.5,4,1,0,100,0,1
145536,-63.4920634920635,4,1,0,100,0,1
145729,-65.5737704918033,4,1,0,100,0,1
145921,-62.5,4,1,0,100,0,1
146017,-63.4920634920635,4,1,0,100,0,1
146113,-64.5161290322581,4,1,0,100,0,1
146209,-62.5,4,1,0,100,0,1
146306,-63.4920634920635,4,1,0,100,0,1
146497,-65.5737704918033,4,1,0,100,0,1
146690,-62.5,4,1,0,100,0,1
146786,-63.4920634920635,4,1,0,100,0,1
146883,-64.5161290322581,4,1,0,100,0,1
146979,-62.5,4,1,0,100,0,1
147075,-63.4920634920635,4,1,0,100,0,1
147257,-67.7966101694915,4,1,0,100,0,1
147321,-69.4444444444444,4,1,0,100,0,1
147450,-71.4285714285714,4,1,0,100,0,1
147546,-73.5294117647059,4,1,0,100,0,1
147642,-75.7575757575758,4,1,0,100,0,1
147738,-78.125,4,1,0,100,0,1
147834,-57.1428571428571,4,1,0,100,0,1
148219,-68.0272108843537,4,1,0,100,0,1
148315,-69.4444444444444,4,1,0,100,0,1
148411,-70.9219858156028,4,1,0,100,0,1
148603,-66.6666666666667,4,1,0,100,0,1
149437,-65.359477124183,4,1,0,100,0,1
149501,-64.1025641025641,4,1,0,100,0,1
149565,-62.8930817610063,4,1,0,100,0,1
149757,-60.6060606060606,4,1,0,100,0,1
149853,-61.7283950617284,4,1,0,100,0,1
150142,-57.1428571428571,4,1,0,100,0,1
150430,-62.5,4,1,0,100,0,1
150526,-57.1428571428571,4,1,0,100,0,1
151296,-66.6666666666667,4,1,0,100,0,1
152642,-64.5161290322581,4,1,0,100,0,1
152930,-62.5,4,1,0,100,0,1
153219,-60.6060606060606,4,1,0,100,0,1
153603,-57.1428571428571,4,1,0,100,0,1
154276,-66.6666666666667,4,1,0,100,0,1
155590,-65.7894736842105,4,1,0,100,0,1
155655,-64.9350649350649,4,1,0,100,0,1
155719,-64.1025641025641,4,1,0,100,0,1
155911,-60.6060606060606,4,1,0,100,0,1
156007,-62.5,4,1,0,100,0,1
156296,-60.6060606060606,4,1,0,100,0,1
156584,-66.6666666666667,4,1,0,100,0,1
156680,-57.1428571428571,4,1,0,100,0,1
157449,-74.0740740740741,4,1,0,100,0,1
157642,-68.9655172413793,4,1,0,100,0,1
157844,-64.5161290322581,4,1,0,100,0,0
158026,-76.9230769230769,4,2,0,5,0,0
158219,-76.9230769230769,4,2,0,8,0,0
158411,-76.9230769230769,4,2,0,12,0,0
158603,-66.6666666666667,4,2,0,16,0,0
158796,-66.6666666666667,4,2,0,19,0,0
158988,-66.6666666666667,4,2,0,22,0,0
159180,-66.6666666666667,4,2,0,26,0,0
159373,-66.6666666666667,4,2,0,30,0,0
159565,-66.6666666666667,4,2,0,33,0,0
159757,-66.6666666666667,4,2,0,36,0,0
159949,-66.6666666666667,4,2,0,40,0,0
160151,-57.1428571428571,4,1,0,100,0,1
160526,-68.0272108843537,4,1,0,100,0,1
160623,-69.4444444444444,4,1,0,100,0,1
160719,-70.9219858156028,4,1,0,100,0,1
160911,-66.6666666666667,4,1,0,100,0,1
161745,-65.359477124183,4,1,0,100,0,1
161809,-64.1025641025641,4,1,0,100,0,1
161873,-62.8930817610063,4,1,0,100,0,1
162065,-60.6060606060606,4,1,0,100,0,1
162161,-61.7283950617284,4,1,0,100,0,1
162450,-57.1428571428571,4,1,0,100,0,1
162738,-62.5,4,1,0,100,0,1
162834,-57.1428571428571,4,1,0,100,0,1
163604,-66.6666666666667,4,1,0,100,0,1
164950,-64.5161290322581,4,1,0,100,0,1
165238,-62.5,4,1,0,100,0,1
165527,-60.6060606060606,4,1,0,100,0,1
165911,-57.1428571428571,4,1,0,100,0,1
166584,-66.6666666666667,4,1,0,100,0,1
167898,-65.7894736842105,4,1,0,100,0,1
167963,-64.9350649350649,4,1,0,100,0,1
168027,-64.1025641025641,4,1,0,100,0,1
168219,-60.6060606060606,4,1,0,100,0,1
168315,-62.5,4,1,0,100,0,1
168604,-60.6060606060606,4,1,0,100,0,1
168988,-57.1428571428571,4,1,0,100,0,1
169757,-74.0740740740741,4,1,0,100,0,1
169950,-68.9655172413793,4,1,0,100,0,1
170151,-64.5161290322581,4,1,0,100,0,0
170334,-71.4285714285714,4,2,0,5,0,0
170526,-75,4,2,0,5,0,0
170719,-78.9473684210526,4,2,0,5,0,0
170911,-83.3333333333333,4,2,0,5,0,0
171103,-84.8484848484848,4,2,0,10,0,0
171296,-86.4197530864198,4,2,0,15,0,0
171488,-88.0503144654088,4,2,0,20,0,0
171680,-89.7435897435897,4,2,0,25,0,0
171873,-91.5032679738562,4,2,0,30,0,0
172065,-93.3333333333333,4,2,0,35,0,0
172257,-95.2380952380952,4,2,0,40,0,0
172451,-100,4,1,0,85,0,0
175526,-76.9230769230769,4,1,0,85,0,0
175911,-100,4,1,0,85,0,0
177834,-94.3396226415094,4,2,0,85,0,0
177930,-96.1538461538461,4,2,0,85,0,0
178026,-98.0392156862745,4,2,0,85,0,0
178123,-100,4,2,0,85,0,0
178180,-102.040816326531,4,2,0,85,0,0
178373,-86.9565217391304,4,1,0,85,0,0
178603,-76.9230769230769,4,1,0,85,0,0
178988,-100,4,1,0,85,0,0
181680,-76.9230769230769,4,1,0,85,0,0
182065,-78.125,4,1,0,80,0,0
182257,-79.3650793650794,4,1,0,79,0,0
182449,-80.6451612903226,4,1,0,78,0,0
182642,-81.9672131147541,4,1,0,78,0,0
182834,-83.3333333333333,4,1,0,77,0,0
183026,-84.7457627118644,4,1,0,76,0,0
183219,-86.2068965517241,4,1,0,75,0,0
183411,-87.719298245614,4,1,0,75,0,0
183603,-89.2857142857143,4,1,0,74,0,0
183796,-90.9090909090909,4,1,0,73,0,0
183988,-92.5925925925926,4,1,0,72,0,0
184180,-94.3396226415094,4,1,0,72,0,0
184373,-96.1538461538461,4,1,0,71,0,0
184565,-98.0392156862745,4,1,0,70,0,0
184757,-100,4,1,0,85,0,0
194190,-86.9565217391304,4,1,0,85,0,0
194382,-89.1719404438444,4,1,0,83,0,0
194574,-91.5032799350693,4,1,0,81,0,0
194767,-93.9597063195419,4,1,0,79,0,0
195151,-99.2907660580474,4,1,0,77,0,0
195344,-102.189825776566,4,1,0,75,0,0
195536,-105.263157894737,4,1,0,73,0,0
195921,-112.000017920003,4,1,0,71,0,0
196113,-115.702441090102,4,1,0,69,0,0
196305,-119.658160566893,4,1,0,67,0,0
196497,-123.893783381631,4,1,0,65,0,0
196690,-128.440437673635,4,1,0,85,0,0
196882,-133.333333333333,4,1,0,85,0,0
197010,-142.857142857143,4,1,0,100,0,0
197257,-153.846153846154,4,2,0,5,0,0
198603,-200,4,2,0,5,0,0
214228,-200,4,2,0,15,0,0
214324,-200,4,2,0,5,0,0
223171,-200,4,2,0,15,0,0
223372,-200,4,2,0,5,0,0
232449,-181.818181818182,4,2,0,5,0,0
233933,-166.666666666667,4,1,0,50,0,0
234372,-165,4,1,0,50,0,8
234757,-164.179104477612,4,1,0,50,0,8
235141,-163.366336633663,4,1,0,50,0,8
235526,-162.56157635468,4,1,0,50,0,8
235911,-161.764705882353,4,1,0,50,0,8
236295,-160.975609756098,4,1,0,50,0,8
236680,-160.194174757282,4,1,0,50,0,8
237064,-159.420289855072,4,1,0,50,0,8
237449,-158.653846153846,4,1,0,50,0,8
237834,-157.894736842105,4,1,0,50,0,8
238218,-157.142857142857,4,1,0,50,0,8
238603,-156.398104265403,4,1,0,50,0,8
238987,-155.660377358491,4,1,0,50,0,8
239372,-154.929577464789,4,1,0,50,0,8
239757,-154.205607476636,4,1,0,50,0,8
240141,-153.488372093023,4,1,0,50,0,8
240526,-152.777777777778,4,1,0,50,0,8
240911,-152.073732718894,4,1,0,50,0,8
241295,-151.376146788991,4,1,0,50,0,8
241680,-150.684931506849,4,1,0,50,0,8
242064,-150,4,1,0,50,0,8
242449,-149.321266968326,4,1,0,50,0,8
242834,-148.648648648649,4,1,0,50,0,8
243218,-147.982062780269,4,1,0,50,0,8
243603,-147.321428571429,4,1,0,50,0,8
243987,-146.666666666667,4,1,0,50,0,8
244372,-146.017699115044,4,1,0,50,0,8
244757,-145.374449339207,4,1,0,50,0,8
245141,-144.736842105263,4,1,0,50,0,8
245526,-144.10480349345,4,1,0,50,0,8
245911,-143.478260869565,4,1,0,50,0,8
246295,-142.857142857143,3,1,0,50,0,0
246679,-142.480181006822,3,1,0,50,0,0
247064,-142.105203324125,3,1,0,50,0,0
247448,-141.732194184445,3,1,0,50,0,0
247833,-141.361337956791,3,1,0,50,0,0
248218,-140.992218639453,3,1,0,50,0,0
248602,-140.62502197266,3,1,0,50,0,0
248987,-140.25973297352,3,1,0,50,0,0
249371,-139.896336814421,3,1,0,50,0,0
249756,-139.534818821014,3,1,0,50,0,0
250141,-139.175164470251,3,1,0,50,0,0
250525,-138.817552091286,3,1,0,50,0,0
250910,-138.461581065102,3,1,0,50,0,0
251295,-138.107431008433,3,1,0,50,0,0
251679,-137.755087984175,3,1,0,50,0,0
252064,-137.404538197088,3,1,0,50,0,0
252448,-137.055767991996,3,1,0,50,0,0
252833,-136.708950745132,3,1,0,50,0,0
253218,-136.363698347136,3,1,0,50,0,0
253602,-136.020185395513,3,1,0,50,0,0
253987,-135.678398777809,3,1,0,50,0,0
254371,-135.338325513034,3,1,0,50,0,0
254756,-134.999952750017,3,1,0,50,0,0
255141,-134.663267765788,3,1,0,50,0,0
255525,-134.328438405038,3,1,0,50,0,0
255909,-133.995090419887,3,1,0,50,0,0
256294,-133.663392804632,3,1,0,50,0,0
256678,-133.333333333333,3,1,0,50,0,0
257063,-117.647058823529,4,1,0,75,0,0
257832,-133.333333333333,4,1,0,75,0,0
270525,-125,4,1,0,75,0,0
270909,-117.647058823529,4,1,0,75,0,0
280140,-117.647058823529,4,1,0,75,0,0
280332,-116.366886173403,4,1,0,75,0,0
280717,-113.888471297827,4,1,0,75,0,0
280909,-112.688372701016,4,1,0,75,0,0
281101,-111.513426774151,4,1,0,75,0,0
281198,-110.934971029332,4,1,0,75,0,0
281294,-110.362607382817,4,1,0,75,0,0
281486,-109.235298294291,4,1,0,75,0,0
281678,-108.1309032715,4,1,0,75,0,0
281871,-107.048501535076,4,1,0,75,0,0
281967,-106.515443141524,4,1,0,75,0,0
282063,-105.987667275036,4,1,0,75,0,0
282159,-105.464984570473,4,1,0,75,0,0
282255,-104.947541971146,4,1,0,75,0,0
282448,-103.927633110512,4,1,0,75,0,0
282544,-103.425130031245,4,1,0,75,0,0
282640,-102.927462899796,4,1,0,75,0,0
282736,-102.434457312489,4,1,0,75,0,0
282832,-101.946255972776,4,1,0,75,0,0
282928,-101.462686082566,4,1,0,75,0,0
283025,-100.983580069881,4,1,0,75,0,0
283089,-100.745821315196,4,1,0,75,0,0
283153,-100.273445686387,4,1,0,75,0,0
283217,-95.2380952380952,4,2,0,100,0,0
283531,-100,4,1,0,100,0,0
284371,-95.2380952380952,4,2,0,100,0,0
284685,-100,4,1,0,100,0,0
285525,-95.2380952380952,4,2,0,100,0,0
285839,-100,4,1,0,100,0,0
286294,-95.2380952380952,4,2,0,100,0,0
286608,-100,4,1,0,100,0,0
287448,-95.2380952380952,4,2,0,100,0,0
287762,-100,4,1,0,100,0,0
288601,-95.2380952380952,4,2,0,100,0,0
288916,-100,4,1,0,100,0,0
289371,-95.2380952380952,4,2,0,100,0,0
289685,-100,4,1,0,100,0,0
290525,-95.2380952380952,4,2,0,100,0,0
290839,-100,4,1,0,100,0,0
291678,-95.2380952380952,4,2,0,100,0,0
291993,-100,4,1,0,100,0,0
292448,-95.2380952380952,4,2,0,100,0,0
292762,-100,4,1,0,100,0,0
293601,-95.2380952380952,4,2,0,100,0,0
293916,-100,4,1,0,100,0,0
294755,-95.2380952380952,4,2,0,100,0,0
295070,-100,4,1,0,100,0,0
295525,-86.9565217391304,4,2,0,100,0,0
295839,-95.2380952380952,4,1,0,100,0,0
296678,-86.9565217391304,4,2,0,100,0,0
296993,-95.2380952380952,4,1,0,100,0,0
297832,-86.9565217391304,4,2,0,100,0,0
298147,-95.2380952380952,4,1,0,100,0,0
298601,-86.9565217391304,4,2,0,100,0,0
298916,-95.2380952380952,4,1,0,100,0,0
299755,-86.9565217391304,4,2,0,100,0,0
300070,-95.2380952380952,4,1,0,100,0,0
300909,-86.9565217391304,4,2,0,100,0,0
301224,-95.2380952380952,4,1,0,100,0,0
301678,-86.9565217391304,4,2,0,100,0,0
301993,-95.2380952380952,4,1,0,100,0,0
302832,-86.9565217391304,4,2,0,100,0,0
303147,-95.2380952380952,4,1,0,100,0,0
303986,-86.9565217391304,4,2,0,100,0,0
304301,-95.2380952380952,4,1,0,100,0,0
304755,-86.9565217391304,4,2,0,100,0,0
305070,-95.2380952380952,4,1,0,100,0,0
305909,-86.9565217391304,4,2,0,100,0,0
306224,-95.2380952380952,4,1,0,100,0,0
307063,-86.9565217391304,4,2,0,100,0,0
307378,-95.2380952380952,4,1,0,100,0,0
307832,-80,4,2,0,100,0,0
307955,-86.9565217391304,4,1,0,100,0,0
308986,-80,4,2,0,100,0,0
309301,-86.9565217391304,4,1,0,100,0,0
310140,-80,4,2,0,100,0,0
310455,-86.9565217391304,4,1,0,100,0,0
310909,-80,4,2,0,100,0,0
311224,-86.9565217391304,4,1,0,100,0,0
312063,-80,4,2,0,100,0,0
312378,-86.9565217391304,4,1,0,100,0,0
313217,-80,4,2,0,100,0,0
313531,-86.9565217391304,4,1,0,100,0,0
313986,-80,4,2,0,100,0,0
314301,-86.9565217391304,4,1,0,100,0,0
315140,-80,4,2,0,100,0,0
315455,-86.9565217391304,4,1,0,100,0,0
316294,-80,4,2,0,100,0,0
316608,-86.9565217391304,4,1,0,100,0,0
317063,-80,4,2,0,100,0,0
317378,-86.9565217391304,4,1,0,100,0,0
318217,-80,4,2,0,100,0,0
318531,-86.9565217391304,4,1,0,100,0,0
319371,-80,4,2,0,100,0,0
319685,-86.9565217391304,4,1,0,100,0,0
319851,-85.1063829787234,4,1,0,100,0,0
319948,-83.3333333333333,4,1,0,100,0,0
320012,-81.9672131147541,4,1,0,100,0,0
320076,-80.8080808080808,4,1,0,100,0,0
320332,-83.2251406504877,4,1,0,100,0,0
320525,-83.1171594544522,4,1,0,100,0,0
320717,-83.0095270034142,4,1,0,100,0,0
320813,-82.9557464275108,4,1,0,100,0,0
320909,-82.9021042212093,4,1,0,100,0,0
321101,-82.7950276618187,4,1,0,100,0,0
321198,-82.7415245787836,4,1,0,100,0,0
321294,-82.6881589729469,4,1,0,100,0,0
321678,-82.4753151381792,4,1,0,100,0,0
321871,-82.3693375198922,4,1,0,100,0,0
322063,-82.2635642334475,4,1,0,100,0,0
322159,-82.2108131882587,4,1,0,100,0,0
322255,-82.1581297523343,4,1,0,100,0,0
322351,-82.1055137957789,4,1,0,100,0,0
322448,-82.0528978621938,4,1,0,100,0,0
322640,-81.9480023535466,4,1,0,100,0,0
322736,-81.8956551079139,4,1,0,100,0,0
322832,-81.8433077136499,4,1,0,100,0,0
322928,-81.7910940949284,4,1,0,100,0,0
323025,-81.7389470552318,4,1,0,100,0,0
323089,-81.7128984627352,4,1,0,100,0,0
323153,-81.6868664672963,4,1,0,100,0,0
323217,-81.6348522041818,4,1,0,100,0,0
323409,-81.53095567325,4,1,0,100,0,0
323601,-81.4273895681743,4,1,0,100,0,0
323794,-81.3240201065507,4,1,0,100,0,0
323890,-81.2724667575293,4,1,0,100,0,0
323986,-81.2209787290379,4,1,0,100,0,0
324082,-81.1694900120943,4,1,0,100,0,0
324178,-81.1181323361211,4,1,0,100,0,0
324275,-81.0668396092578,4,1,0,100,0,0
324371,-81.0156117083762,4,1,0,100,0,0
324755,-80.8112806082827,4,1,0,100,0,0
324851,-80.760375083486,4,1,0,100,0,0
324948,-80.709468512008,4,1,0,100,0,0
325140,-80.6079776103281,4,1,0,100,0,0
325236,-80.5573278167675,4,1,0,100,0,0
325332,-80.5066768212422,4,1,0,100,0,0
325428,-80.4561542119199,4,1,0,100,0,0
325525,-80.4056949745637,4,1,0,100,0,0
325717,-80.3049016505869,4,1,0,100,0,0
325813,-80.2546318960799,4,1,0,100,0,0
325909,-80.2044250385382,4,1,0,100,0,0
326005,-80.1542809599918,4,1,0,100,0,0
326101,-80.1041353759888,4,1,0,100,0,0
326166,-80.05411658281,4,1,0,100,0,0
326230,-80.0291306035397,4,1,0,100,0,0
326294,-80,4,1,0,100,0,0
326486,-79.3650793650794,4,1,0,100,0,0
326678,-78.7401574803149,4,1,0,100,0,0
326871,-78.125,4,1,0,100,0,0
327063,-77.5193798449612,4,1,0,100,0,0
327255,-76.9230769230769,4,1,0,100,0,0
327351,-76.6283524904215,4,1,0,100,0,0
327448,-76.3358778625954,4,1,0,100,0,0
327544,-76.0456273764259,4,1,0,100,0,0
327640,-75.7575757575758,4,1,0,100,0,0
327832,-75.187969924812,4,1,0,100,0,0
328025,-74.6268656716418,4,1,0,100,0,0
328217,-74.0740740740741,4,1,0,100,0,0
328409,-73.5294117647059,4,1,0,100,0,0
328601,-72.992700729927,4,1,0,100,0,0
328794,-72.463768115942,4,1,0,100,0,0
328890,-72.202166064982,4,1,0,100,0,0
328986,-71.9424460431655,4,1,0,100,0,0
329082,-71.6845878136201,4,1,0,100,0,0
329178,-71.4285714285714,4,1,0,100,0,0
329275,-71.2589073634204,4,1,0,100,0,0
329371,-71.0900473933649,4,1,0,100,0,0
329467,-70.9219858156028,4,1,0,100,0,0
329563,-70.4225352112676,4,1,0,100,0,0
329659,-69.9300699300699,4,1,0,100,0,0
329755,-69.4444444444444,4,1,0,100,0,0
329851,-68.9655172413793,4,1,0,100,0,0
329948,-68.4931506849315,4,1,0,100,0,0
330044,-68.0272108843537,4,1,0,100,0,0
330140,-67.5675675675676,4,1,0,100,0,0
330236,-67.1140939597315,4,1,0,100,0,0
330332,-66.6666666666667,4,1,0,100,0,0
330428,-66.2251655629139,4,1,0,100,0,0
330525,-65.7894736842105,4,1,0,100,0,0
330621,-65.359477124183,4,1,0,100,0,0
330717,-64.9350649350649,4,1,0,100,0,0
330813,-64.5161290322581,4,1,0,100,0,0
330909,-64.1025641025641,4,1,0,100,0,0
331005,-63.6942675159236,4,1,0,100,0,0
331101,-63.2911392405063,4,1,0,100,0,0
331198,-62.8930817610063,4,1,0,100,0,0
331294,-62.5,4,1,0,100,0,0
331390,-62.111801242236,4,1,0,100,0,0
331486,-61.7283950617284,4,1,0,100,0,0
331582,-61.3496932515337,4,1,0,100,0,0
331678,-60.9756097560976,4,1,0,100,0,0
331742,-62.111801242236,4,1,0,100,0,0
331807,-63.2911392405063,4,1,0,100,0,0
331871,-64.9350649350649,4,1,0,100,0,0
331935,-66.6666666666667,4,1,0,100,0,0
331999,-68.4931506849315,4,1,0,100,0,0
332063,-70.9219858156028,4,1,0,100,0,0
332127,-73.5294117647059,4,1,0,100,0,0
332191,-76.3358778625954,4,1,0,100,0,0
332255,-80,4,1,0,100,0,0
332459,-57.1428571428571,4,1,0,100,0,1
333025,-53.3333333333333,4,1,0,100,0,1
333601,-57.1428571428571,4,1,0,100,0,1
334178,-50,4,1,0,100,0,1
334755,-57.1428571428571,4,1,0,100,0,1
334819,-58.3090379008746,4,1,0,100,0,1
334948,-59.7014925373134,4,1,0,100,0,1
335140,-60.6060606060606,4,1,0,100,0,1
335525,-57.1428571428571,4,1,0,100,0,1
336101,-53.3333333333333,4,1,0,100,0,1
336678,-57.1428571428571,4,1,0,100,0,1
337255,-50,4,1,0,100,0,1
337832,-57.1428571428571,4,1,0,100,0,1
337896,-58.3090379008746,4,1,0,100,0,1
338025,-59.7014925373134,4,1,0,100,0,1
338217,-60.6060606060606,4,1,0,100,0,1
338613,-74.0740740740741,4,1,0,33,0,0
338707,-76.9230769230769,4,1,0,33,0,0
338803,-80,4,1,0,33,0,0
338899,-83.3333333333333,4,1,0,33,0,0
338996,-86.9565217391304,4,1,0,33,0,0
339092,-90.9090909090909,4,1,0,33,0,0
339190,-53.3333333333333,4,1,0,100,0,1
339755,-57.1428571428571,4,1,0,100,0,1
340332,-50,4,1,0,100,0,1
340909,-57.1428571428571,4,1,0,100,0,1
340973,-58.3090379008746,4,1,0,100,0,1
341101,-59.7014925373134,4,1,0,100,0,1
341294,-60.6060606060606,4,1,0,100,0,1
341678,-57.1428571428571,4,1,0,100,0,1
342255,-62.5,4,1,0,100,0,1
342832,-57.1428571428571,4,1,0,100,0,1
343409,-50,4,1,0,100,0,1
343986,-58.3090379008746,4,1,0,100,0,1
344094,-58.8235294117647,4,1,0,100,0,1
344178,-59.7014925373134,4,1,0,100,0,1
344371,-60.6060606060606,4,1,0,100,0,1
344755,-58.8235294117647,4,1,0,100,0,1
345332,-53.3333333333333,4,1,0,100,0,1
345909,-57.1428571428571,4,1,0,100,0,1
346486,-50,4,1,0,100,0,1
347063,-57.1428571428571,4,1,0,100,0,1
347127,-58.3090379008746,4,1,0,100,0,1
347255,-59.7014925373134,4,1,0,100,0,1
347448,-60.6060606060606,4,1,0,100,0,1
347832,-57.1428571428571,4,1,0,100,0,1
348409,-53.3333333333333,4,1,0,100,0,1
348986,-57.1428571428571,4,1,0,100,0,1
349563,-50,4,1,0,100,0,1
350140,-57.1428571428571,4,1,0,100,0,1
350204,-58.3090379008746,4,1,0,100,0,1
350332,-59.7014925373134,4,1,0,100,0,1
350525,-60.6060606060606,4,1,0,100,0,1
350921,-74.0740740740741,4,1,0,33,0,0
351017,-76.9230769230769,4,1,0,33,0,0
351113,-80,4,1,0,33,0,0
351209,-83.3333333333333,4,1,0,33,0,0
351305,-86.9565217391304,4,1,0,33,0,0
351401,-90.9090909090909,4,1,0,33,0,0
351497,-53.3333333333333,4,1,0,100,0,1
352063,-57.1428571428571,4,1,0,100,0,1
352640,-50,4,1,0,100,0,1
353217,-57.1428571428571,4,1,0,100,0,1
353281,-58.3090379008746,4,1,0,100,0,1
353409,-59.7014925373134,4,1,0,100,0,1
353601,-60.6060606060606,4,1,0,100,0,1
353986,-57.1428571428571,4,1,0,100,0,1
354563,-53.3333333333333,4,1,0,100,0,1
355140,-57.1428571428571,4,1,0,100,0,1
355717,-50,4,1,0,100,0,1
356305,-66.6666666666667,4,1,0,100,0,0
356678,-74.0740740740741,4,1,0,100,0,0
356786,-78.3289817232376,4,1,0,100,0,0
356882,-82.4175824175824,4,1,0,100,0,0
356978,-86.5892328020795,4,1,0,100,0,0
357074,-57.1428571428571,4,1,0,100,0,1
357448,-64.5161290322581,4,1,0,100,0,1
357640,-53.3333333333333,4,1,0,100,0,1
358025,-64.5161290322581,4,1,0,100,0,1
358217,-57.1428571428571,4,1,0,100,0,1
358601,-64.5161290322581,4,1,0,100,0,1
358794,-50,4,1,0,100,0,1
359178,-64.5161290322581,4,1,0,100,0,1
359371,-57.1428571428571,4,1,0,100,0,1
359563,-64.5161290322581,4,1,0,100,0,1
359755,-60.6060606060606,4,1,0,100,0,1
359948,-64.5161290322581,4,1,0,100,0,1
360140,-57.1428571428571,4,1,0,100,0,1
360525,-64.5161290322581,4,1,0,100,0,1
360717,-53.3333333333333,4,1,0,100,0,1
361101,-64.5161290322581,4,1,0,100,0,1
361294,-57.1428571428571,4,1,0,100,0,1
361678,-64.5161290322581,4,1,0,100,0,1
361871,-50,4,1,0,100,0,1
362255,-64.5161290322581,4,1,0,100,0,1
362448,-57.1428571428571,4,1,0,100,0,1
362832,-64.5161290322581,4,1,0,100,0,1
362928,-66.6666666666667,4,1,0,100,0,1
363025,-68.9655172413793,4,1,0,100,0,1
363121,-71.4285714285714,4,1,0,100,0,1
363228,-74.0740740740741,4,1,0,100,0,0
363409,-76.9230769230769,4,1,0,100,0,0
363457,-78.125,4,1,0,100,0,0
363601,-80,4,1,0,100,0,0
363650,-81.3008130081301,4,1,0,100,0,0
363805,-54.054054054054,4,1,0,100,0,1
364178,-64.5161290322581,4,1,0,100,0,1
364371,-57.1428571428571,4,1,0,100,0,1
364755,-64.5161290322581,4,1,0,100,0,1
364948,-50,4,1,0,100,0,1
365332,-64.5161290322581,4,1,0,100,0,1
365525,-57.1428571428571,4,1,0,100,0,1
365717,-64.5161290322581,4,1,0,100,0,1
365909,-60.6060606060606,4,1,0,100,0,1
366101,-64.5161290322581,4,1,0,100,0,1
366294,-57.1428571428571,4,1,0,100,0,1
366678,-64.5161290322581,4,1,0,100,0,1
366871,-62.5,4,1,0,100,0,1
367255,-64.5161290322581,4,1,0,100,0,1
367448,-57.1428571428571,4,1,0,100,0,1
367832,-64.5161290322581,4,1,0,100,0,1
368025,-50,4,1,0,100,0,1
368409,-64.5161290322581,4,1,0,100,0,1
368601,-57.1428571428571,4,1,0,100,0,1
368986,-60.6060606060606,4,1,0,100,0,1
369382,-83.3333333333333,4,1,0,100,0,0
369563,-80,4,1,0,100,0,0
369755,-76.9230769230769,4,1,0,100,0,0
369959,-54.054054054054,4,1,0,100,0,1
370332,-64.5161290322581,4,1,0,100,0,1
370525,-57.1428571428571,4,1,0,100,0,1
370909,-64.5161290322581,4,1,0,100,0,1
371101,-50,4,1,0,100,0,1
371486,-64.5161290322581,4,1,0,100,0,1
371678,-57.1428571428571,4,1,0,100,0,1
371871,-64.5161290322581,4,1,0,100,0,1
372063,-60.6060606060606,4,1,0,100,0,1
372255,-64.5161290322581,4,1,0,100,0,1
372448,-57.1428571428571,4,1,0,100,0,1
372832,-64.5161290322581,4,1,0,100,0,1
373025,-54.054054054054,4,1,0,100,0,1
373409,-64.5161290322581,4,1,0,100,0,1
373601,-57.1428571428571,4,1,0,100,0,1
373986,-64.5161290322581,4,1,0,100,0,1
374178,-50,4,1,0,100,0,1
374563,-64.5161290322581,4,1,0,100,0,1
374755,-57.1428571428571,4,1,0,100,0,1
375140,-64.5161290322581,4,1,0,100,0,1
375236,-66.6666666666667,4,1,0,100,0,1
375332,-68.9655172413793,4,1,0,100,0,1
375428,-71.4285714285714,4,1,0,100,0,1
375536,-74.0740740740741,4,1,0,100,0,0
375589,-76.9230769230769,4,1,0,100,0,0
375717,-80,4,1,0,100,0,0
375813,-83.3333333333333,4,1,0,100,0,0
375909,-71.4285714285714,4,1,0,100,0,0
376101,-68.9655172413793,4,1,0,100,0,0
376305,-66.6666666666667,4,1,0,100,0,1
377448,-64.5161290322581,4,1,0,100,0,1
377640,-66.6666666666667,4,1,0,100,0,1
378025,-64.5161290322581,4,1,0,100,0,1
378217,-66.6666666666667,4,1,0,100,0,1
378409,-68.9655172413793,4,1,0,100,0,1
378505,-67.7966101694915,4,1,0,100,0,1
378601,-66.6666666666667,4,1,0,100,0,1
378890,-64.5161290322581,4,1,0,100,0,1
379082,-66.6666666666667,4,1,0,100,0,1
379178,-65.7894736842105,4,1,0,100,0,1
379467,-64.5161290322581,4,1,0,100,0,1
379659,-66.6666666666667,4,1,0,100,0,1
379755,-65.7894736842105,4,1,0,100,0,1
380044,-64.5161290322581,4,1,0,100,0,1
380140,-65.5737704918033,4,1,0,100,0,1
380236,-65.9340659340659,4,1,0,100,0,1
380332,-66.6666666666667,4,1,0,100,0,1
380621,-64.5161290322581,4,1,0,100,0,1
380717,-65.2173913043478,4,1,0,100,0,1
380813,-65.9340659340659,4,1,0,100,0,1
380909,-66.6666666666667,4,1,0,100,0,1
381101,-64.5161290322581,4,1,0,100,0,1
381198,-61.5384615384615,4,1,0,100,0,1
381294,-58.8235294117647,4,1,0,100,0,1
381390,-56.3380281690141,4,1,0,100,0,1
381486,-54.054054054054,4,1,0,100,0,1
381582,-51.9480519480519,4,1,0,100,0,1
381690,-47.6190476190476,4,1,0,100,0,0
382063,-111.111111111111,4,2,0,65,0,0
393698,-114.285714285714,4,2,0,65,0,0
393794,-117.647058823529,4,2,0,65,0,0
393890,-121.212121212121,4,2,0,65,0,0
393986,-125,4,2,0,65,0,0
405717,-133.333333333333,4,2,0,65,0,0
405909,-142.857142857143,4,2,0,65,0,0
406005,-148.148148148148,4,2,0,65,0,0
406101,-153.846153846154,4,2,0,65,0,0
406198,-160,4,2,0,65,0,0
406294,-166.666666666667,4,2,0,65,0,0
429371,-200,4,2,0,65,0,0
430140,-222.222222222222,4,2,0,65,0,0
430525,-142.857142857143,4,2,0,65,0,0
430632,-148.148148148148,4,2,0,65,0,0
430728,-153.846153846154,4,2,0,65,0,0
430909,-100,4,2,0,80,0,0
431017,-100,4,2,0,20,0,0

[HitObjects]
256,192,922,5,2,0:0:0:0:
256,192,1307,1,0,0:0:0:0:
256,192,2076,1,2,0:0:0:0:
256,192,2461,1,0,0:0:0:0:
256,192,3230,1,2,0:0:0:0:
256,192,3614,1,0,0:0:0:0:
256,192,4384,1,2,0:0:0:0:
256,192,4768,1,0,0:0:0:0:
256,192,5538,1,2,0:0:0:0:
256,192,5922,1,0,0:0:0:0:
256,192,6691,1,2,0:0:0:0:
256,192,7076,1,0,0:0:0:0:
256,192,7845,1,2,0:0:0:0:
256,192,8230,1,2,0:0:0:0:
256,192,8614,1,0,0:0:0:0:
256,192,8999,1,2,0:0:0:0:
256,192,9384,1,2,0:0:0:0:
256,192,9768,1,0,0:0:0:0:
256,192,10153,1,2,0:0:0:0:
256,192,10538,1,2,0:0:0:0:
256,192,10922,1,0,0:0:0:0:
256,192,11307,1,2,0:0:0:0:
256,192,11691,1,2,0:0:0:0:
256,192,12076,1,0,0:0:0:0:
256,192,12461,2,0,L|368:192,7,105.000004005432
256,192,15538,2,0,L|368:192,7,101.500003097534
256,192,18614,2,0,L|368:192,15,108.500000827789
256,192,24768,1,2,0:0:0:0:
256,192,25153,1,0,0:0:0:0:
256,192,25922,1,2,0:0:0:0:
256,192,26307,1,0,0:0:0:0:
256,192,27076,1,2,0:0:0:0:
256,192,27461,1,0,0:0:0:0:
256,192,28230,1,2,0:0:0:0:
256,192,28614,1,0,0:0:0:0:
256,192,29383,1,2,0:0:0:0:
256,192,29767,1,0,0:0:0:0:
256,192,30152,1,2,0:0:0:0:
256,192,30729,1,2,0:0:0:0:
256,192,30825,1,2,0:0:0:0:
256,192,30921,1,2,0:0:0:0:
256,192,31305,1,0,0:0:0:0:
256,192,32074,1,0,0:0:0:0:
256,192,32844,1,0,0:0:0:0:
256,192,33613,1,0,0:0:0:0:
256,192,33805,12,0,36690,0:0:0:0:
256,192,37074,5,2,0:0:0:0:
256,192,37459,1,0,0:0:0:0:
256,192,37844,1,6,0:0:0:0:
256,192,39382,1,0,0:0:0:0:
256,192,40921,1,0,0:0:0:0:
256,192,41690,1,2,0:0:0:0:
256,192,42459,1,0,0:0:0:0:
256,192,43228,1,2,0:0:0:0:
256,192,43613,1,0,0:0:0:0:
256,192,43997,1,6,0:0:0:0:
256,192,46497,1,2,0:0:0:0:
256,192,46690,1,2,0:0:0:0:
256,192,47074,1,0,0:0:0:0:
256,192,47459,1,2,0:0:0:0:
256,192,47844,1,2,0:0:0:0:
256,192,48036,1,0,0:0:0:0:
256,192,48228,1,2,0:0:0:0:
256,192,48613,1,2,0:0:0:0:
256,192,48805,1,0,0:0:0:0:
256,192,48997,1,2,0:0:0:0:
256,192,49382,1,2,0:0:0:0:
256,192,49767,1,0,0:0:0:0:
256,192,50151,1,6,0:0:0:0:
256,192,51305,1,0,0:0:0:0:
256,192,51690,1,2,0:0:0:0:
256,192,52459,1,0,0:0:0:0:
256,192,52844,1,0,0:0:0:0:
256,192,53228,1,2,0:0:0:0:
256,192,53997,1,0,0:0:0:0:
256,192,54382,1,2,0:0:0:0:
256,192,54767,1,0,0:0:0:0:
256,192,55344,1,2,0:0:0:0:
256,192,55440,1,2,0:0:0:0:
256,192,55536,1,2,0:0:0:0:
256,192,57074,1,0,0:0:0:0:
256,192,58613,1,2,0:0:0:0:
256,192,58805,12,4,61305,0:0:0:0:
256,192,61690,5,4,0:0:0:0:
256,192,61882,1,4,0:0:0:0:
256,192,65921,12,0,73805,0:0:0:0:
256,192,73997,5,6,0:0:0:0:
256,192,74382,1,0,0:0:0:0:
256,192,74767,1,2,0:0:0:0:
256,192,75151,12,0,76305,0:0:0:0:
256,192,76690,5,2,0:0:0:0:
256,192,76754,1,2,0:0:0:0:
256,192,76818,1,2,0:0:0:0:
256,192,77074,1,4,0:0:0:0:
256,192,77844,1,0,0:0:0:0:
256,192,78613,1,0,0:0:0:0:
256,192,79382,1,2,0:0:0:0:
256,192,80151,1,6,0:0:0:0:
256,192,80536,1,0,0:0:0:0:
256,192,80921,1,2,0:0:0:0:
256,192,81305,12,0,82074,0:0:0:0:
256,192,82651,5,2,0:0:0:0:
256,192,82747,1,2,0:0:0:0:
256,192,82844,1,0,0:0:0:0:
256,192,83036,1,2,0:0:0:0:
256,192,83228,1,4,0:0:0:0:
256,192,83421,12,0,86113,0:0:0:0:
256,192,86305,5,6,0:0:0:0:
256,192,86690,1,0,0:0:0:0:
256,192,87074,1,2,0:0:0:0:
256,192,87459,12,0,88421,0:0:0:0:
256,192,88805,5,2,0:0:0:0:
256,192,88901,1,0,0:0:0:0:
256,192,88997,1,2,0:0:0:0:
256,192,89062,1,2,0:0:0:0:
256,192,89126,1,2,0:0:0:0:
256,192,89382,1,0,0:0:0:0:
256,192,89446,1,0,0:0:0:0:
256,192,89510,1,0,0:0:0:0:
256,192,89574,1,2,0:0:0:0:
256,192,89767,1,0,0:0:0:0:
256,192,89959,1,2,0:0:0:0:
256,192,90023,1,2,0:0:0:0:
256,192,90087,1,2,0:0:0:0:
256,192,90151,1,0,0:0:0:0:
256,192,90921,1,0,0:0:0:0:
256,192,91690,1,2,0:0:0:0:
256,192,92074,1,6,0:0:0:0:
256,192,92267,1,0,0:0:0:0:
256,192,92459,1,4,0:0:0:0:
256,192,92651,12,0,95536,0:0:0:0:
256,192,96305,5,0,0:0:0:0:
256,192,97074,1,0,0:0:0:0:
256,192,97844,1,2,0:0:0:0:
256,192,98613,1,4,0:0:0:0:
256,192,98805,1,4,0:0:0:0:
256,192,99382,1,0,0:0:0:0:
256,192,100151,1,0,0:0:0:0:
256,192,100921,1,0,0:0:0:0:
256,192,101017,1,2,0:0:0:0:
256,192,101113,1,0,0:0:0:0:
256,192,101305,1,6,0:0:0:0:
256,192,101690,1,0,0:0:0:0:
256,192,102459,1,2,0:0:0:0:
256,192,103228,1,0,0:0:0:0:
256,192,103997,1,2,0:0:0:0:
256,192,104382,1,2,0:0:0:0:
256,192,104478,1,0,0:0:0:0:
256,192,104574,1,0,0:0:0:0:
256,192,104767,1,4,0:0:0:0:
256,192,105151,1,0,0:0:0:0:
256,192,105536,1,2,0:0:0:0:
256,192,105921,1,0,0:0:0:0:
256,192,106305,1,2,0:0:0:0:
256,192,107074,1,2,0:0:0:0:
256,192,107171,1,0,0:0:0:0:
256,192,107267,1,2,0:0:0:0:
256,192,107459,1,6,0:0:0:0:
256,192,107844,1,0,0:0:0:0:
256,192,108228,1,0,0:0:0:0:
256,192,108613,1,2,0:0:0:0:
256,192,109382,1,2,0:0:0:0:
256,192,110151,1,2,0:0:0:0:
256,192,110536,1,0,0:0:0:0:
256,192,110632,1,2,0:0:0:0:
256,192,110728,1,0,0:0:0:0:
256,192,110921,1,6,0:0:0:0:
256,192,111690,1,2,0:0:0:0:
256,192,112074,1,0,0:0:0:0:
256,192,112459,1,2,0:0:0:0:
256,192,113228,1,2,0:0:0:0:
256,192,113324,1,2,0:0:0:0:
256,192,113421,1,0,0:0:0:0:
256,192,113517,1,2,0:0:0:0:
256,192,113997,1,2,0:0:0:0:
256,192,114382,1,0,0:0:0:0:
256,192,114767,1,0,0:0:0:0:
256,192,115151,1,0,0:0:0:0:
256,192,115536,1,2,0:0:0:0:
256,192,115921,1,0,0:0:0:0:
256,192,116305,1,0,0:0:0:0:
256,192,116690,1,2,0:0:0:0:
256,192,116882,1,0,0:0:0:0:
256,192,117074,1,2,0:0:0:0:
256,192,117459,1,0,0:0:0:0:
256,192,117651,1,0,0:0:0:0:
256,192,117844,1,2,0:0:0:0:
256,192,118228,1,0,0:0:0:0:
256,192,118421,1,0,0:0:0:0:
256,192,118613,1,2,0:0:0:0:
256,192,118805,1,0,0:0:0:0:
256,192,118997,1,0,0:0:0:0:
256,192,119190,1,0,0:0:0:0:
256,192,119382,1,2,0:0:0:0:
256,192,119574,1,0,0:0:0:0:
256,192,119671,1,2,0:0:0:0:
256,192,119767,1,0,0:0:0:0:
256,192,119959,1,0,0:0:0:0:
256,192,120151,1,2,0:0:0:0:
256,192,120247,1,0,0:0:0:0:
256,192,120344,1,0,0:0:0:0:
256,192,120440,1,0,0:0:0:0:
256,192,120536,1,2,0:0:0:0:
256,192,120728,1,0,0:0:0:0:
256,192,120824,1,0,0:0:0:0:
256,192,120921,1,2,0:0:0:0:
256,192,121017,1,0,0:0:0:0:
256,192,121113,1,0,0:0:0:0:
256,192,121209,1,0,0:0:0:0:
256,192,121305,1,2,0:0:0:0:
256,192,121497,1,0,0:0:0:0:
256,192,121594,1,0,0:0:0:0:
256,192,121690,1,2,0:0:0:0:
256,192,121786,1,2,0:0:0:0:
256,192,121882,1,2,0:0:0:0:
256,192,121978,1,2,0:0:0:0:
256,192,122074,1,2,0:0:0:0:
256,192,122267,1,0,0:0:0:0:
256,192,122363,1,0,0:0:0:0:
256,192,122459,1,2,0:0:0:0:
256,192,122555,1,2,0:0:0:0:
256,192,122651,1,2,0:0:0:0:
256,192,122747,1,2,0:0:0:0:
256,192,122844,1,0,0:0:0:0:
256,192,123228,1,4,0:0:0:0:
256,192,123613,1,2,0:0:0:0:
256,192,123901,1,2,0:0:0:0:
256,192,124190,1,0,0:0:0:0:
256,192,124382,1,2,0:0:0:0:
256,192,124767,1,0,0:0:0:0:
256,192,125151,1,2,0:0:0:0:
256,192,125440,1,2,0:0:0:0:
256,192,125728,1,0,0:0:0:0:
256,192,125921,1,2,0:0:0:0:
256,192,125985,1,0,0:0:0:0:
256,192,126049,1,0,0:0:0:0:
256,192,126113,1,0,0:0:0:0:
256,192,126305,1,4,0:0:0:0:
256,192,126690,1,2,0:0:0:0:
256,192,126978,1,2,0:0:0:0:
256,192,127267,1,0,0:0:0:0:
256,192,127459,1,2,0:0:0:0:
256,192,127844,1,0,0:0:0:0:
256,192,128036,1,0,0:0:0:0:
256,192,128228,1,2,0:0:0:0:
256,192,128517,1,2,0:0:0:0:
256,192,128805,1,0,0:0:0:0:
256,192,128997,1,0,0:0:0:0:
256,192,129094,1,2,0:0:0:0:
256,192,129190,1,0,0:0:0:0:
256,192,129382,1,4,0:0:0:0:
256,192,129574,1,0,0:0:0:0:
256,192,129767,1,2,0:0:0:0:
256,192,130055,1,2,0:0:0:0:
256,192,130344,1,0,0:0:0:0:
256,192,130536,1,2,0:0:0:0:
256,192,130728,1,0,0:0:0:0:
256,192,130921,1,4,0:0:0:0:
256,192,131305,1,2,0:0:0:0:
256,192,131594,1,2,0:0:0:0:
256,192,131882,1,0,0:0:0:0:
256,192,132074,1,2,0:0:0:0:
256,192,132138,1,0,0:0:0:0:
256,192,132203,1,0,0:0:0:0:
256,192,132267,1,0,0:0:0:0:
256,192,132459,1,4,0:0:0:0:
256,192,132844,1,2,0:0:0:0:
256,192,132940,1,0,0:0:0:0:
256,192,133036,1,0,0:0:0:0:
256,192,133132,1,2,0:0:0:0:
256,192,133228,1,0,0:0:0:0:
256,192,133421,1,0,0:0:0:0:
256,192,133517,1,0,0:0:0:0:
256,192,133613,1,2,0:0:0:0:
256,192,133709,1,0,0:0:0:0:
256,192,133805,1,0,0:0:0:0:
256,192,133901,1,2,0:0:0:0:
256,192,133997,1,0,0:0:0:0:
256,192,134190,1,0,0:0:0:0:
256,192,134254,1,0,0:0:0:0:
256,192,134318,1,0,0:0:0:0:
256,192,134382,1,2,0:0:0:0:
256,192,134478,1,0,0:0:0:0:
256,192,134574,1,0,0:0:0:0:
256,192,134671,1,2,0:0:0:0:
256,192,134767,1,0,0:0:0:0:
256,192,134959,1,0,0:0:0:0:
256,192,135055,1,0,0:0:0:0:
256,192,135151,1,2,0:0:0:0:
256,192,135247,1,0,0:0:0:0:
256,192,135344,1,0,0:0:0:0:
256,192,135440,1,2,0:0:0:0:
256,192,135921,1,2,0:0:0:0:
256,192,136209,1,2,0:0:0:0:
256,192,136497,1,0,0:0:0:0:
256,192,136690,1,2,0:0:0:0:
256,192,137074,1,0,0:0:0:0:
256,192,137267,1,0,0:0:0:0:
256,192,137459,1,2,0:0:0:0:
256,192,137747,1,2,0:0:0:0:
256,192,138036,1,0,0:0:0:0:
256,192,138228,1,2,0:0:0:0:
256,192,138292,1,0,0:0:0:0:
256,192,138356,1,0,0:0:0:0:
256,192,138421,1,2,0:0:0:0:
256,192,138613,1,4,0:0:0:0:
256,192,138997,1,2,0:0:0:0:
256,192,139286,1,2,0:0:0:0:
256,192,139574,1,0,0:0:0:0:
256,192,139767,1,2,0:0:0:0:
256,192,139959,1,0,0:0:0:0:
256,192,140151,1,4,0:0:0:0:
256,192,140344,1,0,0:0:0:0:
256,192,140536,1,2,0:0:0:0:
256,192,140824,1,2,0:0:0:0:
256,192,140921,1,0,0:0:0:0:
256,192,141017,1,0,0:0:0:0:
256,192,141113,1,2,0:0:0:0:
256,192,141305,1,0,0:0:0:0:
256,192,141690,1,4,0:0:0:0:
256,192,141882,1,0,0:0:0:0:
256,192,142074,1,2,0:0:0:0:
256,192,142363,1,2,0:0:0:0:
256,192,142651,1,0,0:0:0:0:
256,192,142844,1,2,0:0:0:0:
256,192,142972,1,2,0:0:0:0:
256,192,143100,1,2,0:0:0:0:
256,192,143228,1,4,0:0:0:0:
256,192,143613,1,2,0:0:0:0:
256,192,143901,1,2,0:0:0:0:
256,192,144190,1,0,0:0:0:0:
256,192,144286,1,0,0:0:0:0:
256,192,144382,1,2,0:0:0:0:
256,192,144478,1,2,0:0:0:0:
256,192,144574,1,0,0:0:0:0:
256,192,144767,1,4,0:0:0:0:
256,192,145151,1,2,0:0:0:0:
256,192,145247,1,0,0:0:0:0:
256,192,145344,1,0,0:0:0:0:
256,192,145440,1,2,0:0:0:0:
256,192,145536,1,0,0:0:0:0:
256,192,145728,1,0,0:0:0:0:
256,192,145824,1,0,0:0:0:0:
256,192,145921,1,2,0:0:0:0:
256,192,146017,1,0,0:0:0:0:
256,192,146113,1,0,0:0:0:0:
256,192,146209,1,2,0:0:0:0:
256,192,146305,1,0,0:0:0:0:
256,192,146497,1,0,0:0:0:0:
256,192,146562,1,0,0:0:0:0:
256,192,146626,1,0,0:0:0:0:
256,192,146690,1,2,0:0:0:0:
256,192,146786,1,0,0:0:0:0:
256,192,146882,1,0,0:0:0:0:
256,192,146978,1,2,0:0:0:0:
256,192,147074,1,0,0:0:0:0:
256,192,147267,1,0,0:0:0:0:
256,192,147363,1,0,0:0:0:0:
256,192,147459,1,2,0:0:0:0:
256,192,147555,1,0,0:0:0:0:
256,192,147651,1,0,0:0:0:0:
256,192,147747,1,2,0:0:0:0:
256,192,147844,1,4,0:0:0:0:
256,192,148324,1,2,0:0:0:0:
256,192,148421,1,0,0:0:0:0:
256,192,148613,1,2,0:0:0:0:
256,192,148901,1,0,0:0:0:0:
256,192,148997,1,2,0:0:0:0:
256,192,149094,1,0,0:0:0:0:
256,192,149382,1,0,0:0:0:0:
256,192,149574,1,0,0:0:0:0:
256,192,149767,1,2,0:0:0:0:
256,192,149863,1,0,0:0:0:0:
256,192,150151,1,2,0:0:0:0:
256,192,150536,1,0,0:0:0:0:
256,192,150584,1,2,0:0:0:0:
256,192,150921,1,4,0:0:0:0:
256,192,151401,1,0,0:0:0:0:
256,192,151690,1,2,0:0:0:0:
256,192,151978,1,0,0:0:0:0:
256,192,152074,1,2,0:0:0:0:
256,192,152171,1,0,0:0:0:0:
256,192,152459,1,4,0:0:0:0:
256,192,152747,1,2,0:0:0:0:
256,192,152940,1,2,0:0:0:0:
256,192,153228,1,2,0:0:0:0:
256,192,153613,1,0,0:0:0:0:
256,192,153661,1,2,0:0:0:0:
256,192,153997,1,4,0:0:0:0:
256,192,154382,1,0,0:0:0:0:
256,192,154478,1,2,0:0:0:0:
256,192,154767,1,2,0:0:0:0:
256,192,154831,1,0,0:0:0:0:
256,192,154895,1,0,0:0:0:0:
256,192,154959,1,2,0:0:0:0:
256,192,155151,1,2,0:0:0:0:
256,192,155247,1,0,0:0:0:0:
256,192,155536,1,0,0:0:0:0:
256,192,155728,1,0,0:0:0:0:
256,192,155921,1,2,0:0:0:0:
256,192,156017,1,0,0:0:0:0:
256,192,156305,1,2,0:0:0:0:
256,192,156690,1,0,0:0:0:0:
256,192,156738,1,2,0:0:0:0:
256,192,157074,1,4,0:0:0:0:
256,192,157459,1,0,0:0:0:0:
256,192,157651,1,0,0:0:0:0:
256,192,157844,1,2,0:0:0:0:
256,192,158036,12,2,159959,0:0:0:0:
256,192,160151,5,4,0:0:0:0:
256,192,160632,1,2,0:0:0:0:
256,192,160728,1,0,0:0:0:0:
256,192,160921,1,2,0:0:0:0:
256,192,161209,1,0,0:0:0:0:
256,192,161305,1,2,0:0:0:0:
256,192,161401,1,0,0:0:0:0:
256,192,161690,1,0,0:0:0:0:
256,192,161882,1,0,0:0:0:0:
256,192,162074,1,2,0:0:0:0:
256,192,162171,1,0,0:0:0:0:
256,192,162459,1,2,0:0:0:0:
256,192,162844,1,0,0:0:0:0:
256,192,162892,1,2,0:0:0:0:
256,192,163228,1,4,0:0:0:0:
256,192,163709,1,0,0:0:0:0:
256,192,163997,1,2,0:0:0:0:
256,192,164286,1,0,0:0:0:0:
256,192,164382,1,2,0:0:0:0:
256,192,164478,1,0,0:0:0:0:
256,192,164767,1,4,0:0:0:0:
256,192,165055,1,2,0:0:0:0:
256,192,165247,1,2,0:0:0:0:
256,192,165536,1,2,0:0:0:0:
256,192,165921,1,0,0:0:0:0:
256,192,165969,1,2,0:0:0:0:
256,192,166305,1,4,0:0:0:0:
256,192,166690,1,0,0:0:0:0:
256,192,166786,1,2,0:0:0:0:
256,192,167074,1,2,0:0:0:0:
256,192,167138,1,0,0:0:0:0:
256,192,167203,1,0,0:0:0:0:
256,192,167267,1,2,0:0:0:0:
256,192,167459,1,2,0:0:0:0:
256,192,167555,1,0,0:0:0:0:
256,192,167844,1,0,0:0:0:0:
256,192,168036,1,0,0:0:0:0:
256,192,168228,1,2,0:0:0:0:
256,192,168324,1,0,0:0:0:0:
256,192,168613,1,2,0:0:0:0:
256,192,168997,1,0,0:0:0:0:
256,192,169046,1,2,0:0:0:0:
256,192,169382,1,4,0:0:0:0:
256,192,169767,1,0,0:0:0:0:
256,192,169959,1,0,0:0:0:0:
256,192,170151,1,2,0:0:0:0:
256,192,170344,12,0,170728,0:0:0:0:
256,192,170921,12,0,172267,0:0:0:0:
256,192,172459,5,4,0:0:0:0:
256,192,172844,1,2,0:0:0:0:
256,192,173228,1,2,0:0:0:0:
256,192,173613,1,0,0:0:0:0:
256,192,173997,1,2,0:0:0:0:
256,192,174382,1,2,0:0:0:0:
256,192,174767,1,0,0:0:0:0:
256,192,174959,1,2,0:0:0:0:
256,192,175151,1,0,0:0:0:0:
256,192,175247,1,2,0:0:0:0:
256,192,175536,1,4,0:0:0:0:
256,192,175728,1,4,0:0:0:0:
256,192,175921,1,0,0:0:0:0:
256,192,176305,1,2,0:0:0:0:
256,192,176690,1,2,0:0:0:0:
256,192,177074,1,0,0:0:0:0:
256,192,177459,1,2,0:0:0:0:
256,192,177844,1,2,0:0:0:0:
256,192,177940,1,0,0:0:0:0:
256,192,178036,1,2,0:0:0:0:
256,192,178132,1,2,0:0:0:0:
256,192,178228,1,0,0:0:0:0:
256,192,178421,1,0,0:0:0:0:
256,192,178485,1,0,0:0:0:0:
256,192,178549,1,0,0:0:0:0:
256,192,178613,1,2,0:0:0:0:
256,192,178997,1,2,0:0:0:0:
256,192,179382,1,0,0:0:0:0:
256,192,179767,1,2,0:0:0:0:
256,192,180151,1,2,0:0:0:0:
256,192,180536,1,0,0:0:0:0:
256,192,180921,1,2,0:0:0:0:
256,192,181113,1,0,0:0:0:0:
256,192,181305,1,2,0:0:0:0:
256,192,181401,1,0,0:0:0:0:
256,192,181690,1,4,0:0:0:0:
256,192,181882,1,4,0:0:0:0:
256,192,182074,1,2,0:0:0:0:
256,192,182459,1,2,0:0:0:0:
256,192,182651,1,2,0:0:0:0:
256,192,182844,1,0,0:0:0:0:
256,192,183036,1,2,0:0:0:0:
256,192,183421,1,0,0:0:0:0:
256,192,183613,1,2,0:0:0:0:
256,192,183805,1,0,0:0:0:0:
256,192,183997,1,2,0:0:0:0:
256,192,184382,1,0,0:0:0:0:
256,192,184574,1,2,0:0:0:0:
256,192,184767,1,4,0:0:0:0:
256,192,185151,1,2,0:0:0:0:
256,192,185536,1,2,0:0:0:0:
256,192,185921,1,0,0:0:0:0:
256,192,186305,1,2,0:0:0:0:
256,192,186690,1,2,0:0:0:0:
256,192,187074,1,0,0:0:0:0:
256,192,187459,1,2,0:0:0:0:
256,192,187844,1,2,0:0:0:0:
256,192,188228,1,0,0:0:0:0:
256,192,188613,1,2,0:0:0:0:
256,192,188997,1,2,0:0:0:0:
256,192,189382,1,0,0:0:0:0:
256,192,189767,1,2,0:0:0:0:
256,192,190151,1,2,0:0:0:0:
256,192,190536,1,0,0:0:0:0:
256,192,190921,1,2,0:0:0:0:
256,192,191305,1,2,0:0:0:0:
256,192,191690,1,0,0:0:0:0:
256,192,192074,1,2,0:0:0:0:
256,192,192459,1,2,0:0:0:0:
256,192,192844,1,0,0:0:0:0:
256,192,193228,1,2,0:0:0:0:
256,192,193613,1,2,0:0:0:0:
256,192,193997,1,0,0:0:0:0:
256,192,194190,1,2,0:0:0:0:
256,192,194382,1,2,0:0:0:0:
256,192,194574,1,0,0:0:0:0:
256,192,194767,1,2,0:0:0:0:
256,192,195151,1,2,0:0:0:0:
256,192,195344,1,0,0:0:0:0:
256,192,195536,1,2,0:0:0:0:
256,192,195921,1,0,0:0:0:0:
256,192,196113,1,0,0:0:0:0:
256,192,196305,1,2,0:0:0:0:
256,192,196497,1,0,0:0:0:0:
256,192,196690,1,2,0:0:0:0:
256,192,196882,1,0,0:0:0:0:
256,192,197074,1,4,0:0:0:0:
256,192,197267,12,0,202844,0:0:0:0:
256,192,203228,12,0,207459,0:0:0:0:
256,192,207844,12,0,209190,0:0:0:0:
256,192,209382,12,0,210728,0:0:0:0:
256,192,210921,12,0,213997,0:0:0:0:
256,192,214254,5,0,0:0:0:0:
256,192,215344,12,0,222844,0:0:0:0:
256,192,223228,5,0,0:0:0:0:
256,192,223300,1,0,0:0:0:0:
256,192,224382,12,0,233613,0:0:0:0:
256,192,233997,5,0,0:0:0:0:
256,192,234382,1,2,0:0:0:0:
256,192,234767,1,0,0:0:0:0:
256,192,235151,1,2,0:0:0:0:
256,192,235536,1,2,0:0:0:0:
256,192,235921,1,0,0:0:0:0:
256,192,236305,1,0,0:0:0:0:
256,192,236690,1,2,0:0:0:0:
256,192,237074,1,0,0:0:0:0:
256,192,237459,1,2,0:0:0:0:
256,192,237844,1,2,0:0:0:0:
256,192,238228,1,0,0:0:0:0:
256,192,238613,1,0,0:0:0:0:
256,192,238997,1,2,0:0:0:0:
256,192,239382,1,0,0:0:0:0:
256,192,239767,1,2,0:0:0:0:
256,192,240151,1,2,0:0:0:0:
256,192,240536,1,0,0:0:0:0:
256,192,240921,1,0,0:0:0:0:
256,192,241305,1,2,0:0:0:0:
256,192,241690,1,0,0:0:0:0:
256,192,242074,1,2,0:0:0:0:
256,192,242459,1,2,0:0:0:0:
256,192,242844,1,0,0:0:0:0:
256,192,243228,1,0,0:0:0:0:
256,192,243613,1,2,0:0:0:0:
256,192,243997,1,0,0:0:0:0:
256,192,244382,1,2,0:0:0:0:
256,192,244767,1,2,0:0:0:0:
256,192,245151,1,0,0:0:0:0:
256,192,245536,1,2,0:0:0:0:
256,192,245921,1,0,0:0:0:0:
256,192,246305,1,2,0:0:0:0:
256,192,246690,1,2,0:0:0:0:
256,192,247074,1,0,0:0:0:0:
256,192,247459,1,2,0:0:0:0:
256,192,247844,1,2,0:0:0:0:
256,192,248228,1,0,0:0:0:0:
256,192,248613,1,2,0:0:0:0:
256,192,248997,1,2,0:0:0:0:
256,192,249382,1,0,0:0:0:0:
256,192,249767,1,2,0:0:0:0:
256,192,250151,1,2,0:0:0:0:
256,192,250536,1,0,0:0:0:0:
256,192,250921,1,2,0:0:0:0:
256,192,251305,1,2,0:0:0:0:
256,192,251690,1,0,0:0:0:0:
256,192,252074,1,2,0:0:0:0:
256,192,252459,1,2,0:0:0:0:
256,192,252844,1,0,0:0:0:0:
256,192,253228,1,2,0:0:0:0:
256,192,253613,1,2,0:0:0:0:
256,192,253997,1,0,0:0:0:0:
256,192,254382,1,2,0:0:0:0:
256,192,254767,1,2,0:0:0:0:
256,192,255151,1,0,0:0:0:0:
256,192,255536,1,2,0:0:0:0:
256,192,255921,1,2,0:0:0:0:
256,192,256305,1,0,0:0:0:0:
256,192,256690,1,2,0:0:0:0:
256,192,257074,1,4,0:0:0:0:
256,192,257844,12,4,258613,0:0:0:0:
256,192,258997,5,0,0:0:0:0:
256,192,259382,1,2,0:0:0:0:
256,192,260151,1,2,0:0:0:0:
256,192,261690,1,2,0:0:0:0:
256,192,263228,1,0,0:0:0:0:
256,192,263997,1,0,0:0:0:0:
256,192,265151,1,0,0:0:0:0:
256,192,265536,1,2,0:0:0:0:
256,192,266305,1,2,0:0:0:0:
256,192,267844,1,2,0:0:0:0:
256,192,269382,1,2,0:0:0:0:
256,192,270151,1,2,0:0:0:0:
256,192,270536,1,4,0:0:0:0:
256,192,270921,1,2,0:0:0:0:
256,192,271305,1,0,0:0:0:0:
256,192,271690,1,2,0:0:0:0:
256,192,272459,1,2,0:0:0:0:
256,192,273997,1,2,0:0:0:0:
256,192,275536,1,2,0:0:0:0:
256,192,276305,1,0,0:0:0:0:
256,192,277074,1,2,0:0:0:0:
256,192,277459,1,0,0:0:0:0:
256,192,277844,1,2,0:0:0:0:
256,192,278613,1,2,0:0:0:0:
256,192,279382,1,0,0:0:0:0:
256,192,280151,1,2,0:0:0:0:
256,192,280536,1,0,0:0:0:0:
256,192,280921,1,2,0:0:0:0:
256,192,281305,1,2,0:0:0:0:
256,192,281497,1,0,0:0:0:0:
256,192,281690,1,2,0:0:0:0:
256,192,281882,1,0,0:0:0:0:
256,192,282074,1,2,0:0:0:0:
256,192,282267,1,2,0:0:0:0:
256,192,282459,1,2,0:0:0:0:
256,192,282555,1,2,0:0:0:0:
256,192,282651,1,0,0:0:0:0:
256,192,282844,1,0,0:0:0:0:
256,192,283036,1,2,0:0:0:0:
256,192,283100,1,0,0:0:0:0:
256,192,283164,1,0,0:0:0:0:
256,192,283228,1,6,0:0:0:0:
256,192,283613,1,0,0:0:0:0:
256,192,283805,1,0,0:0:0:0:
256,192,283901,1,0,0:0:0:0:
256,192,283997,1,2,0:0:0:0:
256,192,284382,1,6,0:0:0:0:
256,192,284574,1,6,0:0:0:0:
256,192,284767,1,0,0:0:0:0:
256,192,284863,1,0,0:0:0:0:
256,192,284959,1,0,0:0:0:0:
256,192,285151,1,2,0:0:0:0:
256,192,285536,1,6,0:0:0:0:
256,192,285728,1,6,0:0:0:0:
256,192,285921,1,2,0:0:0:0:
256,192,286305,1,6,0:0:0:0:
256,192,286497,1,6,0:0:0:0:
256,192,286690,1,0,0:0:0:0:
256,192,286882,1,0,0:0:0:0:
256,192,286978,1,0,0:0:0:0:
256,192,287074,1,2,0:0:0:0:
256,192,287459,1,6,0:0:0:0:
256,192,287651,1,6,0:0:0:0:
256,192,287844,1,0,0:0:0:0:
256,192,287940,1,0,0:0:0:0:
256,192,288036,1,0,0:0:0:0:
256,192,288228,1,2,0:0:0:0:
256,192,288613,1,6,0:0:0:0:
256,192,288805,1,6,0:0:0:0:
256,192,288997,1,2,0:0:0:0:
256,192,289382,1,6,0:0:0:0:
256,192,289574,1,6,0:0:0:0:
256,192,289767,1,0,0:0:0:0:
256,192,289959,1,0,0:0:0:0:
256,192,290055,1,0,0:0:0:0:
256,192,290151,1,2,0:0:0:0:
256,192,290536,1,6,0:0:0:0:
256,192,290728,1,6,0:0:0:0:
256,192,290921,1,0,0:0:0:0:
256,192,291017,1,0,0:0:0:0:
256,192,291113,1,0,0:0:0:0:
256,192,291305,1,2,0:0:0:0:
256,192,291690,1,6,0:0:0:0:
256,192,291882,1,6,0:0:0:0:
256,192,292074,1,2,0:0:0:0:
256,192,292459,1,6,0:0:0:0:
256,192,292651,1,6,0:0:0:0:
256,192,292844,1,0,0:0:0:0:
256,192,293036,1,2,0:0:0:0:
256,192,293132,1,0,0:0:0:0:
256,192,293228,1,2,0:0:0:0:
256,192,293613,1,6,0:0:0:0:
256,192,293805,1,6,0:0:0:0:
256,192,293997,1,0,0:0:0:0:
256,192,294094,1,0,0:0:0:0:
256,192,294190,1,0,0:0:0:0:
256,192,294382,1,2,0:0:0:0:
256,192,294767,1,6,0:0:0:0:
256,192,294959,1,6,0:0:0:0:
256,192,295151,1,2,0:0:0:0:
256,192,295536,1,6,0:0:0:0:
256,192,295921,1,0,0:0:0:0:
256,192,296113,1,0,0:0:0:0:
256,192,296209,1,0,0:0:0:0:
256,192,296305,1,2,0:0:0:0:
256,192,296401,1,0,0:0:0:0:
256,192,296497,1,0,0:0:0:0:
256,192,296690,1,6,0:0:0:0:
256,192,296882,1,6,0:0:0:0:
256,192,297074,1,0,0:0:0:0:
256,192,297267,1,2,0:0:0:0:
256,192,297459,1,2,0:0:0:0:
256,192,297555,1,2,0:0:0:0:
256,192,297651,1,0,0:0:0:0:
256,192,297844,1,6,0:0:0:0:
256,192,298036,1,6,0:0:0:0:
256,192,298228,1,2,0:0:0:0:
256,192,298613,1,6,0:0:0:0:
256,192,298805,1,6,0:0:0:0:
256,192,298997,1,0,0:0:0:0:
256,192,299190,1,0,0:0:0:0:
256,192,299286,1,0,0:0:0:0:
256,192,299382,1,2,0:0:0:0:
256,192,299478,1,0,0:0:0:0:
256,192,299574,1,0,0:0:0:0:
256,192,299767,1,6,0:0:0:0:
256,192,299959,1,6,0:0:0:0:
256,192,300151,1,0,0:0:0:0:
256,192,300344,1,2,0:0:0:0:
256,192,300536,1,2,0:0:0:0:
256,192,300632,1,2,0:0:0:0:
256,192,300728,1,0,0:0:0:0:
256,192,300921,1,6,0:0:0:0:
256,192,301113,1,6,0:0:0:0:
256,192,301305,1,2,0:0:0:0:
256,192,301690,1,6,0:0:0:0:
256,192,302074,1,0,0:0:0:0:
256,192,302267,1,0,0:0:0:0:
256,192,302363,1,0,0:0:0:0:
256,192,302459,1,2,0:0:0:0:
256,192,302555,1,0,0:0:0:0:
256,192,302651,1,2,0:0:0:0:
256,192,302844,1,6,0:0:0:0:
256,192,303036,1,6,0:0:0:0:
256,192,303228,1,0,0:0:0:0:
256,192,303421,1,2,0:0:0:0:
256,192,303613,1,2,0:0:0:0:
256,192,303709,1,0,0:0:0:0:
256,192,303805,1,2,0:0:0:0:
256,192,303997,1,6,0:0:0:0:
256,192,304190,1,6,0:0:0:0:
256,192,304382,1,2,0:0:0:0:
256,192,304767,1,6,0:0:0:0:
256,192,304959,1,6,0:0:0:0:
256,192,305151,1,0,0:0:0:0:
256,192,305344,1,2,0:0:0:0:
256,192,305440,1,0,0:0:0:0:
256,192,305536,1,2,0:0:0:0:
256,192,305632,1,0,0:0:0:0:
256,192,305728,1,0,0:0:0:0:
256,192,305921,1,6,0:0:0:0:
256,192,306113,1,6,0:0:0:0:
256,192,306305,1,0,0:0:0:0:
256,192,306497,1,2,0:0:0:0:
256,192,306690,1,2,0:0:0:0:
256,192,306786,1,0,0:0:0:0:
256,192,306882,1,2,0:0:0:0:
256,192,307074,1,6,0:0:0:0:
256,192,307267,1,6,0:0:0:0:
256,192,307459,1,2,0:0:0:0:
256,192,307651,1,0,0:0:0:0:
256,192,307747,1,0,0:0:0:0:
256,192,307844,1,6,0:0:0:0:
256,192,308228,1,2,0:0:0:0:
256,192,308421,1,0,0:0:0:0:
256,192,308517,1,0,0:0:0:0:
256,192,308613,1,2,0:0:0:0:
256,192,308709,1,0,0:0:0:0:
256,192,308805,1,0,0:0:0:0:
256,192,308901,1,0,0:0:0:0:
256,192,308997,1,6,0:0:0:0:
256,192,309190,1,6,0:0:0:0:
256,192,309382,1,2,0:0:0:0:
256,192,309574,1,0,0:0:0:0:
256,192,309767,1,2,0:0:0:0:
256,192,309863,1,2,0:0:0:0:
256,192,309959,1,0,0:0:0:0:
256,192,310055,1,0,0:0:0:0:
256,192,310151,1,6,0:0:0:0:
256,192,310344,1,6,0:0:0:0:
256,192,310536,1,2,0:0:0:0:
256,192,310728,1,0,0:0:0:0:
256,192,310824,1,0,0:0:0:0:
256,192,310921,1,6,0:0:0:0:
256,192,311113,1,6,0:0:0:0:
256,192,311305,1,0,0:0:0:0:
256,192,311497,1,0,0:0:0:0:
256,192,311594,1,0,0:0:0:0:
256,192,311690,1,2,0:0:0:0:
256,192,311786,1,0,0:0:0:0:
256,192,311882,1,2,0:0:0:0:
256,192,311978,1,0,0:0:0:0:
256,192,312074,1,6,0:0:0:0:
256,192,312267,1,6,0:0:0:0:
256,192,312459,1,0,0:0:0:0:
256,192,312651,1,0,0:0:0:0:
256,192,312844,1,2,0:0:0:0:
256,192,312940,1,2,0:0:0:0:
256,192,313036,1,2,0:0:0:0:
256,192,313132,1,0,0:0:0:0:
256,192,313228,1,6,0:0:0:0:
256,192,313421,1,6,0:0:0:0:
256,192,313613,1,2,0:0:0:0:
256,192,313805,1,0,0:0:0:0:
256,192,313901,1,0,0:0:0:0:
256,192,313997,1,6,0:0:0:0:
256,192,314382,1,0,0:0:0:0:
256,192,314574,1,0,0:0:0:0:
256,192,314671,1,0,0:0:0:0:
256,192,314767,1,2,0:0:0:0:
256,192,314863,1,2,0:0:0:0:
256,192,314959,1,0,0:0:0:0:
256,192,315055,1,0,0:0:0:0:
256,192,315151,1,6,0:0:0:0:
256,192,315344,1,6,0:0:0:0:
256,192,315536,1,0,0:0:0:0:
256,192,315728,1,2,0:0:0:0:
256,192,315921,1,2,0:0:0:0:
256,192,316017,1,2,0:0:0:0:
256,192,316113,1,2,0:0:0:0:
256,192,316209,1,0,0:0:0:0:
256,192,316305,1,6,0:0:0:0:
256,192,316497,1,6,0:0:0:0:
256,192,316690,1,2,0:0:0:0:
256,192,316882,1,0,0:0:0:0:
256,192,316978,1,0,0:0:0:0:
256,192,317074,1,6,0:0:0:0:
256,192,317267,1,6,0:0:0:0:
256,192,317459,1,0,0:0:0:0:
256,192,317651,1,2,0:0:0:0:
256,192,317747,1,0,0:0:0:0:
256,192,317844,1,2,0:0:0:0:
256,192,317940,1,0,0:0:0:0:
256,192,318036,1,2,0:0:0:0:
256,192,318132,1,0,0:0:0:0:
256,192,318228,1,6,0:0:0:0:
256,192,318421,1,6,0:0:0:0:
256,192,318613,1,0,0:0:0:0:
256,192,318805,1,2,0:0:0:0:
256,192,318997,1,2,0:0:0:0:
256,192,319094,1,2,0:0:0:0:
256,192,319190,1,2,0:0:0:0:
256,192,319286,1,0,0:0:0:0:
256,192,319382,1,6,0:0:0:0:
256,192,319574,1,6,0:0:0:0:
256,192,319767,1,2,0:0:0:0:
256,192,319959,1,2,0:0:0:0:
256,192,320023,1,2,0:0:0:0:
256,192,320087,1,0,0:0:0:0:
256,192,320151,1,6,0:0:0:0:
256,192,320536,1,0,0:0:0:0:
256,192,320728,1,0,0:0:0:0:
256,192,320921,1,2,0:0:0:0:
256,192,321113,1,0,0:0:0:0:
256,192,321209,1,0,0:0:0:0:
256,192,321305,1,2,0:0:0:0:
256,192,321690,1,2,0:0:0:0:
256,192,321882,1,0,0:0:0:0:
256,192,322074,1,2,0:0:0:0:
256,192,322267,1,0,0:0:0:0:
256,192,322363,1,0,0:0:0:0:
256,192,322459,1,2,0:0:0:0:
256,192,322651,1,2,0:0:0:0:
256,192,322747,1,2,0:0:0:0:
256,192,322844,1,0,0:0:0:0:
256,192,323036,1,2,0:0:0:0:
256,192,323100,1,0,0:0:0:0:
256,192,323164,1,0,0:0:0:0:
256,192,323228,1,2,0:0:0:0:
256,192,323613,1,2,0:0:0:0:
256,192,323805,1,0,0:0:0:0:
256,192,323997,1,2,0:0:0:0:
256,192,324094,1,2,0:0:0:0:
256,192,324190,1,0,0:0:0:0:
256,192,324286,1,0,0:0:0:0:
256,192,324382,1,2,0:0:0:0:
256,192,324767,1,2,0:0:0:0:
256,192,324863,1,0,0:0:0:0:
256,192,324959,1,0,0:0:0:0:
256,192,325151,1,2,0:0:0:0:
256,192,325247,1,2,0:0:0:0:
256,192,325344,1,0,0:0:0:0:
256,192,325440,1,2,0:0:0:0:
256,192,325536,1,0,0:0:0:0:
256,192,325728,1,2,0:0:0:0:
256,192,325824,1,2,0:0:0:0:
256,192,325921,1,0,0:0:0:0:
256,192,326113,1,0,0:0:0:0:
256,192,326177,1,2,0:0:0:0:
256,192,326241,1,0,0:0:0:0:
256,192,326305,1,2,0:0:0:0:
256,192,326690,1,2,0:0:0:0:
256,192,326882,1,2,0:0:0:0:
256,192,327074,1,2,0:0:0:0:
256,192,327267,1,2,0:0:0:0:
256,192,327459,1,2,0:0:0:0:
256,192,327651,1,2,0:0:0:0:
256,192,327844,1,2,0:0:0:0:
256,192,328228,1,2,0:0:0:0:
256,192,328421,1,2,0:0:0:0:
256,192,328613,1,2,0:0:0:0:
256,192,328805,1,2,0:0:0:0:
256,192,328997,1,2,0:0:0:0:
256,192,329190,1,2,0:0:0:0:
256,192,329382,1,2,0:0:0:0:
256,192,329478,1,0,0:0:0:0:
256,192,329574,1,2,0:0:0:0:
256,192,329671,1,0,0:0:0:0:
256,192,329767,1,2,0:0:0:0:
256,192,329959,1,2,0:0:0:0:
256,192,330055,1,2,0:0:0:0:
256,192,330151,1,0,0:0:0:0:
256,192,330247,1,2,0:0:0:0:
256,192,330344,1,0,0:0:0:0:
256,192,330440,1,2,0:0:0:0:
256,192,330536,1,0,0:0:0:0:
256,192,330728,1,2,0:0:0:0:
256,192,330824,1,2,0:0:0:0:
256,192,330921,1,0,0:0:0:0:
256,192,331017,1,2,0:0:0:0:
256,192,331113,1,2,0:0:0:0:
256,192,331209,1,2,0:0:0:0:
256,192,331305,1,0,0:0:0:0:
256,192,331497,1,2,0:0:0:0:
256,192,331594,1,2,0:0:0:0:
256,192,331690,1,0,0:0:0:0:
256,192,331754,1,0,0:0:0:0:
256,192,331818,1,0,0:0:0:0:
256,192,331882,1,0,0:0:0:0:
256,192,331946,1,0,0:0:0:0:
256,192,332010,1,0,0:0:0:0:
256,192,332074,1,2,0:0:0:0:
256,192,332267,1,0,0:0:0:0:
256,192,332459,1,4,0:0:0:0:
256,192,333036,1,6,0:0:0:0:
256,192,333613,1,4,0:0:0:0:
256,192,334190,1,6,0:0:0:0:
256,192,334767,1,2,0:0:0:0:
256,192,334863,1,2,0:0:0:0:
256,192,334959,1,0,0:0:0:0:
256,192,335151,1,6,0:0:0:0:
256,192,335536,1,4,0:0:0:0:
256,192,336113,1,6,0:0:0:0:
256,192,336690,1,4,0:0:0:0:
256,192,337267,1,6,0:0:0:0:
256,192,337844,1,2,0:0:0:0:
256,192,337940,1,2,0:0:0:0:
256,192,338036,1,0,0:0:0:0:
256,192,338228,1,4,0:0:0:0:
256,192,338613,1,0,0:0:0:0:
256,192,338709,1,0,0:0:0:0:
256,192,338805,1,0,0:0:0:0:
256,192,338901,1,0,0:0:0:0:
256,192,338997,1,0,0:0:0:0:
256,192,339094,1,0,0:0:0:0:
256,192,339190,1,6,0:0:0:0:
256,192,339767,1,4,0:0:0:0:
256,192,340344,1,6,0:0:0:0:
256,192,340921,1,2,0:0:0:0:
256,192,341017,1,2,0:0:0:0:
256,192,341113,1,0,0:0:0:0:
256,192,341305,1,6,0:0:0:0:
256,192,341690,1,4,0:0:0:0:
256,192,342267,1,0,0:0:0:0:
256,192,342844,1,4,0:0:0:0:
256,192,343421,1,6,0:0:0:0:
256,192,343997,1,2,0:0:0:0:
256,192,344094,1,2,0:0:0:0:
256,192,344190,1,0,0:0:0:0:
256,192,344382,1,6,0:0:0:0:
256,192,344767,1,4,0:0:0:0:
256,192,345344,1,6,0:0:0:0:
256,192,345921,1,4,0:0:0:0:
256,192,346497,1,6,0:0:0:0:
256,192,347074,1,2,0:0:0:0:
256,192,347171,1,2,0:0:0:0:
256,192,347267,1,0,0:0:0:0:
256,192,347459,1,6,0:0:0:0:
256,192,347844,1,4,0:0:0:0:
256,192,348421,1,6,0:0:0:0:
256,192,348997,1,4,0:0:0:0:
256,192,349574,1,6,0:0:0:0:
256,192,350151,1,2,0:0:0:0:
256,192,350247,1,2,0:0:0:0:
256,192,350344,1,0,0:0:0:0:
256,192,350536,1,6,0:0:0:0:
256,192,350921,1,0,0:0:0:0:
256,192,351017,1,0,0:0:0:0:
256,192,351113,1,0,0:0:0:0:
256,192,351209,1,0,0:0:0:0:
256,192,351305,1,0,0:0:0:0:
256,192,351401,1,0,0:0:0:0:
256,192,351497,1,6,0:0:0:0:
256,192,352074,1,4,0:0:0:0:
256,192,352651,1,6,0:0:0:0:
256,192,353228,1,2,0:0:0:0:
256,192,353324,1,2,0:0:0:0:
256,192,353421,1,0,0:0:0:0:
256,192,353613,1,6,0:0:0:0:
256,192,353997,1,4,0:0:0:0:
256,192,354574,1,6,0:0:0:0:
256,192,355151,1,4,0:0:0:0:
256,192,355728,1,6,0:0:0:0:
256,192,356305,1,4,0:0:0:0:
256,192,356497,1,4,0:0:0:0:
256,192,356690,1,2,0:0:0:0:
256,192,356786,1,0,0:0:0:0:
256,192,356882,1,2,0:0:0:0:
256,192,356978,1,2,0:0:0:0:
256,192,357074,1,4,0:0:0:0:
256,192,357459,1,0,0:0:0:0:
256,192,357651,1,6,0:0:0:0:
256,192,358036,1,0,0:0:0:0:
256,192,358228,1,6,0:0:0:0:
256,192,358613,1,0,0:0:0:0:
256,192,358805,1,6,0:0:0:0:
256,192,359190,1,0,0:0:0:0:
256,192,359382,1,6,0:0:0:0:
256,192,359574,1,0,0:0:0:0:
256,192,359767,1,4,0:0:0:0:
256,192,360151,1,6,0:0:0:0:
256,192,360536,1,2,0:0:0:0:
256,192,360728,1,4,0:0:0:0:
256,192,361113,1,0,0:0:0:0:
256,192,361305,1,6,0:0:0:0:
256,192,361690,1,2,0:0:0:0:
256,192,361882,1,4,0:0:0:0:
256,192,362267,1,2,0:0:0:0:
256,192,362459,1,4,0:0:0:0:
256,192,362844,1,6,0:0:0:0:
256,192,363036,1,0,0:0:0:0:
256,192,363132,1,2,0:0:0:0:
256,192,363421,1,2,0:0:0:0:
256,192,363613,1,2,0:0:0:0:
256,192,363805,1,4,0:0:0:0:
256,192,364190,1,0,0:0:0:0:
256,192,364382,1,6,0:0:0:0:
256,192,364767,1,0,0:0:0:0:
256,192,364959,1,6,0:0:0:0:
256,192,365344,1,0,0:0:0:0:
256,192,365536,1,6,0:0:0:0:
256,192,365728,1,0,0:0:0:0:
256,192,365921,1,4,0:0:0:0:
256,192,366305,1,6,0:0:0:0:
256,192,366690,1,2,0:0:0:0:
256,192,366882,1,4,0:0:0:0:
256,192,367267,1,0,0:0:0:0:
256,192,367459,1,6,0:0:0:0:
256,192,367844,1,2,0:0:0:0:
256,192,368036,1,4,0:0:0:0:
256,192,368421,1,0,0:0:0:0:
256,192,368613,1,6,0:0:0:0:
256,192,368997,1,4,0:0:0:0:
256,192,369382,1,4,0:0:0:0:
256,192,369574,1,0,0:0:0:0:
256,192,369767,1,2,0:0:0:0:
256,192,369959,1,6,0:0:0:0:
256,192,370344,1,0,0:0:0:0:
256,192,370536,1,6,0:0:0:0:
256,192,370921,1,0,0:0:0:0:
256,192,371113,1,6,0:0:0:0:
256,192,371497,1,0,0:0:0:0:
256,192,371690,1,6,0:0:0:0:
256,192,371882,1,2,0:0:0:0:
256,192,372074,1,4,0:0:0:0:
256,192,372459,1,6,0:0:0:0:
256,192,372844,1,2,0:0:0:0:
256,192,373036,1,4,0:0:0:0:
256,192,373421,1,0,0:0:0:0:
256,192,373613,1,6,0:0:0:0:
256,192,373997,1,2,0:0:0:0:
256,192,374190,1,4,0:0:0:0:
256,192,374574,1,0,0:0:0:0:
256,192,374767,1,6,0:0:0:0:
256,192,375151,1,6,0:0:0:0:
256,192,375344,1,0,0:0:0:0:
256,192,375440,1,2,0:0:0:0:
256,192,375536,1,0,0:0:0:0:
256,192,375632,1,0,0:0:0:0:
256,192,375728,1,0,0:0:0:0:
256,192,375824,1,2,0:0:0:0:
256,192,375921,1,4,0:0:0:0:
256,192,376113,1,4,0:0:0:0:
256,192,376305,1,6,0:0:0:0:
256,192,376690,1,6,0:0:0:0:
256,192,377074,1,6,0:0:0:0:
256,192,377459,1,0,0:0:0:0:
256,192,377651,1,6,0:0:0:0:
256,192,378036,1,4,0:0:0:0:
256,192,378228,1,6,0:0:0:0:
256,192,378421,1,0,0:0:0:0:
256,192,378517,1,0,0:0:0:0:
256,192,378613,1,6,0:0:0:0:
256,192,378901,1,0,0:0:0:0:
256,192,379094,1,0,0:0:0:0:
256,192,379190,1,6,0:0:0:0:
256,192,379478,1,2,0:0:0:0:
256,192,379671,1,2,0:0:0:0:
256,192,379767,1,4,0:0:0:0:
256,192,380055,1,2,0:0:0:0:
256,192,380247,1,2,0:0:0:0:
256,192,380344,1,4,0:0:0:0:
256,192,380632,1,2,0:0:0:0:
256,192,380824,1,2,0:0:0:0:
256,192,380921,1,4,0:0:0:0:
256,192,381305,1,0,0:0:0:0:
256,192,381401,1,2,0:0:0:0:
256,192,381497,1,0,0:0:0:0:
256,192,381594,1,2,0:0:0:0:
256,192,381690,1,4,0:0:0:0:
256,192,382267,1,2,0:0:0:0:
256,192,382844,1,0,0:0:0:0:
256,192,383421,1,2,0:0:0:0:
256,192,383997,1,2,0:0:0:0:
256,192,384382,1,0,0:0:0:0:
256,192,384767,1,2,0:0:0:0:
256,192,385344,1,0,0:0:0:0:
256,192,385921,1,2,0:0:0:0:
256,192,386497,1,0,0:0:0:0:
256,192,387074,1,2,0:0:0:0:
256,192,387459,1,2,0:0:0:0:
256,192,387555,1,0,0:0:0:0:
256,192,387651,1,2,0:0:0:0:
256,192,387844,1,0,0:0:0:0:
256,192,388421,1,2,0:0:0:0:
256,192,388997,1,0,0:0:0:0:
256,192,389574,1,2,0:0:0:0:
256,192,390151,1,2,0:0:0:0:
256,192,390536,1,0,0:0:0:0:
256,192,390921,1,2,0:0:0:0:
256,192,391497,1,0,0:0:0:0:
256,192,392074,1,2,0:0:0:0:
256,192,392651,1,0,0:0:0:0:
256,192,393228,1,2,0:0:0:0:
256,192,393613,1,2,0:0:0:0:
256,192,393709,1,0,0:0:0:0:
256,192,393805,1,0,0:0:0:0:
256,192,393997,1,0,0:0:0:0:
256,192,394574,1,2,0:0:0:0:
256,192,395151,1,0,0:0:0:0:
256,192,395728,1,2,0:0:0:0:
256,192,396305,1,2,0:0:0:0:
256,192,396690,1,0,0:0:0:0:
256,192,397074,1,2,0:0:0:0:
256,192,397651,1,0,0:0:0:0:
256,192,398228,1,2,0:0:0:0:
256,192,398805,1,0,0:0:0:0:
256,192,399382,1,2,0:0:0:0:
256,192,399767,1,2,0:0:0:0:
256,192,399863,1,0,0:0:0:0:
256,192,399959,1,2,0:0:0:0:
256,192,400151,1,0,0:0:0:0:
256,192,400728,1,2,0:0:0:0:
256,192,401305,1,0,0:0:0:0:
256,192,401882,1,2,0:0:0:0:
256,192,402459,1,2,0:0:0:0:
256,192,402844,1,0,0:0:0:0:
256,192,403228,1,2,0:0:0:0:
256,192,403805,1,0,0:0:0:0:
256,192,404382,1,2,0:0:0:0:
256,192,404959,1,0,0:0:0:0:
256,192,405536,1,2,0:0:0:0:
256,192,405921,1,2,0:0:0:0:
256,192,406017,1,2,0:0:0:0:
256,192,406113,1,0,0:0:0:0:
256,192,406305,1,0,0:0:0:0:
256,192,406690,1,0,0:0:0:0:
256,192,407074,1,2,0:0:0:0:
256,192,407844,1,0,0:0:0:0:
256,192,409382,1,0,0:0:0:0:
256,192,410921,1,0,0:0:0:0:
256,192,411690,1,0,0:0:0:0:
256,192,412844,1,0,0:0:0:0:
256,192,413228,1,2,0:0:0:0:
256,192,413997,1,2,0:0:0:0:
256,192,415536,1,2,0:0:0:0:
256,192,417074,1,2,0:0:0:0:
256,192,417844,1,2,0:0:0:0:
256,192,418228,1,0,0:0:0:0:
256,192,418613,1,2,0:0:0:0:
256,192,419382,1,0,0:0:0:0:
256,192,420151,1,2,0:0:0:0:
256,192,421690,1,2,0:0:0:0:
256,192,423228,1,2,0:0:0:0:
256,192,423997,1,0,0:0:0:0:
256,192,424767,1,2,0:0:0:0:
256,192,425536,1,0,0:0:0:0:
256,192,426305,1,2,0:0:0:0:
256,192,427844,1,2,0:0:0:0:
256,192,429382,1,2,0:0:0:0:
256,192,430151,1,0,0:0:0:0:
256,192,430536,1,2,0:0:0:0:
256,192,430632,1,2,0:0:0:0:
256,192,430728,1,2,0:0:0:0:
256,192,430921,1,4,0:0:0:0:
256,192,431113,12,0,443613,0:0:0:0:
