osu file format v14

[General]
AudioFilename: audio.mp3
AudioLeadIn: 0
PreviewTime: 187061
Countdown: 0
SampleSet: Normal
StackLeniency: 0.7
Mode: 1
LetterboxInBreaks: 0
WidescreenStoryboard: 1

[Editor]
Bookmarks: 12246,35950,71506,95209,142617,190024,213728
DistanceSpacing: 0.9
BeatDivisor: 8
GridSize: 32
TimelineZoom: 1.9

[Metadata]
Title:anticrystal
TitleUnicode:anticrystal
Artist:sakuraburst
ArtistUnicode:sakuraburst
Creator:Marm
Version:Oni
Source:osu!
Tags:Cynplytholowazy -GN Junior featured artist fa mappers' guild mg EP experimental Instrumental Electronic Cynp-zy
BeatmapID:2204828
BeatmapSetID:1055189

[Difficulty]
HPDrainRate:5
CircleSize:5
OverallDifficulty:5
ApproachRate:0
SliderMultiplier:1.4
SliderTickRate:1

[Events]
//Background and Video events
0,0,"soap-bubble-1986657_1920.jpg",0,60
//Break Periods
2,166520,185261
//Storyboard Layer 0 (Background)
//Storyboard Layer 1 (Fail)
//Storyboard Layer 2 (Pass)
//Storyboard Layer 3 (Foreground)
//Storyboard Layer 4 (Overlay)
//Storyboard Sound Samples

[TimingPoints]
395,370.37037037037,4,1,0,50,1,0
35904,-100,4,1,0,85,0,0
47200,-100,4,1,0,100,0,0
47802,-100,4,1,0,100,0,1
71506,-166.666666666667,4,1,0,100,0,0
72200,-166.666666666667,4,1,0,50,0,0
83311,-142.857142857143,4,1,0,60,0,0
84006,-140.845070422535,4,1,0,60,0,0
84376,-138.888888888889,4,1,0,60,0,0
85117,-136.986301369863,4,1,0,60,0,0
85487,-135.135135135135,4,1,0,60,0,0
86228,-131.578947368421,4,1,0,60,0,0
86969,-129.87012987013,4,1,0,60,0,0
87339,-128.205128205128,4,1,0,60,0,0
88080,-126.582278481013,4,1,0,60,0,0
88450,-125,4,1,0,60,0,0
89191,-121.951219512195,4,1,0,60,0,0
89932,-120.481927710843,4,1,0,60,0,0
90302,-119.047619047619,4,1,0,60,0,0
91043,-117.647058823529,4,1,0,60,0,0
91413,-116.279069767442,4,1,0,60,0,0
94422,-66.6666666666667,4,1,0,80,0,0
94793,-76.9230769230769,4,1,0,80,0,0
94978,-83.3333333333333,4,1,0,80,0,0
95163,-90.9090909090909,4,1,0,80,0,0
95209,-90.9090909090909,4,1,0,80,0,1
118172,-90.9090909090909,4,1,0,80,0,0
118913,-105.263157894737,4,1,0,80,0,0
119237,-105.263157894737,4,1,0,80,0,0
120904,-108.695652173913,4,1,0,80,0,0
121089,-112.359550561798,4,1,0,80,0,0
121459,-119.047619047619,4,1,0,80,0,0
121691,-121.951219512195,4,1,0,80,0,1
121830,-125,4,1,0,80,0,1
142200,-66.6666666666667,4,1,0,80,0,1
142246,-66.6666666666667,4,1,0,80,0,0
142570,-100,4,1,0,50,0,0
166274,-100,4,1,0,70,0,0
167802,-200,4,1,0,70,0,0
190024,-83.3333333333333,4,1,0,100,0,1
212246,-83.3333333333333,4,1,0,80,0,0
213728,-133.333333333333,4,1,0,80,0,0

[HitObjects]
256,192,12246,5,12,0:0:0:0:
256,192,12617,1,8,0:0:0:0:
256,192,12987,1,0,0:0:0:0:
256,192,13357,1,0,0:0:0:0:
256,192,15950,1,0,0:0:0:0:
256,192,16320,1,8,0:0:0:0:
256,192,16691,1,0,0:0:0:0:
256,192,17802,1,8,0:0:0:0:
256,192,18543,1,0,0:0:0:0:
256,192,18913,1,8,0:0:0:0:
256,192,20024,1,0,0:0:0:0:
256,192,20394,1,8,0:0:0:0:
256,192,21506,1,0,0:0:0:0:
256,192,21876,1,8,0:0:0:0:
256,192,22987,1,0,0:0:0:0:
256,192,23357,1,8,0:0:0:0:
256,192,24098,1,12,0:0:0:0:
256,192,24469,1,8,0:0:0:0:
256,192,24839,1,0,0:0:0:0:
256,192,25209,1,0,0:0:0:0:
256,192,25950,1,8,0:0:0:0:
256,192,26320,1,8,0:0:0:0:
256,192,26691,1,8,0:0:0:0:
256,192,28172,1,0,0:0:0:0:
256,192,28543,1,8,0:0:0:0:
256,192,29283,1,0,0:0:0:0:
256,192,29654,1,0,0:0:0:0:
256,192,30024,1,8,0:0:0:0:
256,192,30394,1,0,0:0:0:0:
256,192,30765,1,8,0:0:0:0:
256,192,31876,1,0,0:0:0:0:
256,192,32246,1,8,0:0:0:0:
256,192,33357,1,0,0:0:0:0:
256,192,33728,1,8,0:0:0:0:
256,192,34839,1,0,0:0:0:0:
256,192,35209,1,8,0:0:0:0:
256,192,35950,1,0,0:0:0:0:
256,192,36043,1,0,0:0:0:0:
256,192,36135,1,8,0:0:0:0:
256,192,36506,1,0,0:0:0:0:
256,192,36691,1,8,0:0:0:0:
256,192,37061,1,0,0:0:0:0:
256,192,37154,1,0,0:0:0:0:
256,192,37246,1,8,0:0:0:0:
256,192,37432,1,0,0:0:0:0:
256,192,37524,1,0,0:0:0:0:
256,192,37617,1,0,0:0:0:0:
256,192,37987,1,0,0:0:0:0:
256,192,38172,1,8,0:0:0:0:
256,192,38543,1,0,0:0:0:0:
256,192,38728,1,8,0:0:0:0:
256,192,38820,1,8,0:0:0:0:
256,192,38913,1,0,0:0:0:0:
256,192,39098,1,8,0:0:0:0:
256,192,39283,1,8,0:0:0:0:
256,192,39469,1,0,0:0:0:0:
256,192,39654,1,8,0:0:0:0:
256,192,40024,1,8,0:0:0:0:
256,192,40117,1,0,0:0:0:0:
256,192,40209,1,8,0:0:0:0:
256,192,40394,1,0,0:0:0:0:
256,192,40487,1,0,0:0:0:0:
256,192,40580,1,0,0:0:0:0:
256,192,40765,1,8,0:0:0:0:
256,192,40950,1,0,0:0:0:0:
256,192,41135,1,8,0:0:0:0:
256,192,41320,1,12,0:0:0:0:
256,192,41876,1,0,0:0:0:0:
256,192,41969,1,0,0:0:0:0:
256,192,42061,1,8,0:0:0:0:
256,192,42246,1,8,0:0:0:0:
256,192,42432,1,0,0:0:0:0:
256,192,42617,1,8,0:0:0:0:
256,192,42802,1,8,0:0:0:0:
256,192,42894,1,0,0:0:0:0:
256,192,42987,1,0,0:0:0:0:
256,192,43080,1,0,0:0:0:0:
256,192,43172,1,8,0:0:0:0:
256,192,43357,1,0,0:0:0:0:
256,192,43450,1,0,0:0:0:0:
256,192,43543,1,0,0:0:0:0:
256,192,43913,1,0,0:0:0:0:
256,192,44098,1,8,0:0:0:0:
256,192,44469,1,0,0:0:0:0:
256,192,44561,1,0,0:0:0:0:
256,192,44654,1,8,0:0:0:0:
256,192,44746,1,8,0:0:0:0:
256,192,44839,1,0,0:0:0:0:
256,192,45024,1,8,0:0:0:0:
256,192,45209,1,8,0:0:0:0:
256,192,45394,1,0,0:0:0:0:
256,192,45580,1,8,0:0:0:0:
256,192,45950,1,0,0:0:0:0:
256,192,46135,1,8,0:0:0:0:
256,192,46228,1,8,0:0:0:0:
256,192,46320,1,0,0:0:0:0:
256,192,46691,1,8,0:0:0:0:
256,192,46876,1,0,0:0:0:0:
256,192,46969,1,8,0:0:0:0:
256,192,47061,1,0,0:0:0:0:
256,192,47246,1,12,0:0:0:0:
256,192,47802,1,0,0:0:0:0:
256,192,47894,1,0,0:0:0:0:
256,192,47987,1,8,0:0:0:0:
256,192,48265,1,8,0:0:0:0:
256,192,48450,1,0,0:0:0:0:
256,192,48543,1,8,0:0:0:0:
256,192,48728,1,8,0:0:0:0:
256,192,48913,1,0,0:0:0:0:
256,192,49006,1,0,0:0:0:0:
256,192,49098,1,8,0:0:0:0:
256,192,49469,1,8,0:0:0:0:
256,192,49746,1,8,0:0:0:0:
256,192,49932,1,0,0:0:0:0:
256,192,50024,1,8,0:0:0:0:
256,192,50394,1,0,0:0:0:0:
256,192,50487,1,0,0:0:0:0:
256,192,50580,1,8,0:0:0:0:
256,192,50672,1,8,0:0:0:0:
256,192,50765,1,0,0:0:0:0:
256,192,50950,1,8,0:0:0:0:
256,192,51135,1,8,0:0:0:0:
256,192,51320,1,0,0:0:0:0:
256,192,51506,1,8,0:0:0:0:
256,192,51876,1,8,0:0:0:0:
256,192,51969,1,8,0:0:0:0:
256,192,52061,1,0,0:0:0:0:
256,192,52246,1,12,0:0:0:0:
256,192,52432,1,0,0:0:0:0:
256,192,52617,1,8,0:0:0:0:
256,192,52709,1,0,0:0:0:0:
256,192,52802,1,8,0:0:0:0:
256,192,52894,1,0,0:0:0:0:
256,192,52987,1,8,0:0:0:0:
256,192,53172,1,0,0:0:0:0:
256,192,53357,1,8,0:0:0:0:
256,192,53728,1,0,0:0:0:0:
256,192,53820,1,0,0:0:0:0:
256,192,53913,1,8,0:0:0:0:
256,192,54191,1,8,0:0:0:0:
256,192,54376,1,0,0:0:0:0:
256,192,54469,1,8,0:0:0:0:
256,192,54839,1,0,0:0:0:0:
256,192,55024,1,8,0:0:0:0:
256,192,55209,1,0,0:0:0:0:
256,192,55302,1,0,0:0:0:0:
256,192,55394,1,8,0:0:0:0:
256,192,55672,1,8,0:0:0:0:
256,192,55857,1,0,0:0:0:0:
256,192,55950,1,8,0:0:0:0:
256,192,56320,1,8,0:0:0:0:
256,192,56413,1,8,0:0:0:0:
256,192,56506,1,0,0:0:0:0:
256,192,56598,1,0,0:0:0:0:
256,192,56691,1,8,0:0:0:0:
256,192,56876,1,8,0:0:0:0:
256,192,57061,1,8,0:0:0:0:
256,192,57246,1,0,0:0:0:0:
256,192,57432,1,8,0:0:0:0:
256,192,57802,1,0,0:0:0:0:
256,192,57987,1,8,0:0:0:0:
256,192,58080,1,8,0:0:0:0:
256,192,58172,1,0,0:0:0:0:
160,192,58357,2,0,L|160:96,3,70
256,192,59098,1,12,0:0:0:0:
256,192,59654,1,0,0:0:0:0:
256,192,59746,1,0,0:0:0:0:
256,192,59839,1,8,0:0:0:0:
256,192,60117,1,8,0:0:0:0:
256,192,60302,1,0,0:0:0:0:
256,192,60395,1,8,0:0:0:0:
256,192,60580,1,8,0:0:0:0:
256,192,60765,1,0,0:0:0:0:
256,192,60858,1,0,0:0:0:0:
256,192,60950,1,8,0:0:0:0:
256,192,61321,1,8,0:0:0:0:
256,192,61598,1,8,0:0:0:0:
256,192,61691,1,0,0:0:0:0:
256,192,61784,1,0,0:0:0:0:
256,192,61876,1,8,0:0:0:0:
256,192,62246,1,0,0:0:0:0:
256,192,62339,1,0,0:0:0:0:
256,192,62432,1,8,0:0:0:0:
256,192,62524,1,8,0:0:0:0:
256,192,62617,1,0,0:0:0:0:
256,192,62802,1,8,0:0:0:0:
256,192,62987,1,8,0:0:0:0:
256,192,63172,1,0,0:0:0:0:
256,192,63358,1,8,0:0:0:0:
256,192,63728,1,8,0:0:0:0:
256,192,63821,1,8,0:0:0:0:
256,192,63913,1,0,0:0:0:0:
256,192,64098,1,12,0:0:0:0:
256,192,64284,1,0,0:0:0:0:
256,192,64469,1,8,0:0:0:0:
256,192,64561,1,0,0:0:0:0:
256,192,64654,1,8,0:0:0:0:
256,192,64746,1,0,0:0:0:0:
256,192,64839,1,8,0:0:0:0:
256,192,65024,1,0,0:0:0:0:
256,192,65209,1,8,0:0:0:0:
256,192,65580,1,0,0:0:0:0:
256,192,65672,1,0,0:0:0:0:
256,192,65765,1,8,0:0:0:0:
256,192,66043,1,8,0:0:0:0:
256,192,66135,1,0,0:0:0:0:
256,192,66228,1,0,0:0:0:0:
256,192,66321,1,8,0:0:0:0:
256,192,66691,1,0,0:0:0:0:
256,192,66876,1,8,0:0:0:0:
256,192,67061,1,0,0:0:0:0:
256,192,67154,1,0,0:0:0:0:
256,192,67246,1,8,0:0:0:0:
256,192,67524,1,8,0:0:0:0:
256,192,67709,1,0,0:0:0:0:
256,192,67802,1,8,0:0:0:0:
256,192,68172,1,8,0:0:0:0:
256,192,68265,1,8,0:0:0:0:
256,192,68358,1,0,0:0:0:0:
256,192,68450,1,0,0:0:0:0:
256,192,68543,1,8,0:0:0:0:
256,192,68728,1,8,0:0:0:0:
256,192,68913,1,8,0:0:0:0:
256,192,69098,1,0,0:0:0:0:
256,192,69284,1,8,0:0:0:0:
256,192,69654,1,0,0:0:0:0:
256,192,69839,1,8,0:0:0:0:
256,192,69932,1,8,0:0:0:0:
256,192,70024,1,0,0:0:0:0:
256,192,70394,12,0,71506,0:0:0:0:
256,192,72246,5,8,0:0:0:0:
256,192,72987,1,8,0:0:0:0:
256,192,74469,1,8,0:0:0:0:
256,192,75209,1,8,0:0:0:0:
256,192,75950,1,0,0:0:0:0:
256,192,76691,1,8,0:0:0:0:
256,192,77432,1,0,0:0:0:0:
256,192,78172,1,8,0:0:0:0:
256,192,78913,1,0,0:0:0:0:
256,192,79654,1,8,0:0:0:0:
256,192,80394,1,0,0:0:0:0:
256,192,81135,1,0,0:0:0:0:
256,192,81876,1,0,0:0:0:0:
256,192,83357,1,4,0:0:0:0:
256,192,83913,1,8,0:0:0:0:
256,192,84098,1,8,0:0:0:0:
256,192,84469,1,8,0:0:0:0:
256,192,85024,1,8,0:0:0:0:
256,192,85209,1,8,0:0:0:0:
256,192,85580,1,8,0:0:0:0:
256,192,86320,1,8,0:0:0:0:
256,192,86876,1,8,0:0:0:0:
256,192,87061,1,8,0:0:0:0:
256,192,87432,1,8,0:0:0:0:
256,192,87987,1,8,0:0:0:0:
256,192,88172,1,8,0:0:0:0:
256,192,88543,1,8,0:0:0:0:
256,192,89283,1,8,0:0:0:0:
256,192,89839,1,8,0:0:0:0:
256,192,90024,1,8,0:0:0:0:
256,192,90394,1,8,0:0:0:0:
256,192,90950,1,8,0:0:0:0:
256,192,91135,1,8,0:0:0:0:
256,192,91506,1,8,0:0:0:0:
256,192,92246,1,8,0:0:0:0:
256,192,94469,1,12,0:0:0:0:
256,192,94839,1,0,0:0:0:0:
256,192,95024,1,8,0:0:0:0:
256,192,95209,1,0,0:0:0:0:
258,201,95394,1,0,0:0:0:0:
258,201,95487,1,0,0:0:0:0:
258,201,95580,1,0,0:0:0:0:
258,201,95765,1,0,0:0:0:0:
255,201,95950,1,8,0:0:0:0:
256,192,96043,1,0,0:0:0:0:
256,192,96135,1,0,0:0:0:0:
258,201,96320,1,8,0:0:0:0:
255,201,96506,1,0,0:0:0:0:
258,201,96691,1,0,0:0:0:0:
256,192,96783,1,0,0:0:0:0:
255,201,96876,1,8,0:0:0:0:
255,201,97061,1,0,0:0:0:0:
255,201,97432,1,8,0:0:0:0:
255,201,97617,1,0,0:0:0:0:
256,192,97709,1,0,0:0:0:0:
255,201,97802,1,8,0:0:0:0:
255,201,97987,1,0,0:0:0:0:
255,201,98172,1,0,0:0:0:0:
255,201,98265,1,8,0:0:0:0:
255,201,98357,1,0,0:0:0:0:
255,201,98543,1,0,0:0:0:0:
256,192,98728,1,8,0:0:0:0:
256,192,98913,1,8,0:0:0:0:
256,192,99098,1,0,0:0:0:0:
256,192,99191,1,0,0:0:0:0:
256,192,99283,1,8,0:0:0:0:
256,192,99376,1,8,0:0:0:0:
256,192,99469,1,0,0:0:0:0:
256,192,99654,1,0,0:0:0:0:
256,192,99839,1,8,0:0:0:0:
256,192,100209,1,0,0:0:0:0:
256,192,100394,1,8,0:0:0:0:
256,192,100580,1,0,0:0:0:0:
256,192,100672,1,0,0:0:0:0:
256,192,100765,1,8,0:0:0:0:
256,192,100950,1,8,0:0:0:0:
256,192,101135,1,0,0:0:0:0:
256,192,101320,1,0,0:0:0:0:
256,192,101413,1,0,0:0:0:0:
256,192,101506,1,0,0:0:0:0:
256,192,101691,1,8,0:0:0:0:
256,192,101876,1,8,0:0:0:0:
256,192,101969,1,0,0:0:0:0:
256,192,102061,1,0,0:0:0:0:
256,192,102246,1,8,0:0:0:0:
256,192,102432,1,0,0:0:0:0:
256,192,102802,1,8,0:0:0:0:
256,192,102987,1,0,0:0:0:0:
256,192,103080,1,0,0:0:0:0:
256,192,103172,1,0,0:0:0:0:
256,192,103357,1,8,0:0:0:0:
256,192,103543,1,8,0:0:0:0:
256,192,103635,1,0,0:0:0:0:
256,192,103728,1,8,0:0:0:0:
256,192,103913,1,0,0:0:0:0:
256,192,104283,1,0,0:0:0:0:
256,192,104469,1,0,0:0:0:0:
256,192,104839,1,8,0:0:0:0:
256,192,105024,1,0,0:0:0:0:
256,192,105117,1,0,0:0:0:0:
256,192,105209,1,8,0:0:0:0:
256,192,105302,1,8,0:0:0:0:
256,192,105394,1,0,0:0:0:0:
256,192,105580,1,0,0:0:0:0:
256,192,105950,1,0,0:0:0:0:
256,192,106320,1,12,0:0:0:0:
256,192,107061,1,0,0:0:0:0:
258,201,107246,1,0,0:0:0:0:
258,201,107339,1,0,0:0:0:0:
258,201,107432,1,0,0:0:0:0:
258,201,107617,1,0,0:0:0:0:
255,201,107802,1,8,0:0:0:0:
256,192,107895,1,0,0:0:0:0:
256,192,107987,1,0,0:0:0:0:
258,201,108172,1,8,0:0:0:0:
255,201,108358,1,0,0:0:0:0:
258,201,108543,1,0,0:0:0:0:
256,192,108635,1,0,0:0:0:0:
255,201,108728,1,8,0:0:0:0:
255,201,108913,1,0,0:0:0:0:
255,201,109284,1,8,0:0:0:0:
255,201,109469,1,0,0:0:0:0:
256,192,109561,1,0,0:0:0:0:
255,201,109654,1,8,0:0:0:0:
255,201,109839,1,0,0:0:0:0:
255,201,110024,1,0,0:0:0:0:
255,201,110117,1,8,0:0:0:0:
255,201,110209,1,0,0:0:0:0:
255,201,110395,1,0,0:0:0:0:
256,192,110580,1,8,0:0:0:0:
256,192,110765,1,8,0:0:0:0:
256,192,110950,1,0,0:0:0:0:
256,192,111043,1,0,0:0:0:0:
256,192,111135,1,8,0:0:0:0:
256,192,111228,1,8,0:0:0:0:
256,192,111321,1,0,0:0:0:0:
256,192,111506,1,0,0:0:0:0:
256,192,111691,1,8,0:0:0:0:
256,192,112061,1,0,0:0:0:0:
256,192,112246,1,8,0:0:0:0:
256,192,112432,1,0,0:0:0:0:
256,192,112524,1,0,0:0:0:0:
256,192,112617,1,8,0:0:0:0:
256,192,112802,1,8,0:0:0:0:
256,192,112987,1,0,0:0:0:0:
256,192,113172,1,0,0:0:0:0:
256,192,113265,1,0,0:0:0:0:
256,192,113358,1,0,0:0:0:0:
256,192,113543,1,8,0:0:0:0:
256,192,113728,1,8,0:0:0:0:
256,192,113821,1,0,0:0:0:0:
256,192,113913,1,0,0:0:0:0:
256,192,114098,1,8,0:0:0:0:
256,192,114284,1,0,0:0:0:0:
256,192,114654,1,8,0:0:0:0:
256,192,114839,1,0,0:0:0:0:
256,192,114932,1,0,0:0:0:0:
256,192,115024,1,0,0:0:0:0:
256,192,115209,1,8,0:0:0:0:
256,192,115395,1,8,0:0:0:0:
256,192,115487,1,0,0:0:0:0:
256,192,115580,1,8,0:0:0:0:
256,192,115765,1,0,0:0:0:0:
256,192,116135,1,0,0:0:0:0:
256,192,116321,1,0,0:0:0:0:
256,192,116691,1,8,0:0:0:0:
256,192,116876,1,0,0:0:0:0:
256,192,116969,1,0,0:0:0:0:
256,192,117061,1,8,0:0:0:0:
256,192,117154,1,8,0:0:0:0:
256,192,117246,1,0,0:0:0:0:
256,192,117432,1,0,0:0:0:0:
256,192,117802,1,0,0:0:0:0:
256,192,118172,1,12,0:0:0:0:
256,192,119283,1,8,0:0:0:0:
256,192,120024,1,8,0:0:0:0:
256,192,120765,1,8,0:0:0:0:
256,192,120950,1,0,0:0:0:0:
256,192,121135,1,8,0:0:0:0:
256,192,121506,1,8,0:0:0:0:
256,192,121691,1,0,0:0:0:0:
256,192,121876,1,8,0:0:0:0:
256,192,121969,1,0,0:0:0:0:
256,192,122061,1,0,0:0:0:0:
256,192,122154,1,0,0:0:0:0:
256,192,122246,1,8,0:0:0:0:
256,192,122432,1,0,0:0:0:0:
256,192,122617,1,8,0:0:0:0:
256,192,122802,1,0,0:0:0:0:
256,192,122894,1,0,0:0:0:0:
256,192,122987,1,8,0:0:0:0:
256,192,123080,1,8,0:0:0:0:
256,192,123172,1,0,0:0:0:0:
256,192,123357,1,0,0:0:0:0:
256,192,123728,1,8,0:0:0:0:
256,192,124098,1,8,0:0:0:0:
256,192,124283,1,0,0:0:0:0:
256,192,124469,1,8,0:0:0:0:
256,192,124654,1,8,0:0:0:0:
256,192,124746,1,8,0:0:0:0:
256,192,124839,1,0,0:0:0:0:
256,192,125209,1,8,0:0:0:0:
256,192,125394,1,0,0:0:0:0:
256,192,125580,1,8,0:0:0:0:
256,192,125672,1,0,0:0:0:0:
256,192,125765,1,0,0:0:0:0:
256,192,125857,1,0,0:0:0:0:
256,192,125950,1,8,0:0:0:0:
256,192,126135,1,0,0:0:0:0:
256,192,126506,1,8,0:0:0:0:
256,192,126598,1,0,0:0:0:0:
256,192,126691,1,0,0:0:0:0:
256,192,127061,1,8,0:0:0:0:
256,192,127246,1,8,0:0:0:0:
256,192,127339,1,0,0:0:0:0:
256,192,127432,1,8,0:0:0:0:
256,192,127617,1,0,0:0:0:0:
256,192,128172,1,8,0:0:0:0:
256,192,128357,1,0,0:0:0:0:
256,192,128543,1,8,0:0:0:0:
256,192,128728,1,0,0:0:0:0:
256,192,128820,1,0,0:0:0:0:
256,192,128913,1,8,0:0:0:0:
256,192,129006,1,8,0:0:0:0:
256,192,129098,1,8,0:0:0:0:
256,192,129283,1,0,0:0:0:0:
256,192,129654,1,8,0:0:0:0:
256,192,129839,1,0,0:0:0:0:
256,192,129932,1,0,0:0:0:0:
256,192,130024,1,0,0:0:0:0:
256,192,130209,1,8,0:0:0:0:
256,192,130394,1,8,0:0:0:0:
256,192,130580,1,0,0:0:0:0:
256,192,130672,1,0,0:0:0:0:
256,192,130765,1,8,0:0:0:0:
256,192,130950,1,0,0:0:0:0:
256,192,131135,1,8,0:0:0:0:
256,192,131506,1,8,0:0:0:0:
256,192,131598,1,0,0:0:0:0:
256,192,131691,1,0,0:0:0:0:
256,192,131783,1,0,0:0:0:0:
256,192,131876,1,8,0:0:0:0:
256,192,132061,1,0,0:0:0:0:
256,192,132432,1,8,0:0:0:0:
256,192,132524,1,0,0:0:0:0:
256,192,132617,1,0,0:0:0:0:
256,192,132987,1,8,0:0:0:0:
256,192,133172,1,8,0:0:0:0:
256,192,133265,1,0,0:0:0:0:
256,192,133357,1,8,0:0:0:0:
256,192,133543,1,0,0:0:0:0:
256,192,134098,1,8,0:0:0:0:
256,192,134283,1,0,0:0:0:0:
256,192,134469,1,8,0:0:0:0:
256,192,134654,1,0,0:0:0:0:
256,192,134746,1,0,0:0:0:0:
256,192,134839,1,8,0:0:0:0:
256,192,134932,1,8,0:0:0:0:
256,192,135024,1,0,0:0:0:0:
256,192,135209,1,0,0:0:0:0:
256,192,135580,1,8,0:0:0:0:
256,192,135765,1,0,0:0:0:0:
256,192,135857,1,0,0:0:0:0:
256,192,135950,1,8,0:0:0:0:
256,192,136135,1,0,0:0:0:0:
256,192,136320,1,8,0:0:0:0:
256,192,136506,1,8,0:0:0:0:
256,192,136598,1,8,0:0:0:0:
256,192,136691,1,0,0:0:0:0:
256,192,137061,1,8,0:0:0:0:
256,192,137246,1,0,0:0:0:0:
256,192,137432,1,8,0:0:0:0:
256,192,137524,1,0,0:0:0:0:
256,192,137617,1,0,0:0:0:0:
256,192,137709,1,0,0:0:0:0:
256,192,137802,1,8,0:0:0:0:
256,192,137987,1,0,0:0:0:0:
256,192,138357,1,8,0:0:0:0:
256,192,138450,1,0,0:0:0:0:
256,192,138543,1,0,0:0:0:0:
256,192,138913,1,8,0:0:0:0:
256,192,139098,1,0,0:0:0:0:
256,192,139191,1,0,0:0:0:0:
256,192,139283,1,8,0:0:0:0:
256,192,139469,1,0,0:0:0:0:
256,192,140024,1,8,0:0:0:0:
256,192,140394,1,8,0:0:0:0:
256,192,140580,1,0,0:0:0:0:
256,192,140672,1,0,0:0:0:0:
256,192,140765,1,8,0:0:0:0:
256,192,140857,1,8,0:0:0:0:
256,192,140950,1,8,0:0:0:0:
256,192,141135,1,0,0:0:0:0:
256,192,141506,1,8,0:0:0:0:
256,192,141691,1,0,0:0:0:0:
256,192,141783,1,0,0:0:0:0:
256,192,141876,1,0,0:0:0:0:
256,192,142246,1,12,0:0:0:0:
256,192,142617,1,8,0:0:0:0:
256,192,142988,1,8,0:0:0:0:
256,192,143358,1,0,0:0:0:0:
256,192,143728,1,0,0:0:0:0:
256,192,146321,1,0,0:0:0:0:
256,192,146691,1,8,0:0:0:0:
256,192,147062,1,0,0:0:0:0:
256,192,148173,1,8,0:0:0:0:
256,192,148914,1,0,0:0:0:0:
256,192,149284,1,8,0:0:0:0:
256,192,150395,1,0,0:0:0:0:
256,192,150765,1,8,0:0:0:0:
256,192,151877,1,0,0:0:0:0:
256,192,152247,1,8,0:0:0:0:
256,192,153358,1,0,0:0:0:0:
256,192,153728,1,8,0:0:0:0:
256,192,154469,1,12,0:0:0:0:
256,192,154840,1,8,0:0:0:0:
256,192,155210,1,0,0:0:0:0:
256,192,155580,1,0,0:0:0:0:
256,192,156321,1,8,0:0:0:0:
256,192,156691,1,8,0:0:0:0:
256,192,157062,1,8,0:0:0:0:
256,192,158543,1,0,0:0:0:0:
256,192,158914,1,8,0:0:0:0:
256,192,159654,1,0,0:0:0:0:
256,192,160025,1,0,0:0:0:0:
256,192,160395,1,8,0:0:0:0:
256,192,160765,12,0,166135,0:0:0:0:
256,192,166320,5,4,0:0:0:0:
256,192,187061,12,0,189654,0:0:0:0:
256,192,190024,5,4,0:0:0:0:
256,192,190394,1,0,0:0:0:0:
256,192,190580,1,8,0:0:0:0:
256,192,190765,1,8,0:0:0:0:
256,192,190857,1,8,0:0:0:0:
256,192,190950,1,8,0:0:0:0:
256,192,191043,1,8,0:0:0:0:
256,192,191135,1,8,0:0:0:0:
256,192,191228,1,8,0:0:0:0:
256,192,191320,1,0,0:0:0:0:
256,192,191506,1,8,0:0:0:0:
256,192,191691,1,0,0:0:0:0:
256,192,191876,1,8,0:0:0:0:
256,192,192061,1,8,0:0:0:0:
256,192,192154,1,8,0:0:0:0:
256,192,192246,1,0,0:0:0:0:
256,192,192617,1,8,0:0:0:0:
256,192,192802,1,8,0:0:0:0:
256,192,192987,1,0,0:0:0:0:
256,192,193080,1,0,0:0:0:0:
256,192,193172,1,8,0:0:0:0:
256,192,193357,1,0,0:0:0:0:
256,192,193728,1,8,0:0:0:0:
256,192,193913,1,8,0:0:0:0:
256,192,194006,1,8,0:0:0:0:
256,192,194098,1,0,0:0:0:0:
256,192,194191,1,0,0:0:0:0:
256,192,194283,1,8,0:0:0:0:
256,192,194469,1,8,0:0:0:0:
256,192,194654,1,0,0:0:0:0:
256,192,194839,1,8,0:0:0:0:
256,192,194932,1,0,0:0:0:0:
256,192,195024,1,8,0:0:0:0:
256,192,195209,1,0,0:0:0:0:
256,192,195394,1,8,0:0:0:0:
256,192,195580,1,8,0:0:0:0:
256,192,195765,1,0,0:0:0:0:
256,192,195857,1,0,0:0:0:0:
256,192,195950,1,0,0:0:0:0:
256,192,196320,1,0,0:0:0:0:
256,192,196506,1,8,0:0:0:0:
256,192,196691,1,8,0:0:0:0:
256,192,196783,1,8,0:0:0:0:
256,192,196876,1,8,0:0:0:0:
256,192,196969,1,8,0:0:0:0:
256,192,197061,1,8,0:0:0:0:
256,192,197154,1,8,0:0:0:0:
256,192,197246,1,0,0:0:0:0:
256,192,197432,1,8,0:0:0:0:
256,192,197802,1,8,0:0:0:0:
256,192,197987,1,0,0:0:0:0:
256,192,198080,1,0,0:0:0:0:
256,192,198172,1,8,0:0:0:0:
256,192,198357,1,0,0:0:0:0:
256,192,198543,1,8,0:0:0:0:
256,192,198728,1,4,0:0:0:0:
256,192,198913,1,4,0:0:0:0:
256,192,199283,1,8,0:0:0:0:
256,192,199469,1,8,0:0:0:0:
256,192,199654,1,0,0:0:0:0:
256,192,199839,1,8,0:0:0:0:
256,192,199932,1,8,0:0:0:0:
256,192,200024,1,0,0:0:0:0:
256,192,200117,1,0,0:0:0:0:
256,192,200209,1,8,0:0:0:0:
256,192,200394,1,8,0:0:0:0:
256,192,200580,1,0,0:0:0:0:
256,192,200765,1,8,0:0:0:0:
256,192,201135,1,0,0:0:0:0:
256,192,201320,1,8,0:0:0:0:
256,192,201413,1,8,0:0:0:0:
256,192,201506,1,0,0:0:0:0:
256,192,201691,1,0,0:0:0:0:
256,192,201876,1,0,0:0:0:0:
256,192,202246,1,0,0:0:0:0:
256,192,202432,1,8,0:0:0:0:
256,192,202617,1,8,0:0:0:0:
256,192,202709,1,8,0:0:0:0:
256,192,202802,1,8,0:0:0:0:
256,192,202894,1,8,0:0:0:0:
256,192,202987,1,8,0:0:0:0:
256,192,203080,1,8,0:0:0:0:
256,192,203172,1,0,0:0:0:0:
256,192,203357,1,8,0:0:0:0:
256,192,203543,1,0,0:0:0:0:
256,192,203728,1,8,0:0:0:0:
256,192,204098,1,0,0:0:0:0:
256,192,204469,1,8,0:0:0:0:
256,192,204654,1,4,0:0:0:0:
256,192,204839,1,4,0:0:0:0:
256,192,205024,1,0,0:0:0:0:
256,192,205117,1,0,0:0:0:0:
256,192,205209,1,8,0:0:0:0:
256,192,205580,1,0,0:0:0:0:
256,192,205765,1,8,0:0:0:0:
256,192,205857,1,8,0:0:0:0:
256,192,205950,1,0,0:0:0:0:
256,192,206043,1,0,0:0:0:0:
256,192,206135,1,8,0:0:0:0:
256,192,206320,1,8,0:0:0:0:
256,192,206506,1,0,0:0:0:0:
256,192,206691,1,8,0:0:0:0:
256,192,207061,1,8,0:0:0:0:
256,192,207246,1,8,0:0:0:0:
256,192,207339,1,8,0:0:0:0:
256,192,207432,1,0,0:0:0:0:
256,192,207617,1,0,0:0:0:0:
256,192,207802,1,0,0:0:0:0:
256,192,208172,1,0,0:0:0:0:
256,192,208357,1,8,0:0:0:0:
256,192,208543,1,8,0:0:0:0:
256,192,208635,1,8,0:0:0:0:
256,192,208728,1,8,0:0:0:0:
256,192,208820,1,8,0:0:0:0:
256,192,208913,1,8,0:0:0:0:
256,192,209006,1,8,0:0:0:0:
256,192,209098,1,0,0:0:0:0:
256,192,209283,1,8,0:0:0:0:
256,192,209654,1,12,0:0:0:0:
256,192,210024,1,0,0:0:0:0:
256,192,210209,1,8,0:0:0:0:
256,192,210394,1,0,0:0:0:0:
256,192,210580,1,4,0:0:0:0:
256,192,210765,1,4,0:0:0:0:
256,192,211135,1,0,0:0:0:0:
256,192,211320,1,8,0:0:0:0:
256,192,211413,1,0,0:0:0:0:
256,192,211506,1,8,0:0:0:0:
256,192,211691,1,8,0:0:0:0:
256,192,211783,1,8,0:0:0:0:
256,192,211876,1,8,0:0:0:0:
256,192,211969,1,8,0:0:0:0:
256,192,212061,1,8,0:0:0:0:
256,192,212154,1,8,0:0:0:0:
256,192,212246,12,0,213543,0:0:0:0:
256,192,213728,5,4,0:0:0:0:
