osu file format v14

[General]
AudioFilename: audio.mp3
AudioLeadIn: 0
PreviewTime: 187061
Countdown: 0
SampleSet: Normal
StackLeniency: 0.7
Mode: 1
LetterboxInBreaks: 0
WidescreenStoryboard: 1

[Editor]
Bookmarks: 12246,35950,71506,95209,142617,190024,213728
DistanceSpacing: 0.9
BeatDivisor: 4
GridSize: 32
TimelineZoom: 2

[Metadata]
Title:anticrystal
TitleUnicode:anticrystal
Artist:sakuraburst
ArtistUnicode:sakuraburst
Creator:Marm
Version:Futsuu
Source:osu!
Tags:Cynplytholowazy -GN Junior featured artist fa mappers' guild mg EP experimental Instrumental Electronic Cynp-zy
BeatmapID:2204827
BeatmapSetID:1055189

[Difficulty]
HPDrainRate:6
CircleSize:5
OverallDifficulty:4
ApproachRate:0
SliderMultiplier:1.4
SliderTickRate:1

[Events]
//Background and Video events
0,0,"soap-bubble-1986657_1920.jpg",0,60
//Break Periods
2,166520,185261
//Storyboard Layer 0 (Background)
//Storyboard Layer 1 (Fail)
//Storyboard Layer 2 (Pass)
//Storyboard Layer 3 (Foreground)
//Storyboard Layer 4 (Overlay)
//Storyboard Sound Samples

[TimingPoints]
395,370.37037037037,4,1,0,50,1,0
35904,-100,4,1,0,85,0,0
47200,-100,4,1,0,100,0,0
47802,-100,4,1,0,100,0,1
71506,-142.857142857143,4,1,0,50,0,0
83311,-100,4,1,0,60,0,0
95209,-100,4,1,0,80,0,1
118172,-100,4,1,0,80,0,0
121691,-100,4,1,0,80,0,1
142617,-100,4,1,0,50,0,0
166274,-100,4,1,0,70,0,0
167802,-200,4,1,0,70,0,0
190024,-100,4,1,0,100,0,1
212246,-100,4,1,0,80,0,0

[HitObjects]
256,192,12246,5,12,0:0:0:0:
256,192,12987,1,0,0:0:0:0:
256,192,13357,1,0,0:0:0:0:
256,192,15950,1,0,0:0:0:0:
256,192,16320,1,8,0:0:0:0:
256,192,16691,1,0,0:0:0:0:
256,192,17802,1,0,0:0:0:0:
256,192,18172,1,8,0:0:0:0:
256,192,18913,1,8,0:0:0:0:
256,192,20394,1,8,0:0:0:0:
256,192,21876,1,8,0:0:0:0:
256,192,23357,1,8,0:0:0:0:
256,192,24098,1,12,0:0:0:0:
256,192,24839,1,0,0:0:0:0:
256,192,25209,1,0,0:0:0:0:
256,192,25950,1,8,0:0:0:0:
256,192,26320,1,8,0:0:0:0:
256,192,26691,1,8,0:0:0:0:
256,192,28172,1,0,0:0:0:0:
256,192,28543,1,8,0:0:0:0:
256,192,29283,1,0,0:0:0:0:
256,192,30024,1,8,0:0:0:0:
256,192,30394,1,0,0:0:0:0:
256,192,30765,1,8,0:0:0:0:
256,192,32246,1,8,0:0:0:0:
256,192,33728,1,8,0:0:0:0:
256,192,35209,1,8,0:0:0:0:
256,192,35950,1,0,0:0:0:0:
256,192,36506,1,0,0:0:0:0:
256,192,36691,1,8,0:0:0:0:
256,192,37061,1,0,0:0:0:0:
256,192,37432,1,0,0:0:0:0:
256,192,37987,1,0,0:0:0:0:
256,192,38172,1,8,0:0:0:0:
256,192,38543,1,0,0:0:0:0:
256,192,38913,1,8,0:0:0:0:
256,192,39654,1,8,0:0:0:0:
256,192,40024,1,8,0:0:0:0:
256,192,40394,1,8,0:0:0:0:
256,192,40950,1,0,0:0:0:0:
256,192,41320,1,12,0:0:0:0:
256,192,41876,1,0,0:0:0:0:
256,192,42432,1,0,0:0:0:0:
256,192,42617,1,8,0:0:0:0:
256,192,42987,1,0,0:0:0:0:
256,192,43357,1,0,0:0:0:0:
256,192,43913,1,0,0:0:0:0:
256,192,44098,1,8,0:0:0:0:
256,192,44469,1,0,0:0:0:0:
256,192,45209,1,8,0:0:0:0:
256,192,45580,1,8,0:0:0:0:
256,192,45950,1,0,0:0:0:0:
256,192,46320,1,8,0:0:0:0:
256,192,46876,1,0,0:0:0:0:
256,192,47246,1,12,0:0:0:0:
256,192,47802,1,4,0:0:0:0:
256,192,48357,1,0,0:0:0:0:
256,192,48543,1,8,0:0:0:0:
256,192,48913,1,0,0:0:0:0:
256,192,49469,1,0,0:0:0:0:
256,192,49839,1,0,0:0:0:0:
256,192,50024,1,8,0:0:0:0:
256,192,50394,1,8,0:0:0:0:
256,192,50765,1,0,0:0:0:0:
256,192,51135,1,8,0:0:0:0:
256,192,51320,1,8,0:0:0:0:
256,192,51506,1,8,0:0:0:0:
256,192,51876,1,8,0:0:0:0:
256,192,52246,1,8,0:0:0:0:
256,192,52617,1,0,0:0:0:0:
256,192,52987,1,8,0:0:0:0:
256,192,53728,1,0,0:0:0:0:
256,192,54283,1,0,0:0:0:0:
256,192,54469,1,8,0:0:0:0:
256,192,54839,1,0,0:0:0:0:
256,192,55209,1,0,0:0:0:0:
256,192,55765,1,0,0:0:0:0:
256,192,55950,1,8,0:0:0:0:
256,192,56320,1,0,0:0:0:0:
256,192,56691,1,0,0:0:0:0:
256,192,56876,1,0,0:0:0:0:
256,192,57061,1,0,0:0:0:0:
256,192,57432,1,8,0:0:0:0:
256,192,57802,1,0,0:0:0:0:
256,192,58172,1,8,0:0:0:0:
256,192,58543,1,0,0:0:0:0:
256,192,59098,1,12,0:0:0:0:
256,192,59654,1,4,0:0:0:0:
256,192,60209,1,0,0:0:0:0:
256,192,60395,1,8,0:0:0:0:
256,192,60765,1,0,0:0:0:0:
256,192,61321,1,0,0:0:0:0:
256,192,61691,1,0,0:0:0:0:
256,192,61876,1,8,0:0:0:0:
256,192,62246,1,8,0:0:0:0:
256,192,62617,1,0,0:0:0:0:
256,192,62987,1,8,0:0:0:0:
256,192,63172,1,8,0:0:0:0:
256,192,63358,1,8,0:0:0:0:
256,192,63728,1,8,0:0:0:0:
256,192,64098,1,8,0:0:0:0:
256,192,64469,1,0,0:0:0:0:
256,192,64839,1,8,0:0:0:0:
256,192,65580,1,0,0:0:0:0:
256,192,66135,1,0,0:0:0:0:
256,192,66321,1,8,0:0:0:0:
256,192,66691,1,0,0:0:0:0:
256,192,67061,1,0,0:0:0:0:
256,192,67617,1,0,0:0:0:0:
256,192,67802,1,8,0:0:0:0:
256,192,68172,1,0,0:0:0:0:
256,192,68543,1,8,0:0:0:0:
256,192,68728,1,0,0:0:0:0:
256,192,68913,1,8,0:0:0:0:
256,192,69284,1,8,0:0:0:0:
256,192,69654,1,0,0:0:0:0:
256,192,70024,1,8,0:0:0:0:
256,192,70394,12,0,71506,0:0:0:0:
256,192,72246,5,8,0:0:0:0:
256,192,72987,1,8,0:0:0:0:
256,192,74469,1,8,0:0:0:0:
256,192,75209,1,8,0:0:0:0:
256,192,75950,1,0,0:0:0:0:
256,192,76691,1,8,0:0:0:0:
256,192,77432,1,0,0:0:0:0:
256,192,78172,1,8,0:0:0:0:
256,192,78913,1,0,0:0:0:0:
256,192,79654,1,8,0:0:0:0:
256,192,80394,1,0,0:0:0:0:
256,192,81135,1,0,0:0:0:0:
256,192,81876,1,0,0:0:0:0:
256,192,83357,1,4,0:0:0:0:
256,192,84098,1,8,0:0:0:0:
256,192,84469,1,8,0:0:0:0:
256,192,85209,1,8,0:0:0:0:
256,192,85580,1,8,0:0:0:0:
256,192,86320,1,8,0:0:0:0:
256,192,87061,1,8,0:0:0:0:
256,192,87432,1,8,0:0:0:0:
256,192,88172,1,8,0:0:0:0:
256,192,88543,1,8,0:0:0:0:
256,192,89283,1,8,0:0:0:0:
256,192,90024,1,8,0:0:0:0:
256,192,90394,1,8,0:0:0:0:
256,192,91135,1,8,0:0:0:0:
256,192,91506,1,8,0:0:0:0:
256,192,92246,1,8,0:0:0:0:
256,192,94469,1,12,0:0:0:0:
256,192,95209,1,0,0:0:0:0:
256,192,95580,1,0,0:0:0:0:
256,192,95950,1,8,0:0:0:0:
256,192,96320,1,8,0:0:0:0:
256,192,96506,1,0,0:0:0:0:
256,192,97061,1,0,0:0:0:0:
256,192,97432,1,8,0:0:0:0:
256,192,97987,1,0,0:0:0:0:
256,192,98543,1,0,0:0:0:0:
256,192,98913,1,8,0:0:0:0:
256,192,99283,1,8,0:0:0:0:
256,192,99469,1,0,0:0:0:0:
256,192,99654,1,0,0:0:0:0:
256,192,100024,1,8,0:0:0:0:
256,192,100394,1,8,0:0:0:0:
256,192,100580,1,0,0:0:0:0:
256,192,100765,1,8,0:0:0:0:
256,192,101135,1,0,0:0:0:0:
256,192,101506,1,0,0:0:0:0:
256,192,101876,1,8,0:0:0:0:
256,192,102246,1,8,0:0:0:0:
256,192,102432,1,0,0:0:0:0:
256,192,102987,1,0,0:0:0:0:
256,192,103358,1,8,0:0:0:0:
256,192,103913,1,0,0:0:0:0:
256,192,104469,1,0,0:0:0:0:
256,192,104839,1,8,0:0:0:0:
256,192,105209,1,8,0:0:0:0:
256,192,105395,1,0,0:0:0:0:
256,192,105580,1,0,0:0:0:0:
256,192,105950,1,8,0:0:0:0:
256,192,106320,1,12,0:0:0:0:
256,192,107061,1,0,0:0:0:0:
256,192,107432,1,0,0:0:0:0:
256,192,107802,1,8,0:0:0:0:
256,192,108172,1,8,0:0:0:0:
256,192,108358,1,0,0:0:0:0:
256,192,108913,1,0,0:0:0:0:
256,192,109284,1,8,0:0:0:0:
256,192,109839,1,0,0:0:0:0:
256,192,110395,1,0,0:0:0:0:
256,192,110765,1,8,0:0:0:0:
256,192,111135,1,8,0:0:0:0:
256,192,111321,1,0,0:0:0:0:
256,192,111506,1,0,0:0:0:0:
256,192,111876,1,8,0:0:0:0:
256,192,112246,1,8,0:0:0:0:
256,192,112432,1,0,0:0:0:0:
256,192,112617,1,8,0:0:0:0:
256,192,112987,1,0,0:0:0:0:
256,192,113358,1,0,0:0:0:0:
256,192,113728,1,8,0:0:0:0:
256,192,114098,1,8,0:0:0:0:
256,192,114284,1,0,0:0:0:0:
256,192,114839,1,0,0:0:0:0:
256,192,115210,1,8,0:0:0:0:
256,192,115765,1,0,0:0:0:0:
256,192,116321,1,0,0:0:0:0:
256,192,116691,1,8,0:0:0:0:
256,192,117061,1,8,0:0:0:0:
256,192,117247,1,0,0:0:0:0:
256,192,117432,1,0,0:0:0:0:
256,192,117802,1,8,0:0:0:0:
256,192,118172,1,8,0:0:0:0:
256,192,119283,1,8,0:0:0:0:
256,192,120024,1,8,0:0:0:0:
256,192,120765,1,8,0:0:0:0:
256,192,121135,1,8,0:0:0:0:
256,192,121506,1,8,0:0:0:0:
256,192,121691,1,0,0:0:0:0:
256,192,121876,1,0,0:0:0:0:
256,192,122246,1,8,0:0:0:0:
256,192,122617,1,8,0:0:0:0:
256,192,122987,1,8,0:0:0:0:
256,192,123172,1,0,0:0:0:0:
256,192,123357,1,0,0:0:0:0:
256,192,123728,1,8,0:0:0:0:
256,192,124283,1,0,0:0:0:0:
256,192,124469,1,8,0:0:0:0:
256,192,124839,1,0,0:0:0:0:
256,192,125209,1,8,0:0:0:0:
256,192,125580,1,0,0:0:0:0:
256,192,125950,1,8,0:0:0:0:
256,192,126135,1,0,0:0:0:0:
256,192,126691,1,8,0:0:0:0:
256,192,127061,1,8,0:0:0:0:
256,192,127432,1,8,0:0:0:0:
256,192,127617,1,0,0:0:0:0:
256,192,128172,1,8,0:0:0:0:
256,192,128543,1,0,0:0:0:0:
256,192,128728,1,0,0:0:0:0:
256,192,128913,1,8,0:0:0:0:
256,192,129283,1,0,0:0:0:0:
256,192,129654,1,8,0:0:0:0:
256,192,130209,1,8,0:0:0:0:
256,192,130394,1,8,0:0:0:0:
256,192,130580,1,0,0:0:0:0:
256,192,130765,1,8,0:0:0:0:
256,192,131135,1,8,0:0:0:0:
256,192,131506,1,0,0:0:0:0:
256,192,131876,1,8,0:0:0:0:
256,192,132061,1,0,0:0:0:0:
256,192,132617,1,8,0:0:0:0:
256,192,132987,1,0,0:0:0:0:
256,192,133357,1,8,0:0:0:0:
256,192,133543,1,0,0:0:0:0:
256,192,134098,1,8,0:0:0:0:
256,192,134469,1,8,0:0:0:0:
256,192,134839,1,8,0:0:0:0:
256,192,135024,1,0,0:0:0:0:
256,192,135209,1,0,0:0:0:0:
256,192,135580,1,8,0:0:0:0:
256,192,135950,1,8,0:0:0:0:
256,192,136135,1,0,0:0:0:0:
256,192,136320,1,8,0:0:0:0:
256,192,136691,1,0,0:0:0:0:
256,192,137061,1,8,0:0:0:0:
256,192,137432,1,0,0:0:0:0:
256,192,137802,1,8,0:0:0:0:
256,192,137987,1,0,0:0:0:0:
256,192,138543,1,8,0:0:0:0:
256,192,138913,1,8,0:0:0:0:
256,192,139283,1,8,0:0:0:0:
256,192,139469,1,0,0:0:0:0:
256,192,140024,1,8,0:0:0:0:
256,192,140394,1,0,0:0:0:0:
256,192,140580,1,0,0:0:0:0:
256,192,140765,1,8,0:0:0:0:
256,192,141135,1,0,0:0:0:0:
256,192,141506,1,8,0:0:0:0:
256,192,141876,1,0,0:0:0:0:
256,192,142246,1,12,0:0:0:0:
256,192,142617,1,0,0:0:0:0:
256,192,143357,1,8,0:0:0:0:
256,192,143728,1,0,0:0:0:0:
256,192,146320,1,0,0:0:0:0:
256,192,146691,1,8,0:0:0:0:
256,192,147061,1,0,0:0:0:0:
256,192,148172,1,0,0:0:0:0:
256,192,148543,1,8,0:0:0:0:
256,192,149283,1,8,0:0:0:0:
256,192,150765,1,8,0:0:0:0:
256,192,152246,1,8,0:0:0:0:
256,192,153728,1,8,0:0:0:0:
256,192,154469,1,0,0:0:0:0:
256,192,155209,1,8,0:0:0:0:
256,192,155580,1,0,0:0:0:0:
256,192,156320,1,0,0:0:0:0:
256,192,156691,1,8,0:0:0:0:
256,192,157061,1,8,0:0:0:0:
256,192,158913,1,8,0:0:0:0:
256,192,159654,1,0,0:0:0:0:
256,192,160024,1,0,0:0:0:0:
256,192,160394,1,8,0:0:0:0:
256,192,160765,12,0,165580,0:0:0:0:
256,192,166320,5,4,0:0:0:0:
256,192,187061,12,0,189283,0:0:0:0:
256,192,190024,5,4,0:0:0:0:
256,192,190394,1,0,0:0:0:0:
256,192,190580,1,8,0:0:0:0:
256,192,190765,1,8,0:0:0:0:
256,192,190950,1,8,0:0:0:0:
256,192,191135,1,0,0:0:0:0:
256,192,191320,1,0,0:0:0:0:
256,192,191506,1,8,0:0:0:0:
256,192,191876,1,8,0:0:0:0:
256,192,192617,1,8,0:0:0:0:
256,192,192987,1,0,0:0:0:0:
256,192,193357,1,0,0:0:0:0:
256,192,193728,1,8,0:0:0:0:
256,192,193913,1,0,0:0:0:0:
256,192,194098,1,8,0:0:0:0:
256,192,194283,1,0,0:0:0:0:
256,192,194469,1,8,0:0:0:0:
256,192,194839,1,8,0:0:0:0:
256,192,195580,1,0,0:0:0:0:
256,192,195950,1,4,0:0:0:0:
256,192,196320,1,0,0:0:0:0:
256,192,196506,1,8,0:0:0:0:
256,192,196691,1,8,0:0:0:0:
256,192,196876,1,8,0:0:0:0:
256,192,197061,1,8,0:0:0:0:
256,192,197246,1,0,0:0:0:0:
256,192,197432,1,8,0:0:0:0:
256,192,197802,1,8,0:0:0:0:
256,192,198543,1,8,0:0:0:0:
256,192,198728,1,4,0:0:0:0:
256,192,198913,1,4,0:0:0:0:
256,192,199283,1,4,0:0:0:0:
256,192,199654,1,0,0:0:0:0:
256,192,199839,1,8,0:0:0:0:
256,192,200024,1,8,0:0:0:0:
256,192,200209,1,0,0:0:0:0:
256,192,200394,1,8,0:0:0:0:
256,192,200765,1,8,0:0:0:0:
256,192,201506,1,0,0:0:0:0:
256,192,201876,1,4,0:0:0:0:
256,192,202246,1,0,0:0:0:0:
256,192,202432,1,8,0:0:0:0:
256,192,202617,1,8,0:0:0:0:
256,192,202802,1,8,0:0:0:0:
256,192,202987,1,8,0:0:0:0:
256,192,203172,1,0,0:0:0:0:
256,192,203357,1,8,0:0:0:0:
256,192,203728,1,8,0:0:0:0:
256,192,204469,1,8,0:0:0:0:
256,192,204654,1,4,0:0:0:0:
256,192,204839,1,4,0:0:0:0:
256,192,205209,1,4,0:0:0:0:
256,192,205580,1,0,0:0:0:0:
256,192,205765,1,8,0:0:0:0:
256,192,205950,1,8,0:0:0:0:
256,192,206135,1,0,0:0:0:0:
256,192,206320,1,8,0:0:0:0:
256,192,206691,1,8,0:0:0:0:
256,192,207432,1,0,0:0:0:0:
256,192,207802,1,4,0:0:0:0:
256,192,208172,1,0,0:0:0:0:
256,192,208357,1,8,0:0:0:0:
256,192,208543,1,8,0:0:0:0:
256,192,208728,1,8,0:0:0:0:
256,192,208913,1,8,0:0:0:0:
256,192,209098,1,0,0:0:0:0:
256,192,209283,1,8,0:0:0:0:
256,192,209654,1,8,0:0:0:0:
256,192,210394,1,8,0:0:0:0:
256,192,210580,1,4,0:0:0:0:
256,192,210765,1,4,0:0:0:0:
256,192,211135,1,0,0:0:0:0:
256,192,211320,1,8,0:0:0:0:
256,192,211506,1,8,0:0:0:0:
256,192,211691,1,8,0:0:0:0:
256,192,211876,1,8,0:0:0:0:
256,192,212061,1,0,0:0:0:0:
256,192,212246,12,0,213357,0:0:0:0:
256,192,213728,5,4,0:0:0:0:
