osu file format v14

[General]
AudioFilename: audio.mp3
AudioLeadIn: 0
PreviewTime: 187061
Countdown: 0
SampleSet: Normal
StackLeniency: 0.7
Mode: 1
LetterboxInBreaks: 0
WidescreenStoryboard: 1

[Editor]
Bookmarks: 12246,35950,71506,95209,142617,190024,213728
DistanceSpacing: 0.9
BeatDivisor: 4
GridSize: 32
TimelineZoom: 0.9999998

[Metadata]
Title:anticrystal
TitleUnicode:anticrystal
Artist:sakuraburst
ArtistUnicode:sakuraburst
Creator:Marm
Version:Cynp-zy's Muzukashii
Source:osu!
Tags:Cynplytholowazy -GN Junior featured artist fa mappers' guild mg EP experimental Instrumental Electronic Cynp-zy
BeatmapID:2232721
BeatmapSetID:1055189

[Difficulty]
HPDrainRate:5
CircleSize:10
OverallDifficulty:4.5
ApproachRate:10
SliderMultiplier:1.4
SliderTickRate:1

[Events]
//Background and Video events
0,0,"soap-bubble-1986657_1920.jpg",0,60
//Break Periods
//Storyboard Layer 0 (Background)
//Storyboard Layer 1 (Fail)
//Storyboard Layer 2 (Pass)
//Storyboard Layer 3 (Foreground)
//Storyboard Layer 4 (Overlay)
//Storyboard Sound Samples

[TimingPoints]
395,370.37037037037,4,1,0,50,1,0
12061,-100,4,1,0,60,0,0
23913,-100,4,1,0,65,0,0
29839,-100,4,1,0,70,0,0
35904,-100,4,1,0,85,0,0
47200,-100,4,1,0,100,0,0
47802,-100,4,1,0,100,0,1
59098,-100,4,1,0,100,0,0
59654,-100,4,1,0,100,0,1
71506,-100,4,1,0,100,0,0
72200,-100,4,1,0,50,0,0
83311,-100,4,1,0,80,0,0
95209,-100,4,1,0,80,0,1
106320,-100,4,1,0,80,0,0
107061,-100,4,1,0,80,0,1
118172,-100,4,1,0,80,0,0
121691,-100,4,1,0,80,0,1
142246,-100,4,1,0,80,0,0
142570,-100,4,1,0,50,0,0
166274,-100,4,1,0,70,0,0
166506,-100,4,1,0,25,0,0
187061,-100,4,1,0,40,0,0
187432,-100,4,1,0,50,0,0
187802,-100,4,1,0,60,0,0
188172,-100,4,1,0,70,0,0
188543,-100,4,1,0,80,0,0
190024,-100,4,1,0,100,0,1
212246,-100,4,1,0,80,0,0
213913,-100,4,1,0,50,0,0
214654,-100,4,1,0,40,0,0
215209,-100,4,1,0,30,0,0
215950,-100,4,1,0,20,0,0
216691,-100,4,1,0,10,0,0
217432,-100,4,1,0,5,0,0

[HitObjects]
256,192,395,5,0,0:0:0:0:
256,192,1135,1,2,0:0:0:0:
256,192,1506,1,2,0:0:0:0:
256,192,1876,1,0,0:0:0:0:
256,192,2246,1,2,0:0:0:0:
256,192,2617,1,2,0:0:0:0:
256,192,2987,1,2,0:0:0:0:
256,192,3357,1,0,0:0:0:0:
256,192,4098,1,2,0:0:0:0:
256,192,4469,1,2,0:0:0:0:
256,192,4839,1,0,0:0:0:0:
256,192,5209,1,2,0:0:0:0:
256,192,5580,1,2,0:0:0:0:
256,192,5950,1,2,0:0:0:0:
256,192,6320,1,0,0:0:0:0:
256,192,7061,1,2,0:0:0:0:
256,192,7432,1,2,0:0:0:0:
256,192,7802,1,0,0:0:0:0:
256,192,8172,1,2,0:0:0:0:
256,192,8543,1,2,0:0:0:0:
256,192,8913,1,2,0:0:0:0:
256,192,9283,1,0,0:0:0:0:
256,192,10024,1,2,0:0:0:0:
256,192,10394,1,2,0:0:0:0:
256,192,10765,1,0,0:0:0:0:
256,192,11135,1,2,0:0:0:0:
256,192,11506,1,2,0:0:0:0:
256,192,11876,1,2,0:0:0:0:
256,192,12246,1,4,0:0:0:0:
256,192,12617,1,0,0:0:0:0:
256,192,12987,1,2,0:0:0:0:
256,192,13357,1,0,0:0:0:0:
256,192,14098,1,2,0:0:0:0:
256,192,14469,1,2,0:0:0:0:
256,192,14839,1,0,0:0:0:0:
256,192,15209,1,4,0:0:0:0:
256,192,15580,1,2,0:0:0:0:
256,192,15950,1,2,0:0:0:0:
256,192,16320,1,0,0:0:0:0:
256,192,17061,1,2,0:0:0:0:
256,192,17432,1,2,0:0:0:0:
256,192,17802,1,0,0:0:0:0:
256,192,18172,1,4,0:0:0:0:
256,192,18543,1,2,0:0:0:0:
256,192,18913,1,2,0:0:0:0:
256,192,19283,1,0,0:0:0:0:
256,192,20024,1,2,0:0:0:0:
256,192,20394,1,2,0:0:0:0:
256,192,20765,1,0,0:0:0:0:
256,192,21135,1,4,0:0:0:0:
256,192,21506,1,2,0:0:0:0:
256,192,21876,1,2,0:0:0:0:
256,192,22246,1,0,0:0:0:0:
256,192,22987,1,2,0:0:0:0:
256,192,23357,1,2,0:0:0:0:
256,192,23728,1,0,0:0:0:0:
256,192,24098,1,4,0:0:0:0:
256,192,24469,1,0,0:0:0:0:
256,192,24839,1,2,0:0:0:0:
256,192,25209,1,0,0:0:0:0:
256,192,25950,1,2,0:0:0:0:
256,192,26320,1,2,0:0:0:0:
256,192,26691,1,0,0:0:0:0:
256,192,27061,1,4,0:0:0:0:
256,192,27432,1,2,0:0:0:0:
256,192,27802,1,2,0:0:0:0:
256,192,28172,1,0,0:0:0:0:
256,192,28913,1,2,0:0:0:0:
256,192,29283,1,2,0:0:0:0:
256,192,29654,1,0,0:0:0:0:
256,192,30024,1,4,0:0:0:0:
256,192,30394,1,2,0:0:0:0:
256,192,30765,1,2,0:0:0:0:
256,192,31135,1,0,0:0:0:0:
256,192,31876,1,2,0:0:0:0:
256,192,32246,1,2,0:0:0:0:
256,192,32617,1,0,0:0:0:0:
256,192,32987,1,4,0:0:0:0:
256,192,33357,1,2,0:0:0:0:
256,192,33728,1,2,0:0:0:0:
256,192,34098,1,0,0:0:0:0:
256,192,34839,1,2,0:0:0:0:
256,192,35209,1,2,0:0:0:0:
256,192,35580,1,0,0:0:0:0:
256,192,35950,1,0,0:0:0:0:
256,192,36506,1,0,0:0:0:0:
256,192,36598,1,0,0:0:0:0:
256,192,36691,1,2,0:0:0:0:
256,192,37061,1,0,0:0:0:0:
256,192,37246,1,2,0:0:0:0:
256,192,37432,1,0,0:0:0:0:
256,192,37987,1,0,0:0:0:0:
256,192,38080,1,0,0:0:0:0:
256,192,38172,1,2,0:0:0:0:
256,192,38543,1,0,0:0:0:0:
256,192,38728,1,2,0:0:0:0:
256,192,38913,1,0,0:0:0:0:
256,192,39469,1,0,0:0:0:0:
256,192,39654,1,2,0:0:0:0:
256,192,40024,1,0,0:0:0:0:
256,192,40209,1,2,0:0:0:0:
256,192,40394,1,0,0:0:0:0:
256,192,40950,1,0,0:0:0:0:
256,192,41135,1,0,0:0:0:0:
256,192,41320,1,2,0:0:0:0:
256,192,41876,1,0,0:0:0:0:
256,192,42432,1,0,0:0:0:0:
256,192,42524,1,0,0:0:0:0:
256,192,42617,1,2,0:0:0:0:
256,192,42987,1,0,0:0:0:0:
256,192,43172,1,2,0:0:0:0:
256,192,43357,1,0,0:0:0:0:
256,192,43913,1,0,0:0:0:0:
256,192,44006,1,0,0:0:0:0:
256,192,44098,1,2,0:0:0:0:
256,192,44469,1,0,0:0:0:0:
256,192,44654,1,2,0:0:0:0:
256,192,44839,1,0,0:0:0:0:
256,192,45394,1,0,0:0:0:0:
256,192,45580,1,2,0:0:0:0:
256,192,45950,1,0,0:0:0:0:
256,192,46135,1,2,0:0:0:0:
256,192,46320,1,0,0:0:0:0:
256,192,46876,1,2,0:0:0:0:
256,192,47061,1,0,0:0:0:0:
256,192,47246,1,2,0:0:0:0:
256,192,47802,1,4,0:0:0:0:
256,192,48357,1,2,0:0:0:0:
256,192,48543,1,0,0:0:0:0:
256,192,48728,1,2,0:0:0:0:
256,192,48820,1,2,0:0:0:0:
256,192,48913,1,2,0:0:0:0:
256,192,49098,1,0,0:0:0:0:
256,192,49469,1,0,0:0:0:0:
256,192,49839,1,0,0:0:0:0:
256,192,50024,1,2,0:0:0:0:
256,192,50394,1,0,0:0:0:0:
256,192,50580,1,2,0:0:0:0:
256,192,50765,1,0,0:0:0:0:
256,192,51320,1,0,0:0:0:0:
256,192,51506,1,2,0:0:0:0:
256,192,51691,1,0,0:0:0:0:
256,192,51876,1,0,0:0:0:0:
256,192,52061,1,2,0:0:0:0:
256,192,52246,1,2,0:0:0:0:
256,192,52432,1,0,0:0:0:0:
256,192,52617,1,0,0:0:0:0:
256,192,52802,1,0,0:0:0:0:
256,192,52894,1,0,0:0:0:0:
256,192,52987,1,0,0:0:0:0:
256,192,53172,1,2,0:0:0:0:
256,192,53728,1,0,0:0:0:0:
256,192,54283,1,0,0:0:0:0:
256,192,54376,1,0,0:0:0:0:
256,192,54469,1,2,0:0:0:0:
256,192,54839,1,0,0:0:0:0:
256,192,55024,1,2,0:0:0:0:
256,192,55209,1,0,0:0:0:0:
256,192,55765,1,0,0:0:0:0:
256,192,55857,1,0,0:0:0:0:
256,192,55950,1,2,0:0:0:0:
256,192,56320,1,0,0:0:0:0:
256,192,56506,1,2,0:0:0:0:
256,192,56691,1,0,0:0:0:0:
256,192,57246,1,0,0:0:0:0:
256,192,57432,1,2,0:0:0:0:
256,192,57802,1,0,0:0:0:0:
256,192,57987,1,2,0:0:0:0:
256,192,58172,1,0,0:0:0:0:
256,192,58728,1,2,0:0:0:0:
256,192,58913,1,0,0:0:0:0:
256,192,59098,1,2,0:0:0:0:
256,192,59654,1,4,0:0:0:0:
256,192,60209,1,2,0:0:0:0:
256,192,60394,1,0,0:0:0:0:
256,192,60580,1,2,0:0:0:0:
256,192,60672,1,2,0:0:0:0:
256,192,60765,1,2,0:0:0:0:
256,192,60950,1,0,0:0:0:0:
256,192,61320,1,0,0:0:0:0:
256,192,61691,1,0,0:0:0:0:
256,192,61876,1,2,0:0:0:0:
256,192,62246,1,0,0:0:0:0:
256,192,62432,1,2,0:0:0:0:
256,192,62617,1,0,0:0:0:0:
256,192,63172,1,0,0:0:0:0:
256,192,63357,1,2,0:0:0:0:
256,192,63543,1,0,0:0:0:0:
256,192,63728,1,0,0:0:0:0:
256,192,63913,1,2,0:0:0:0:
256,192,64098,1,2,0:0:0:0:
256,192,64283,1,0,0:0:0:0:
256,192,64469,1,0,0:0:0:0:
256,192,64654,1,0,0:0:0:0:
256,192,64746,1,0,0:0:0:0:
256,192,64839,1,0,0:0:0:0:
256,192,65024,1,2,0:0:0:0:
256,192,65580,1,0,0:0:0:0:
256,192,66135,1,0,0:0:0:0:
256,192,66228,1,0,0:0:0:0:
256,192,66320,1,2,0:0:0:0:
256,192,66691,1,0,0:0:0:0:
256,192,66876,1,2,0:0:0:0:
256,192,67061,1,0,0:0:0:0:
256,192,67617,1,0,0:0:0:0:
256,192,67709,1,0,0:0:0:0:
256,192,67802,1,2,0:0:0:0:
256,192,68172,1,0,0:0:0:0:
256,192,68357,1,2,0:0:0:0:
256,192,68543,1,0,0:0:0:0:
256,192,69098,1,0,0:0:0:0:
256,192,69283,1,2,0:0:0:0:
256,192,69654,1,0,0:0:0:0:
256,192,69839,1,2,0:0:0:0:
256,192,70024,1,0,0:0:0:0:
256,192,70580,1,0,0:0:0:0:
256,192,70765,1,0,0:0:0:0:
256,192,70950,1,2,0:0:0:0:
256,192,71506,1,4,0:0:0:0:
256,192,72246,1,2,0:0:0:0:
256,192,72987,1,2,0:0:0:0:
256,192,73728,1,2,0:0:0:0:
256,192,74469,1,0,0:0:0:0:
256,192,75209,1,2,0:0:0:0:
256,192,75950,1,0,0:0:0:0:
256,192,76691,1,2,0:0:0:0:
256,192,77432,1,0,0:0:0:0:
256,192,78172,1,2,0:0:0:0:
256,192,78913,1,0,0:0:0:0:
256,192,79654,1,0,0:0:0:0:
256,192,80394,1,2,0:0:0:0:
256,192,81135,1,0,0:0:0:0:
256,192,81876,1,2,0:0:0:0:
256,192,83357,1,4,0:0:0:0:
256,192,83913,1,2,0:0:0:0:
256,192,84098,1,2,0:0:0:0:
256,192,84469,1,2,0:0:0:0:
256,192,85024,1,2,0:0:0:0:
256,192,85209,1,2,0:0:0:0:
256,192,85580,1,2,0:0:0:0:
256,192,86320,1,2,0:0:0:0:
256,192,86876,1,2,0:0:0:0:
256,192,87061,1,2,0:0:0:0:
256,192,87432,1,2,0:0:0:0:
256,192,87987,1,2,0:0:0:0:
256,192,88172,1,2,0:0:0:0:
256,192,88543,1,2,0:0:0:0:
256,192,89283,1,2,0:0:0:0:
256,192,89839,1,2,0:0:0:0:
256,192,90024,1,2,0:0:0:0:
256,192,90394,1,2,0:0:0:0:
256,192,90950,1,2,0:0:0:0:
256,192,91135,1,2,0:0:0:0:
256,192,91506,1,2,0:0:0:0:
256,192,92246,1,4,0:0:0:0:
256,192,92987,1,2,0:0:0:0:
256,192,93728,1,0,0:0:0:0:
256,192,94469,1,6,0:0:0:0:
256,192,94839,1,2,0:0:0:0:
256,192,94932,1,2,0:0:0:0:
256,192,95024,1,2,0:0:0:0:
256,192,95209,1,4,0:0:0:0:
256,192,95765,1,0,0:0:0:0:
256,192,95950,1,2,0:0:0:0:
256,192,96135,1,2,0:0:0:0:
256,192,96228,1,2,0:0:0:0:
256,192,96320,1,2,0:0:0:0:
256,192,96506,1,0,0:0:0:0:
256,192,96876,1,2,0:0:0:0:
256,192,97061,1,0,0:0:0:0:
256,192,97432,1,2,0:0:0:0:
256,192,97617,1,2,0:0:0:0:
256,192,97709,1,2,0:0:0:0:
256,192,97802,1,2,0:0:0:0:
256,192,97987,1,0,0:0:0:0:
256,192,98543,1,0,0:0:0:0:
256,192,98728,1,0,0:0:0:0:
256,192,98913,1,2,0:0:0:0:
256,192,99098,1,2,0:0:0:0:
256,192,99191,1,2,0:0:0:0:
256,192,99283,1,2,0:0:0:0:
256,192,99469,1,0,0:0:0:0:
256,192,99654,1,0,0:0:0:0:
256,192,100024,1,0,0:0:0:0:
256,192,100394,1,2,0:0:0:0:
256,192,100580,1,0,0:0:0:0:
256,192,100672,1,0,0:0:0:0:
256,192,100765,1,2,0:0:0:0:
256,192,101135,1,4,0:0:0:0:
256,192,101691,1,0,0:0:0:0:
256,192,101876,1,2,0:0:0:0:
256,192,102061,1,2,0:0:0:0:
256,192,102154,1,2,0:0:0:0:
256,192,102246,1,2,0:0:0:0:
256,192,102432,1,0,0:0:0:0:
256,192,102802,1,2,0:0:0:0:
256,192,102987,1,0,0:0:0:0:
256,192,103357,1,2,0:0:0:0:
256,192,103543,1,2,0:0:0:0:
256,192,103635,1,2,0:0:0:0:
256,192,103728,1,2,0:0:0:0:
256,192,103913,1,0,0:0:0:0:
256,192,104469,1,0,0:0:0:0:
256,192,104654,1,0,0:0:0:0:
256,192,104839,1,2,0:0:0:0:
256,192,105024,1,2,0:0:0:0:
256,192,105117,1,2,0:0:0:0:
256,192,105209,1,2,0:0:0:0:
256,192,105394,1,0,0:0:0:0:
256,192,105580,1,0,0:0:0:0:
256,192,105950,1,0,0:0:0:0:
256,192,106320,1,6,0:0:0:0:
256,192,106876,1,2,0:0:0:0:
256,192,107061,1,4,0:0:0:0:
256,192,107617,1,0,0:0:0:0:
256,192,107802,1,2,0:0:0:0:
256,192,107987,1,2,0:0:0:0:
256,192,108080,1,2,0:0:0:0:
256,192,108172,1,2,0:0:0:0:
256,192,108357,1,0,0:0:0:0:
256,192,108728,1,2,0:0:0:0:
256,192,108913,1,0,0:0:0:0:
256,192,109283,1,2,0:0:0:0:
256,192,109469,1,2,0:0:0:0:
256,192,109561,1,2,0:0:0:0:
256,192,109654,1,2,0:0:0:0:
256,192,109839,1,0,0:0:0:0:
256,192,110394,1,0,0:0:0:0:
256,192,110580,1,0,0:0:0:0:
256,192,110765,1,2,0:0:0:0:
256,192,110950,1,2,0:0:0:0:
256,192,111043,1,2,0:0:0:0:
256,192,111135,1,2,0:0:0:0:
256,192,111320,1,0,0:0:0:0:
256,192,111506,1,0,0:0:0:0:
256,192,111876,1,0,0:0:0:0:
256,192,112246,1,2,0:0:0:0:
256,192,112432,1,0,0:0:0:0:
256,192,112524,1,0,0:0:0:0:
256,192,112617,1,2,0:0:0:0:
256,192,112987,1,4,0:0:0:0:
256,192,113543,1,0,0:0:0:0:
256,192,113728,1,2,0:0:0:0:
256,192,113913,1,2,0:0:0:0:
256,192,114006,1,2,0:0:0:0:
256,192,114098,1,2,0:0:0:0:
256,192,114283,1,0,0:0:0:0:
256,192,114654,1,2,0:0:0:0:
256,192,114839,1,0,0:0:0:0:
256,192,115209,1,2,0:0:0:0:
256,192,115394,1,2,0:0:0:0:
256,192,115487,1,2,0:0:0:0:
256,192,115580,1,2,0:0:0:0:
256,192,115765,1,0,0:0:0:0:
256,192,116320,1,0,0:0:0:0:
256,192,116506,1,0,0:0:0:0:
256,192,116691,1,2,0:0:0:0:
256,192,116876,1,2,0:0:0:0:
256,192,116969,1,2,0:0:0:0:
256,192,117061,1,2,0:0:0:0:
256,192,117246,1,0,0:0:0:0:
256,192,117432,1,0,0:0:0:0:
256,192,117802,1,0,0:0:0:0:
256,192,118172,1,6,0:0:0:0:
256,192,119283,1,2,0:0:0:0:
256,192,120024,1,2,0:0:0:0:
256,192,120765,1,2,0:0:0:0:
256,192,120950,1,0,0:0:0:0:
256,192,121135,1,2,0:0:0:0:
256,192,121506,1,2,0:0:0:0:
256,192,121691,1,4,0:0:0:0:
256,192,122246,1,0,0:0:0:0:
256,192,122617,1,2,0:0:0:0:
256,192,122802,1,0,0:0:0:0:
256,192,122894,1,0,0:0:0:0:
256,192,122987,1,2,0:0:0:0:
256,192,123172,1,0,0:0:0:0:
256,192,123357,1,0,0:0:0:0:
256,192,123728,1,2,0:0:0:0:
256,192,124098,1,2,0:0:0:0:
256,192,124283,1,0,0:0:0:0:
256,192,124469,1,2,0:0:0:0:
256,192,124561,1,2,0:0:0:0:
256,192,124654,1,2,0:0:0:0:
256,192,124839,1,0,0:0:0:0:
256,192,125209,1,2,0:0:0:0:
256,192,125580,1,0,0:0:0:0:
256,192,125765,1,0,0:0:0:0:
256,192,125857,1,0,0:0:0:0:
256,192,125950,1,2,0:0:0:0:
256,192,126135,1,0,0:0:0:0:
256,192,126691,1,2,0:0:0:0:
256,192,127061,1,0,0:0:0:0:
256,192,127246,1,2,0:0:0:0:
256,192,127339,1,2,0:0:0:0:
256,192,127432,1,2,0:0:0:0:
256,192,127617,1,0,0:0:0:0:
256,192,128172,1,2,0:0:0:0:
256,192,128543,1,0,0:0:0:0:
256,192,128728,1,0,0:0:0:0:
256,192,128820,1,0,0:0:0:0:
256,192,128913,1,2,0:0:0:0:
256,192,129098,1,0,0:0:0:0:
256,192,129283,1,0,0:0:0:0:
256,192,129654,1,2,0:0:0:0:
256,192,130024,1,0,0:0:0:0:
256,192,130209,1,2,0:0:0:0:
256,192,130394,1,2,0:0:0:0:
256,192,130580,1,0,0:0:0:0:
256,192,130765,1,2,0:0:0:0:
256,192,131135,1,0,0:0:0:0:
256,192,131506,1,2,0:0:0:0:
256,192,131691,1,0,0:0:0:0:
256,192,131783,1,0,0:0:0:0:
256,192,131876,1,2,0:0:0:0:
256,192,132061,1,0,0:0:0:0:
256,192,132617,1,2,0:0:0:0:
256,192,132987,1,0,0:0:0:0:
256,192,133172,1,2,0:0:0:0:
256,192,133265,1,2,0:0:0:0:
256,192,133357,1,2,0:0:0:0:
256,192,133543,1,0,0:0:0:0:
256,192,134098,1,2,0:0:0:0:
256,192,134283,1,0,0:0:0:0:
256,192,134469,1,0,0:0:0:0:
256,192,134654,1,2,0:0:0:0:
256,192,134746,1,2,0:0:0:0:
256,192,134839,1,2,0:0:0:0:
256,192,135024,1,0,0:0:0:0:
256,192,135209,1,0,0:0:0:0:
256,192,135580,1,2,0:0:0:0:
256,192,135950,1,2,0:0:0:0:
256,192,136135,1,0,0:0:0:0:
256,192,136228,1,0,0:0:0:0:
256,192,136320,1,2,0:0:0:0:
256,192,136506,1,0,0:0:0:0:
256,192,136691,1,0,0:0:0:0:
256,192,137061,1,2,0:0:0:0:
256,192,137432,1,0,0:0:0:0:
256,192,137617,1,0,0:0:0:0:
256,192,137709,1,0,0:0:0:0:
256,192,137802,1,2,0:0:0:0:
256,192,137987,1,0,0:0:0:0:
256,192,138543,1,2,0:0:0:0:
256,192,138913,1,0,0:0:0:0:
256,192,139098,1,2,0:0:0:0:
256,192,139191,1,2,0:0:0:0:
256,192,139283,1,2,0:0:0:0:
256,192,139469,1,0,0:0:0:0:
256,192,140024,1,2,0:0:0:0:
256,192,140394,1,0,0:0:0:0:
256,192,140580,1,0,0:0:0:0:
256,192,140672,1,0,0:0:0:0:
256,192,140765,1,2,0:0:0:0:
256,192,140950,1,0,0:0:0:0:
256,192,141135,1,0,0:0:0:0:
256,192,141506,1,2,0:0:0:0:
256,192,141691,1,0,0:0:0:0:
256,192,141876,1,0,0:0:0:0:
256,192,142246,1,6,0:0:0:0:
256,192,142617,1,4,0:0:0:0:
256,192,142987,1,0,0:0:0:0:
256,192,143357,1,2,0:0:0:0:
256,192,143728,1,0,0:0:0:0:
256,192,144469,1,2,0:0:0:0:
256,192,144839,1,2,0:0:0:0:
256,192,145209,1,0,0:0:0:0:
256,192,145580,1,4,0:0:0:0:
256,192,145950,1,2,0:0:0:0:
256,192,146320,1,2,0:0:0:0:
256,192,146691,1,0,0:0:0:0:
256,192,147432,1,2,0:0:0:0:
256,192,147802,1,2,0:0:0:0:
256,192,148172,1,0,0:0:0:0:
256,192,148543,1,4,0:0:0:0:
256,192,148913,1,2,0:0:0:0:
256,192,149283,1,2,0:0:0:0:
256,192,149654,1,0,0:0:0:0:
256,192,150394,1,2,0:0:0:0:
256,192,150765,1,2,0:0:0:0:
256,192,151135,1,0,0:0:0:0:
256,192,151506,1,4,0:0:0:0:
256,192,151876,1,2,0:0:0:0:
256,192,152246,1,2,0:0:0:0:
256,192,152617,1,0,0:0:0:0:
256,192,153357,1,2,0:0:0:0:
256,192,153728,1,2,0:0:0:0:
256,192,154098,1,0,0:0:0:0:
256,192,154469,1,4,0:0:0:0:
256,192,154839,1,0,0:0:0:0:
256,192,155209,1,2,0:0:0:0:
256,192,155580,1,0,0:0:0:0:
256,192,156320,1,2,0:0:0:0:
256,192,156691,1,2,0:0:0:0:
256,192,157061,1,0,0:0:0:0:
256,192,157432,1,4,0:0:0:0:
256,192,157802,1,2,0:0:0:0:
256,192,158172,1,2,0:0:0:0:
256,192,158543,1,0,0:0:0:0:
256,192,159283,1,2,0:0:0:0:
256,192,159654,1,2,0:0:0:0:
256,192,160024,1,0,0:0:0:0:
256,192,160394,1,4,0:0:0:0:
256,192,160765,1,0,0:0:0:0:
256,192,161135,1,2,0:0:0:0:
256,192,161506,1,2,0:0:0:0:
256,192,162246,1,0,0:0:0:0:
256,192,162617,1,2,0:0:0:0:
256,192,162987,1,2,0:0:0:0:
256,192,163357,1,4,0:0:0:0:
256,192,163728,1,0,0:0:0:0:
256,192,164098,1,2,0:0:0:0:
256,192,164469,1,2,0:0:0:0:
256,192,165209,1,2,0:0:0:0:
256,192,165580,1,2,0:0:0:0:
256,192,165950,1,2,0:0:0:0:
256,192,166320,1,4,0:0:0:0:
256,192,166691,8,0,170765,0:0:0:0:
256,192,172246,5,4,0:0:0:0:
256,192,172617,8,4,177802,0:0:0:0:
256,192,178172,5,4,0:0:0:0:
256,192,178543,8,0,183728,0:0:0:0:
256,192,184098,5,4,0:0:0:0:
256,192,184469,8,4,189654,0:0:0:0:
256,192,190024,5,4,0:0:0:0:
256,192,190394,1,2,0:0:0:0:
256,192,190487,1,2,0:0:0:0:
256,192,190580,1,2,0:0:0:0:
256,192,190765,1,2,0:0:0:0:
256,192,190950,1,2,0:0:0:0:
256,192,191043,1,2,0:0:0:0:
256,192,191135,1,2,0:0:0:0:
256,192,191320,1,0,0:0:0:0:
256,192,191506,1,2,0:0:0:0:
256,192,191876,1,2,0:0:0:0:
256,192,192617,1,0,0:0:0:0:
256,192,192802,1,0,0:0:0:0:
256,192,192987,1,4,0:0:0:0:
256,192,193357,1,0,0:0:0:0:
256,192,193728,1,2,0:0:0:0:
256,192,193821,1,2,0:0:0:0:
256,192,193914,1,2,0:0:0:0:
256,192,194099,1,2,0:0:0:0:
256,192,194284,1,2,0:0:0:0:
256,192,194377,1,2,0:0:0:0:
256,192,194469,1,2,0:0:0:0:
256,192,194839,1,2,0:0:0:0:
256,192,195950,1,4,0:0:0:0:
256,192,196320,1,2,0:0:0:0:
256,192,196413,1,2,0:0:0:0:
256,192,196506,1,2,0:0:0:0:
256,192,196691,1,2,0:0:0:0:
256,192,196876,1,2,0:0:0:0:
256,192,196969,1,2,0:0:0:0:
256,192,197061,1,2,0:0:0:0:
256,192,197246,1,0,0:0:0:0:
256,192,197432,1,2,0:0:0:0:
256,192,197802,1,2,0:0:0:0:
256,192,198543,1,0,0:0:0:0:
256,192,198728,1,0,0:0:0:0:
256,192,198913,1,4,0:0:0:0:
256,192,199283,1,0,0:0:0:0:
256,192,199654,1,2,0:0:0:0:
256,192,199747,1,2,0:0:0:0:
256,192,199840,1,2,0:0:0:0:
256,192,200025,1,2,0:0:0:0:
256,192,200210,1,2,0:0:0:0:
256,192,200303,1,2,0:0:0:0:
256,192,200395,1,2,0:0:0:0:
256,192,200765,1,2,0:0:0:0:
256,192,201876,1,4,0:0:0:0:
256,192,202246,1,2,0:0:0:0:
256,192,202339,1,2,0:0:0:0:
256,192,202432,1,2,0:0:0:0:
256,192,202617,1,2,0:0:0:0:
256,192,202802,1,2,0:0:0:0:
256,192,202895,1,2,0:0:0:0:
256,192,202987,1,2,0:0:0:0:
256,192,203172,1,0,0:0:0:0:
256,192,203358,1,2,0:0:0:0:
256,192,203728,1,2,0:0:0:0:
256,192,204469,1,0,0:0:0:0:
256,192,204654,1,0,0:0:0:0:
256,192,204839,1,4,0:0:0:0:
256,192,205209,1,0,0:0:0:0:
256,192,205580,1,2,0:0:0:0:
256,192,205673,1,2,0:0:0:0:
256,192,205766,1,2,0:0:0:0:
256,192,205951,1,2,0:0:0:0:
256,192,206136,1,2,0:0:0:0:
256,192,206229,1,2,0:0:0:0:
256,192,206321,1,2,0:0:0:0:
256,192,206691,1,2,0:0:0:0:
256,192,207802,1,4,0:0:0:0:
256,192,208172,1,2,0:0:0:0:
256,192,208265,1,2,0:0:0:0:
256,192,208358,1,2,0:0:0:0:
256,192,208543,1,2,0:0:0:0:
256,192,208728,1,2,0:0:0:0:
256,192,208821,1,2,0:0:0:0:
256,192,208913,1,2,0:0:0:0:
256,192,209098,1,0,0:0:0:0:
256,192,209284,1,2,0:0:0:0:
256,192,209654,1,2,0:0:0:0:
256,192,210395,1,0,0:0:0:0:
256,192,210580,1,0,0:0:0:0:
256,192,210765,1,4,0:0:0:0:
256,192,211135,1,0,0:0:0:0:
256,192,211506,1,2,0:0:0:0:
256,192,211599,1,2,0:0:0:0:
256,192,211692,1,2,0:0:0:0:
256,192,211877,1,2,0:0:0:0:
256,192,212062,1,2,0:0:0:0:
256,192,212155,1,2,0:0:0:0:
256,192,212247,1,2,0:0:0:0:
256,192,213728,1,4,0:0:0:0:
256,192,214098,12,4,222617,0:0:0:0:
