osu file format v14

[General]
AudioFilename: audio.mp3
AudioLeadIn: 0
PreviewTime: 187061
Countdown: 0
SampleSet: Normal
StackLeniency: 0.7
Mode: 1
LetterboxInBreaks: 0
WidescreenStoryboard: 1

[Editor]
Bookmarks: 12246,35950,71506,95209,142617,190024,213728
DistanceSpacing: 0.9
BeatDivisor: 4
GridSize: 32
TimelineZoom: 0.7999998

[Metadata]
Title:anticrystal
TitleUnicode:anticrystal
Artist:sakuraburst
ArtistUnicode:sakuraburst
Creator:Marm
Version:Cynp-zy's Kantan
Source:osu!
Tags:Cynplytholowazy -GN Junior featured artist fa mappers' guild mg EP experimental Instrumental Electronic Cynp-zy
BeatmapID:2294716
BeatmapSetID:1055189

[Difficulty]
HPDrainRate:7
CircleSize:10
OverallDifficulty:3
ApproachRate:10
SliderMultiplier:1.4
SliderTickRate:1

[Events]
//Background and Video events
0,0,"soap-bubble-1986657_1920.jpg",0,60
//Break Periods
//Storyboard Layer 0 (Background)
//Storyboard Layer 1 (Fail)
//Storyboard Layer 2 (Pass)
//Storyboard Layer 3 (Foreground)
//Storyboard Layer 4 (Overlay)
//Storyboard Sound Samples

[TimingPoints]
395,370.37037037037,4,1,0,50,1,0
11876,-100,4,1,0,60,0,0
23357,-100,4,1,0,65,0,0
30024,-100,4,1,0,70,0,0
35904,-100,4,1,0,85,0,0
47200,-100,4,1,0,100,0,0
47802,-100,4,1,0,100,0,1
59098,-100,4,1,0,100,0,0
59654,-100,4,1,0,100,0,1
71506,-100,4,1,0,100,0,0
71876,-100,4,1,0,25,0,0
82987,-100,4,1,0,80,0,0
95209,-100,4,1,0,80,0,1
106320,-100,4,1,0,80,0,0
107061,-100,4,1,0,80,0,1
118172,-100,4,1,0,80,0,0
121691,-100,4,1,0,80,0,1
142246,-100,4,1,0,80,0,0
142570,-100,4,1,0,50,0,0
166274,-100,4,1,0,70,0,0
166691,-100,4,1,0,25,0,0
186691,-100,4,1,0,40,0,0
187432,-100,4,1,0,50,0,0
187802,-100,4,1,0,60,0,0
188172,-100,4,1,0,70,0,0
188543,-100,4,1,0,80,0,0
190024,-100,4,1,0,100,0,1
212246,-100,4,1,0,80,0,0
213913,-100,4,1,0,50,0,0
214654,-100,4,1,0,40,0,0
215209,-100,4,1,0,30,0,0
215950,-100,4,1,0,20,0,0
216691,-100,4,1,0,10,0,0
217432,-100,4,1,0,5,0,0

[HitObjects]
256,192,395,6,0,L|416:192,14,140
256,192,6320,2,0,L|416:192,14,140
256,192,12246,2,0,L|416:192,14,140
256,192,18172,2,0,L|416:192,14,140
256,192,24098,2,0,L|416:192,14,140
256,192,30024,2,0,L|416:192,14,140
256,192,35950,5,0,0:0:0:0:
256,192,36691,1,2,0:0:0:0:
256,192,37432,1,0,0:0:0:0:
256,192,38172,1,2,0:0:0:0:
256,192,38913,1,0,0:0:0:0:
256,192,39654,1,2,0:0:0:0:
256,192,40394,1,0,0:0:0:0:
256,192,41876,1,0,0:0:0:0:
256,192,42617,1,2,0:0:0:0:
256,192,43357,1,0,0:0:0:0:
256,192,44098,1,2,0:0:0:0:
256,192,44839,1,0,0:0:0:0:
256,192,45580,1,2,0:0:0:0:
256,192,46320,1,0,0:0:0:0:
256,192,47802,1,4,0:0:0:0:
256,192,48543,1,2,0:0:0:0:
256,192,48913,1,0,0:0:0:0:
256,192,50024,1,0,0:0:0:0:
256,192,50394,1,2,0:0:0:0:
256,192,50765,1,0,0:0:0:0:
256,192,51506,1,2,0:0:0:0:
256,192,51876,1,2,0:0:0:0:
256,192,52246,1,0,0:0:0:0:
256,192,53357,1,0,0:0:0:0:
256,192,53728,1,2,0:0:0:0:
256,192,54469,1,2,0:0:0:0:
256,192,54839,1,0,0:0:0:0:
256,192,55209,1,0,0:0:0:0:
256,192,55950,1,2,0:0:0:0:
256,192,56691,1,0,0:0:0:0:
256,192,57432,1,0,0:0:0:0:
256,192,57802,1,2,0:0:0:0:
256,192,58172,1,0,0:0:0:0:
256,192,59654,1,4,0:0:0:0:
256,192,60395,1,2,0:0:0:0:
256,192,60765,1,0,0:0:0:0:
256,192,61876,1,0,0:0:0:0:
256,192,62246,1,2,0:0:0:0:
256,192,62617,1,0,0:0:0:0:
256,192,63358,1,2,0:0:0:0:
256,192,63728,1,2,0:0:0:0:
256,192,64098,1,0,0:0:0:0:
256,192,65209,1,0,0:0:0:0:
256,192,65580,1,2,0:0:0:0:
256,192,66321,1,2,0:0:0:0:
256,192,66691,1,0,0:0:0:0:
256,192,67061,1,0,0:0:0:0:
256,192,67802,1,2,0:0:0:0:
256,192,68543,1,0,0:0:0:0:
256,192,69284,1,0,0:0:0:0:
256,192,69654,1,2,0:0:0:0:
256,192,70024,1,0,0:0:0:0:
256,192,71506,1,6,0:0:0:0:
256,192,72246,8,0,81876,0:0:0:0:
256,192,83357,5,4,0:0:0:0:
256,192,84098,1,0,0:0:0:0:
256,192,84469,1,0,0:0:0:0:
256,192,85580,1,2,0:0:0:0:
256,192,86320,1,0,0:0:0:0:
256,192,87061,1,0,0:0:0:0:
256,192,87432,1,0,0:0:0:0:
256,192,88543,1,2,0:0:0:0:
256,192,89283,1,0,0:0:0:0:
256,192,90024,1,0,0:0:0:0:
256,192,90394,1,0,0:0:0:0:
256,192,91506,1,2,0:0:0:0:
256,192,92246,1,4,0:0:0:0:
256,192,94469,1,2,0:0:0:0:
256,192,95209,1,4,0:0:0:0:
256,192,95950,1,2,0:0:0:0:
256,192,96506,1,0,0:0:0:0:
256,192,97432,1,2,0:0:0:0:
256,192,97987,1,0,0:0:0:0:
256,192,98913,1,2,0:0:0:0:
256,192,99654,1,0,0:0:0:0:
256,192,100394,1,2,0:0:0:0:
256,192,100765,1,2,0:0:0:0:
256,192,101135,1,4,0:0:0:0:
256,192,101876,1,2,0:0:0:0:
256,192,102432,1,0,0:0:0:0:
256,192,103357,1,2,0:0:0:0:
256,192,103913,1,0,0:0:0:0:
256,192,104839,1,2,0:0:0:0:
256,192,105580,1,0,0:0:0:0:
256,192,106320,1,6,0:0:0:0:
256,192,107061,1,4,0:0:0:0:
256,192,107802,1,2,0:0:0:0:
256,192,108357,1,0,0:0:0:0:
256,192,109283,1,2,0:0:0:0:
256,192,109839,1,0,0:0:0:0:
256,192,110765,1,2,0:0:0:0:
256,192,111506,1,0,0:0:0:0:
256,192,112246,1,2,0:0:0:0:
256,192,112617,1,2,0:0:0:0:
256,192,112987,1,4,0:0:0:0:
256,192,113728,1,2,0:0:0:0:
256,192,114283,1,0,0:0:0:0:
256,192,115209,1,2,0:0:0:0:
256,192,115765,1,0,0:0:0:0:
256,192,116691,1,2,0:0:0:0:
256,192,117432,1,0,0:0:0:0:
256,192,118172,1,6,0:0:0:0:
256,192,120765,1,2,0:0:0:0:
256,192,121135,1,0,0:0:0:0:
256,192,121506,1,2,0:0:0:0:
256,192,122246,1,0,0:0:0:0:
256,192,122617,1,2,0:0:0:0:
256,192,123357,1,0,0:0:0:0:
256,192,124098,1,2,0:0:0:0:
256,192,124839,1,0,0:0:0:0:
256,192,125580,1,2,0:0:0:0:
256,192,126135,1,0,0:0:0:0:
256,192,127061,1,0,0:0:0:0:
256,192,127432,1,2,0:0:0:0:
256,192,128172,1,0,0:0:0:0:
256,192,128543,1,0,0:0:0:0:
256,192,128913,1,2,0:0:0:0:
256,192,129283,1,0,0:0:0:0:
256,192,130024,1,2,0:0:0:0:
256,192,130394,1,2,0:0:0:0:
256,192,130765,1,0,0:0:0:0:
256,192,131506,1,2,0:0:0:0:
256,192,132061,1,0,0:0:0:0:
256,192,132987,1,2,0:0:0:0:
256,192,133543,1,0,0:0:0:0:
256,192,134469,1,2,0:0:0:0:
256,192,134839,1,2,0:0:0:0:
256,192,135209,1,0,0:0:0:0:
256,192,135950,1,2,0:0:0:0:
256,192,136320,1,2,0:0:0:0:
256,192,136691,1,0,0:0:0:0:
256,192,137432,1,2,0:0:0:0:
256,192,137987,1,0,0:0:0:0:
256,192,138913,1,2,0:0:0:0:
256,192,139469,1,0,0:0:0:0:
256,192,140394,1,2,0:0:0:0:
256,192,140765,1,2,0:0:0:0:
256,192,141135,1,0,0:0:0:0:
256,192,141876,1,2,0:0:0:0:
256,192,142246,1,6,0:0:0:0:
256,192,142617,2,0,L|416:192,14,140
256,192,148543,2,0,L|416:192,14,140
256,192,154469,2,0,L|416:192,14,140
256,192,160394,2,0,L|416:192,14,140
256,192,166320,5,4,0:0:0:0:
256,192,167061,8,0,170765,0:0:0:0:
256,192,172246,5,4,0:0:0:0:
256,192,172987,8,0,176691,0:0:0:0:
256,192,178172,5,4,0:0:0:0:
256,192,178913,8,0,185580,0:0:0:0:
256,192,187061,8,0,189283,0:0:0:0:
256,192,190024,5,4,0:0:0:0:
256,192,190394,1,2,0:0:0:0:
256,192,190765,1,2,0:0:0:0:
256,192,191135,1,2,0:0:0:0:
256,192,191506,1,0,0:0:0:0:
256,192,192617,1,0,0:0:0:0:
256,192,192987,1,0,0:0:0:0:
256,192,193357,1,2,0:0:0:0:
256,192,193728,1,2,0:0:0:0:
256,192,194099,1,2,0:0:0:0:
256,192,194469,1,0,0:0:0:0:
256,192,195950,1,4,0:0:0:0:
256,192,196320,1,2,0:0:0:0:
256,192,196691,1,2,0:0:0:0:
256,192,197061,1,2,0:0:0:0:
256,192,197432,1,0,0:0:0:0:
256,192,198543,1,0,0:0:0:0:
256,192,198913,1,0,0:0:0:0:
256,192,199283,1,2,0:0:0:0:
256,192,199654,1,2,0:0:0:0:
256,192,200025,1,2,0:0:0:0:
256,192,200395,1,0,0:0:0:0:
256,192,201876,1,4,0:0:0:0:
256,192,202246,1,2,0:0:0:0:
256,192,202617,1,2,0:0:0:0:
256,192,202987,1,2,0:0:0:0:
256,192,203358,1,0,0:0:0:0:
256,192,204469,1,0,0:0:0:0:
256,192,204839,1,0,0:0:0:0:
256,192,205209,1,2,0:0:0:0:
256,192,205580,1,2,0:0:0:0:
256,192,205951,1,2,0:0:0:0:
256,192,206321,1,0,0:0:0:0:
256,192,207802,1,4,0:0:0:0:
256,192,208172,1,2,0:0:0:0:
256,192,208543,1,2,0:0:0:0:
256,192,208913,1,2,0:0:0:0:
256,192,209284,1,0,0:0:0:0:
256,192,210395,1,0,0:0:0:0:
256,192,210765,1,0,0:0:0:0:
256,192,211135,1,2,0:0:0:0:
256,192,211506,1,2,0:0:0:0:
256,192,211877,1,2,0:0:0:0:
256,192,212247,1,0,0:0:0:0:
256,192,213728,1,4,0:0:0:0:
256,192,214098,12,4,222617,0:0:0:0:
